osu file format v14

[General]
AudioFilename: audio.mp3
AudioLeadIn: 0
PreviewTime: 68026
Countdown: 0
SampleSet: Soft
StackLeniency: 0.5
Mode: 0
LetterboxInBreaks: 0
WidescreenStoryboard: 1

[Editor]
DistanceSpacing: 1.2
BeatDivisor: 4
GridSize: 4
TimelineZoom: 1

[Metadata]
Title:Koisuru Kirigirisu (Short Ver.)
TitleUnicode:恋するキリギリス (Short Ver.)
Artist:yuki
ArtistUnicode:yuki
Creator:Misure
Version:wyrio's Hard
Source:白昼夢の青写真
Tags:wyrio Kuse KuBsNia_ZhoYL_ Affirmation Neoskylove Koiyuki Minakami Yuki mtbbsben Laplacian Hakuchuumu no Aojashin The girl who's whos called the world momo 緒乃ワサビ case3 visual novel vn eroge op opening short version japanese pop video game
BeatmapID:2720851
BeatmapSetID:1298234

[Difficulty]
HPDrainRate:4
CircleSize:3.5
OverallDifficulty:5.8
ApproachRate:7.6
SliderMultiplier:1.3
SliderTickRate:1

[Events]
//Background and Video events
0,0,"bg.jpg",0,0
Video,-90,"video.flv"
//Break Periods
//Storyboard Layer 0 (Background)
//Storyboard Layer 1 (Fail)
//Storyboard Layer 2 (Pass)
//Storyboard Layer 3 (Foreground)
//Storyboard Layer 4 (Overlay)
//Storyboard Sound Samples

[TimingPoints]
8990,422.535211267606,4,2,1,45,1,0
10680,-133.333333333333,4,2,1,45,0,0
11947,-100,4,2,1,45,0,0
14060,-133.333333333333,4,2,1,45,0,0
14905,-100,4,2,1,45,0,0
15737,422.535211267606,4,2,1,55,1,0
15737,-83.3333333333333,4,2,1,55,0,0
20807,-83.3333333333333,4,2,1,50,0,0
21441,-83.3333333333333,4,2,1,65,0,0
21652,-83.3333333333333,4,2,1,70,0,0
21863,-83.3333333333333,4,2,1,75,0,0
22075,-83.3333333333333,4,2,1,40,0,0
22498,-83.3333333333333,4,2,1,70,0,0
36018,-83.3333333333333,4,2,1,60,0,0
61159,-83.3333333333333,4,2,1,50,0,0
64539,-76.9230769230769,4,2,1,60,0,0
65173,-76.9230769230769,4,2,1,65,0,0
66229,-71.4285714285714,4,2,1,70,0,0
67075,-100,4,2,1,75,0,0
67708,-100,4,2,1,60,0,0
68131,-76.9230769230769,4,2,1,75,0,1
81229,-76.9230769230769,4,2,1,75,0,0
81652,-76.9230769230769,4,2,1,75,0,1
95173,-76.9230769230769,4,2,1,50,0,0
95596,-100,4,2,1,45,0,0
96018,-100,4,2,1,40,0,0
96441,-100,4,2,1,35,0,0
96863,-200,4,2,1,45,0,0
97286,-66.6666666666667,4,2,1,15,0,0

[Colours]
Combo1 : 4,253,179
Combo2 : 87,203,253
Combo3 : 253,134,232
Combo4 : 137,137,197

[HitObjects]
94,150,8989,6,0,P|59:124|64:134,1,195,2|0,0:0|0:0,0:0:0:0:
20,196,9835,2,0,P|74:225|197:163,1,195,2|0,0:0|0:0,0:0:0:0:
218,102,10680,2,0,P|251:68|387:82,1,195.00000743866,2|0,0:0|0:0,0:0:0:0:
353,233,11947,2,0,P|381:245|422:248,1,65,0|0,0:0|0:0,0:0:0:0:
490,221,12370,6,0,B|473:179|464:107|464:107|454:157|402:173,1,195,2|0,0:0|0:0,0:0:0:0:
415,248,13215,2,0,P|378:281|236:276,1,195,2|0,0:0|0:0,0:0:0:0:
220,201,14060,2,0,P|150:161|70:182,1,146.250005578995,2|0,0:0|0:0,0:0:0:0:
35,236,14905,2,0,L|25:94,1,130,2|0,0:0|0:0,0:0:0:0:
135,297,15737,6,0,L|214:306,1,77.999997619629,2|0,3:2|0:0,0:0:0:0:
281,242,16159,2,0,L|285:159,1,77.999997619629,0|0,3:0|0:0,0:0:0:0:
223,90,16582,2,0,L|137:82,1,77.999997619629,2|0,3:2|0:0,0:0:0:0:
74,144,17004,2,0,L|67:233,1,77.999997619629,0|0,3:0|0:0,0:0:0:0:
88,314,17427,5,2,3:2:0:0:
88,314,17638,1,0,0:0:0:0:
168,361,17849,2,0,P|223:347|249:342,1,77.999997619629,0|0,3:0|0:0,0:0:0:0:
335,364,18272,2,0,L|354:219,1,116.999996429443,2|0,3:2|0:0,0:0:0:0:
394,233,18694,2,0,L|381:144,1,77.999997619629,0|0,3:0|0:0,0:0:0:0:
299,112,19117,6,0,P|339:70|433:70,1,155.999995239258,2|0,3:2|3:0,0:0:0:0:
473,153,19751,1,0,0:0:0:0:
378,291,19962,2,0,P|296:288|233:154,1,233.999992858887,2|0,3:2|0:0,0:0:0:0:
299,112,20807,1,2,0:0:0:0:
256,192,20913,12,8,22075,3:2:0:0:
317,115,22497,5,6,0:0:0:0:
317,115,22708,1,2,0:0:0:0:
400,72,22920,2,0,P|401:124|413:177,1,77.999997619629,0|2,1:0|0:0,0:0:0:0:
462,223,23342,2,0,L|286:251,1,155.999995239258,0|0,3:0|1:0,0:0:0:0:
246,318,23976,1,2,0:0:0:0:
155,294,24187,6,0,P|137:231|143:201,1,77.999997619629,0|2,3:0|0:0,0:0:0:0:
231,232,24610,2,0,P|254:184|276:169,1,77.999997619629,0|2,1:0|0:0,0:0:0:0:
337,251,25032,1,0,3:0:0:0:
337,251,25138,1,0,3:0:0:0:
337,251,25244,1,8,0:1:0:0:
274,320,25455,2,0,P|227:308|184:301,1,77.999997619629,8|2,1:0|0:0,0:0:0:0:
166,326,25772,1,2,0:0:0:0:
166,326,25877,6,0,P|130:277|153:166,1,155.999995239258,0|0,3:0|1:0,0:0:0:0:
90,104,26511,1,2,0:0:0:0:
181,58,26722,2,0,B|276:32|241:95|339:65,1,155.999995239258,0|0,3:0|1:0,0:0:0:0:
409,15,27356,1,2,0:0:0:0:
425,107,27567,6,0,P|383:161|411:252,1,155.999995239258,0|0,3:0|1:0,0:0:0:0:
483,186,28201,1,2,0:0:0:0:
495,279,28413,1,0,3:0:0:0:
495,279,28518,1,0,1:0:0:0:
495,279,28624,1,0,3:0:0:0:
427,337,28835,2,0,L|323:319,1,77.999997619629,0|0,1:0|0:0,0:0:0:0:
305,247,29258,5,6,0:0:0:0:
305,247,29469,1,2,0:0:0:0:
232,306,29680,2,0,P|171:299|143:292,1,77.999997619629,0|2,1:0|0:0,0:0:0:0:
120,207,30103,2,0,P|64:247|81:343,1,155.999995239258,0|0,3:0|1:0,0:0:0:0:
141,384,30737,1,2,0:0:0:0:
154,295,30948,6,0,P|205:286|236:283,1,77.999997619629,0|2,3:0|0:0,0:0:0:0:
275,201,31370,2,0,P|321:217|364:225,1,77.999997619629,0|2,1:0|0:0,0:0:0:0:
421,298,31793,1,0,3:0:0:0:
421,298,31898,1,0,3:0:0:0:
421,298,32004,1,8,0:1:0:0:
511,274,32215,2,0,L|496:369,1,77.999997619629,8|2,1:0|0:0,0:0:0:0:
421,298,32638,6,0,L|449:116,1,155.999995239258,0|0,3:0|1:0,0:0:0:0:
371,85,33272,1,2,0:0:0:0:
286,127,33483,2,0,P|242:214|167:208,1,155.999995239258,0|0,3:0|1:0,0:0:0:0:
116,162,34117,1,2,0:0:0:0:
127,68,34328,6,0,P|187:75|252:69,1,116.999996429443,0|0,3:0|0:0,0:0:0:0:
277,37,34751,2,0,P|272:77|278:105,3,38.9999988098145,0|8|8|0,1:0|3:0|3:0|3:0,0:0:0:0:
314,94,35173,2,0,P|324:142|323:156,2,38.9999988098145,4|4|0,3:0|3:0|3:0,0:0:0:0:
370,25,35596,2,0,P|400:20|421:22,3,38.9999988098145,0|0|8|8,1:0|1:0|0:0|0:0,0:0:0:0:
440,54,36018,5,4,3:2:0:0:
482,137,36229,2,0,L|465:234,2,77.999997619629,0|0|0,0:0|1:0|0:0,0:0:0:0:
440,54,36863,2,0,P|381:45|335:108,2,116.999996429443,8|8|0,3:2|3:2|1:0,0:0:0:0:
482,137,37708,6,0,L|468:225,1,77.999997619629,2|0,0:0|3:0,0:0:0:0:
487,262,38025,1,0,0:0:0:0:
487,262,38131,2,0,P|440:282|385:270,1,77.999997619629,0|0,3:0|0:0,0:0:0:0:
366,200,38553,2,0,P|318:200|280:215,1,77.999997619629,0|0,3:0|1:0,0:0:0:0:
218,270,38976,1,0,0:0:0:0:
172,198,39187,1,0,3:0:0:0:
172,198,39293,1,0,3:0:0:0:
172,198,39398,6,0,L|158:98,1,77.999997619629,0|0,3:0|0:0,0:0:0:0:
161,77,39715,1,0,0:0:0:0:
161,77,39821,2,0,P|210:54|260:57,1,77.999997619629,0|0,1:0|0:0,0:0:0:0:
315,8,40244,2,0,P|352:33|430:52,1,116.999996429443,8|8,3:2|3:2,0:0:0:0:
491,173,40877,6,0,B|391:177|457:231|319:230,1,155.999995239258,2|0,1:2|3:0,0:0:0:0:
314,315,41511,2,0,P|261:285|228:281,1,77.999997619629,0|0,3:0|0:0,0:0:0:0:
239,193,41934,2,0,L|247:106,1,77.999997619629,0|0,3:0|1:0,0:0:0:0:
250,21,42356,1,0,0:0:0:0:
168,56,42567,1,0,3:0:0:0:
168,56,42673,1,0,3:0:0:0:
168,56,42779,6,0,L|155:142,1,77.999997619629,0|0,3:0|0:0,0:0:0:0:
131,172,43096,1,0,0:0:0:0:
131,172,43201,2,0,P|71:188|37:174,1,77.999997619629,0|0,1:0|0:0,0:0:0:0:
4,116,43624,2,0,B|-10:56|-10:56|18:-10,2,116.999996429443,8|8|0,3:2|3:2|1:0,0:0:0:0:
84,66,44469,6,0,P|139:70|164:76,1,77.999997619629,2|0,0:0|3:0,0:0:0:0:
192,41,44786,1,0,0:0:0:0:
192,41,44891,2,0,P|176:101|169:147,1,77.999997619629,0|0,3:0|0:0,0:0:0:0:
87,155,45314,2,0,L|97:249,1,77.999997619629,0|0,3:0|1:0,0:0:0:0:
172,285,45737,1,0,0:0:0:0:
255,232,45948,1,0,3:0:0:0:
255,232,46053,1,0,3:0:0:0:
255,232,46159,6,0,L|266:324,1,77.999997619629,0|0,3:0|0:0,0:0:0:0:
356,290,46582,2,0,L|343:197,1,77.999997619629,0|0,1:0|0:0,0:0:0:0:
381,126,47004,2,0,P|315:94|256:116,1,116.999996429443,8|8,3:2|3:2,0:0:0:0:
163,17,47638,6,0,B|173:78|173:78|161:129|161:129|174:192,1,155.999995239258,2|0,1:2|3:0,0:0:0:0:
120,250,48272,2,0,P|168:264|209:256,1,77.999997619629,0|0,3:0|0:0,0:0:0:0:
285,236,48694,2,0,L|299:337,2,77.999997619629,0|0|0,3:0|1:0|0:0,0:0:0:0:
369,190,49328,1,0,3:0:0:0:
369,190,49434,1,0,3:0:0:0:
369,190,49539,6,0,P|428:206|486:121,1,155.999995239258,6|0,3:2|1:0,0:0:0:0:
403,99,50173,2,0,P|394:58|399:36,1,38.9999988098145,2|2,0:0|0:0,0:0:0:0:
429,31,50384,2,0,L|308:18,2,116.999996429443,2|2|2,3:1|3:1|1:0,0:0:0:0:
283,150,51441,5,0,3:0:0:0:
283,150,51652,1,0,3:0:0:0:
364,196,51863,2,0,B|400:231|400:231|411:271|388:350,1,155.999995239258,0|0,3:0|1:0,0:0:0:0:
299,320,52497,2,0,P|251:303|216:299,1,77.999997619629,0|0,0:0|3:0,0:0:0:0:
201,340,52814,1,0,3:0:0:0:
201,340,52920,6,0,P|131:354|106:346,1,77.999997619629,2|0,3:2|0:0,0:0:0:0:
42,310,53342,2,0,P|61:240|61:218,1,77.999997619629,0|2,1:0|0:0,0:0:0:0:
137,180,53765,2,0,L|114:40,2,116.999996429443,2|2|2,3:1|3:1|1:0,0:0:0:0:
293,77,54821,5,0,3:0:0:0:
293,77,55032,1,0,3:0:0:0:
220,17,55244,2,0,P|176:78|219:173,1,155.999995239258,0|0,3:0|1:0,0:0:0:0:
271,203,55877,2,0,L|355:192,1,77.999997619629,0|0,0:0|3:0,0:0:0:0:
383,162,56194,1,0,3:0:0:0:
383,162,56300,6,0,P|395:214|398:263,1,77.999997619629,2|0,3:2|0:0,0:0:0:0:
490,241,56722,2,0,P|480:308|473:335,1,77.999997619629,0|2,1:0|0:0,0:0:0:0:
395,363,57145,2,0,P|330:353|271:335,2,116.999996429443,2|2|2,3:1|3:1|1:0,0:0:0:0:
264,228,58201,5,0,3:0:0:0:
264,228,58413,1,0,3:0:0:0:
173,203,58624,2,0,B|165:153|165:153|171:107|171:107|158:26,1,155.999995239258,0|0,3:0|1:0,0:0:0:0:
248,13,59258,2,0,L|335:21,1,77.999997619629,0|0,0:0|3:0,0:0:0:0:
347,67,59575,1,0,3:0:0:0:
347,67,59680,6,0,P|388:60|433:58,1,77.999997619629,0|0,3:0|0:0,0:0:0:0:
490,124,60103,2,0,L|480:219,1,77.999997619629,8|8,3:0|3:0,0:0:0:0:
497,245,60420,1,0,0:0:0:0:
497,245,60525,2,0,P|460:270|444:272,3,38.9999988098145,0|0|4|4,3:0|3:0|3:0|3:0,0:0:0:0:
418,264,60948,1,0,3:0:0:0:
349,327,61159,6,0,P|279:285|195:332,1,155.999995239258,4|0,1:2|0:0,0:0:0:0:
174,222,61793,2,0,P|110:234|79:226,1,77.999997619629,0|0,3:0|0:0,0:0:0:0:
58,147,62215,2,0,L|76:65,1,77.999997619629,8|0,3:0|0:0,0:0:0:0:
162,36,62638,2,0,P|209:57|253:56,1,77.999997619629,0|0,1:0|0:0,0:0:0:0:
314,9,63060,6,0,L|398:-4,1,77.999997619629,0|0,3:0|0:0,0:0:0:0:
468,50,63483,2,0,L|485:145,1,77.999997619629,0|0,3:0|0:0,0:0:0:0:
418,196,63906,2,0,P|456:238|486:241,2,77.999997619629,0|0|0,3:0|0:0|1:0,0:0:0:0:
395,97,64539,6,0,B|305:74|349:154|210:126,1,168.999992263794,6|0,0:0|0:0,0:0:0:0:
129,109,65173,2,0,L|141:207,1,84.4999961318971,0|0,3:0|0:0,0:0:0:0:
103,288,65596,1,0,3:0:0:0:
103,288,65807,1,0,0:0:0:0:
193,333,66018,1,0,1:0:0:0:
242,235,66229,6,0,P|315:216|398:216,1,136.499995834351,0|0,3:0|0:0,0:0:0:0:
440,270,66652,6,0,P|424:163|426:94,1,136.499995834351,0|0,3:0|0:0,0:0:0:0:
488,84,67075,6,2,P|435:109|292:69,1,195,0|8,3:0|3:2,0:0:0:0:
46,160,68131,6,0,L|48:284,1,84.4999961318971,6|2,0:0|0:0,0:0:0:0:
114,320,68553,2,0,L|221:312,1,84.4999961318971,0|2,1:0|0:0,0:0:0:0:
256,235,68976,2,0,L|247:124,1,84.4999961318971,0|2,3:0|0:0,0:0:0:0:
186,71,69398,2,0,L|85:76,1,84.4999961318971,0|2,1:0|0:0,0:0:0:0:
37,154,69821,5,0,3:0:0:0:
40,255,70032,1,2,0:0:0:0:
137,285,70244,2,0,L|232:265,1,84.4999961318971,0|2,1:0|0:0,0:0:0:0:
267,356,70666,1,0,3:0:0:0:
267,356,70772,1,0,3:0:0:0:
267,356,70877,1,8,0:1:0:0:
219,267,71089,2,0,L|226:176,1,84.4999961318971,8|2,1:0|0:0,0:0:0:0:
180,91,71511,6,0,P|276:94|325:172,1,168.999992263794,0|0,3:0|1:0,0:0:0:0:
377,229,72145,1,2,0:0:0:0:
399,327,72356,2,0,P|454:297|469:265,1,84.4999961318971,0|2,3:0|0:0,0:0:0:0:
508,188,72779,2,0,L|492:96,1,84.4999961318971,0|2,1:0|0:0,0:0:0:0:
418,36,73201,6,0,B|319:19|369:108|233:79,1,168.999992263794,0|0,3:0|1:0,0:0:0:0:
176,32,73835,1,2,0:0:0:0:
81,69,74046,1,0,3:0:0:0:
81,69,74152,1,0,1:0:0:0:
81,69,74258,1,0,3:0:0:0:
73,175,74469,2,0,L|54:319,1,126.749994197846,0|2,1:0|0:0,0:0:0:0:
25,341,74891,6,0,P|89:355|138:356,1,84.4999961318971,6|0,0:0|0:0,0:0:0:0:
207,378,75314,2,0,P|240:321|256:275,1,84.4999961318971,0|2,1:0|0:0,0:0:0:0:
288,211,75737,2,0,P|244:162|205:132,1,84.4999961318971,0|2,3:0|0:0,0:0:0:0:
162,74,76160,2,0,P|101:100|61:128,1,84.4999961318971,0|2,1:0|0:0,0:0:0:0:
0,184,76582,5,0,3:0:0:0:
28,281,76793,1,2,0:0:0:0:
116,232,77004,2,0,L|133:140,1,84.4999961318971,0|2,1:0|0:0,0:0:0:0:
115,43,77427,1,0,3:0:0:0:
115,43,77532,1,0,3:0:0:0:
115,43,77638,1,8,0:1:0:0:
215,54,77849,2,0,L|321:73,1,84.4999961318971,8|2,1:0|0:0,0:0:0:0:
381,19,78272,6,0,P|432:40|445:174,1,168.999992263794,0|0,3:0|1:0,0:0:0:0:
379,201,78906,1,2,0:0:0:0:
282,170,79117,2,0,P|290:224|299:352,1,168.999992263794,0|0,3:0|1:0,0:0:0:0:
394,373,79751,1,2,0:0:0:0:
484,326,79962,6,0,P|496:242|515:176,1,126.749994197846,0|0,3:0|0:0,0:0:0:0:
477,159,80384,2,0,L|458:114,3,42.2499980659486,0|8|8|0,1:0|3:0|3:0|3:0,0:0:0:0:
420,87,80807,2,0,L|434:48,2,42.2499980659486,4|4|0,3:0|3:0|3:0,0:0:0:0:
328,160,81229,2,0,L|278:131,3,42.2499980659486,0|0|8|8,1:0|1:0|0:0|0:0,0:0:0:0:
253,104,81652,6,0,L|152:115,1,84.4999961318971,6|2,0:0|0:0,0:0:0:0:
105,192,82074,2,0,L|112:284,1,84.4999961318971,0|2,1:0|0:0,0:0:0:0:
191,339,82497,2,0,L|292:330,1,84.4999961318971,0|2,3:0|0:0,0:0:0:0:
341,255,82919,2,0,L|333:169,1,84.4999961318971,0|2,1:0|0:0,0:0:0:0:
415,110,83342,5,0,3:0:0:0:
488,182,83553,1,2,0:0:0:0:
444,273,83765,2,0,L|426:366,1,84.4999961318971,0|2,1:0|0:0,0:0:0:0:
328,375,84187,1,0,3:0:0:0:
328,375,84293,1,0,3:0:0:0:
328,375,84398,1,8,0:1:0:0:
285,289,84610,2,0,L|278:198,1,84.4999961318971,8|2,1:0|0:0,0:0:0:0:
328,116,85032,6,0,P|232:119|183:197,1,168.999992263794,0|0,3:0|1:0,0:0:0:0:
115,241,85666,1,2,0:0:0:0:
95,342,85877,2,0,P|40:312|25:280,1,84.4999961318971,0|2,3:0|0:0,0:0:0:0:
4,188,86300,2,0,L|20:96,1,84.4999961318971,0|2,1:0|0:0,0:0:0:0:
94,36,86722,6,0,B|193:19|143:108|279:79,1,168.999992263794,0|0,3:0|1:0,0:0:0:0:
336,32,87356,1,2,0:0:0:0:
435,81,87567,1,0,3:0:0:0:
435,81,87673,1,0,1:0:0:0:
435,81,87779,1,0,3:0:0:0:
437,178,87990,2,0,L|456:281,1,84.4999961318971,0|2,1:0|3:2,0:0:0:0:
491,293,88307,1,0,3:0:0:0:
487,341,88412,6,0,P|423:355|374:356,1,84.4999961318971,6|0,0:0|0:0,0:0:0:0:
305,378,88835,2,0,P|272:321|256:275,1,84.4999961318971,0|2,1:0|0:0,0:0:0:0:
224,211,89258,2,0,P|268:162|307:132,1,84.4999961318971,0|2,3:0|0:0,0:0:0:0:
350,74,89681,2,0,P|411:100|451:128,1,84.4999961318971,0|2,1:0|0:0,0:0:0:0:
508,168,90103,6,0,B|526:120|526:120|494:-8,2,168.999992263794,0|0|0,3:0|1:0|3:0,0:0:0:0:
487,214,91053,1,0,3:0:0:0:
487,214,91159,1,8,0:1:0:0:
396,168,91370,2,0,L|290:187,1,84.4999961318971,8|2,1:0|0:0,0:0:0:0:
240,110,91793,6,0,P|189:131|176:265,1,168.999992263794,0|0,3:0|1:0,0:0:0:0:
237,296,92427,1,2,0:0:0:0:
334,270,92638,2,0,B|336:209|336:209|371:167|371:167|377:100,1,168.999992263794,0|0,3:0|1:0,0:0:0:0:
312,34,93272,1,2,0:0:0:0:
222,80,93483,6,0,P|149:78|88:61,1,126.749994197846,0|0,3:0|0:0,0:0:0:0:
80,112,93906,2,0,L|33:129,3,42.2499980659486,0|8|8|0,1:0|3:0|3:0|3:0,0:0:0:0:
9,166,94328,2,0,L|23:221,2,42.2499980659486,4|4|0,3:0|3:0|3:0,0:0:0:0:
97,217,94751,2,0,L|92:274,3,42.2499980659486,0|0|8|8,1:0|1:0|0:0|0:0,0:0:0:0:
74,306,95173,6,0,P|138:316|169:318,1,84.4999961318971,2|0,0:0|0:0,0:0:0:0:
220,270,95596,1,0,0:0:0:0:
368,316,96018,2,0,P|422:335|502:325,1,130,2|0,0:0|0:0,0:0:0:0:
486,254,96652,1,0,0:0:0:0:
486,254,96863,6,0,P|473:210|472:183,1,65,2|0,0:0|0:0,0:0:0:0:
