osu file format v14

[General]
AudioFilename: audio.mp3
AudioLeadIn: 0
PreviewTime: 68026
Countdown: 0
SampleSet: Soft
StackLeniency: 0.5
Mode: 0
LetterboxInBreaks: 0
WidescreenStoryboard: 0

[Editor]
DistanceSpacing: 0.6
BeatDivisor: 4
GridSize: 4
TimelineZoom: 1

[Metadata]
Title:Koisuru Kirigirisu (Short Ver.)
TitleUnicode:恋するキリギリス (Short Ver.)
Artist:yuki
ArtistUnicode:yuki
Creator:Misure
Version:Yume
Source:白昼夢の青写真
Tags:wyrio Kuse KuBsNia_ZhoYL_ Affirmation Neoskylove Koiyuki Minakami Yuki mtbbsben Laplacian Hakuchuumu no Aojashin The girl who's whos called the world momo 緒乃ワサビ case3 visual novel vn eroge op opening short version japanese pop video game
BeatmapID:2692923
BeatmapSetID:1298234

[Difficulty]
HPDrainRate:5
CircleSize:4
OverallDifficulty:8
ApproachRate:9
SliderMultiplier:1.8
SliderTickRate:1

[Events]
//Background and Video events
0,0,"bg.jpg",0,0
Video,-90,"video.flv"
//Break Periods
//Storyboard Layer 0 (Background)
//Storyboard Layer 1 (Fail)
//Storyboard Layer 2 (Pass)
//Storyboard Layer 3 (Foreground)
//Storyboard Layer 4 (Overlay)
//Storyboard Sound Samples

[TimingPoints]
8990,422.535211267606,4,2,1,45,1,0
11947,-166.666666666667,4,2,1,45,0,0
12370,-117.647058823529,4,2,1,45,0,0
14060,-133.333333333333,4,2,1,45,0,0
14905,-100,4,2,1,45,0,0
15737,422.535211267606,4,2,1,55,1,0
15737,-100,4,2,1,55,0,0
20807,-166.666666666667,4,2,1,50,0,0
21441,-166.666666666667,4,2,1,65,0,0
21652,-166.666666666667,4,2,1,70,0,0
21863,-166.666666666667,4,2,1,75,0,0
22075,-166.666666666667,4,2,1,40,0,0
22497,-90.9090909090909,4,2,1,70,0,0
28835,-83.3333333333333,4,2,1,70,0,0
29258,-90.9090909090909,4,2,1,70,0,0
36018,-125,4,2,1,60,0,0
49539,-100,4,2,1,60,0,0
61159,-111.111111111111,4,2,1,50,0,0
64539,-111.111111111111,4,2,1,60,0,0
65173,-111.111111111111,4,2,1,65,0,0
66229,-100,4,2,1,70,0,0
66546,-100,4,2,1,15,0,0
66652,-90.9090909090909,4,2,1,70,0,0
66969,-90.9090909090909,4,2,1,15,0,0
67075,-125,4,2,1,75,0,0
67708,-100,4,2,1,60,0,0
68131,-90.9090909090909,4,2,1,75,0,1
81229,-90.9090909090909,4,2,1,75,0,0
81652,-90.9090909090909,4,2,1,75,0,1
95173,-125,4,2,1,50,0,0
95596,-125,4,2,1,45,0,0
96018,-125,4,2,1,40,0,0
96441,-125,4,2,1,35,0,0
96916,-125,4,2,1,30,0,0

[Colours]
Combo1 : 4,253,179
Combo2 : 87,203,253
Combo3 : 253,134,232
Combo4 : 137,137,197

[HitObjects]
27,118,8990,5,2,0:0:0:0:
105,160,9201,1,0,0:0:0:0:
188,126,9412,1,0,0:0:0:0:
213,39,9624,1,0,0:0:0:0:
374,205,9835,5,2,0:0:0:0:
296,247,10046,1,0,0:0:0:0:
213,213,10258,1,0,0:0:0:0:
188,126,10469,1,0,0:0:0:0:
27,292,10680,5,2,0:0:0:0:
105,334,10891,1,0,0:0:0:0:
188,300,11103,1,0,0:0:0:0:
213,213,11314,1,0,0:0:0:0:
107,123,11525,5,0,0:0:0:0:
107,123,11947,2,0,L|93:175,1,53.9999983520508
15,65,12370,6,0,P|88:74|132:16,1,153.000002918243,2|0,0:0|0:0,0:0:0:0:
132,16,13215,1,2,0:0:0:0:
167,97,13427,1,0,0:0:0:0:
255,111,13638,1,0,0:0:0:0:
316,44,13849,1,0,0:0:0:0:
397,183,14060,6,0,P|343:221|279:208,1,135.000005149842,2|0,0:0|0:0,0:0:0:0:
255,111,14694,1,0,0:0:0:0:
115,239,14905,2,0,B|183:227|197:286|197:246|210:312|274:303,1,180,2|0,0:0|0:0,0:0:0:0:
275,303,15737,6,0,P|314:281|356:264,1,90,2|0,3:2|0:0,0:0:0:0:
512,384,16159,2,0,P|472:362|430:345,1,90,0|0,3:0|0:0,0:0:0:0:
432,164,16582,2,0,P|447:206|460:249,1,90,2|0,3:2|0:0,0:0:0:0:
326,349,17005,2,0,P|339:306|355:264,1,90,0|0,3:0|0:0,0:0:0:0:
479,54,17427,5,2,3:2:0:0:
321,104,17638,1,0,0:0:0:0:
478,156,17850,1,0,3:0:0:0:
382,22,18061,1,0,0:0:0:0:
380,186,18272,1,2,3:2:0:0:
380,186,18695,1,0,3:0:0:0:
315,88,18906,1,0,0:0:0:0:
186,136,19117,6,0,P|100:135|57:60,1,180,2|0,3:2|3:0,0:0:0:0:
40,330,19962,2,0,B|104:339|117:272|117:312|130:253|199:265,1,180,2|0,3:2|3:0,0:0:0:0:
196,361,20596,1,0,0:0:0:0:
102,241,20807,6,2,B|37:210|4:128|56:59|56:59|91:74|112:102|113:142,1,323.999990112305,2|8,0:0|3:2,0:0:0:0:
113,143,22497,5,6,0:0:0:0:
227,98,22709,1,2,0:0:0:0:
233,73,22814,1,0,0:0:0:0:
239,48,22920,2,0,L|264:143,1,99.0000030212403,0|2,1:0|0:0,0:0:0:0:
302,237,23237,1,0,0:0:0:0:
195,226,23342,2,0,B|247:234|284:192|284:192|318:151|371:160,1,198.000006042481,0|0,3:0|1:0,0:0:0:0:
495,11,23976,5,2,0:0:0:0:
488,34,24082,1,0,0:0:0:0:
481,57,24188,2,0,P|465:39|442:30,1,49.5000015106202,0|0,3:0|0:0,0:0:0:0:
371,160,24399,2,0,P|372:134|385:112,1,49.5000015106202,2|0,0:0|0:0,0:0:0:0:
473,255,24610,2,0,P|469:230|455:210,1,49.5000015106202,0|0,1:0|0:0,0:0:0:0:
394,366,24821,2,0,P|410:348|433:339,1,49.5000015106202,2|0,0:0|0:0,0:0:0:0:
327,275,25033,5,0,3:0:0:0:
300,317,25138,1,0,3:0:0:0:
251,323,25244,1,8,0:1:0:0:
229,204,25455,1,8,1:0:0:0:
35,286,25666,5,2,0:0:0:0:
55,300,25772,1,2,0:0:0:0:
92,376,25878,2,0,B|123:180,1,198.000006042481,0|0,3:0|1:0,0:0:0:0:
109,20,26512,6,0,L|95:0,3,24.7500007553101,2|0|0|0,0:0|0:0|0:0|0:0,0:0:0:0:
107,38,26723,1,0,3:0:0:0:
0,182,26934,2,0,P|17:164|38:152,1,49.5000015106202,2|0,0:0|0:0,0:0:0:0:
123,180,27145,1,0,1:0:0:0:
264,268,27357,5,2,0:0:0:0:
258,292,27462,1,2,0:0:0:0:
324,345,27568,2,0,B|275:323|231:354|231:354|184:385|136:363,1,198.000006042481,0|0,3:0|1:0,0:0:0:0:
0,289,28202,2,0,P|13:309|20:333,1,49.5000015106202,2|0,0:0|0:0,0:0:0:0:
99,267,28413,5,0,3:0:0:0:
131,229,28519,1,0,1:0:0:0:
123,180,28624,1,0,3:0:0:0:
123,180,28836,6,0,B|198:161|198:161|207:163|207:163|280:145,1,161.999995056153,0|0,1:0|0:0,0:0:0:0:
338,208,29258,5,6,0:0:0:0:
383,87,29469,1,2,0:0:0:0:
400,103,29575,1,0,0:0:0:0:
417,119,29681,2,0,L|440:22,1,99.0000030212403,0|2,1:0|0:0,0:0:0:0:
512,136,29997,1,0,0:0:0:0:
512,136,30103,2,0,B|459:129|424:173|424:173|391:215|338:208,1,198.000006042481,0|0,3:0|1:0,0:0:0:0:
218,73,30737,5,2,0:0:0:0:
215,112,30843,1,0,0:0:0:0:
180,147,30948,1,0,3:0:0:0:
180,147,31159,2,0,L|197:193,1,49.5000015106202,2|0,0:0|0:0,0:0:0:0:
248,322,31371,1,0,1:0:0:0:
248,322,31582,2,0,L|263:274,1,49.5000015106202,2|0,0:0|0:0,0:0:0:0:
420,180,31793,5,0,3:0:0:0:
387,217,31899,1,0,3:0:0:0:
338,208,32005,1,8,0:1:0:0:
101,345,32216,2,0,P|118:300|162:280,1,99.0000030212403,8|2,1:0|0:0,0:0:0:0:
248,322,32533,1,0,0:0:0:0:
225,358,32638,6,0,L|171:167,1,198.000006042481,0|0,3:0|1:0,0:0:0:0:
83,38,33272,6,0,L|71:59,3,24.7500007553101,2|0|0|0,0:0|0:0|0:0|0:0,0:0:0:0:
78,20,33483,1,0,3:0:0:0:
236,49,33695,1,2,0:0:0:0:
171,167,33906,1,0,1:0:0:0:
355,145,34117,5,2,0:0:0:0:
347,121,34223,1,0,0:0:0:0:
337,93,34328,2,0,L|316:189,1,99.0000030212403,0|2,3:0|0:0,0:0:0:0:
476,294,34751,5,0,1:0:0:0:
432,253,34857,1,8,3:0:0:0:
372,258,34962,1,8,3:0:0:0:
339,307,35068,1,0,3:0:0:0:
382,384,35174,5,4,3:0:0:0:
404,372,35279,1,4,3:0:0:0:
427,362,35385,1,0,3:0:0:0:
246,253,35596,5,0,1:0:0:0:
231,310,35702,1,0,1:0:0:0:
177,335,35807,1,8,0:0:0:0:
121,312,35913,1,8,0:0:0:0:
130,292,36019,1,4,3:2:0:0:
0,150,36230,5,0,0:0:0:0:
76,86,36441,2,0,L|94:155,1,72,0|0,1:0|0:0,0:0:0:0:
0,150,36864,5,8,3:2:0:0:
168,81,37181,1,8,3:2:0:0:
311,191,37497,1,0,1:0:0:0:
311,191,37920,5,0,3:0:0:0:
256,267,38131,2,0,L|192:232,2,72,0|0|0,3:0|0:0|3:0,0:0:0:0:
404,198,38765,5,0,1:0:0:0:
270,104,38976,1,0,0:0:0:0:
256,267,39188,1,0,3:0:0:0:
256,267,39293,1,0,3:0:0:0:
256,267,39399,1,0,3:0:0:0:
407,308,39610,6,0,L|414:343,1,36
494,368,39821,2,0,L|512:299,1,72,0|0,1:0|0:0,0:0:0:0:
455,225,40244,5,8,3:2:0:0:
328,352,40561,1,8,3:2:0:0:
154,305,40878,1,0,1:0:0:0:
154,305,41300,5,0,3:0:0:0:
73,365,41511,2,0,L|7:334,1,72,0|0,3:0|0:0,0:0:0:0:
39,190,41934,5,0,3:0:0:0:
154,305,42145,1,0,1:0:0:0:
196,147,42357,1,0,0:0:0:0:
130,219,42568,1,0,3:0:0:0:
130,219,42674,1,0,3:0:0:0:
130,219,42779,1,0,3:0:0:0:
69,4,42990,6,0,L|104:11,1,36
128,94,43202,2,0,L|59:112,1,72,0|0,1:0|0:0,0:0:0:0:
200,27,43624,5,8,3:2:0:0:
327,154,43941,1,8,3:2:0:0:
501,107,44258,1,0,1:0:0:0:
501,107,44681,5,0,3:0:0:0:
451,194,44892,2,0,L|474:262,1,72,0|0,3:0|0:0,0:0:0:0:
452,361,45314,1,0,3:0:0:0:
295,316,45525,6,0,L|318:247,1,72,0|0,1:0|0:0,0:0:0:0:
267,159,45948,1,0,3:0:0:0:
267,159,46054,1,0,3:0:0:0:
267,159,46159,1,0,3:0:0:0:
357,116,46371,5,0,0:0:0:0:
357,14,46582,2,0,L|290:40,1,72,0|0,1:0|0:0,0:0:0:0:
357,116,47005,5,8,3:2:0:0:
189,47,47321,1,8,3:2:0:0:
46,157,47638,1,0,1:0:0:0:
46,157,48061,5,0,3:0:0:0:
87,65,48272,2,0,L|58:-1,1,72,0|0,3:0|0:0,0:0:0:0:
46,157,48695,5,0,3:0:0:0:
203,200,48906,1,0,1:0:0:0:
88,315,49117,1,0,0:0:0:0:
112,229,49328,1,0,3:0:0:0:
112,229,49434,1,0,3:0:0:0:
112,229,49540,6,0,B|159:219|198:260|198:260|233:299|271:291,1,180,6|0,3:2|1:0,0:0:0:0:
425,291,50174,1,2,0:0:0:0:
413,310,50279,1,2,0:0:0:0:
402,329,50384,2,0,L|372:197,2,135,2|2|2,3:1|3:1|1:0,0:0:0:0:
402,329,51441,5,0,3:0:0:0:
466,219,51652,2,0,P|379:219|335:146,1,180,0|0,3:0|3:0,0:0:0:0:
310,24,52286,2,0,L|396:0,1,90,0|0,1:0|0:0,0:0:0:0:
424,144,52709,1,0,3:0:0:0:
424,144,52814,1,0,3:0:0:0:
424,144,52920,6,0,L|250:94,1,180,2|0,3:2|1:0,0:0:0:0:
79,125,53554,1,2,0:0:0:0:
70,145,53659,1,2,0:0:0:0:
62,166,53765,2,0,L|104:294,2,135,2|2|2,3:1|3:1|1:0,0:0:0:0:
62,166,54821,5,0,3:0:0:0:
164,196,55033,2,0,L|246:159,1,90,0|0,3:0|0:0,0:0:0:0:
238,2,55455,1,0,3:0:0:0:
166,79,55666,2,0,L|83:42,1,90,0|0,1:0|0:0,0:0:0:0:
164,196,56089,1,0,3:0:0:0:
164,196,56195,1,0,3:0:0:0:
164,196,56300,6,0,B|211:206|250:165|250:165|285:126|323:134,1,180,2|0,3:2|1:0,0:0:0:0:
364,270,56934,1,2,0:0:0:0:
375,250,57040,1,2,0:0:0:0:
385,230,57145,2,0,L|512:274,2,135,2|2|2,3:1|3:1|1:0,0:0:0:0:
385,230,58202,5,0,3:0:0:0:
288,298,58413,2,0,P|243:224|157:225,1,180,0|0,3:0|3:0,0:0:0:0:
123,383,59047,1,0,1:0:0:0:
199,303,59258,1,0,0:0:0:0:
28,303,59469,1,0,3:0:0:0:
37,282,59575,1,0,3:0:0:0:
45,261,59681,6,0,L|-1:134,1,135,0|0,3:0|3:0,0:0:0:0:
47,51,60103,6,0,P|63:65|84:73,1,45,8|0,3:0|0:0,0:0:0:0:
177,74,60314,2,0,P|196:62|210:45,1,45,8|0,3:0|0:0,0:0:0:0:
317,11,60526,1,0,3:0:0:0:
311,37,60631,1,0,3:0:0:0:
305,63,60737,1,4,3:0:0:0:
299,89,60842,1,4,3:0:0:0:
293,115,60947,1,0,3:0:0:0:
289,255,61159,6,0,P|356:293|426:260,1,161.999995056153,4|0,1:2|0:0,0:0:0:0:
500,191,61793,2,0,L|468:117,1,80.9999975280763,0|0,3:0|0:0,0:0:0:0:
495,12,62215,5,8,3:0:0:0:
468,117,62638,1,0,1:0:0:0:
364,146,63061,1,0,3:0:0:0:
285,70,63483,1,0,3:0:0:0:
179,100,63906,1,0,3:0:0:0:
151,206,64328,1,0,1:0:0:0:
43,184,64540,6,0,P|-1:119|19:44,1,161.999995056153,6|0,0:0|0:0,0:0:0:0:
179,100,65174,1,0,3:0:0:0:
151,206,65385,1,0,0:0:0:0:
222,72,65596,1,0,3:0:0:0:
339,222,65807,1,0,0:0:0:0:
380,16,66019,1,0,1:0:0:0:
437,264,66230,6,0,P|373:252|348:192,1,135,0|0,3:0|0:0,0:0:0:0:
430,284,66652,6,0,P|373:241|383:171,1,148.50000453186,0|0,3:0|0:0,0:0:0:0:
507,302,67075,6,2,B|443:292|416:341|416:341|388:388|320:378,1,216,0|8,3:0|3:2,0:0:0:0:
320,378,68131,5,6,0:0:0:0:
168,313,68343,1,2,0:0:0:0:
168,313,68448,1,2,0:0:0:0:
168,313,68554,2,0,P|119:312|82:343,1,99.0000030212403,0|2,1:0|0:0,0:0:0:0:
30,251,68871,1,2,0:0:0:0:
37,212,68976,6,0,P|85:213|122:182,1,99.0000030212403,0|2,3:0|0:0,0:0:0:0:
206,26,69399,1,0,1:0:0:0:
0,0,69610,1,2,0:0:0:0:
12,37,69716,1,2,0:0:0:0:
24,73,69821,6,0,P|15:90|7:119,1,49.5000015106202,0|0,3:0|0:0,0:0:0:0:
174,242,70033,2,0,P|196:230|215:214,1,49.5000015106202,2|0,0:0|0:0,0:0:0:0:
37,212,70244,2,0,P|55:229|76:243,1,49.5000015106202,0|0,1:0|0:0,0:0:0:0:
244,120,70455,2,0,P|239:95|230:72,1,49.5000015106202,2|0,0:0|0:0,0:0:0:0:
127,135,70666,5,0,3:0:0:0:
127,135,70772,1,0,3:0:0:0:
127,135,70878,1,8,0:1:0:0:
301,217,71089,1,8,1:0:0:0:
455,103,71300,5,2,0:0:0:0:
446,81,71406,1,2,0:0:0:0:
494,1,71512,2,0,P|422:64|328:47,1,198.000006042481,0|0,3:0|1:0,0:0:0:0:
214,214,72145,6,0,L|194:198,3,24.7500007553101,2|0|0|0,0:0|0:0|0:0|0:0,0:0:0:0:
220,240,72357,1,0,3:0:0:0:
300,147,72568,1,2,0:0:0:0:
397,327,72779,1,0,1:0:0:0:
157,324,72990,5,2,0:0:0:0:
144,304,73096,1,2,0:0:0:0:
97,383,73202,2,0,L|287:328,1,198.000006042481,0|0,3:0|1:0,0:0:0:0:
436,182,73836,2,0,L|420:228,1,49.5000015106202,2|0,0:0|0:0,0:0:0:0:
323,236,74047,5,0,3:0:0:0:
292,196,74152,1,0,1:0:0:0:
300,147,74258,1,0,3:0:0:0:
300,147,74469,1,0,1:0:0:0:
132,107,74681,5,2,0:0:0:0:
140,130,74786,1,2,0:0:0:0:
200,190,74892,6,0,L|55:156,1,148.50000453186,6|2,0:0|0:0,0:0:0:0:
224,96,75314,2,0,P|258:61|306:57,1,99.0000030212403,0|2,1:0|0:0,0:0:0:0:
423,96,75631,1,2,0:0:0:0:
450,67,75737,6,0,P|459:44|463:20,1,49.5000015106202,0|0,3:0|0:0,0:0:0:0:
464,223,75948,2,0,P|448:204|426:193,1,49.5000015106202,2|0,0:0|0:0,0:0:0:0:
417,345,76159,2,0,L|509:311,1,99.0000030212403,0|2,1:0|0:0,0:0:0:0:
320,312,76476,1,2,0:0:0:0:
321,351,76582,6,0,P|297:344|275:333,1,49.5000015106202,0|0,3:0|0:0,0:0:0:0:
226,166,76793,2,0,P|224:141|228:116,1,49.5000015106202,2|0,0:0|0:0,0:0:0:0:
329,258,77004,2,0,P|313:238|302:216,1,49.5000015106202,0|0,1:0|0:0,0:0:0:0:
297,62,77216,2,0,P|310:41|328:23,1,49.5000015106202,2|0,0:0|0:0,0:0:0:0:
426,193,77427,5,0,3:0:0:0:
426,193,77533,1,0,3:0:0:0:
426,193,77638,1,8,0:1:0:0:
304,342,77850,1,8,1:0:0:0:
108,258,78061,1,2,0:0:0:0:
21,366,78272,6,0,B|75:372|106:329|106:329|142:286|194:290,1,198.000006042481,0|0,3:0|1:0,0:0:0:0:
298,165,78906,6,0,L|312:144,3,24.7500007553101,2|0|0|0,0:0|0:0|0:0|0:0,0:0:0:0:
306,194,79117,1,0,3:0:0:0:
166,170,79328,1,2,0:0:0:0:
107,4,79540,1,0,1:0:0:0:
3,200,79751,5,2,0:0:0:0:
34,224,79857,1,2,0:0:0:0:
56,257,79962,1,0,3:0:0:0:
0,384,80174,1,2,0:0:0:0:
56,257,80384,5,0,1:0:0:0:
100,216,80490,1,8,3:0:0:0:
160,221,80596,1,8,3:0:0:0:
193,270,80702,1,0,3:0:0:0:
160,366,80807,5,4,3:0:0:0:
140,348,80913,1,4,3:0:0:0:
114,344,81019,1,0,3:0:0:0:
114,344,81230,5,0,1:0:0:0:
191,361,81336,1,0,1:0:0:0:
267,342,81441,1,8,0:0:0:0:
327,289,81547,1,8,0:0:0:0:
350,212,81652,6,0,L|319:117,1,99.0000030212403,6|2,0:0|0:0,0:0:0:0:
493,4,82075,2,0,L|466:100,1,99.0000030212403,0|2,1:0|0:0,0:0:0:0:
378,53,82392,1,2,0:0:0:0:
360,17,82497,6,0,P|311:16|272:46,1,99.0000030212403,0|2,3:0|0:0,0:0:0:0:
256,192,82920,1,0,1:0:0:0:
101,233,83131,1,2,0:0:0:0:
65,215,83237,1,2,0:0:0:0:
26,220,83342,6,0,P|17:203|9:174,1,49.5000015106202,0|0,3:0|0:0,0:0:0:0:
28,86,83554,2,0,P|40:64|56:45,1,49.5000015106202,2|0,0:0|0:0,0:0:0:0:
40,332,83765,2,0,P|22:323|-1:304,1,49.5000015106202,0|0,1:0|0:0,0:0:0:0:
126,151,83977,2,0,P|122:126|124:101,1,49.5000015106202,2|0,0:0|0:0,0:0:0:0:
274,192,84188,5,0,3:0:0:0:
274,192,84293,1,0,3:0:0:0:
274,192,84399,1,8,0:1:0:0:
200,382,84610,1,8,1:0:0:0:
67,254,84821,5,2,0:0:0:0:
56,230,84927,1,2,0:0:0:0:
40,332,85033,2,0,B|92:348|130:311|130:311|173:275|223:288,1,198.000006042481,0|0,3:0|1:0,0:0:0:0:
348,361,85666,6,0,L|337:383,3,24.7500007553101,2|0|0|0,0:0|0:0|0:0|0:0,0:0:0:0:
349,334,85878,1,0,3:0:0:0:
200,382,86089,1,2,0:0:0:0:
274,192,86300,1,0,1:0:0:0:
466,292,86512,5,2,0:0:0:0:
475,315,86617,1,2,0:0:0:0:
425,384,86723,2,0,B|460:189,1,198.000006042481,0|0,3:0|1:0,0:0:0:0:
395,44,87357,1,2,0:0:0:0:
258,146,87567,5,0,3:0:0:0:
220,178,87673,1,0,1:0:0:0:
172,163,87778,1,0,3:0:0:0:
172,163,87990,1,0,1:0:0:0:
290,25,88202,5,2,3:2:0:0:
282,49,88307,1,0,3:0:0:0:
336,114,88413,6,0,P|406:133|468:96,1,148.50000453186,6|2,0:0|0:0,0:0:0:0:
318,203,88836,2,0,L|345:298,1,99.0000030212403,0|2,1:0|0:0,0:0:0:0:
399,375,89152,1,2,0:0:0:0:
436,359,89258,6,0,P|455:314|450:265,1,99.0000030212403,0|2,3:0|0:0,0:0:0:0:
264,352,89681,2,0,L|171:315,1,99.0000030212403,0|2,1:0|0:0,0:0:0:0:
85,356,89997,1,2,0:0:0:0:
44,326,90103,5,0,3:0:0:0:
44,326,90314,2,0,P|47:301|58:279,1,49.5000015106202,2|0,0:0|0:0,0:0:0:0:
145,209,90525,1,0,1:0:0:0:
145,209,90736,2,0,P|141:184|130:162,1,49.5000015106202,2|0,0:0|0:0,0:0:0:0:
0,34,90948,5,0,3:0:0:0:
24,77,91054,1,0,3:0:0:0:
72,81,91159,1,8,0:1:0:0:
206,19,91371,1,8,1:0:0:0:
380,105,91582,5,2,0:0:0:0:
368,126,91687,1,2,0:0:0:0:
357,203,91793,2,0,B|308:10,1,198.000006042481,0|0,3:0|1:0,0:0:0:0:
199,190,92427,6,0,L|185:211,3,24.7500007553101,2|0|0|0,0:0|0:0|0:0|0:0,0:0:0:0:
185,160,92638,1,0,3:0:0:0:
289,235,92850,1,2,0:0:0:0:
369,71,93061,1,0,1:0:0:0:
477,218,93272,5,2,0:0:0:0:
468,240,93377,1,2,0:0:0:0:
459,263,93483,1,0,3:0:0:0:
512,378,93695,1,2,0:0:0:0:
374,370,93906,5,0,1:0:0:0:
336,323,94012,1,8,3:0:0:0:
277,312,94117,1,8,3:0:0:0:
230,349,94223,1,0,3:0:0:0:
147,363,94328,5,4,3:0:0:0:
141,337,94434,1,4,3:0:0:0:
124,317,94539,1,0,3:0:0:0:
124,317,94751,5,0,1:0:0:0:
190,273,94857,1,0,1:0:0:0:
223,201,94962,1,8,0:0:0:0:
210,122,95068,1,8,0:0:0:0:
156,64,95173,1,0,0:0:0:0:
256,192,95279,12,0,96916,0:0:0:0:
