osu file format v14

[General]
AudioFilename: audio.mp3
AudioLeadIn: 0
PreviewTime: 68026
Countdown: 0
SampleSet: Soft
StackLeniency: 0.5
Mode: 0
LetterboxInBreaks: 0
WidescreenStoryboard: 1

[Editor]
DistanceSpacing: 0.9
BeatDivisor: 4
GridSize: 4
TimelineZoom: 1.8

[Metadata]
Title:Koisuru Kirigirisu (Short Ver.)
TitleUnicode:恋するキリギリス (Short Ver.)
Artist:yuki
ArtistUnicode:yuki
Creator:Misure
Version:Kuse's Insane
Source:白昼夢の青写真
Tags:wyrio Kuse KuBsNia_ZhoYL_ Affirmation Neoskylove Koiyuki Minakami Yuki mtbbsben Laplacian Hakuchuumu no Aojashin The girl who's whos called the world momo 緒乃ワサビ case3 visual novel vn eroge op opening short version japanese pop video game
BeatmapID:2722266
BeatmapSetID:1298234

[Difficulty]
HPDrainRate:4.5
CircleSize:4
OverallDifficulty:7.5
ApproachRate:8.8
SliderMultiplier:1.6
SliderTickRate:1

[Events]
//Background and Video events
0,0,"bg.jpg",0,0
Video,-90,"video.flv"
//Break Periods
//Storyboard Layer 0 (Background)
//Storyboard Layer 1 (Fail)
//Storyboard Layer 2 (Pass)
//Storyboard Layer 3 (Foreground)
//Storyboard Layer 4 (Overlay)
//Storyboard Sound Samples

[TimingPoints]
8990,422.535211267606,4,2,1,45,1,0
8990,-125,4,2,1,45,0,0
9623,-125,4,2,1,25,0,0
9835,-90.9090909090909,4,2,1,45,0,0
10468,-90.9090909090909,4,2,1,25,0,0
10680,-166.666666666667,4,2,1,45,0,0
11947,-166.666666666667,4,2,1,25,0,0
12370,-125,4,2,1,45,0,0
13003,-125,4,2,1,25,0,0
13215,-90.9090909090909,4,2,1,45,0,0
13849,-90.9090909090909,4,2,1,25,0,0
14060,-166.666666666667,4,2,1,45,0,0
15328,-166.666666666667,4,2,1,35,0,0
15737,422.535211267606,4,2,1,45,1,0
15737,-100,4,2,1,55,0,0
20807,-333.333333333333,4,2,1,55,0,0
21441,-166.666666666667,4,2,1,65,0,0
21652,-166.666666666667,4,2,1,70,0,0
21863,-166.666666666667,4,2,1,75,0,0
22075,-166.666666666667,4,2,1,40,0,0
22497,-90.9090909090909,4,2,1,70,0,0
25877,-76.9230769230769,4,2,1,70,0,0
28835,-83.3333333333333,4,2,1,70,0,0
29152,-83.3333333333333,4,2,1,5,0,0
29258,-90.9090909090909,4,2,1,70,0,0
36018,-125,4,2,1,60,0,0
36335,-125,4,2,1,5,0,0
36441,-125,4,2,1,60,0,0
36863,-100,4,2,1,60,0,0
37497,-125,4,2,1,60,0,0
38448,-125,4,2,1,5,0,0
38553,-125,4,2,1,60,0,0
39715,-125,4,2,1,5,0,0
39821,-125,4,2,1,60,0,0
40244,-100,4,2,1,60,0,0
40877,-125,4,2,1,60,0,0
41828,-125,4,2,1,5,0,0
41934,-125,4,2,1,60,0,0
43096,-125,4,2,1,5,0,0
43201,-125,4,2,1,60,0,0
43624,-100,4,2,1,60,0,0
44258,-125,4,2,1,60,0,0
45208,-125,4,2,1,5,0,0
45314,-125,4,2,1,60,0,0
46476,-125,4,2,1,5,0,0
46582,-125,4,2,1,60,0,0
47004,-100,4,2,1,60,0,0
47638,-125,4,2,1,60,0,0
48589,-125,4,2,1,5,0,0
48694,-125,4,2,1,60,0,0
49539,-100,4,2,1,60,0,0
49856,-100,4,2,1,5,0,0
49962,-100,4,2,1,60,0,0
50384,-76.9230769230769,4,2,1,60,0,0
51652,-100,4,2,1,60,0,0
53237,-100,4,2,1,5,0,0
53342,-100,4,2,1,60,0,0
53765,-76.9230769230769,4,2,1,60,0,0
55032,-100,4,2,1,60,0,0
56617,-100,4,2,1,5,0,0
56722,-100,4,2,1,60,0,0
57145,-76.9230769230769,4,2,1,60,0,0
58624,-100,4,2,1,60,0,0
61159,-142.857142857143,4,2,1,50,0,0
62955,-142.857142857143,4,2,1,5,0,0
63060,-142.857142857143,4,2,1,50,0,0
64539,-111.111111111111,4,2,1,60,0,0
65173,-111.111111111111,4,2,1,65,0,0
66229,-100,4,2,1,70,0,0
67075,-200,4,2,1,75,0,0
67708,-100,4,2,1,60,0,0
68131,-76.9230769230769,4,2,1,75,0,1
71089,-66.6666666666667,4,2,1,75,0,1
71406,-66.6666666666667,4,2,1,5,0,1
71511,-76.9230769230769,4,2,1,75,0,1
74786,-76.9230769230769,4,2,1,5,0,1
74891,-76.9230769230769,4,2,1,75,0,1
77849,-66.6666666666667,4,2,1,75,0,1
78166,-66.6666666666667,4,2,1,5,0,1
78272,-76.9230769230769,4,2,1,75,0,1
80384,-100,4,2,1,75,0,1
81546,-100,4,2,1,75,0,0
81652,-76.9230769230769,4,2,1,75,0,1
84610,-66.6666666666667,4,2,1,75,0,1
84927,-66.6666666666667,4,2,1,5,0,1
85032,-76.9230769230769,4,2,1,75,0,1
91370,-66.6666666666667,4,2,1,75,0,1
91687,-66.6666666666667,4,2,1,5,0,1
91793,-76.9230769230769,4,2,1,75,0,1
95173,-76.9230769230769,4,2,1,50,0,0
95596,-125,4,2,1,45,0,0
96018,-125,4,2,1,40,0,0
96441,-125,4,2,1,35,0,0
96916,-125,4,2,1,30,0,0

[Colours]
Combo1 : 4,253,179
Combo2 : 87,203,253
Combo3 : 253,134,232
Combo4 : 137,137,197

[HitObjects]
96,94,8990,6,0,B|117:110|145:176|145:176|151:107|178:78,1,192,2|0,0:0|0:0,0:0:0:0:
347,110,9835,2,0,P|352:59|311:129,1,264.000008056641,2|0,0:0|0:0,0:0:0:0:
405,216,10680,6,0,B|431:188|470:189|470:189|373:172|383:281|275:256,1,287.999991210938,2|0,0:0|0:0,0:0:0:0:
108,323,12370,6,0,P|36:290|101:245,1,192,2|0,0:0|0:0,0:0:0:0:
219,220,13215,2,0,B|324:204|378:291|378:291|343:256|302:251,1,264.000008056641,2|0,0:0|0:0,0:0:0:0:
266,126,14060,6,0,B|257:71|318:40|363:67|369:119|369:119|377:154|417:163|453:139|437:89,1,287.999991210938,2|0,0:0|0:0,0:0:0:0:
441,105,15737,5,6,3:2:0:0:
394,91,16159,1,0,3:0:0:0:
346,100,16582,1,2,3:2:0:0:
316,138,17004,1,0,3:0:0:0:
283,211,17427,5,2,3:2:0:0:
223,264,17849,1,0,3:0:0:0:
144,279,18272,1,0,3:0:0:0:
67,255,18694,1,0,3:0:0:0:
29,149,19117,5,2,3:2:0:0:
114,76,19539,1,0,3:0:0:0:
223,54,19962,1,2,3:2:0:0:
328,90,20384,1,0,3:0:0:0:
407,169,20807,6,0,B|449:199|503:178|511:129|511:129|513:149,1,143.999995605469,2|8,0:0|3:2,0:0:0:0:
512,138,22498,6,0,P|483:125|453:124,1,44.0000013427735,6|0,0:0|0:0,0:0:0:0:
382,162,22708,1,2,0:0:0:0:
454,43,22920,2,0,P|417:61|397:83,1,44.0000013427735,0|0,1:0|0:0,0:0:0:0:
395,187,23131,1,2,0:0:0:0:
318,70,23342,6,0,B|317:45|296:29|296:29|331:45|343:73|331:122,1,132.00000402832,0|0,3:0|0:0,0:0:0:0:
278,152,23765,1,0,1:0:0:0:
200,22,23976,1,2,0:0:0:0:
120,151,24187,6,0,P|90:165|60:164,1,44.0000013427735,0|0,3:0|0:0,0:0:0:0:
0,86,24398,1,2,0:0:0:0:
22,230,24610,2,0,P|6:203|2:171,1,44.0000013427735,0|0,1:0|0:0,0:0:0:0:
20,64,24821,1,2,0:0:0:0:
145,162,25032,5,0,3:0:0:0:
188,173,25138,1,0,3:0:0:0:
214,125,25244,5,8,0:1:0:0:
266,236,25455,1,8,1:0:0:0:
350,137,25666,5,2,0:0:0:0:
361,98,25772,1,0,0:0:0:0:
328,57,25877,6,0,B|366:41|387:10|387:10|478:44|443:142,1,207.999990478516,0|0,3:0|1:0,0:0:0:0:
325,292,26511,1,2,0:0:0:0:
305,262,26617,1,0,0:0:0:0:
316,210,26722,6,0,B|218:174|241:299|132:264,1,207.999990478516,0|0,3:0|1:0,0:0:0:0:
46,103,27356,1,2,0:0:0:0:
84,121,27462,1,0,0:0:0:0:
125,83,27567,6,0,B|183:47|274:37|274:37|285:65|341:79,1,207.999990478516,0|0,3:0|1:0,0:0:0:0:
415,5,28201,1,2,0:0:0:0:
479,135,28413,1,0,3:0:0:0:
451,115,28518,2,0,P|397:146|445:200,1,103.999995239258,0|0,1:0|0:0,0:0:0:0:
467,218,28835,6,0,B|492:203|496:181|496:181|494:260|530:316,1,143.999995605469,0|0,1:0|0:0,0:0:0:0:
426,358,29258,6,0,P|402:340|386:311,1,44.0000013427735,6|0,0:0|0:0,0:0:0:0:
384,203,29469,1,2,0:0:0:0:
315,317,29680,2,0,P|324:291|343:272,1,44.0000013427735,0|0,1:0|0:0,0:0:0:0:
402,179,29891,1,2,0:0:0:0:
295,206,30103,6,0,B|263:225|251:256|251:256|252:223|228:193,1,132.00000402832,0|0,3:0|0:0,0:0:0:0:
179,138,30525,1,0,1:0:0:0:
279,64,30737,1,2,0:0:0:0:
143,10,30948,6,0,P|131:46|136:84,1,44.0000013427735,0|0,3:0|0:0,0:0:0:0:
179,138,31159,1,2,0:0:0:0:
61,88,31370,2,0,P|82:116|110:129,1,44.0000013427735,0|0,1:0|0:0,0:0:0:0:
207,143,31582,1,2,0:0:0:0:
310,41,31793,1,0,3:0:0:0:
341,25,31898,1,0,3:0:0:0:
384,64,32004,5,8,0:1:0:0:
319,165,32215,2,0,B|304:193|312:219|312:219|333:236|332:267,1,88.000002685547,8|2,1:0|0:0,0:0:0:0:
250,326,32532,1,2,0:0:0:0:
250,326,32638,6,0,P|240:260|343:265,1,176.000005371094,0|0,3:0|1:0,0:0:0:0:
447,309,33272,1,2,0:0:0:0:
475,277,33377,1,0,0:0:0:0:
448,228,33483,6,0,B|438:166|478:109|478:109|457:79|417:67,1,176.000005371094,0|0,3:0|1:0,0:0:0:0:
343,149,34117,1,2,0:0:0:0:
300,0,34328,2,0,P|337:8|375:55,1,88.000002685547,0|2,3:0|0:0,0:0:0:0:
294,81,34645,1,0,0:0:0:0:
294,81,34751,6,0,P|259:89|231:104,1,44.0000013427735,0|8,1:0|3:0,0:0:0:0:
173,169,34962,1,8,3:0:0:0:
178,200,35067,1,0,3:0:0:0:
144,246,35173,5,4,3:0:0:0:
144,276,35279,1,4,3:0:0:0:
144,306,35384,1,0,3:0:0:0:
148,310,35596,5,0,1:0:0:0:
189,297,35701,1,0,1:0:0:0:
232,305,35807,1,8,0:0:0:0:
261,337,35913,1,8,0:0:0:0:
309,320,36018,6,0,P|313:273|334:206,1,96,4|0,3:2|0:0,0:0:0:0:
340,216,36441,2,0,L|409:231,1,64,0|0,1:0|0:0,0:0:0:0:
456,154,36758,1,0,0:0:0:0:
431,134,36863,6,0,P|432:96|452:51,1,80,8|0,3:2|0:0,0:0:0:0:
415,26,37180,2,0,P|410:77|393:110,1,80,8|0,3:2|0:0,0:0:0:0:
327,138,37497,2,0,B|288:147|311:64|226:71,1,128,0|0,1:0|3:0,0:0:0:0:
133,187,38131,6,0,P|169:196|203:142,1,96,0|0,3:0|0:0,0:0:0:0:
204,155,38553,1,0,3:0:0:0:
298,218,38765,2,0,P|260:234|230:266,1,64,0|0,1:0|0:0,0:0:0:0:
112,357,39187,1,0,3:0:0:0:
107,340,39293,1,0,3:0:0:0:
133,311,39398,6,0,P|188:318|243:346,1,96,0|0,3:0|0:0,0:0:0:0:
240,347,39821,2,0,L|249:255,1,64,0|0,1:0|0:0,0:0:0:0:
331,238,40138,1,0,0:0:0:0:
306,206,40244,6,0,P|264:199|226:212,1,80,8|0,3:2|0:0,0:0:0:0:
203,171,40560,2,0,P|247:179|289:165,1,80,8|0,3:2|0:0,0:0:0:0:
337,105,40877,2,0,P|315:72|244:108,1,128,0|0,1:0|3:0,0:0:0:0:
385,185,41511,6,0,P|412:157|422:93,1,96,0|0,3:0|0:0,0:0:0:0:
424,103,41934,1,0,3:0:0:0:
506,266,42145,2,0,P|467:246|433:245,1,64,0|0,1:0|0:0,0:0:0:0:
329,345,42567,1,0,3:0:0:0:
333,327,42673,1,0,3:0:0:0:
362,300,42779,6,0,P|303:290|251:268,1,96,0|0,3:0|0:0,0:0:0:0:
261,256,43201,2,0,L|257:175,1,64,0|0,1:0|0:0,0:0:0:0:
177,140,43518,1,0,0:0:0:0:
155,166,43624,6,0,P|147:210|159:244,1,80,8|0,3:2|0:0,0:0:0:0:
116,274,43941,2,0,P|123:227|112:193,1,80,8|0,3:2|0:0,0:0:0:0:
67,131,44258,2,0,B|38:98|39:48|39:48|42:67|54:86,1,128,0|0,1:0|3:0,0:0:0:0:
177,140,44891,6,0,P|203:112|210:45,1,96,0|0,3:0|0:0,0:0:0:0:
212,56,45314,1,0,3:0:0:0:
321,160,45525,2,0,P|336:186|351:231,1,64,0|0,1:0|0:0,0:0:0:0:
239,284,45948,1,0,3:0:0:0:
235,301,46053,1,0,3:0:0:0:
265,326,46159,6,0,P|220:345|151:350,1,96,0|0,3:0|0:0,0:0:0:0:
152,336,46582,2,0,L|146:264,1,64,0|0,1:0|0:0,0:0:0:0:
108,186,46898,1,0,0:0:0:0:
141,163,47004,6,0,P|179:169|219:192,1,80,8|0,3:2|0:0,0:0:0:0:
240,157,47321,2,0,P|198:149|166:128,1,80,8|0,3:2|0:0,0:0:0:0:
147,31,47638,2,0,P|207:17|195:76,1,128,0|0,1:0|3:0,0:0:0:0:
83,66,48272,6,0,P|96:26|151:36,1,96,0|0,3:0|0:0,0:0:0:0:
143,27,48694,1,0,3:0:0:0:
167,129,48906,2,0,P|196:142|230:145,1,64,0|0,1:0|0:0,0:0:0:0:
357,98,49328,1,0,3:0:0:0:
362,81,49434,1,0,3:0:0:0:
332,44,49539,6,0,P|339:89|360:170,1,120,6|0,3:2|0:0,0:0:0:0:
378,181,49962,2,0,P|371:232|356:284,1,80,0|2,1:0|0:0,0:0:0:0:
259,328,50279,1,2,0:0:0:0:
283,298,50384,6,0,B|365:265|347:379|458:314,2,155.999992858887,2|2|2,3:1|3:1|1:0,0:0:0:0:
287,302,51441,1,0,3:0:0:0:
287,302,51652,1,0,3:0:0:0:
235,229,51863,6,0,P|246:179|248:136,1,80,0|0,0:0|3:0,0:0:0:0:
194,81,52286,1,0,1:0:0:0:
137,148,52497,1,0,0:0:0:0:
20,63,52708,1,0,3:0:0:0:
27,42,52814,1,0,3:0:0:0:
66,14,52920,6,0,P|132:29|189:56,1,120,2|0,3:1|0:0,0:0:0:0:
205,54,53342,2,0,P|259:42|304:24,1,80,0|2,1:0|0:0,0:0:0:0:
398,89,53659,1,2,0:0:0:0:
370,110,53765,6,0,B|371:134|357:152|357:152|391:210|391:210|376:235|373:266,2,155.999992858887,2|2|2,3:1|3:1|1:0,0:0:0:0:
370,110,54821,1,0,3:0:0:0:
315,29,55032,6,0,P|280:56|269:117,1,80,0|0,3:0|0:0,0:0:0:0:
337,184,55455,1,0,3:0:0:0:
240,246,55666,2,0,P|204:223|136:222,1,80,0|0,1:0|0:0,0:0:0:0:
52,341,56089,1,0,3:0:0:0:
73,335,56194,1,0,3:0:0:0:
116,356,56300,6,0,P|108:305|89:233,1,120,2|0,3:1|0:0,0:0:0:0:
75,221,56722,2,0,P|84:177|95:141,1,80,0|2,1:0|0:0,0:0:0:0:
206,89,57039,1,2,0:0:0:0:
218,120,57145,6,0,P|167:142|129:59,2,155.999992858887,2|2|2,3:1|3:1|1:0,0:0:0:0:
222,124,58201,1,0,3:0:0:0:
222,124,58413,1,0,3:0:0:0:
297,63,58624,6,0,P|335:76|390:83,1,80,0|0,0:0|3:0,0:0:0:0:
457,56,59046,1,0,1:0:0:0:
489,145,59258,1,0,0:0:0:0:
380,200,59469,1,0,3:0:0:0:
375,222,59575,1,0,3:0:0:0:
414,251,59680,6,0,P|433:305|441:351,1,80,0|0,3:0|0:0,0:0:0:0:
366,372,59997,1,0,3:0:0:0:
366,372,60103,6,0,P|353:343|353:311,1,40,8|0,3:0|0:0,0:0:0:0:
298,273,60314,1,8,3:0:0:0:
257,254,60420,1,0,0:0:0:0:
219,295,60525,5,0,3:0:0:0:
187,312,60631,1,0,3:0:0:0:
150,312,60737,1,4,3:0:0:0:
117,296,60842,1,4,3:0:0:0:
98,264,60948,1,0,3:0:0:0:
161,88,61159,6,0,P|201:135|210:207,1,111.999996582031,4|0,1:2|0:0,0:0:0:0:
257,254,61793,1,0,3:0:0:0:
410,183,62215,1,8,3:0:0:0:
468,341,62638,2,0,B|440:371|440:371|394:350,1,83.9999974365235,0|0,1:0|0:0,0:0:0:0:
421,279,63060,5,0,3:0:0:0:
400,110,63483,1,0,3:0:0:0:
230,125,63906,1,0,3:0:0:0:
248,295,64328,1,0,1:0:0:0:
309,243,64539,6,0,B|239:216|250:298|171:261,1,143.999995605469,6|0,0:0|0:0,0:0:0:0:
92,190,65173,1,0,3:0:0:0:
105,113,65384,1,0,0:0:0:0:
240,200,65596,1,0,3:0:0:0:
264,89,65807,1,0,0:0:0:0:
184,136,66018,1,0,1:0:0:0:
77,24,66229,5,0,3:0:0:0:
264,15,66652,1,0,3:0:0:0:
434,7,67075,2,0,B|469:31|462:81|427:98|427:98|442:105,1,120,0|8,3:0|3:2,0:0:0:0:
435,102,68131,6,0,P|416:133|408:167,1,51.999997619629,6|0,0:0|0:0,0:0:0:0:
469,246,68342,1,2,0:0:0:0:
335,166,68553,2,0,P|347:197|368:222,1,51.999997619629,0|0,1:0|0:0,0:0:0:0:
497,254,68765,1,2,0:0:0:0:
405,305,68976,5,0,3:0:0:0:
427,182,69187,1,2,0:0:0:0:
306,151,69398,1,0,1:0:0:0:
267,270,69610,1,2,0:0:0:0:
149,263,69821,6,0,P|131:230|122:200,1,51.999997619629,0|0,3:0|0:0,0:0:0:0:
158,102,70032,1,2,0:0:0:0:
46,215,70244,2,0,P|57:173|85:149,1,51.999997619629,0|0,1:0|0:0,0:0:0:0:
185,86,70455,1,2,0:0:0:0:
85,5,70666,5,0,3:0:0:0:
64,28,70772,1,0,3:0:0:0:
82,75,70877,5,8,0:1:0:0:
217,10,71089,2,0,B|265:22|270:76|270:76|287:23|342:25,1,180.000006866455,8|2,1:0|0:0,0:0:0:0:
334,24,71511,6,0,P|367:66|346:137,1,103.999995239258,0|0,3:0|0:0,0:0:0:0:
229,199,71934,2,0,L|349:185,1,103.999995239258,0|2,1:0|0:0,0:0:0:0:
358,198,72251,1,2,0:0:0:0:
358,198,72356,1,0,3:0:0:0:
456,121,72567,1,2,0:0:0:0:
505,235,72779,1,0,1:0:0:0:
405,309,72990,1,2,0:0:0:0:
358,198,73201,6,0,B|234:201|298:302|172:298,1,207.999990478516,0|0,3:0|1:0,0:0:0:0:
130,358,73835,1,2,0:0:0:0:
31,216,74046,1,0,3:0:0:0:
50,190,74152,2,0,B|105:185|105:185|141:234,1,103.999995239258,0|0,1:0|0:0,0:0:0:0:
221,122,74469,2,0,P|155:91|114:150,1,155.999992858887,0|2,1:0|0:0,0:0:0:0:
210,206,74891,6,0,P|242:213|281:252,1,51.999997619629,6|0,0:0|0:0,0:0:0:0:
293,317,75103,1,0,0:0:0:0:
330,185,75314,2,0,P|338:218|330:258,1,51.999997619629,0|0,1:0|0:0,0:0:0:0:
284,344,75525,1,2,0:0:0:0:
180,272,75737,5,0,3:0:0:0:
264,149,75948,1,2,0:0:0:0:
140,72,76159,1,0,1:0:0:0:
60,194,76370,1,2,0:0:0:0:
179,194,76582,6,0,P|187:169|187:143,1,51.999997619629,0|0,3:0|0:0,0:0:0:0:
124,52,76793,1,2,0:0:0:0:
254,82,77004,2,0,P|217:60|183:57,1,51.999997619629,0|0,1:0|0:0,0:0:0:0:
96,59,77215,1,2,0:0:0:0:
34,177,77427,5,0,3:0:0:0:
60,194,77532,1,0,3:0:0:0:
108,172,77638,5,8,0:1:0:0:
164,307,77849,2,0,B|229:295|286:339|286:339|294:375|331:376,1,180.000006866455,8|0,1:0|0:0,0:0:0:0:
317,374,78272,6,0,P|339:324|345:263,1,103.999995239258,0|0,3:0|0:0,0:0:0:0:
188,189,78694,2,0,L|305:210,1,103.999995239258,0|2,1:0|0:0,0:0:0:0:
322,191,79011,1,2,0:0:0:0:
322,191,79117,1,0,3:0:0:0:
421,294,79328,1,2,0:0:0:0:
484,152,79539,2,0,P|437:169|396:217,1,103.999995239258,0|2,1:0|0:0,0:0:0:0:
250,326,79962,6,0,P|213:288|140:295,1,103.999995239258,0|0,3:0|0:0,0:0:0:0:
86,306,80279,1,0,0:0:0:0:
86,306,80384,6,0,L|84:257,1,40,0|8,1:0|3:0,0:0:0:0:
112,179,80596,1,8,3:0:0:0:
152,184,80701,1,0,3:0:0:0:
184,203,80807,5,4,3:0:0:0:
212,200,80913,1,4,3:0:0:0:
242,199,81018,1,0,3:0:0:0:
246,203,81229,5,0,1:0:0:0:
252,154,81335,1,0,1:0:0:0:
259,105,81441,1,8,0:0:0:0:
265,58,81546,1,8,0:0:0:0:
226,19,81652,6,0,P|195:33|172:63,1,51.999997619629,6|0,0:0|0:0,0:0:0:0:
153,161,81863,1,2,0:0:0:0:
108,23,82075,2,0,P|106:64|118:98,1,51.999997619629,0|0,1:0|0:0,0:0:0:0:
169,183,82286,1,2,0:0:0:0:
81,285,82497,5,0,3:0:0:0:
173,383,82708,1,2,0:0:0:0:
260,279,82920,1,0,1:0:0:0:
169,183,83131,1,2,0:0:0:0:
300,114,83342,6,0,P|326:133|367:149,1,51.999997619629,0|0,3:0|0:0,0:0:0:0:
452,115,83553,1,2,0:0:0:0:
359,222,83765,2,0,P|401:203|417:179,1,51.999997619629,0|0,1:0|0:0,0:0:0:0:
443,90,83976,1,2,0:0:0:0:
325,18,84187,5,0,3:0:0:0:
301,39,84293,1,0,3:0:0:0:
251,26,84398,5,8,0:1:0:0:
202,165,84610,2,0,B|185:116|129:89|129:89|124:123|70:168,1,180.000006866455,8|2,1:0|0:0,0:0:0:0:
91,148,85032,6,0,P|60:108|65:43,1,103.999995239258,0|0,3:0|0:0,0:0:0:0:
143,223,85455,2,0,L|129:332,1,103.999995239258,0|2,1:0|0:0,0:0:0:0:
146,355,85772,1,2,0:0:0:0:
146,355,85877,1,0,3:0:0:0:
221,242,86089,1,2,0:0:0:0:
315,337,86300,1,0,1:0:0:0:
375,170,86511,1,2,0:0:0:0:
508,300,86722,6,0,P|446:337|434:231,1,207.999990478516,0|0,3:0|1:0,0:0:0:0:
504,225,87356,1,2,0:0:0:0:
456,100,87567,1,0,3:0:0:0:
431,117,87673,2,0,P|400:164|324:151,1,103.999995239258,0|0,1:0|0:0,0:0:0:0:
297,118,87990,1,0,1:0:0:0:
232,224,88201,1,2,3:2:0:0:
211,217,88307,1,0,3:0:0:0:
163,233,88413,6,0,P|150:254|140:308,1,51.999997619629,6|0,0:0|0:0,0:0:0:0:
189,369,88624,1,0,0:0:0:0:
64,307,88835,2,0,P|83:336|112:355,1,51.999997619629,0|0,1:0|0:0,0:0:0:0:
214,361,89046,1,2,0:0:0:0:
312,276,89258,5,0,3:0:0:0:
294,131,89469,1,2,0:0:0:0:
150,148,89680,1,0,1:0:0:0:
161,293,89891,1,2,0:0:0:0:
282,181,90103,6,0,P|293:137|288:89,1,51.999997619629,0|0,3:0|0:0,0:0:0:0:
228,32,90314,1,2,0:0:0:0:
361,82,90525,2,0,P|324:58|291:52,1,51.999997619629,0|0,1:0|0:0,0:0:0:0:
200,41,90737,1,2,0:0:0:0:
85,109,90948,5,0,3:0:0:0:
62,83,91053,1,0,3:0:0:0:
79,32,91159,5,8,0:1:0:0:
142,170,91370,2,0,B|242:131|210:249|325:189,1,180.000006866455,8|2,1:0|0:0,0:0:0:0:
307,198,91793,6,0,B|281:148|281:148|250:301,1,207.999990478516,0|0,3:0|1:0,0:0:0:0:
325,372,92427,1,2,0:0:0:0:
451,312,92638,2,0,P|417:270|343:264,1,103.999995239258,0|2,3:0|0:0,0:0:0:0:
265,313,93060,1,0,1:0:0:0:
199,192,93272,1,2,0:0:0:0:
320,121,93483,6,0,P|371:114|443:73,1,103.999995239258,0|2,3:0|0:0,0:0:0:0:
498,119,93800,1,0,0:0:0:0:
498,119,93906,6,0,P|512:144|528:185,1,51.999997619629,0|8,1:0|3:0,0:0:0:0:
463,225,94117,1,8,3:0:0:0:
417,213,94222,1,0,3:0:0:0:
379,247,94328,5,4,3:0:0:0:
353,262,94434,1,4,3:0:0:0:
325,260,94539,1,0,3:0:0:0:
329,264,94751,5,0,1:0:0:0:
282,253,94856,1,0,1:0:0:0:
277,207,94962,1,8,0:0:0:0:
321,188,95067,1,8,0:0:0:0:
351,223,95173,1,0,0:0:0:0:
256,192,95279,12,0,96916,0:0:0:0:
