osu file format v14

[General]
AudioFilename: audio.mp3
AudioLeadIn: 0
PreviewTime: 68026
Countdown: 0
SampleSet: Soft
StackLeniency: 0.5
Mode: 0
LetterboxInBreaks: 0
WidescreenStoryboard: 1

[Editor]
DistanceSpacing: 2
BeatDivisor: 8
GridSize: 4
TimelineZoom: 2.099999

[Metadata]
Title:Koisuru Kirigirisu (Short Ver.)
TitleUnicode:恋するキリギリス (Short Ver.)
Artist:yuki
ArtistUnicode:yuki
Creator:Misure
Version:Koiyuki's Insane
Source:白昼夢の青写真
Tags:wyrio Kuse KuBsNia_ZhoYL_ Affirmation Neoskylove Koiyuki Minakami Yuki mtbbsben Laplacian Hakuchuumu no Aojashin The girl who's whos called the world momo 緒乃ワサビ case3 visual novel vn eroge op opening short version japanese pop video game
BeatmapID:2759709
BeatmapSetID:1298234

[Difficulty]
HPDrainRate:5
CircleSize:4.2
OverallDifficulty:7
ApproachRate:8.3
SliderMultiplier:1.6
SliderTickRate:1

[Events]
//Background and Video events
0,0,"bg.jpg",0,0
Video,-90,"video.flv"
//Break Periods
//Storyboard Layer 0 (Background)
//Storyboard Layer 1 (Fail)
//Storyboard Layer 2 (Pass)
//Storyboard Layer 3 (Foreground)
//Storyboard Layer 4 (Overlay)
//Storyboard Sound Samples

[TimingPoints]
8990,422.535211267606,4,2,1,45,1,0
8990,-200,4,2,1,45,0,0
15737,422.535211267606,4,2,1,55,1,0
20807,-200,4,2,1,55,0,0
22497,-100,4,2,1,55,0,0
36018,-100,4,2,1,45,0,0
64539,-100,4,2,1,55,0,0
67075,-200,4,2,1,45,0,0
68131,-100,4,2,1,75,0,1
81229,-100,4,2,1,75,0,0
81652,-100,4,2,1,75,0,1
95067,-100,4,2,1,65,0,1
95173,-100,4,2,1,55,0,0
95279,-100,4,2,1,5,0,0

[Colours]
Combo1 : 4,253,179
Combo2 : 87,203,253
Combo3 : 253,134,232
Combo4 : 137,137,197

[HitObjects]
38,311,8990,6,0,P|96:296|155:290,1,120,2|0,0:0|0:0,0:0:0:0:
206,194,9835,2,0,P|118:212|78:215,1,120,2|0,0:0|0:0,0:0:0:0:
184,351,10680,2,0,P|189:272|206:194,1,160,2|0,0:0|0:0,0:0:0:0:
351,126,12370,6,0,P|349:64|338:5,1,120,2|0,0:0|0:0,0:0:0:0:
470,114,13215,2,0,P|411:124|351:126,1,120,2|0,0:0|0:0,0:0:0:0:
206,194,14060,2,0,P|285:197|363:217,1,160,2|2,0:0|0:0,0:0:0:0:
439,293,15116,1,0,0:0:0:0:
446,286,15222,1,0,0:0:0:0:
453,279,15328,2,0,L|447:318,1,40,0|0,0:0|0:0,0:0:0:0:
399,199,15737,6,0,P|446:193|496:183,1,80,0|0,3:0|0:0,0:0:0:0:
371,363,16159,2,0,P|324:357|274:347,1,80,0|0,3:0|0:0,0:0:0:0:
165,280,16582,1,0,3:0:0:0:
165,280,16793,1,0,0:0:0:0:
228,208,17004,2,0,P|237:153|239:119,1,80,0|0,3:0|0:0,0:0:0:0:
13,7,17427,6,0,P|20:86|22:166,1,160,0|0,3:0|3:0,0:0:0:0:
140,91,18060,1,0,0:0:0:0:
102,178,18272,2,0,P|62:174|23:167,1,80,0|0,3:0|0:0,0:0:0:0:
229,113,18694,2,0,P|291:105|362:100,1,120,0|0,3:0|0:0,0:0:0:0:
376,71,19117,6,0,L|466:80,1,80,0|0,3:0|0:0,0:0:0:0:
512,195,19539,2,0,L|432:187,1,80,0|0,3:0|0:0,0:0:0:0:
229,113,19962,2,0,P|220:58|218:24,1,80,0|0,3:0|0:0,0:0:0:0:
361,244,20384,2,0,P|370:299|372:333,1,80,0|0,3:0|0:0,0:0:0:0:
175,181,20807,6,0,B|155:98|218:34|218:34|219:75|229:113,1,240,2|8,0:0|3:2,0:0:0:0:
175,181,22497,6,0,P|135:177|95:171,1,80,6|2,0:0|0:0,0:0:0:0:
264,217,22920,2,0,P|303:211|343:208,1,80,0|2,1:0|0:0,0:0:0:0:
429,166,23342,2,0,P|431:111|437:39,1,120,0|0,3:0|0:0,0:0:0:0:
458,12,23765,1,0,1:0:0:0:
458,12,23976,1,2,0:0:0:0:
324,99,24187,6,0,P|284:104|244:107,1,80,0|2,3:0|0:0,0:0:0:0:
132,47,24610,2,0,P|130:86|128:126,1,80,0|2,1:0|0:0,0:0:0:0:
222,14,25032,1,0,3:0:0:0:
222,14,25138,1,0,3:0:0:0:
222,14,25244,1,8,0:1:0:0:
134,147,25455,1,8,1:0:0:0:
42,80,25666,1,2,0:0:0:0:
42,80,25772,1,2,0:0:0:0:
42,80,25877,6,0,P|39:151|31:245,1,160,0|0,3:0|1:0,0:0:0:0:
96,351,26511,1,2,0:0:0:0:
171,293,26722,2,0,P|248:272|327:269,1,160,0|0,3:0|1:0,0:0:0:0:
447,316,27356,1,2,0:0:0:0:
357,348,27567,6,0,P|359:276|367:182,1,160,0|0,3:0|1:0,0:0:0:0:
303,77,28201,1,2,0:0:0:0:
381,21,28413,1,0,3:0:0:0:
409,48,28518,2,0,P|454:57|499:59,1,80,0|0,1:0|0:0,0:0:0:0:
509,136,28835,2,0,P|503:199|501:263,1,120,0|0,1:0|0:0,0:0:0:0:
447,316,29258,6,0,P|402:307|357:305,1,80,6|2,0:0|0:0,0:0:0:0:
217,251,29680,2,0,P|256:242|296:239,1,80,0|2,1:0|0:0,0:0:0:0:
168,334,30103,2,0,L|39:322,1,120,0|0,3:0|0:0,0:0:0:0:
17,347,30525,1,0,1:0:0:0:
17,347,30737,1,2,0:0:0:0:
217,251,30948,6,0,P|214:214|206:164,1,80,0|2,3:0|0:0,0:0:0:0:
73,119,31370,2,0,P|76:156|84:206,1,80,0|2,1:0|0:0,0:0:0:0:
168,334,31793,1,0,3:0:0:0:
168,334,31898,1,0,3:0:0:0:
168,334,32004,1,8,0:1:0:0:
319,284,32215,2,0,P|383:287|445:301,1,120,8|0,1:0|0:0,0:0:0:0:
506,255,32638,6,0,P|498:188|492:84,1,160,0|0,3:0|1:0,0:0:0:0:
339,145,33272,1,2,0:0:0:0:
399,70,33483,2,0,P|329:51|250:109,1,160,0|0,3:0|1:0,0:0:0:0:
319,284,34117,1,2,0:0:0:0:
234,233,34328,6,0,P|195:234|155:241,1,80,0|2,3:0|0:0,0:0:0:0:
51,315,34751,1,0,1:0:0:0:
41,313,34856,1,8,3:0:0:0:
31,311,34962,1,8,3:0:0:0:
21,310,35067,1,0,3:0:0:0:
11,309,35173,2,0,L|17:360,2,40,4|4|0,3:0|3:0|3:0,0:0:0:0:
93,169,35596,5,0,1:0:0:0:
95,129,35701,1,0,1:0:0:0:
78,93,35807,1,8,0:0:0:0:
46,70,35912,1,8,0:0:0:0:
7,66,36018,6,0,P|87:57|146:47,1,120,4|0,3:2|0:0,0:0:0:0:
153,20,36441,2,0,P|197:23|244:28,1,80,0|0,1:0|0:0,0:0:0:0:
312,165,36863,1,8,3:2:0:0:
407,153,37180,1,8,3:2:0:0:
502,141,37497,1,0,1:0:0:0:
312,165,37920,5,0,3:0:0:0:
312,165,38131,2,0,P|273:160|233:155,1,80,0|0,3:0|0:0,0:0:0:0:
407,153,38553,1,0,3:0:0:0:
349,76,38765,2,0,P|300:70|264:66,1,80,0|0,1:0|0:0,0:0:0:0:
490,28,39187,1,0,3:0:0:0:
490,28,39293,1,0,3:0:0:0:
490,28,39398,6,0,P|497:103|503:192,1,160,0|0,3:0|1:0,0:0:0:0:
418,323,40032,1,0,0:0:0:0:
418,323,40138,1,0,0:0:0:0:
418,323,40244,1,8,3:2:0:0:
322,310,40560,1,8,3:2:0:0:
226,298,40877,1,0,1:0:0:0:
418,323,41300,5,0,3:0:0:0:
417,323,41511,2,0,P|457:316|497:311,1,80,0|0,3:0|0:0,0:0:0:0:
322,310,41934,1,0,3:0:0:0:
381,233,42145,2,0,P|420:226|460:221,1,80,0|0,1:0|0:0,0:0:0:0:
226,298,42567,1,0,3:0:0:0:
226,298,42673,1,0,3:0:0:0:
226,298,42779,6,0,P|165:306|90:324,1,120,0|0,3:0|0:0,0:0:0:0:
74,353,43201,2,0,P|82:316|88:266,1,80,0|0,1:0|0:0,0:0:0:0:
52,85,43624,1,8,3:2:0:0:
114,157,43941,1,8,3:2:0:0:
20,175,44258,1,0,1:0:0:0:
52,85,44680,5,0,3:0:0:0:
52,85,44891,2,0,P|46:45|38:6,1,80,0|0,3:0|0:0,0:0:0:0:
20,175,45314,1,0,3:0:0:0:
114,157,45525,2,0,L|197:166,1,80,0|0,1:0|0:0,0:0:0:0:
314,272,45948,1,0,3:0:0:0:
314,272,46053,1,0,3:0:0:0:
314,272,46159,6,0,P|393:263|473:257,1,160,0|0,3:0|1:0,0:0:0:0:
424,138,46793,1,0,0:0:0:0:
424,138,46898,1,0,0:0:0:0:
424,138,47004,1,8,3:2:0:0:
492,70,47321,1,8,3:2:0:0:
400,45,47638,1,0,1:0:0:0:
424,138,48060,5,0,3:0:0:0:
424,138,48272,2,0,P|416:191|413:229,1,80,0|0,3:0|0:0,0:0:0:0:
492,70,48694,1,0,3:0:0:0:
400,45,48906,2,0,P|352:52|314:56,1,80,0|0,1:0|0:0,0:0:0:0:
164,28,49328,1,0,3:0:0:0:
164,28,49434,1,0,3:0:0:0:
164,28,49539,6,0,P|84:19|4:13,1,160,6|0,3:2|1:0,0:0:0:0:
191,122,50173,1,2,0:0:0:0:
191,122,50279,1,2,0:0:0:0:
191,122,50384,2,0,P|123:114|56:109,2,120,2|2|2,3:1|3:1|1:0,0:0:0:0:
374,69,51441,5,0,3:0:0:0:
374,69,51652,2,0,P|368:108|364:148,1,80,0|0,3:0|0:0,0:0:0:0:
460,25,52075,1,0,3:0:0:0:
512,234,52286,2,0,P|432:240|352:248,1,160,0|0,1:0|3:0,0:0:0:0:
286,293,52814,1,0,3:0:0:0:
276,310,52920,6,0,P|204:343|127:329,1,160,0|0,3:0|1:0,0:0:0:0:
19,211,53553,1,2,0:0:0:0:
19,211,53659,1,2,0:0:0:0:
19,211,53765,2,0,P|17:155|2:69,2,120,2|2|2,3:1|3:1|1:0,0:0:0:0:
110,239,54821,5,0,3:0:0:0:
110,239,55032,2,0,P|108:199|98:139,1,80,0|0,3:0|0:0,0:0:0:0:
19,211,55455,1,0,3:0:0:0:
128,52,55666,2,0,P|208:46|288:38,1,160,0|0,1:0|3:0,0:0:0:0:
364,64,56194,1,0,3:0:0:0:
376,80,56300,6,0,P|342:129|242:126,1,160,0|0,3:0|1:0,0:0:0:0:
128,52,56934,1,2,0:0:0:0:
128,52,57039,1,2,0:0:0:0:
128,52,57145,2,0,P|71:41|0:36,2,120,2|2|2,3:1|3:1|1:0,0:0:0:0:
248,130,58201,5,0,3:0:0:0:
248,130,58413,2,0,P|291:124|336:117,1,80,0|0,3:0|0:0,0:0:0:0:
359,28,58835,1,0,3:0:0:0:
512,99,59046,2,0,P|472:94|433:88,1,80,0|0,1:0|0:0,0:0:0:0:
306,211,59469,1,0,3:0:0:0:
306,211,59575,1,0,3:0:0:0:
306,211,59680,6,0,P|243:223|164:229,1,120,0|0,3:0|3:0,0:0:0:0:
125,176,60103,1,8,3:0:0:0:
91,155,60208,1,0,0:0:0:0:
51,156,60314,1,8,3:0:0:0:
20,181,60419,1,0,0:0:0:0:
6,218,60525,2,0,L|13:280,4,40,0|0|4|4|0,3:0|3:0|3:0|3:0|3:0,0:0:0:0:
228,312,61159,6,0,P|303:297|398:290,1,160,0|0,1:0|0:0,0:0:0:0:
480,313,61793,1,0,3:0:0:0:
483,289,62215,1,8,3:0:0:0:
486,265,62638,1,0,1:0:0:0:
489,241,63060,5,0,3:0:0:0:
442,156,63483,1,0,3:0:0:0:
352,119,63906,1,0,3:0:0:0:
260,148,64328,1,0,1:0:0:0:
207,227,64539,6,0,P|132:242|37:249,1,160,6|0,0:0|0:0,0:0:0:0:
260,147,65173,2,0,P|268:108|272:69,1,80,0|0,3:0|0:0,0:0:0:0:
124,7,65596,2,0,P|115:46|111:85,1,80,0|0,3:0|0:0,0:0:0:0:
207,227,66018,1,0,1:0:0:0:
1,162,66229,5,0,3:0:0:0:
217,352,66652,1,0,3:0:0:0:
489,258,67075,2,0,P|490:199|494:139,1,120,0|8,3:0|3:2,0:0:0:0:
495,139,68131,6,0,P|493:98|487:52,1,80,6|2,0:0|0:0,0:0:0:0:
306,3,68553,2,0,P|308:44|314:90,1,80,0|2,1:0|0:0,0:0:0:0:
398,217,68976,1,0,3:0:0:0:
398,217,69082,2,0,P|357:220|300:229,1,80,8|0,0:0|0:0,0:0:0:0:
286,249,69398,2,0,P|281:288|279:328,1,80,0|2,1:0|0:0,0:0:0:0:
123,371,69821,5,0,3:0:0:0:
28,328,70032,1,2,0:0:0:0:
188,300,70244,2,0,P|193:260|195:220,1,80,0|2,1:0|0:0,0:0:0:0:
102,89,70666,1,0,3:0:0:0:
102,89,70772,1,0,3:0:0:0:
102,89,70877,2,0,P|99:69|96:49,1,40,8|0,0:1|0:0,0:0:0:0:
16,61,71089,2,0,P|24:120|32:184,1,120,8|2,1:0|0:0,0:0:0:0:
8,212,71511,6,0,P|48:214|116:226,1,80,0|0,3:0|0:0,0:0:0:0:
156,262,71828,1,0,0:0:0:0:
156,262,71934,1,0,1:0:0:0:
213,112,72145,2,0,P|212:102|210:92,3,20,2|0|0|0,0:0|0:0|0:0|0:0,0:0:0:0:
226,128,72356,2,0,P|304:114|391:108,1,160,0|0,3:0|1:0,0:0:0:0:
500,53,72990,1,2,0:0:0:0:
500,53,73096,1,2,0:0:0:0:
500,53,73201,6,0,P|495:97|491:146,1,80,0|0,3:0|0:0,0:0:0:0:
372,288,73624,2,0,P|376:327|380:367,1,80,0|2,1:0|0:0,0:0:0:0:
445,225,74046,1,0,3:0:0:0:
445,225,74152,1,0,1:0:0:0:
445,225,74258,1,0,3:0:0:0:
290,338,74469,2,0,P|219:325|141:320,1,120,0|2,1:0|0:0,0:0:0:0:
142,293,74891,6,0,P|149:345|151:377,1,80,6|0,0:0|0:0,0:0:0:0:
12,239,75314,2,0,P|5:187|3:155,1,80,0|2,1:0|0:0,0:0:0:0:
142,26,75737,1,0,3:0:0:0:
142,26,75842,2,0,P|149:78|151:110,1,80,8|0,0:0|0:0,0:0:0:0:
172,139,76159,2,0,P|132:132|93:126,1,80,0|2,1:0|0:0,0:0:0:0:
245,202,76582,5,0,3:0:0:0:
262,107,76793,1,2,0:0:0:0:
327,252,77004,2,0,P|366:245|406:239,1,80,0|2,1:0|0:0,0:0:0:0:
493,104,77427,1,0,3:0:0:0:
493,104,77532,1,0,3:0:0:0:
493,104,77638,2,0,L|486:61,1,40,8|0,0:1|0:0,0:0:0:0:
406,58,77849,2,0,P|345:66|284:76,1,120,8|0,1:0|0:0,0:0:0:0:
262,107,78272,6,0,P|223:103|184:94,1,80,0|0,3:0|0:0,0:0:0:0:
152,19,78589,1,0,0:0:0:0:
152,19,78694,1,0,1:0:0:0:
50,140,78906,2,0,L|30:136,3,20,2|0|0|0,0:0|0:0|0:0|0:0,0:0:0:0:
69,128,79117,2,0,P|80:187|90:301,1,160,0|0,3:0|1:0,0:0:0:0:
189,366,79751,1,2,0:0:0:0:
189,366,79856,1,2,0:0:0:0:
189,366,79962,6,0,P|227:356|267:352,1,80,0|2,3:0|0:0,0:0:0:0:
422,313,80384,1,0,1:0:0:0:
440,321,80490,1,8,3:0:0:0:
458,329,80596,2,0,L|454:266,1,40,8|0,3:0|3:0,0:0:0:0:
496,220,80807,2,0,L|500:157,2,40,4|4|0,3:0|3:0|3:0,0:0:0:0:
341,261,81229,5,0,1:0:0:0:
305,241,81335,1,0,1:0:0:0:
265,234,81441,1,8,0:0:0:0:
225,237,81546,1,8,0:0:0:0:
186,252,81652,6,0,P|148:263|109:270,1,80,6|2,0:0|0:0,0:0:0:0:
18,139,82075,2,0,P|56:127|95:120,1,80,0|2,1:0|0:0,0:0:0:0:
174,138,82391,1,2,0:0:0:0:
186,122,82497,2,0,P|184:81|177:42,1,80,0|2,3:0|0:0,0:0:0:0:
334,8,82920,1,0,1:0:0:0:
430,45,83131,1,2,0:0:0:0:
275,83,83342,6,0,P|276:122|283:162,1,80,0|2,3:0|0:0,0:0:0:0:
471,205,83765,2,0,L|460:352,1,120,0|0,1:0|0:0,0:0:0:0:
394,368,84187,1,0,3:0:0:0:
394,368,84293,1,0,3:0:0:0:
394,368,84398,2,0,L|352:363,1,40,8|0,0:1|0:0,0:0:0:0:
316,291,84610,2,0,P|256:296|190:309,1,120,8|2,1:0|0:0,0:0:0:0:
185,345,85032,6,0,P|148:339|89:336,1,80,0|0,3:0|0:0,0:0:0:0:
17,203,85455,1,0,1:0:0:0:
86,136,85666,2,0,L|82:102,3,20,2|0|0|0,0:0|0:0|0:0|0:0,0:0:0:0:
63,114,85877,2,0,P|66:75|76:22,1,80,0|2,3:0|0:0,0:0:0:0:
225,83,86300,2,0,P|222:122|212:175,1,80,0|2,1:0|0:0,0:0:0:0:
166,226,86617,1,2,0:0:0:0:
150,213,86722,6,0,P|225:189|305:192,1,160,0|0,3:0|1:0,0:0:0:0:
477,280,87356,1,2,0:0:0:0:
333,351,87567,1,0,3:0:0:0:
333,351,87673,2,0,P|331:311|321:252,1,80,0|0,1:0|0:0,0:0:0:0:
305,193,87990,1,0,1:0:0:0:
425,88,88201,1,2,3:2:0:0:
425,88,88307,1,0,3:0:0:0:
425,88,88413,6,0,P|428:49|438:-4,1,80,6|0,0:0|0:0,0:0:0:0:
237,95,88835,2,0,P|234:134|224:187,1,80,0|2,1:0|0:0,0:0:0:0:
174,235,89152,1,2,0:0:0:0:
157,223,89258,2,0,L|164:313,1,80,0|2,3:0|0:0,0:0:0:0:
84,357,89680,1,0,1:0:0:0:
7,299,89891,1,2,0:0:0:0:
157,223,90103,6,0,L|145:72,1,120,0|0,3:0|0:0,0:0:0:0:
132,24,90525,2,0,P|175:34|224:40,1,80,0|2,1:0|0:0,0:0:0:0:
419,102,90948,1,0,3:0:0:0:
382,85,91053,2,0,P|342:89|303:100,1,80,8|0,0:0|0:0,0:0:0:0:
251,160,91370,2,0,L|260:279,1,120,8|2,1:0|0:0,0:0:0:0:
302,348,91793,6,0,P|378:362|444:293,1,160,0|0,3:0|1:0,0:0:0:0:
251,160,92427,1,2,0:0:0:0:
168,208,92638,2,0,P|125:201|80:195,1,80,0|2,3:0|0:0,0:0:0:0:
24,51,93060,2,0,P|67:58|112:64,1,80,0|2,1:0|0:0,0:0:0:0:
172,22,93377,1,2,0:0:0:0:
172,22,93483,5,0,3:0:0:0:
88,196,93694,1,2,0:0:0:0:
251,160,93906,1,0,1:0:0:0:
247,140,94011,1,8,3:0:0:0:
243,120,94117,2,0,L|284:124,1,40,8|0,3:0|3:0,0:0:0:0:
344,72,94328,2,0,L|383:68,2,40,4|4|0,3:0|3:0|3:0,0:0:0:0:
490,196,94751,5,0,1:0:0:0:
446,177,94856,1,0,1:0:0:0:
398,184,94962,1,8,0:0:0:0:
362,215,95067,1,8,0:0:0:0:
347,261,95173,5,0,0:0:0:0:
256,192,95279,12,0,96916,0:0:0:0:
