osu file format v14

[General]
AudioFilename: audio.mp3
AudioLeadIn: 0
PreviewTime: 68026
Countdown: 0
SampleSet: Soft
StackLeniency: 0.5
Mode: 0
LetterboxInBreaks: 0
WidescreenStoryboard: 1

[Editor]
DistanceSpacing: 0.9
BeatDivisor: 4
GridSize: 32
TimelineZoom: 1.1

[Metadata]
Title:Koisuru Kirigirisu (Short Ver.)
TitleUnicode:恋するキリギリス (Short Ver.)
Artist:yuki
ArtistUnicode:yuki
Creator:Misure
Version:AF's Normal
Source:白昼夢の青写真
Tags:wyrio Kuse KuBsNia_ZhoYL_ Affirmation Neoskylove Koiyuki Minakami Yuki mtbbsben Laplacian Hakuchuumu no Aojashin The girl who's whos called the world momo 緒乃ワサビ case3 visual novel vn eroge op opening short version japanese pop video game
BeatmapID:2733436
BeatmapSetID:1298234

[Difficulty]
HPDrainRate:4.6
CircleSize:3.3
OverallDifficulty:4.3
ApproachRate:5.3
SliderMultiplier:0.999999999999999
SliderTickRate:1

[Events]
//Background and Video events
0,0,"bg.jpg",0,0
Video,-90,"video.flv"
//Break Periods
//Storyboard Layer 0 (Background)
//Storyboard Layer 1 (Fail)
//Storyboard Layer 2 (Pass)
//Storyboard Layer 3 (Foreground)
//Storyboard Layer 4 (Overlay)
//Storyboard Sound Samples

[TimingPoints]
8990,422.535211267606,4,2,1,45,1,0
8990,-90.9090909090909,4,2,1,45,0,0
15737,422.535211267606,4,2,1,55,1,0
15737,-90.9090909090909,4,2,1,55,0,0
20807,-90.9090909090909,4,2,1,50,0,0
21441,-90.9090909090909,4,2,1,65,0,0
21652,-90.9090909090909,4,2,1,70,0,0
21863,-90.9090909090909,4,2,1,75,0,0
22075,-90.9090909090909,4,2,1,40,0,0
22497,-90.9090909090909,4,2,1,70,0,0
36018,-90.9090909090909,4,2,1,60,0,0
61159,-90.9090909090909,4,2,1,50,0,0
64539,-90.9090909090909,4,2,1,60,0,0
65173,-90.9090909090909,4,2,1,65,0,0
66229,-90.9090909090909,4,2,1,70,0,0
67075,-90.9090909090909,4,2,1,75,0,0
67708,-90.9090909090909,4,2,1,60,0,0
68131,-90.9090909090909,4,2,1,75,0,1
81229,-90.9090909090909,4,2,1,75,0,0
81652,-90.9090909090909,4,2,1,75,0,1
95173,-90.9090909090909,4,2,1,50,0,0

[Colours]
Combo1 : 4,253,179
Combo2 : 87,203,253
Combo3 : 253,134,232
Combo4 : 137,137,197

[HitObjects]
278,52,8990,5,2,0:0:0:0:
368,12,9412,1,0,0:0:0:0:
440,79,9835,2,0,P|450:132|434:184,1,110.000003356934,2|0,0:0|0:0,0:0:0:0:
387,272,10680,2,0,L|496:278,2,110.000003356934,2|0|0,0:0|0:0|0:0,0:0:0:0:
208,356,12370,6,0,B|184:314|184:314|198:254,1,110.000003356934,2|0,0:0|0:0,0:0:0:0:
283,204,13215,1,2,0:0:0:0:
197,155,13637,1,0,0:0:0:0:
111,205,14060,2,0,B|68:164|68:164|102:7,1,220.000006713867
295,51,15737,6,0,L|404:48,1,110.000003356934,0|0,3:0|3:0,0:0:0:0:
439,140,16582,1,0,3:0:0:0:
359,198,17004,1,0,3:0:0:0:
400,287,17427,2,0,L|509:289,2,110.000003356934,0|0|0,3:0|3:0|3:0,0:0:0:0:
315,338,18694,1,0,3:0:0:0:
243,269,19117,6,0,P|224:217|238:165,1,110.000003356934,0|0,3:0|3:0,0:0:0:0:
312,101,19962,1,0,3:0:0:0:
245,28,20384,2,0,L|190:26,1,55.0000016784668,0|0,3:0|0:0,0:0:0:0:
143,8,20807,2,2,B|149:117|149:117|89:209|89:209|95:318,1,330.000010070801,2|8,0:0|3:2,0:0:0:0:
194,311,22497,6,0,P|247:298|301:305,1,110.000003356934,6|0,0:0|1:0,0:0:0:0:
341,334,23131,1,2,0:0:0:0:
341,334,23342,1,0,3:0:0:0:
412,264,23765,2,0,L|411:209,1,55.0000016784668,0|2,1:0|0:0,0:0:0:0:
389,164,24187,2,0,B|433:183|433:183|492:165,1,110.000003356934,0|0,3:0|1:0,0:0:0:0:
499,66,25032,2,0,L|444:66,1,55.0000016784668,0|8,3:0|0:1,0:0:0:0:
405,35,25455,2,0,L|350:35,1,55.0000016784668,8|2,1:0|0:0,0:0:0:0:
311,4,25877,5,0,3:0:0:0:
225,53,26300,2,0,P|216:79|217:106,1,55.0000016784668,0|2,1:0|0:0,0:0:0:0:
230,155,26722,2,0,L|120:153,1,110.000003356934,0|0,3:0|1:0,0:0:0:0:
73,240,27567,2,0,L|182:241,1,110.000003356934,0|0,3:0|1:0,0:0:0:0:
220,274,28201,1,2,0:0:0:0:
220,274,28413,2,0,P|223:301|218:328,2,55.0000016784668,0|0|0,3:0|3:0|1:0,0:0:0:0:
303,221,29258,6,0,B|348:240|348:240|406:222,1,110.000003356934,6|0,0:0|1:0,0:0:0:0:
442,187,29891,1,2,0:0:0:0:
442,187,30103,1,0,3:0:0:0:
365,124,30525,2,0,L|363:69,1,55.0000016784668,0|2,1:0|0:0,0:0:0:0:
343,23,30948,2,0,P|290:8|241:31,1,110.000003356934,0|0,3:0|1:0,0:0:0:0:
171,100,31793,2,0,L|116:98,2,55.0000016784668,0|8|8,3:0|0:1|1:0,0:0:0:0:
192,196,32638,6,0,L|82:192,1,110.000003356934,0|0,3:0|1:0,0:0:0:0:
36,212,33272,1,2,0:0:0:0:
36,212,33483,2,0,P|27:266|37:319,1,110.000003356934,0|0,3:0|1:0,0:0:0:0:
84,336,34117,1,2,0:0:0:0:
84,336,34328,2,0,B|170:307|257:336|228:364|315:393|402:364,1,330.000010070801,0|0,3:0|1:0,0:0:0:0:
469,290,36018,5,4,3:2:0:0:
461,191,36441,1,0,1:0:0:0:
454,92,36863,2,0,L|457:9,2,82.5000025177002,8|8|0,3:2|3:2|1:0,0:0:0:0:
409,113,37708,2,0,P|381:115|354:110,1,55.0000016784668,0|0,0:0|3:0,0:0:0:0:
311,86,38131,1,0,3:0:0:0:
226,137,38553,1,0,3:0:0:0:
226,137,38765,2,0,L|231:246,1,110.000003356934,0|0,1:0|3:0,0:0:0:0:
246,293,39398,5,0,3:0:0:0:
146,290,39821,1,0,1:0:0:0:
45,287,40244,2,0,P|38:327|42:368,2,82.5000025177002,8|8|0,3:2|3:2|1:0,0:0:0:0:
98,201,41300,2,0,L|96:146,1,55.0000016784668,0|0,3:0|3:0,0:0:0:0:
60,53,41934,1,0,3:0:0:0:
60,53,42145,2,0,L|170:57,1,110.000003356934,0|0,1:0|3:0,0:0:0:0:
206,90,42779,5,0,3:0:0:0:
300,61,43201,1,0,1:0:0:0:
389,102,43624,2,0,P|396:61|389:21,2,82.5000025177002,8|8|0,3:2|3:2|1:0,0:0:0:0:
371,148,44469,2,0,L|425:152,1,55.0000016784668,0|0,0:0|3:0,0:0:0:0:
468,177,44891,1,0,3:0:0:0:
400,249,45314,1,0,3:0:0:0:
400,249,45525,2,0,L|290:257,1,110.000003356934,0|0,1:0|3:0,0:0:0:0:
245,279,46159,5,0,3:0:0:0:
152,243,46582,1,0,1:0:0:0:
61,281,47004,2,0,P|65:321|61:362,2,82.5000025177002,8|8|0,3:2|3:2|1:0,0:0:0:0:
10,195,48060,2,0,L|12:140,1,55.0000016784668,0|0,3:0|3:0,0:0:0:0:
74,62,48694,1,0,3:0:0:0:
74,62,48906,2,0,B|113:91|113:91|172:75,1,110.000003356934,0|0,1:0|3:0,0:0:0:0:
216,53,49539,5,6,3:2:0:0:
262,140,49962,1,0,1:0:0:0:
200,217,50384,2,0,L|117:213,2,82.5000025177002,2|2|2,3:1|3:1|1:0,0:0:0:0:
278,277,51441,2,0,L|280:331,2,55.0000016784668,0|0|0,3:0|3:0|0:0,0:0:0:0:
303,234,52075,1,0,3:0:0:0:
303,234,52286,2,0,P|356:222|410:230,1,110.000003356934,0|0,1:0|3:0,0:0:0:0:
451,259,52920,5,0,3:0:0:0:
498,172,53342,1,0,1:0:0:0:
441,90,53765,2,0,L|442:7,2,82.5000025177002,2|2|2,3:1|3:1|1:0,0:0:0:0:
348,124,54821,1,0,3:0:0:0:
348,124,55032,2,0,P|294:119|252:85,1,110.000003356934,0|0,3:0|3:0,0:0:0:0:
210,57,55666,2,0,P|156:62|114:96,1,110.000003356934,0|0,1:0|3:0,0:0:0:0:
91,140,56300,5,0,3:0:0:0:
153,216,56722,1,0,1:0:0:0:
94,295,57145,2,0,L|12:292,2,82.5000025177002,2|2|2,3:1|3:1|1:0,0:0:0:0:
182,340,58201,1,0,3:0:0:0:
182,340,58413,2,0,B|226:313|226:313|281:331,1,110.000003356934,0|0,3:0|3:0,0:0:0:0:
329,358,59046,2,0,L|327:248,1,110.000003356934,0|0,1:0|3:0,0:0:0:0:
352,205,59680,5,0,3:0:0:0:
306,117,60103,1,8,3:0:0:0:
360,34,60525,2,0,L|414:38,2,55.0000016784668,0|4|0,3:0|3:0|3:0,0:0:0:0:
314,13,61159,2,0,L|204:22,1,110.000003356934,0|0,1:0|0:0,0:0:0:0:
155,12,61793,1,0,3:0:0:0:
148,110,62215,1,8,3:0:0:0:
141,208,62638,1,0,1:0:0:0:
201,286,63060,6,0,B|248:266|248:266|304:282,1,110.000003356934,0|0,3:0|3:0,0:0:0:0:
393,326,63906,2,0,L|395:216,1,110.000003356934,0|0,3:0|1:0,0:0:0:0:
440,194,64539,2,0,L|437:84,1,110.000003356934,6|0,0:0|0:0,0:0:0:0:
401,48,65173,1,0,3:0:0:0:
302,55,65596,1,0,3:0:0:0:
203,62,66018,1,0,1:0:0:0:
203,62,66229,6,0,L|93:57,1,110.000003356934,0|0,3:0|3:0,0:0:0:0:
66,152,67075,2,2,L|230:159,1,165.0000050354,0|8,3:0|3:2,0:0:0:0:
326,185,68131,6,0,P|328:212|321:238,1,55.0000016784668,6|2,0:0|0:0,0:0:0:0:
291,278,68553,1,0,1:0:0:0:
222,350,68976,2,0,L|167:347,1,55.0000016784668,0|2,3:0|0:0,0:0:0:0:
121,364,69398,1,0,1:0:0:0:
45,299,69821,2,0,L|47:244,1,55.0000016784668,0|2,3:0|0:0,0:0:0:0:
84,209,70244,2,0,L|81:154,1,55.0000016784668,0|2,1:0|0:0,0:0:0:0:
56,111,70666,2,0,L|1:108,2,55.0000016784668,0|8|8,3:0|0:1|1:0,0:0:0:0:
138,56,71511,5,0,3:0:0:0:
223,106,71934,1,0,1:0:0:0:
301,45,72356,2,0,L|355:43,1,55.0000016784668,0|2,3:0|0:0,0:0:0:0:
393,76,72779,2,0,L|447:74,1,55.0000016784668,0|2,1:0|0:0,0:0:0:0:
484,106,73201,2,0,P|494:160|481:214,1,110.000003356934,0|0,3:0|1:0,0:0:0:0:
451,253,73835,1,2,0:0:0:0:
421,292,74046,2,0,L|422:346,2,55.0000016784668,0|0|0,3:0|3:0|1:0,0:0:0:0:
344,228,74891,6,0,L|289:229,1,55.0000016784668,6|0,0:0|0:0,0:0:0:0:
247,256,75314,1,0,1:0:0:0:
161,206,75737,2,0,L|106:204,1,55.0000016784668,0|2,3:0|0:0,0:0:0:0:
64,178,76160,1,0,1:0:0:0:
114,92,76582,2,0,L|168:90,1,55.0000016784668,0|2,3:0|0:0,0:0:0:0:
215,108,77004,2,0,L|269:106,1,55.0000016784668,0|2,1:0|0:0,0:0:0:0:
309,76,77427,2,0,P|304:49|306:21,2,55.0000016784668,0|8|8,3:0|0:1|1:0,0:0:0:0:
367,156,78272,5,0,3:0:0:0:
291,220,78694,1,0,1:0:0:0:
338,306,79117,2,0,L|447:307,1,110.000003356934,0|0,3:0|1:0,0:0:0:0:
469,263,79751,1,2,0:0:0:0:
489,218,79962,2,0,P|496:163|487:109,1,110.000003356934,0|0,3:0|1:0,0:0:0:0:
401,60,80807,2,0,L|402:5,2,55.0000016784668,4|0|0,3:0|3:0|1:0,0:0:0:0:
327,125,81652,6,0,P|299:129|272:126,1,55.0000016784668,6|2,0:0|0:0,0:0:0:0:
225,109,82075,1,0,1:0:0:0:
135,150,82497,2,0,P|131:177|134:204,1,55.0000016784668,0|2,3:0|0:0,0:0:0:0:
152,252,82920,1,0,1:0:0:0:
221,321,83342,2,0,L|275:318,1,55.0000016784668,0|2,3:0|0:0,0:0:0:0:
317,291,83765,2,0,L|371:288,1,55.0000016784668,0|2,1:0|0:0,0:0:0:0:
412,316,84187,2,0,L|409:370,2,55.0000016784668,0|8|8,3:0|0:1|1:0,0:0:0:0:
471,236,85032,5,0,3:0:0:0:
415,153,85455,1,0,1:0:0:0:
490,90,85877,2,0,P|494:62|490:35,1,55.0000016784668,0|2,3:0|0:0,0:0:0:0:
446,13,86300,2,0,L|391:15,1,55.0000016784668,0|2,1:0|0:0,0:0:0:0:
354,49,86722,2,0,L|244:43,1,110.000003356934,0|0,3:0|1:0,0:0:0:0:
201,69,87356,1,2,0:0:0:0:
157,94,87567,2,0,L|102:91,2,55.0000016784668,0|0|0,3:0|3:0|1:0,0:0:0:0:
231,159,88413,6,0,P|232:186|228:213,1,55.0000016784668,6|0,0:0|0:0,0:0:0:0:
195,250,88835,1,0,1:0:0:0:
274,309,89258,2,0,L|328:308,1,55.0000016784668,0|2,3:0|0:0,0:0:0:0:
371,333,89680,2,0,L|425:332,1,55.0000016784668,0|2,1:0|0:0,0:0:0:0:
468,357,90103,1,0,3:0:0:0:
499,263,90525,1,0,1:0:0:0:
435,187,90948,2,0,P|432:159|433:132,1,55.0000016784668,0|8,3:0|0:1,0:0:0:0:
461,91,91370,1,8,1:0:0:0:
387,24,91793,6,0,L|277:25,1,110.000003356934,0|0,3:0|1:0,0:0:0:0:
228,33,92427,1,2,0:0:0:0:
179,40,92638,2,0,P|166:94|172:148,1,110.000003356934,0|0,3:0|1:0,0:0:0:0:
191,194,93272,1,2,0:0:0:0:
210,240,93483,2,0,L|100:241,2,110.000003356934,0|0|4,3:0|1:0|3:0,0:0:0:0:
296,191,94751,2,0,L|350:190,1,55.0000016784668,0|8,1:0|0:0,0:0:0:0:
393,215,95173,5,0,0:0:0:0:
256,192,95279,12,0,96916,0:0:0:0:
