osu file format v14

[General]
AudioFilename: audio.mp3
AudioLeadIn: 0
PreviewTime: 67956
Countdown: 0
SampleSet: Soft
StackLeniency: 0.4
Mode: 0
LetterboxInBreaks: 0
WidescreenStoryboard: 0

[Editor]
DistanceSpacing: 1.4
BeatDivisor: 4
GridSize: 32
TimelineZoom: 2.1

[Metadata]
Title:Koisuru Kirigirisu (Short Ver.)
TitleUnicode:恋するキリギリス (Short Ver.)
Artist:yuki
ArtistUnicode:yuki
Creator:Koyorin-sama
Version:Sparklings
Source:白昼夢の青写真
Tags:Cyanotype Daydream CASE-3 Laplacian Official onoWasabi The Girl Who Dreamed the World Silent Rock Pop Jpop J-pop Japanese 夢青 Musei yonagi opening op version Grasshopper in Love Hakuchuumu no Aojashin visual novel eroge video game who's called
BeatmapID:3408934
BeatmapSetID:1669278

[Difficulty]
HPDrainRate:5
CircleSize:4.2
OverallDifficulty:7.4
ApproachRate:8.5
SliderMultiplier:1.6
SliderTickRate:1

[Events]
//Background and Video events
0,0,"grasshopper.png",0,0
Video,-190,"video.flv"
//Break Periods
//Storyboard Layer 0 (Background)
//Storyboard Layer 1 (Fail)
//Storyboard Layer 2 (Pass)
//Storyboard Layer 3 (Foreground)
//Storyboard Layer 4 (Overlay)
//Storyboard Sound Samples

[TimingPoints]
8907,422.535211267606,4,2,11,50,1,0
8907,-166.666666666667,4,2,11,50,0,0
14399,-166.666666666667,4,2,11,50,0,0
14611,-166.666666666667,4,2,11,50,0,0
15033,-166.666666666667,4,2,11,30,0,0
15138,-166.666666666667,4,2,11,40,0,0
15245,-166.666666666667,4,2,11,50,0,0
15350,-166.666666666667,4,2,11,30,0,0
15667,-142.857142857143,4,2,11,60,0,0
19258,-142.857142857143,4,2,11,60,0,0
19470,-142.857142857143,4,2,11,60,0,0
19681,-142.857142857143,4,2,11,60,0,0
19892,-142.857142857143,4,2,11,60,0,0
20737,-1000,4,2,11,60,0,0
22428,-100,4,2,11,80,0,0
23484,-100,4,2,11,80,0,0
23695,-100,4,2,11,80,0,0
25279,-100,4,2,11,80,0,0
25385,-100,4,2,11,80,0,0
25490,-100,4,2,11,80,0,0
25597,-100,4,2,11,80,0,0
30244,-100,4,2,11,80,0,0
30456,-100,4,2,11,80,0,0
32040,-100,4,2,11,80,0,0
32146,-100,4,2,11,80,0,0
32251,-100,4,2,11,80,0,0
32357,-100,4,2,11,80,0,0
35949,-142.857142857143,4,2,11,70,0,0
39117,-142.857142857143,4,2,11,50,0,0
39223,-142.857142857143,4,2,11,60,0,0
39329,-142.857142857143,4,2,11,70,0,0
42497,-142.857142857143,4,2,11,50,0,0
42604,-142.857142857143,4,2,11,60,0,0
42709,-142.857142857143,4,2,11,70,0,0
45878,-142.857142857143,4,2,11,50,0,0
45984,-142.857142857143,4,2,11,60,0,0
46089,-142.857142857143,4,2,11,70,0,0
49681,-142.857142857143,4,2,11,70,0,0
49892,-142.857142857143,4,2,11,70,0,0
51160,-142.857142857143,4,2,11,70,0,0
51371,-142.857142857143,4,2,11,70,0,0
52638,-142.857142857143,4,2,11,50,0,0
52744,-142.857142857143,4,2,11,60,0,0
52850,-142.857142857143,4,2,11,70,0,0
54540,-142.857142857143,4,2,11,70,0,0
54751,-142.857142857143,4,2,11,70,0,0
56019,-142.857142857143,4,2,11,50,0,0
56125,-142.857142857143,4,2,11,60,0,0
56230,-142.857142857143,4,2,11,70,0,0
56441,-142.857142857143,4,2,11,70,0,0
56653,-142.857142857143,4,2,11,70,0,0
57920,-142.857142857143,4,2,11,70,0,0
58132,-142.857142857143,4,2,11,70,0,0
59399,-142.857142857143,4,2,11,50,0,0
59505,-142.857142857143,4,2,11,60,0,0
59611,-142.857142857143,4,2,11,70,0,0
66160,-111.111111111111,4,2,11,75,0,0
66477,-111.111111111111,4,2,11,5,0,0
66582,-111.111111111111,4,2,11,75,0,0
66899,-111.111111111111,4,2,11,5,0,0
67005,-111.111111111111,4,2,11,75,0,0
67216,-111.111111111111,4,2,11,75,0,0
67639,-111.111111111111,4,2,11,75,0,0
68061,-100,4,2,11,90,0,1
70913,-100,4,2,11,90,0,1
71019,-100,4,2,11,90,0,1
71124,-100,4,2,11,90,0,1
71230,-100,4,2,11,90,0,1
71336,-100,4,2,11,90,0,1
71442,-100,4,2,11,90,0,1
71653,-100,4,2,11,90,0,1
71864,-100,4,2,11,90,0,1
72075,-100,4,2,11,90,0,1
72287,-100,4,2,11,90,0,1
73871,-100,4,2,11,90,0,1
73977,-100,4,2,11,90,0,1
74610,-100,4,2,11,90,0,1
74822,-100,4,2,11,90,0,1
77673,-100,4,2,11,90,0,1
77780,-100,4,2,11,90,0,1
77885,-100,4,2,11,90,0,1
77991,-100,4,2,11,90,0,1
78097,-100,4,2,11,90,0,1
78202,-100,4,2,11,90,0,1
78413,-100,4,2,11,90,0,1
78625,-100,4,2,11,90,0,1
78836,-100,4,2,11,90,0,1
79047,-100,4,2,11,90,0,1
84434,-100,4,2,11,90,0,1
84540,-100,4,2,11,90,0,1
84645,-100,4,2,11,90,0,1
84751,-100,4,2,11,90,0,1
84857,-100,4,2,11,90,0,1
84963,-100,4,2,11,90,0,1
85174,-100,4,2,11,90,0,1
85385,-100,4,2,11,90,0,1
85596,-100,4,2,11,90,0,1
85808,-100,4,2,11,90,0,1
90244,-100,4,2,11,90,0,1
90456,-100,4,2,11,90,0,1
90667,-100,4,2,11,90,0,1
90878,-100,4,2,11,90,0,1
91512,-100,4,2,11,90,0,1
91723,-100,4,2,11,90,0,1
93624,-100,4,2,11,90,0,1
93836,-100,4,2,11,90,0,1
95104,-142.857142857143,4,2,11,50,0,0
96371,-142.857142857143,4,2,11,50,0,0
96582,-142.857142857143,4,2,11,50,0,0
96794,-250,4,2,11,50,0,0
97216,-250,4,2,11,30,0,0

[Colours]
Combo1 : 158,168,228
Combo2 : 234,170,230

[HitObjects]
105,20,8907,6,0,L|50:13,1,47.9999985351563,2|0,0:0|0:0,0:0:0:0:
182,69,9329,2,0,L|242:61,1,47.9999985351563,2|0,0:0|0:0,0:0:0:0:
105,118,9752,2,0,L|50:111,1,47.9999985351563,2|0,0:0|0:0,0:0:0:0:
184,163,10174,2,0,L|244:155,1,47.9999985351563,2|0,0:0|0:0,0:0:0:0:
107,213,10597,2,0,L|50:207,1,47.9999985351563,2|0,0:0|0:0,0:0:0:0:
187,254,11019,2,0,L|243:248,1,47.9999985351563,2|2,0:0|0:0,0:0:0:0:
302,195,11442,6,0,P|354:194|399:222,1,95.9999970703126,2|2,0:0|0:0,0:0:0:0:
449,278,12076,1,0,0:0:0:0:
358,371,12287,6,0,P|337:318|336:268,1,95.9999970703126,2|0,0:0|0:0,0:0:0:0:
187,372,13132,2,0,P|156:369|127:362,1,47.9999985351563,2|0,0:0|0:0,0:0:0:0:
60,330,13554,2,0,P|29:332|1:345,1,47.9999985351563,2|0,0:0|0:0,0:0:0:0:
128,287,13977,6,0,P|127:239|117:178,1,95.9999970703126,2|0,0:0|0:0,0:0:0:0:
59,130,14611,1,0,0:0:0:0:
142,107,14822,1,2,0:0:0:0:
213,154,15033,2,0,L|220:116,1,23.9999992675781,2|2,0:3|0:3,0:0:0:0:
250,61,15245,6,0,L|246:38,3,23.9999992675781,2|0|0|0,0:3|0:0|0:0|0:0,0:0:0:0:
363,38,15667,6,0,L|371:102,1,55.9999982910157,6|0,3:2|0:0,0:0:0:0:
450,89,16090,2,0,L|442:153,1,55.9999982910157,2|0,3:2|0:0,0:0:0:0:
368,172,16512,2,0,L|374:227,1,55.9999982910157,2|0,3:2|0:0,0:0:0:0:
455,223,16935,2,0,L|447:287,1,55.9999982910157,2|0,3:2|0:0,0:0:0:0:
370,309,17357,2,0,L|306:301,1,55.9999982910157,2|0,3:2|0:0,0:0:0:0:
261,362,17780,2,0,L|197:370,1,55.9999982910157,2|0,3:2|0:0,0:0:0:0:
136,329,18202,6,0,P|129:273|148:217,1,111.999996582031,2|6,3:2|3:2,0:0:0:0:
217,185,18836,1,0,0:0:0:0:
287,225,19047,6,0,P|317:224|346:215,1,55.9999982910157,2|0,3:2|0:0,0:0:0:0:
398,159,19470,2,0,P|406:130|406:99,1,55.9999982910157,2|0,3:2|0:0,0:0:0:0:
369,33,19892,2,0,P|322:6|250:17,1,111.999996582031,2|0,3:2|0:0,0:0:0:0:
202,59,20526,1,2,0:0:0:0:
270,108,20737,6,0,L|268:155,1,48,2|0,0:0|1:0,0:0:0:0:
140,379,22428,5,4,3:1:0:0:
194,228,22639,1,0,0:0:0:0:
37,257,22850,1,8,0:0:0:0:
124,290,23061,1,0,0:0:0:0:
180,139,23273,2,0,P|230:144|274:183,1,80,2|0,3:2|0:0,0:0:0:0:
319,371,23695,1,8,0:0:0:0:
362,214,23906,1,2,0:0:0:0:
475,330,24118,5,2,3:2:0:0:
293,280,24329,1,0,0:0:0:0:
454,240,24540,1,8,0:0:0:0:
319,371,24751,1,0,0:0:0:0:
201,257,24963,2,0,L|145:263,1,40,2|0,3:2|0:0,0:0:0:0:
175,377,25174,6,0,L|186:329,1,40,8|0,0:1|0:0,0:0:0:0:
154,145,25385,2,0,L|165:193,1,40,8|0,0:1|0:0,0:0:0:0:
293,280,25597,1,2,0:0:0:0:
328,278,25702,1,2,0:0:0:0:
360,262,25808,6,0,P|375:186|319:128,1,160,2|8,3:2|0:0,0:0:0:0:
154,145,26442,1,2,0:0:0:0:
222,20,26653,2,0,P|230:78|238:192,1,160,2|8,3:2|0:0,0:0:0:0:
209,321,27287,1,2,0:0:0:0:
11,266,27498,2,0,B|55:235|55:235|176:256,1,160,2|8,3:2|0:0,0:0:0:0:
262,377,28132,1,2,0:0:0:0:
397,343,28343,1,2,3:2:0:0:
362,339,28449,1,8,0:0:0:0:
327,335,28554,1,2,3:2:0:0:
462,301,28766,5,8,0:0:0:0:
462,301,29188,5,4,3:1:0:0:
441,138,29399,1,0,0:0:0:0:
311,237,29611,1,8,0:0:0:0:
404,223,29822,1,0,0:0:0:0:
257,317,30033,2,0,P|224:275|216:221,1,80,2|0,3:2|0:0,0:0:0:0:
311,51,30456,1,8,0:0:0:0:
148,3,30667,1,2,0:0:0:0:
168,194,30878,6,0,P|198:164|207:120,1,80,2|0,3:2|0:0,0:0:0:0:
67,206,31301,2,0,P|77:246|111:276,1,80,8|0,0:0|0:0,0:0:0:0:
98,119,31723,2,0,L|103:65,1,40,2|0,3:2|0:0,0:0:0:0:
219,80,31935,6,0,L|164:81,1,40,8|0,0:1|0:0,0:0:0:0:
6,24,32146,2,0,L|45:24,1,40,8|0,0:1|0:0,0:0:0:0:
163,170,32357,1,2,0:0:0:0:
156,205,32463,1,2,0:0:0:0:
132,232,32568,6,0,P|55:234|2:169,1,160,2|8,3:2|0:0,0:0:0:0:
107,35,33202,1,2,0:0:0:0:
248,155,33413,2,0,P|324:144|417:134,1,160,2|8,3:2|0:0,0:0:0:0:
505,263,34047,1,2,0:0:0:0:
406,384,34258,1,2,3:2:0:0:
350,237,34470,5,2,0:3:0:0:
315,228,34575,1,2,0:0:0:0:
280,237,34681,1,8,0:0:0:0:
254,262,34787,1,0,0:0:0:0:
226,284,34892,1,8,0:3:0:0:
190,290,34998,1,8,0:3:0:0:
155,280,35104,1,8,3:0:0:0:
129,255,35209,1,8,0:0:0:0:
118,220,35315,1,8,0:3:0:0:
122,184,35420,1,8,0:3:0:0:
145,156,35526,6,0,L|85:147,3,40,8|8|8|8,0:0|0:3|0:0|0:0,0:0:0:0:
229,115,35949,6,0,L|302:104,1,55.9999982910157,6|0,3:2|0:0,0:0:0:0:
410,170,36371,2,0,L|354:161,1,55.9999982910157,8|2,0:0|0:0,0:0:0:0:
297,292,36794,5,2,3:2:0:0:
297,292,37111,5,2,3:2:0:0:
297,292,37428,5,8,0:0:0:0:
198,194,37639,6,0,L|189:249,1,55.9999982910157,2|0,0:0|3:0,0:0:0:0:
166,384,38061,2,0,L|157:328,1,55.9999982910157,8|0,0:0|0:0,0:0:0:0:
108,255,38484,1,0,3:0:0:0:
156,122,38695,6,0,P|220:116|268:158,1,111.999996582031,10|8,0:0|0:0,0:0:0:0:
267,161,39223,1,8,0:0:0:0:
274,182,39329,1,2,3:2:0:0:
358,176,39540,5,2,0:0:0:0:
354,198,39646,1,2,0:0:0:0:
345,220,39751,2,0,P|324:248|290:262,1,55.9999982910157,8|2,0:0|0:0,0:0:0:0:
175,204,40174,5,2,3:2:0:0:
175,204,40491,5,2,3:2:0:0:
175,204,40808,6,0,P|114:200|73:242,1,111.999996582031,8|2,0:0|3:2,0:0:0:0:
165,340,41442,2,0,P|154:295|145:272,1,55.9999982910157,8|0,0:0|0:0,0:0:0:0:
73,317,41864,1,2,3:2:0:0:
243,297,42075,6,0,P|300:297|365:301,1,111.999996582031,8|8,0:0|0:0,0:0:0:0:
377,303,42604,1,8,0:0:0:0:
399,305,42709,1,2,3:2:0:0:
445,375,42920,5,2,0:0:0:0:
467,373,43026,1,2,0:0:0:0:
490,368,43132,2,0,P|488:334|481:296,1,55.9999982910157,8|2,0:0|0:0,0:0:0:0:
449,177,43554,5,2,3:2:0:0:
449,177,43871,5,2,3:2:0:0:
449,177,44188,5,8,0:0:0:0:
381,226,44399,6,0,P|346:224|313:220,1,55.9999982910157,2|0,0:0|3:0,0:0:0:0:
190,184,44822,2,0,P|225:186|258:190,1,55.9999982910157,8|0,0:0|0:0,0:0:0:0:
315,140,45244,1,0,3:0:0:0:
257,269,45456,6,0,P|214:262|143:257,1,111.999996582031,8|8,0:0|0:0,0:0:0:0:
123,257,45984,1,8,0:0:0:0:
100,257,46089,1,2,3:2:0:0:
45,322,46301,5,0,0:0:0:0:
29,185,46512,2,0,P|23:215|19:245,1,55.9999982910157,8|2,0:0|0:0,0:0:0:0:
78,115,46935,5,2,3:2:0:0:
78,115,47251,5,2,3:2:0:0:
78,115,47568,6,0,P|139:111|181:152,1,111.999996582031,8|2,0:0|3:2,0:0:0:0:
91,250,48202,2,0,P|99:209|112:186,1,55.9999982910157,8|0,0:0|0:0,0:0:0:0:
187,228,48625,1,2,3:2:0:0:
255,350,48836,6,0,P|313:353|384:360,1,111.999996582031,8|8,0:0|0:0,0:0:0:0:
389,359,49364,1,8,0:0:0:0:
411,359,49470,6,0,P|446:356|477:355,1,55.9999982910157,6|0,3:2|0:0,0:0:0:0:
442,217,49892,1,8,0:0:0:0:
502,278,50104,1,2,0:0:0:0:
368,260,50315,5,2,3:2:0:0:
368,260,50632,5,2,3:2:0:0:
368,260,50949,6,0,P|333:262|292:268,1,55.9999982910157,8|0,0:0|0:0,0:0:0:0:
237,303,51371,1,2,3:2:0:0:
215,164,51582,1,8,0:0:0:0:
177,239,51794,2,0,P|142:241|101:247,1,55.9999982910157,0|0,0:0|3:0,0:0:0:0:
0,178,52216,6,0,P|59:171|121:162,1,111.999996582031,8|8,0:0|0:0,0:0:0:0:
133,160,52744,1,8,0:0:0:0:
155,156,52850,1,2,3:2:0:0:
185,78,53061,5,0,0:0:0:0:
207,79,53167,1,2,0:3:0:0:
229,81,53273,1,8,0:0:0:0:
270,154,53484,1,2,0:0:0:0:
281,15,53695,5,2,3:2:0:0:
281,15,54012,5,2,3:2:0:0:
281,15,54329,6,0,P|313:21|350:31,1,55.9999982910157,8|0,0:0|0:0,0:0:0:0:
400,80,54751,1,0,3:0:0:0:
338,206,54963,1,8,0:0:0:0:
412,163,55174,2,0,P|449:168|485:178,1,55.9999982910157,2|0,0:0|3:0,0:0:0:0:
377,280,55597,6,0,P|317:284|255:300,1,111.999996582031,8|8,0:0|0:0,0:0:0:0:
246,305,56125,1,8,0:0:0:0:
225,312,56230,6,0,P|191:313|155:311,1,55.9999982910157,2|0,3:2|0:0,0:0:0:0:
45,249,56653,1,8,0:0:0:0:
128,238,56864,1,2,0:0:0:0:
70,111,57075,5,2,3:2:0:0:
70,111,57392,5,2,3:2:0:0:
70,111,57709,6,0,L|77:188,1,55.9999982910157,8|0,0:0|0:0,0:0:0:0:
160,160,58132,1,2,3:2:0:0:
297,135,58343,1,8,0:0:0:0:
241,197,58554,2,0,L|234:274,1,55.9999982910157,2|0,0:0|3:0,0:0:0:0:
301,378,58977,6,0,L|311:266,1,111.999996582031,8|8,0:0|0:0,0:0:0:0:
313,244,59505,1,8,0:0:0:0:
315,221,59611,2,0,L|320:165,1,55.9999982910157,2|0,3:2|0:0,0:0:0:0:
235,53,60033,5,8,0:0:0:0:
214,43,60139,1,8,0:3:0:0:
191,41,60244,1,2,0:0:0:0:
169,46,60350,1,8,0:3:0:0:
150,59,60456,1,8,3:0:0:0:
139,78,60561,1,8,0:3:0:0:
135,100,60667,1,2,3:2:0:0:
139,122,60773,1,8,3:0:0:0:
148,141,60878,5,0,3:0:0:0:
285,115,61089,6,0,P|341:120|413:127,1,111.999996582031,4|0,3:0|0:0,0:0:0:0:
454,188,61723,2,0,L|486:186,3,27.9999991455078,0|0|2|2,3:0|0:0|0:0|0:0,0:0:0:0:
445,265,62146,2,0,L|475:274,3,27.9999991455078,0|0|2|2,3:0|0:0|0:0|0:0,0:0:0:0:
345,210,62568,5,8,0:0:0:0:
322,210,62674,1,2,0:0:0:0:
299,213,62780,1,2,0:0:0:0:
277,217,62885,1,2,0:0:0:0:
256,225,62991,2,0,L|249:186,3,27.9999991455078,0|0|2|2,3:0|0:0|0:0|0:0,0:0:0:0:
284,304,63413,2,0,P|248:307|210:314,1,55.9999982910157,0|2,3:0|0:0,0:0:0:0:
163,363,63836,2,0,P|127:360|89:353,1,55.9999982910157,0|2,3:0|0:0,0:0:0:0:
9,257,64258,5,8,0:0:0:0:
89,142,64470,2,0,L|86:176,3,27.9999991455078,6|0|0|0,3:2|0:0|0:0|0:0,0:0:0:0:
47,69,64892,2,0,L|44:35,1,27.9999991455078,2|0,0:0|0:0,0:0:0:0:
120,0,65104,2,0,L|117:27,1,27.9999991455078,8|0,0:0|0:0,0:0:0:0:
192,68,65315,2,0,L|190:41,1,27.9999991455078,2|0,0:0|0:0,0:0:0:0:
265,0,65526,2,0,L|262:27,1,27.9999991455078,2|0,3:2|0:0,0:0:0:0:
337,68,65737,2,0,L|334:40,1,27.9999991455078,2|0,0:0|0:0,0:0:0:0:
409,0,65949,2,0,L|406:27,1,27.9999991455078,8|0,0:0|0:0,0:0:0:0:
484,138,66160,6,0,P|441:152|381:137,1,107.999996704102,2|0,3:2|0:0,0:0:0:0:
324,194,66582,2,0,P|362:230|375:282,1,107.999996704102,2|0,3:2|0:0,0:0:0:0:
384,364,67005,1,2,3:2:0:0:
307,329,67216,5,0,0:0:0:0:
236,372,67428,1,0,0:0:0:0:
193,235,67639,1,0,1:0:0:0:
193,235,68061,5,6,3:2:0:0:
34,215,68273,1,0,0:0:0:0:
130,87,68484,1,8,0:0:0:0:
122,173,68695,1,0,0:0:0:0:
201,38,68906,5,2,3:2:0:0:
278,173,69118,1,0,0:0:0:0:
357,38,69329,1,8,0:0:0:0:
281,90,69540,1,0,0:0:0:0:
335,237,69751,5,2,3:2:0:0:
436,117,69963,1,2,0:0:0:0:
278,173,70174,1,8,0:0:0:0:
406,282,70385,1,2,0:0:0:0:
363,161,70597,1,2,3:2:0:0:
470,208,70808,6,0,L|417:206,1,40,8|0,0:1|0:0,0:0:0:0:
275,97,71019,2,0,L|328:95,1,40,8|0,0:1|0:0,0:0:0:0:
229,236,71230,1,0,0:0:0:0:
193,239,71336,1,0,0:0:0:0:
157,230,71442,6,0,P|115:221|65:217,1,80,2|0,3:2|0:0,0:0:0:0:
31,376,71864,2,0,P|70:371|109:363,1,80,10|0,0:0|0:0,0:0:0:0:
259,313,72287,1,2,3:2:0:0:
406,373,72498,1,0,0:0:0:0:
385,216,72709,1,8,0:0:0:0:
342,319,72920,1,2,0:0:0:0:
462,250,73132,6,0,P|462:178|375:133,1,160,2|8,3:2|0:0,0:0:0:0:
291,236,73766,1,2,0:0:0:0:
255,237,73871,1,0,0:0:0:0:
222,221,73977,1,2,3:2:0:0:
197,194,74082,1,8,0:0:0:0:
188,158,74188,1,2,3:2:0:0:
248,14,74399,2,0,P|244:57|233:106,1,80,8|0,0:0|0:0,0:0:0:0:
45,197,74822,5,6,3:2:0:0:
4,43,75033,1,0,0:0:0:0:
158,84,75244,1,8,0:0:0:0:
70,110,75456,1,0,0:0:0:0:
227,143,75667,5,2,3:2:0:0:
119,262,75878,1,0,0:0:0:0:
70,110,76089,1,8,0:0:0:0:
138,172,76301,1,0,0:0:0:0:
244,57,76512,5,2,3:2:0:0:
290,206,76723,1,2,0:0:0:0:
397,92,76935,1,8,0:0:0:0:
355,269,77146,1,2,0:0:0:0:
312,119,77357,1,2,3:2:0:0:
417,182,77568,6,0,L|363:181,1,40,8|0,0:1|0:0,0:0:0:0:
188,144,77780,2,0,L|242:145,1,40,8|0,0:1|0:0,0:0:0:0:
259,289,77991,1,0,0:0:0:0:
256,325,78097,1,0,0:0:0:0:
247,359,78202,6,0,P|201:366|152:366,1,80,2|0,3:2|0:0,0:0:0:0:
22,305,78625,2,0,P|61:306|101:312,1,80,10|0,0:0|0:0,0:0:0:0:
135,143,79047,6,0,P|183:205|177:291,1,160,2|8,3:2|0:0,0:0:0:0:
109,231,79681,1,2,0:0:0:0:
261,207,79892,2,0,P|304:201|343:204,1,80,2|0,3:2|0:0,0:0:0:0:
505,206,80315,5,8,0:0:0:0:
509,241,80420,1,8,0:3:0:0:
496,275,80526,1,8,0:3:0:0:
472,302,80632,1,8,0:3:0:0:
438,312,80737,1,2,3:2:0:0:
402,303,80843,1,8,0:0:0:0:
374,280,80949,1,0,3:0:0:0:
392,98,81160,5,8,3:2:0:0:
422,116,81266,1,8,0:3:0:0:
438,147,81371,1,8,0:0:0:0:
433,182,81477,1,8,0:0:0:0:
415,213,81582,5,6,3:2:0:0:
274,135,81794,1,0,0:0:0:0:
278,297,82005,1,8,0:0:0:0:
324,217,82216,1,0,0:0:0:0:
179,145,82428,5,2,3:2:0:0:
313,55,82639,1,0,0:0:0:0:
324,217,82850,1,8,0:0:0:0:
274,135,83061,1,0,0:0:0:0:
402,49,83273,5,2,3:2:0:0:
412,202,83484,1,2,0:0:0:0:
274,135,83695,1,8,0:0:0:0:
435,124,83906,1,2,0:0:0:0:
364,268,84118,1,2,3:2:0:0:
403,380,84329,6,0,L|396:325,1,40,8|0,0:1|0:0,0:0:0:0:
290,210,84540,2,0,L|283:265,1,40,8|0,0:1|0:0,0:0:0:0:
354,143,84751,1,0,0:0:0:0:
321,128,84857,1,0,0:0:0:0:
285,124,84963,6,0,P|238:127|197:120,1,80,2|0,3:2|0:0,0:0:0:0:
45,95,85385,2,0,P|92:92|133:99,1,80,10|0,0:0|0:0,0:0:0:0:
164,253,85808,1,2,3:2:0:0:
4,229,86019,1,0,0:0:0:0:
64,378,86230,1,8,0:0:0:0:
80,266,86442,1,2,0:0:0:0:
234,298,86653,2,0,P|321:306|395:280,1,160,2|8,3:2|0:0,0:0:0:0:
503,172,87287,1,2,0:0:0:0:
349,217,87498,5,2,3:2:0:0:
341,181,87604,1,8,0:0:0:0:
342,145,87709,1,2,3:2:0:0:
444,23,87920,5,8,0:0:0:0:
408,26,88026,1,8,0:3:0:0:
371,26,88132,1,8,0:0:0:0:
335,19,88237,1,8,0:0:0:0:
302,2,88343,5,6,3:2:0:0:
144,32,88554,1,0,0:0:0:0:
250,154,88766,1,8,0:0:0:0:
234,66,88977,1,0,0:0:0:0:
185,221,89188,5,2,3:2:0:0:
75,101,89399,1,0,0:0:0:0:
27,256,89611,1,8,0:0:0:0:
94,188,89822,1,0,0:0:0:0:
50,344,90033,6,0,P|95:346|143:353,1,80,2|0,3:2|0:0,0:0:0:0:
289,379,90456,2,0,P|244:377|196:370,1,80,8|0,0:0|0:0,0:0:0:0:
185,221,90878,1,2,3:2:0:0:
194,255,90984,1,8,0:0:0:0:
194,290,91089,1,8,0:1:0:0:
248,158,91301,2,0,P|294:168|332:204,1,80,8|0,0:1|0:0,0:0:0:0:
442,284,91723,6,0,P|369:284|277:280,1,160,2|8,3:2|0:0,0:0:0:0:
118,262,92357,1,2,0:0:0:0:
186,117,92568,2,0,B|222:143|222:143|200:266,1,160,2|8,3:2|0:0,0:0:0:0:
51,316,93202,1,2,0:0:0:0:
56,156,93413,2,0,P|45:200|39:243,1,80,2|0,3:2|0:0,0:0:0:0:
108,380,93836,5,8,0:0:0:0:
144,379,93942,1,8,0:3:0:0:
177,366,94047,1,8,0:3:0:0:
196,335,94153,1,8,0:3:0:0:
201,299,94258,1,2,3:2:0:0:
187,265,94364,1,8,0:0:0:0:
156,245,94470,1,0,3:0:0:0:
120,245,94575,1,0,0:0:0:0:
86,258,94681,6,0,L|43:254,1,40,8|8,3:2|0:3,0:0:0:0:
165,171,94892,2,0,L|208:175,1,40,8|8,0:0|0:0,0:0:0:0:
273,334,95104,6,0,P|327:337|354:278,1,111.999996582031,2|2,0:0|0:0,0:0:0:0:
301,136,95949,2,0,P|285:187|275:260,1,111.999996582031,2|0,0:0|0:0,0:0:0:0:
360,208,96582,1,2,0:0:0:0:
199,202,96794,6,0,P|208:166|214:129,1,64,2|0,0:0|0:0,0:0:0:0:
