osu file format v14

[General]
AudioFilename: audio.mp3
AudioLeadIn: 0
PreviewTime: 27398
Countdown: 0
SampleSet: Soft
StackLeniency: 0.7
Mode: 0
LetterboxInBreaks: 0
WidescreenStoryboard: 0

[Editor]
DistanceSpacing: 1.3
BeatDivisor: 3
GridSize: 8
TimelineZoom: 1

[Metadata]
Title:Itsuka no Hakuchuumu
TitleUnicode:いつかの白昼夢
Artist:yuki
ArtistUnicode:yuki
Creator:Mimari
Version:Insane
Source:白昼夢の青写真
Tags:eroge galgame video game op opening japanese female vocals short version ver vn visual novel Hakuchuumu no Aojashin The girl who's whos called the world musei never_log_off bellicose
BeatmapID:2418532
BeatmapSetID:1159013

[Difficulty]
HPDrainRate:6
CircleSize:4.4
OverallDifficulty:8
ApproachRate:8.4
SliderMultiplier:1.92
SliderTickRate:1

[Events]
//Background and Video events
0,0,"rin_wall.jpg",0,0
//Break Periods
//Storyboard Layer 0 (Background)
//Storyboard Layer 1 (Fail)
//Storyboard Layer 2 (Pass)
//Storyboard Layer 3 (Foreground)
//Storyboard Layer 4 (Overlay)
//Storyboard Sound Samples

[TimingPoints]
2220,535.714285714286,4,2,1,40,1,0
10791,-133.333333333333,4,2,1,40,0,0
12934,-133.333333333333,4,2,1,50,0,0
19362,-117.647058823529,4,2,1,60,0,0
23648,-105.263157894737,4,2,1,60,0,0
24720,-95.2380952380954,4,2,1,60,0,0
26862,-83.3333333333333,4,2,0,70,0,0
27398,-83.3333333333333,4,2,1,70,0,0
27934,-125,4,2,1,80,0,0
34362,-100,4,2,1,80,0,0
36505,-125,4,2,1,80,0,0
42934,-100,4,2,1,80,0,0
45077,-285.714285714284,4,2,1,80,0,0
45478,-285.714285714284,4,2,1,50,0,0
47220,-222.222222222221,4,2,1,50,0,0
49362,-181.818181818181,4,2,1,50,0,0
51505,-153.846153846153,4,2,1,50,0,0
53648,-133.333333333333,4,2,2,50,0,0
53849,-133.333333333333,4,2,2,5,0,0
53916,-133.333333333333,4,2,2,70,0,0
54251,-133.333333333333,4,2,2,5,0,0
54318,-133.333333333333,4,2,2,70,0,0
54653,-133.333333333333,4,2,2,5,0,0
54720,-133.333333333333,4,2,2,70,0,0
55054,-133.333333333333,4,2,2,5,0,0
55121,-133.333333333333,4,2,2,70,0,0
55791,-117.647058823529,4,2,2,70,0,0
55992,-117.647058823529,4,2,2,5,0,0
56059,-117.647058823529,4,2,2,70,0,0
56394,-117.647058823529,4,2,2,5,0,0
56461,-117.647058823529,4,2,2,70,0,0
56795,-117.647058823529,4,2,2,5,0,0
56862,-117.647058823529,4,2,2,70,0,0
57197,-117.647058823529,4,2,2,5,0,0
57264,-117.647058823529,4,2,2,70,0,0
57934,-105.263157894737,4,2,2,55,0,0
59005,-95.2380952380954,4,2,2,60,0,0
60077,-95.2380952380954,4,2,2,65,0,0
61148,-95.2380952380954,4,2,2,70,0,0
61617,-95.2380952380954,4,2,0,5,0,0
62220,-133.333333333333,4,2,2,70,0,0
62621,-117.647058823529,4,2,2,50,0,0
63023,-105.263157894737,4,2,2,60,0,0
63425,-95.2380952380954,4,2,2,70,0,0
63827,-95.2380952380954,4,2,3,75,0,0
64095,-95.2380952380954,4,2,3,75,0,0
64362,-76.9230769230769,4,2,3,80,0,0
70523,-76.9230769230769,4,2,1,80,0,0
70791,-76.9230769230769,4,2,3,80,0,0
79362,-76.9230769230769,4,2,1,70,0,0
79898,-100,4,2,1,70,0,0
83112,-100,4,2,1,70,0,0
85791,-222.222222222221,4,2,1,70,0,0
86327,-222.222222222221,4,2,1,5,0,0
86595,-222.222222222221,4,2,1,70,0,0
87398,-222.222222222221,4,2,1,5,0,0
94363,-222.222222222221,4,2,1,5,0,0

[Colours]
Combo1 : 253,252,193
Combo2 : 252,222,190

[HitObjects]
33,34,10791,6,0,P|23:67|31:108,1,72.0000027465821,6|2,0:0|0:0,0:0:0:0:
113,101,11193,2,0,P|119:65|108:31,1,72.0000027465821,2|2,0:0|0:0,0:0:0:0:
72,169,11728,6,0,P|131:143|179:159,1,108.000004119873,2|2,0:0|0:0,0:0:0:0:
170,153,12264,1,2,0:0:0:0:
135,354,12934,6,0,P|128:320|140:280,1,72.0000027465821,2|2,0:0|0:0,0:0:0:0:
221,295,13336,2,0,P|223:330|209:363,1,72.0000027465821,2|2,0:0|0:0,0:0:0:0:
188,214,13871,2,0,P|222:228|270:212,1,72.0000027465821,2|2,0:0|0:0,0:0:0:0:
267,100,14407,2,0,P|237:122|227:172,2,72.0000027465821,2|2|2,0:0|0:0|0:0,0:0:0:0:
253,25,15077,6,0,B|292:20|320:48|320:48|349:81|395:69,1,144.000005493164,0|2,0:0|0:0,0:0:0:0:
491,29,15880,1,2,0:0:0:0:
412,144,16148,2,0,P|411:179|425:212,1,72.0000027465821,2|2,0:0|0:0,0:0:0:0:
499,202,16550,2,0,P|505:167|496:133,1,72.0000027465821,0|0,0:0|0:0,0:0:0:0:
496,133,16952,1,2,0:0:0:0:
473,287,17220,6,0,P|432:284|391:309,1,72.0000027465821,2|2,0:0|0:0,0:0:0:0:
418,374,17621,2,0,P|459:377|500:352,1,72.0000027465821,2|2,0:0|0:0,0:0:0:0:
334,347,18157,6,0,P|335:311|310:270,1,72.0000027465821,2|2,0:0|0:0,0:0:0:0:
319,279,18559,1,2,0:0:0:0:
262,330,18693,1,2,0:0:0:0:
80,375,19362,6,0,P|91:339|85:278,1,81.6000015563965,4|0,0:0|1:0,0:0:0:0:
12,289,19764,2,0,P|-2:325|4:381,1,81.6000015563965,2|2,0:0|0:0,0:0:0:0:
57,224,20300,6,0,P|102:264|171:262,1,122.400002334595,2|0,0:0|1:0,0:0:0:0:
161,265,20836,1,2,0:0:0:0:
121,103,21505,6,0,P|119:143|135:181,1,81.6000015563965,2|0,0:0|1:0,0:0:0:0:
222,166,21907,2,0,P|222:125|210:86,1,81.6000015563965,2|2,0:0|0:0,0:0:0:0:
197,235,22443,2,0,P|233:212|289:222,1,81.6000015563965,2|0,0:0|0:0,0:0:0:0:
310,337,22978,2,0,P|272:317|252:263,1,81.6000015563965,2|0,0:0|0:0,0:0:0:0:
377,305,23380,2,0,P|382:326|381:342,3,20.4000003890991,0|0|2|0,1:0|0:0|0:0|0:0,0:0:0:0:
451,285,23648,6,0,P|455:262|470:229,1,45.5999987823487,2|0,0:3|0:0,0:0:0:0:
457,229,23916,2,0,P|448:250|444:272,1,45.5999987823487,0|0,1:0|0:0,0:0:0:0:
374,199,24184,6,0,P|369:176|355:143,1,45.5999987823487,2|0,0:0|0:0,0:0:0:0:
369,138,24452,2,0,P|377:159|381:181,1,45.5999987823487,0|0,1:0|0:0,0:0:0:0:
466,114,24720,6,0,P|474:92|501:57,1,50.3999984619141,2|0,0:0|0:0,0:0:0:0:
484,25,24988,2,0,P|472:44|458:73,1,50.3999984619141,0|0,1:0|0:0,0:0:0:0:
373,60,25255,6,0,P|354:46|311:29,1,50.3999984619141,2|0,0:0|0:0,0:0:0:0:
301,0,25523,2,0,P|321:9|348:28,1,50.3999984619141,0|0,1:0|0:0,0:0:0:0:
211,109,25791,1,2,0:0:0:0:
182,118,25880,1,2,0:0:0:0:
153,107,25970,1,2,0:0:0:0:
140,79,26059,1,2,1:2:0:0:
148,53,26148,1,2,0:0:0:0:
138,27,26237,1,2,0:0:0:0:
115,18,26327,1,2,0:0:0:0:
91,21,26416,1,2,0:0:0:0:
80,34,26505,1,2,0:0:0:0:
84,50,26595,1,2,1:2:0:0:
94,58,26684,1,2,0:0:0:0:
103,55,26773,1,2,0:0:0:0:
100,49,26862,6,0,B|94:74|94:74|74:93|74:93|69:124|69:124|78:156|78:156|73:185|73:185|52:200,1,153.5999953125,2|2,1:3|0:3,0:0:0:0:
68,188,27398,5,8,0:0:0:0:
181,149,27577,5,8,3:3:0:0:
300,251,27755,5,4,3:3:0:0:
436,105,27934,6,0,B|470:76|462:16|360:25|328:131|398:243,1,256,6|0,3:2|0:0,0:0:0:0:
378,203,29005,5,10,0:0:0:0:
479,369,29541,5,2,0:0:0:0:
481,353,29719,1,2,0:0:0:0:
483,338,29898,1,2,0:0:0:0:
297,282,30077,6,0,B|255:238|180:280|248:401|293:320|319:290|338:276|382:278|422:305,1,256,2|0,3:2|0:0,0:0:0:0:
396,291,31148,5,10,0:0:0:0:
87,360,32041,5,2,0:0:0:0:
30,306,32220,2,0,P|122:291|165:349,2,153.6,2|2|10,3:2|0:0|0:0,0:0:0:0:
135,146,33693,5,0,0:0:0:0:
144,219,33827,2,0,P|115:218|83:198,2,51.2,2|2|2,0:0|0:0|0:0,0:0:0:0:
211,173,34362,6,0,P|211:113|132:61,2,128,2|2|0,3:2|3:2|3:0,0:0:0:0:
144,219,35255,1,2,0:0:0:0:
216,255,35434,2,0,P|270:230|288:141,2,128,8|8|4,0:0|3:3|3:3,0:0:0:0:
282,93,36505,6,0,B|345:84|371:149|371:149|398:236|511:214,1,256,6|2,3:2|0:0,0:0:0:0:
479,218,37577,5,10,0:0:0:0:
324,293,38112,5,2,0:0:0:0:
322,310,38290,1,2,0:0:0:0:
320,327,38469,1,2,0:0:0:0:
452,136,38648,6,0,B|470:79|443:10|383:0|342:14|257:49,1,256,2|2,3:2|0:0,0:0:0:0:
287,36,39720,5,10,0:0:0:0:
38,160,40657,5,0,0:0:0:0:
84,91,40791,2,0,P|117:146|71:239,2,153.6,2|2|10,3:2|0:0|0:0,0:0:0:0:
115,308,42398,6,0,P|87:316|45:299,2,51.2,2|2|2,0:0|0:0|0:0,0:0:0:0:
163,243,42934,6,0,P|192:297|173:356,2,128,2|0|0,3:2|3:0|3:0,0:0:0:0:
304,304,44005,2,0,P|373:274|453:360,1,192,10|2,0:0|3:2,0:0:0:0:
91,225,45077,6,0,L|87:164,1,50.3999984619141,6|0,3:2|0:0,0:0:0:0:
87,174,45880,2,0,L|83:113,1,50.3999984619141,0|0,0:0|0:0,0:0:0:0:
83,123,46684,1,0,0:0:0:0:
201,40,47220,6,0,L|194:120,1,64.799998022461,2|0,0:0|0:0,0:0:0:0:
195,104,48023,2,0,L|188:184,1,64.799998022461,0|0,0:0|0:0,0:0:0:0:
189,168,48827,1,2,0:0:0:0:
328,241,49362,6,0,L|321:146,1,79.2000024169923,2|0,0:0|0:0,0:0:0:0:
322,162,50166,2,0,L|315:67,1,79.2000024169923,0|0,0:0|0:0,0:0:0:0:
316,83,50969,1,0,0:0:0:0:
461,17,51505,6,0,L|454:123,1,93.5999957153322,2|0,0:0|0:0,0:0:0:0:
454,110,52309,2,0,L|447:216,1,93.5999957153322,0|0,0:0|0:0,0:0:0:0:
447,203,52845,1,0,0:0:0:0:
447,203,52978,1,0,0:0:0:0:
422,274,53112,2,0,L|461:279,1,31.1999985717774,0|0,0:0|0:0,0:0:0:0:
454,286,53380,2,0,L|423:282,1,31.1999985717774,0|0,0:0|0:0,0:0:0:0:
343,235,53648,6,0,P|300:231|268:250,1,72.0000027465821,4|0,2:1|1:0,0:0:0:0:
275,243,54050,1,2,0:0:0:0:
275,243,54184,1,0,3:1:0:0:
175,230,54452,6,0,P|153:267|159:309,1,72.0000027465821,0|0,1:1|3:0,0:0:0:0:
154,295,54853,1,8,0:1:0:0:
154,295,54988,1,0,1:1:0:0:
259,350,55255,6,0,L|330:359,1,72.0000027465821,8|8,3:1|1:1,0:0:0:0:
330,359,55657,1,8,0:1:0:0:
417,329,55791,6,0,P|435:298|434:249,1,81.6000015563965,8|0,2:1|1:0,0:0:0:0:
435,253,56193,1,8,0:1:0:0:
435,253,56327,1,0,3:1:0:0:
512,141,56595,6,0,P|492:111|445:92,1,81.6000015563965,8|0,1:1|3:0,0:0:0:0:
451,92,56996,1,8,0:1:0:0:
451,92,57131,1,0,1:1:0:0:
289,9,57398,6,0,L|283:99,1,81.6000015563965,8|8,3:1|1:1,0:0:0:0:
283,90,57800,1,8,0:1:0:0:
196,40,57934,6,0,P|171:42|141:48,1,45.5999987823487,8|8,3:1|0:1,0:0:0:0:
144,61,58202,2,0,P|166:57|189:55,1,45.5999987823487,8|8,1:1|0:1,0:0:0:0:
108,135,58470,6,0,P|85:130|62:128,1,45.5999987823487,8|8,3:1|0:1,0:0:0:0:
41,152,58738,2,0,P|63:153|86:157,1,45.5999987823487,8|8,1:1|0:1,0:0:0:0:
237,204,59005,6,0,P|247:231|247:263,1,50.3999984619141,8|8,3:1|0:1,0:0:0:0:
175,278,59273,2,0,P|173:251|165:228,1,50.3999984619141,8|8,1:1|0:1,0:0:0:0:
21,304,59541,6,0,P|11:331|11:363,1,50.3999984619141,8|8,3:1|0:1,0:0:0:0:
105,375,59809,2,0,P|107:349|116:326,1,50.3999984619141,8|8,1:1|0:1,0:0:0:0:
244,266,60077,5,8,3:1:0:0:
258,257,60166,1,8,0:1:0:0:
274,254,60255,1,8,0:1:0:0:
290,257,60344,1,8,1:1:0:0:
304,271,60434,1,8,0:1:0:0:
317,290,60523,1,8,0:1:0:0:
339,310,60612,1,8,3:1:0:0:
375,318,60702,1,8,0:1:0:0:
406,303,60791,1,8,0:1:0:0:
420,265,60880,1,8,1:1:0:0:
397,231,60970,1,8,0:1:0:0:
354,239,61059,1,8,0:1:0:0:
374,276,61148,6,0,L|377:239,8,25.1999992309571,8|8|8|8|8|8|8|8|0,3:1|0:1|0:1|0:1|0:1|0:1|0:1|0:1|0:0,0:0:0:0:
413,117,62220,6,0,P|366:113|319:137,1,72.0000027465821,6|0,3:2|1:0,0:0:0:0:
334,108,62621,2,0,P|368:99|421:104,1,81.6000015563965,2|0,0:3|1:0,0:0:0:0:
417,83,63023,2,0,P|376:79|321:91,1,91.1999975646973,2|0,0:3|1:0,0:0:0:0:
318,53,63425,2,0,P|362:44|421:47,1,100.799996923828,2|0,0:3|0:0,0:0:0:0:
489,76,63827,5,8,0:0:0:0:
489,76,64095,1,0,3:0:0:0:
306,221,64362,6,0,P|279:265|313:349,1,124.79999428711,6|2,3:2|1:2,0:0:0:0:
364,366,64764,1,0,1:0:0:0:
413,304,64898,2,0,P|384:287|330:294,1,62.3999971435548,10|0,0:0|1:0,0:0:0:0:
355,285,65166,1,2,3:2:0:0:
306,221,65300,6,0,P|258:254|166:227,2,124.79999428711,2|0|0,1:2|1:0|1:0,0:0:0:0:
377,195,65970,2,0,P|361:164|312:141,1,62.3999971435548,8|0,0:0|1:0,0:0:0:0:
261,152,66237,1,2,1:2:0:0:
261,152,66371,1,2,1:2:0:0:
197,99,66505,6,0,P|140:114|88:76,1,124.79999428711,2|2,3:2|1:2,0:0:0:0:
58,7,66907,2,0,P|15:61|30:121,1,124.79999428711,2|0,1:2|1:0,0:0:0:0:
77,169,67309,1,2,3:2:0:0:
77,169,67443,1,2,1:2:0:0:
126,245,67577,6,0,P|67:217|10:238,1,124.79999428711,2|2,1:2|3:2,0:0:0:0:
66,296,67978,2,0,P|98:321|142:319,1,62.3999971435548,2|8,1:2|0:0,0:0:0:0:
185,295,68246,2,0,P|204:259|195:216,1,62.3999971435548,2|0,1:2|1:0,0:0:0:0:
204,238,68514,1,0,1:0:0:0:
272,296,68648,6,0,P|291:332|282:375,1,62.3999971435548,2|0,3:3|1:0,0:0:0:0:
290,352,68916,2,0,L|250:345,2,31.1999985717774,2|2|2,1:3|0:3|1:3,0:0:0:0:
364,379,69184,2,0,P|396:354|440:356,1,62.3999971435548,10|0,1:3|1:0,0:0:0:0:
421,272,69452,6,0,P|459:283|487:375,1,124.79999428711,2|0,3:3|1:0,0:0:0:0:
416,350,69853,1,2,1:3:0:0:
350,313,69987,2,0,P|338:281|348:238,1,62.3999971435548,2|0,3:3|1:0,0:0:0:0:
340,253,70255,1,10,0:0:0:0:
393,197,70389,1,2,1:3:0:0:
384,151,70523,1,8,3:3:0:0:
393,130,70657,1,4,3:3:0:0:
378,47,70791,6,0,P|346:29|299:36,1,62.3999971435548,6|0,3:2|0:0,0:0:0:0:
244,0,71059,2,0,P|214:21|201:67,1,62.3999971435548,2|0,1:2|1:0,0:0:0:0:
237,117,71327,2,0,P|177:119|133:72,1,124.79999428711,10|2,0:0|3:2,0:0:0:0:
60,90,71728,6,0,P|57:59|69:30,1,62.3999971435548,2|0,1:2|1:0,0:0:0:0:
136,0,71996,1,2,1:2:0:0:
134,75,72130,2,0,P|136:105|124:134,1,62.3999971435548,2|0,3:2|1:0,0:0:0:0:
49,180,72398,2,0,P|109:178|153:225,1,124.79999428711,8|2,0:0|1:2,0:0:0:0:
151,221,72800,1,0,1:0:0:0:
163,294,72934,6,0,P|132:294|106:279,1,62.3999971435548,2|0,3:2|0:0,0:0:0:0:
151,221,73202,2,0,P|133:195|130:165,1,62.3999971435548,2|0,1:2|1:2,0:0:0:0:
207,169,73470,2,0,P|211:138|230:114,1,62.3999971435548,10|0,0:0|1:0,0:0:0:0:
229,114,73737,1,2,3:2:0:0:
285,172,73871,5,2,1:2:0:0:
360,180,74005,2,0,P|343:223|258:243,1,124.79999428711,0|2,1:0|3:2,0:0:0:0:
273,247,74407,1,0,1:0:0:0:
336,311,74541,2,0,P|355:334|360:365,1,62.3999971435548,10|0,0:0|1:0,0:0:0:0:
280,362,74809,2,0,P|251:347|209:348,1,62.3999971435548,2|0,1:2|1:0,0:0:0:0:
143,336,75077,6,0,P|182:277|236:273,1,124.79999428711,2|2,3:1|1:2,0:0:0:0:
231,271,75478,1,2,0:1:0:0:
275,212,75612,2,0,P|247:196|210:196,1,62.3999971435548,8|0,0:0|1:0,0:0:0:0:
166,136,75880,2,0,P|194:120|231:120,1,62.3999971435548,2|0,3:1|1:0,0:0:0:0:
223,118,76148,5,0,1:0:0:0:
273,58,76282,2,0,P|245:42|208:42,1,62.3999971435548,2|0,0:1|3:0,0:0:0:0:
215,40,76550,1,2,1:2:0:0:
141,10,76684,2,0,P|114:29|99:62,1,62.3999971435548,10|0,0:1|1:0,0:0:0:0:
139,123,76952,1,2,0:1:0:0:
139,123,77086,1,2,0:1:0:0:
57,129,77220,5,2,3:2:0:0:
47,137,77353,1,2,1:2:0:0:
47,210,77487,5,2,1:2:0:0:
37,219,77620,1,2,1:2:0:0:
72,286,77755,5,10,0:0:0:0:
65,311,77889,1,2,1:2:0:0:
139,327,78023,5,2,3:2:0:0:
149,361,78157,1,2,1:2:0:0:
223,324,78291,6,0,L|231:286,6,31.1999985717774,2|2|2|2|2|2|2,1:3|0:3|1:3|0:3|3:3|0:3|1:3,0:0:0:0:
187,230,78827,6,0,P|213:219|264:228,1,62.3999971435548,10|0,0:0|1:0,0:0:0:0:
245,205,79095,2,0,P|214:203|185:214,1,62.3999971435548,2|0,3:2|1:0,0:0:0:0:
101,180,79362,5,4,3:2:0:0:
101,180,79496,1,0,1:0:0:0:
145,118,79630,5,0,1:0:0:0:
143,102,79764,1,0,1:0:0:0:
117,27,79898,6,0,L|182:34,1,48,8|0,0:0|1:0,0:0:0:0:
235,58,80166,5,0,3:0:0:0:
249,56,80300,1,0,1:0:0:0:
334,30,80434,6,0,L|326:94,1,48,0|0,1:0|3:0,0:0:0:0:
375,131,80702,5,2,1:2:0:0:
399,128,80836,1,0,1:0:0:0:
470,166,80970,6,0,L|478:230,1,48,8|0,0:0|1:0,0:0:0:0:
450,281,81237,1,0,1:0:0:0:
450,281,81371,1,0,1:0:0:0:
383,328,81505,5,0,3:0:0:0:
364,326,81639,1,0,1:0:0:0:
295,289,81773,6,0,L|263:294,2,32,8|8|8,1:1|0:1|0:1,0:0:0:0:
302,275,82041,5,8,0:0:0:0:
307,260,82175,1,0,1:0:0:0:
265,198,82309,6,0,L|193:190,1,48,0|0,3:0|1:0,0:0:0:0:
150,157,82577,5,0,1:0:0:0:
148,144,82711,1,0,3:0:0:0:
89,95,82845,6,0,L|98:18,1,48,2|0,1:2|1:0,0:0:0:0:
33,4,83112,5,8,0:0:0:0:
10,17,83202,1,8,0:1:0:0:
5,32,83291,1,8,0:1:0:0:
7,46,83380,1,8,0:1:0:0:
13,58,83470,1,8,0:1:0:0:
21,66,83559,1,8,0:1:0:0:
23,77,83648,6,0,L|15:141,1,48,0|0,3:0|1:0,0:0:0:0:
73,176,83916,5,0,1:0:0:0:
77,195,84050,1,0,1:0:0:0:
42,269,84184,6,0,L|107:276,1,48,8|0,0:0|1:0,0:0:0:0:
151,314,84452,5,0,3:0:0:0:
171,312,84586,1,0,1:0:0:0:
243,347,84720,6,0,L|302:345,1,48,0|0,1:0|3:0,0:0:0:0:
365,368,84988,5,2,1:2:0:0:
369,340,85122,1,0,1:0:0:0:
426,289,85256,6,0,L|420:241,1,48,8|0,0:0|1:0,0:0:0:0:
408,168,85523,5,0,1:0:0:0:
408,168,85657,1,0,1:0:0:0:
463,24,85791,6,0,B|473:47|473:47|400:32,1,86.3999973632813,0|0,3:0|0:0,0:0:0:0:
301,70,86595,6,0,B|318:61|318:61|334:37|334:37|350:29|350:29|382:37|382:37|412:34,1,129.599996044922,0|0,3:0|0:0,0:0:0:0:
