osu file format v14

[General]
AudioFilename: audio.mp3
AudioLeadIn: 0
PreviewTime: 27398
Countdown: 0
SampleSet: Soft
StackLeniency: 0.7
Mode: 0
LetterboxInBreaks: 0
WidescreenStoryboard: 1

[Editor]
DistanceSpacing: 1.4
BeatDivisor: 4
GridSize: 8
TimelineZoom: 1

[Metadata]
Title:Itsuka no Hakuchuumu
TitleUnicode:いつかの白昼夢
Artist:yuki
ArtistUnicode:yuki
Creator:Mimari
Version:Normal
Source:白昼夢の青写真
Tags:eroge galgame video game op opening japanese female vocals short version ver vn visual novel Hakuchuumu no Aojashin The girl who's whos called the world musei never_log_off bellicose
BeatmapID:2418533
BeatmapSetID:1159013

[Difficulty]
HPDrainRate:3.5
CircleSize:3
OverallDifficulty:3
ApproachRate:5
SliderMultiplier:1.22
SliderTickRate:1

[Events]
//Background and Video events
0,0,"rin_wall.jpg",0,0
//Break Periods
2,45277,52328
//Storyboard Layer 0 (Background)
//Storyboard Layer 1 (Fail)
//Storyboard Layer 2 (Pass)
//Storyboard Layer 3 (Foreground)
//Storyboard Layer 4 (Overlay)
//Storyboard Sound Samples

[TimingPoints]
2220,535.714285714286,4,2,1,40,1,0
12934,-133.333333333333,4,2,1,50,0,0
19362,-117.647058823529,4,2,1,60,0,0
23648,-105.263157894737,4,2,1,60,0,0
26862,-105.263157894737,4,2,0,70,0,0
27398,-105.263157894737,4,2,1,70,0,0
27934,-100,4,2,1,80,0,0
45478,-100,4,2,1,50,0,0
53648,-100,4,2,2,50,0,0
53849,-100,4,2,2,5,0,0
53916,-100,4,2,2,70,0,0
54251,-100,4,2,2,5,0,0
54318,-100,4,2,2,70,0,0
54653,-100,4,2,2,5,0,0
54720,-100,4,2,2,70,0,0
55054,-100,4,2,2,5,0,0
55121,-100,4,2,2,70,0,0
55992,-100,4,2,2,5,0,0
56059,-100,4,2,2,70,0,0
56394,-100,4,2,2,5,0,0
56461,-100,4,2,2,70,0,0
56795,-100,4,2,2,5,0,0
56862,-100,4,2,2,70,0,0
57197,-100,4,2,2,5,0,0
57264,-100,4,2,2,70,0,0
57934,-100,4,2,2,55,0,0
59005,-100,4,2,2,60,0,0
60077,-100,4,2,2,65,0,0
61148,-100,4,2,2,70,0,0
61617,-100,4,2,0,5,0,0
62220,-100,4,2,2,70,0,0
62621,-100,4,2,2,50,0,0
63023,-100,4,2,2,60,0,0
63425,-100,4,2,2,70,0,0
63827,-100,4,2,3,75,0,0
64362,-100,4,2,3,80,0,0
70523,-100,4,2,1,80,0,0
70791,-100,4,2,3,80,0,0
79362,-100,4,2,1,70,0,0
86327,-100,4,2,1,5,0,0
86595,-100,4,2,1,70,0,0
87398,-100,4,2,1,5,0,0

[Colours]
Combo1 : 253,252,193
Combo2 : 252,222,190

[HitObjects]
408,275,10791,5,6,0:0:0:0:
408,275,12934,6,0,L|418:171,2,91.5000034904481,2|0|0,0:0|0:0|0:0,0:0:0:0:
264,303,15077,5,0,0:0:0:0:
264,303,17220,6,0,L|275:204,2,91.5000034904481,2|0|0,0:0|0:0|0:0,0:0:0:0:
122,342,19362,6,0,L|141:224,1,103.700001977921,4|0,0:0|0:0,0:0:0:0:
27,145,20434,2,0,L|16:24,1,103.700001977921,0|0,0:0|0:0,0:0:0:0:
160,14,21505,6,0,P|205:42|254:40,1,103.700001977921,2|0,0:0|0:0,0:0:0:0:
356,143,22577,2,0,P|401:115|450:117,1,103.700001977921,0|0,0:0|0:0,0:0:0:0:
484,180,23380,1,0,1:0:0:0:
484,180,23648,6,0,L|479:252,1,57.9499984525681,2|0,0:3|1:0,0:0:0:0:
472,318,24184,1,2,0:0:0:0:
315,362,24720,6,0,L|243:357,1,57.9499984525681,2|0,0:0|1:0,0:0:0:0:
176,350,25256,1,2,0:0:0:0:
27,284,25791,6,0,L|18:205,1,57.9499984525681,2|2,0:0|1:2,0:0:0:0:
15,145,26327,2,0,L|24:66,1,57.9499984525681,2|2,0:0|1:2,0:0:0:0:
52,12,26862,1,2,1:3:0:0:
212,36,27398,6,0,L|273:27,2,38.6333323017121,8|8|4,0:0|3:3|3:3,0:0:0:0:
159,62,27934,6,0,B|146:161|146:161|123:187|123:187|107:320,1,244,6|10,3:2|0:0,0:0:0:0:
421,359,30077,2,0,B|408:259|408:259|385:233|385:233|369:100,1,244,2|10,3:2|0:0,0:0:0:0:
69,31,32220,6,0,L|83:162,1,122,2|2,3:2|0:0,0:0:0:0:
219,230,33291,2,0,L|206:351,1,122,10|2,0:0|0:0,0:0:0:0:
359,310,34362,6,0,P|396:330|442:326,2,81.3333333333333,2|2|0,3:2|3:2|3:0,0:0:0:0:
299,217,35434,2,0,L|210:231,2,81.3333333333333,8|8|4,0:0|3:3|3:3,0:0:0:0:
394,172,36505,6,0,B|416:105|416:105|257:32,1,244,6|10,3:2|0:0,0:0:0:0:
30,253,38648,2,0,B|8:320|8:320|181:383,1,244,2|10,3:2|0:0,0:0:0:0:
15,102,40791,6,0,P|37:49|112:19,1,122,2|2,3:2|0:0,0:0:0:0:
250,20,41862,2,0,P|303:42|333:117,1,122,10|2,0:0|0:0,0:0:0:0:
369,251,42934,6,0,L|358:341,2,81.3333333333333,2|0|0,3:2|3:0|3:0,0:0:0:0:
408,153,44005,2,0,P|442:119|518:132,1,122,10|2,0:0|3:2,0:0:0:0:
492,284,45077,5,6,3:2:0:0:
178,262,53648,6,0,L|67:275,2,91.5,4|2|0,2:1|0:0|1:1,0:0:0:0:
271,204,54853,2,0,L|364:216,1,91.5,8|8,0:1|3:1,0:0:0:0:
415,79,55791,6,0,L|526:92,2,91.5,8|8|8,2:1|0:1|1:1,0:0:0:0:
316,29,56996,2,0,L|223:41,1,91.5,8|8,0:1|3:1,0:0:0:0:
151,38,57666,1,8,1:1:0:0:
151,38,57934,6,0,L|77:50,1,61,8|8,3:1|1:1,0:0:0:0:
6,64,58470,1,8,3:1:0:0:
47,229,59006,6,0,L|59:303,1,61,8|8,3:1|1:1,0:0:0:0:
77,372,59542,1,8,3:1:0:0:
238,317,60077,6,0,L|305:311,1,61,8|8,3:1|1:1,0:0:0:0:
375,348,60612,2,0,L|439:341,1,61,8|8,3:1|1:1,0:0:0:0:
499,284,61148,1,8,3:1:0:0:
349,26,62220,6,0,B|297:33|297:33|277:27|277:27|220:35,2,122,6|0|0,3:2|0:0|1:0,0:0:0:0:
483,109,63827,2,0,L|473:179,1,61,8|0,0:0|3:0,0:0:0:0:
503,242,64362,6,0,L|427:249,1,61,6|2,3:2|1:2,0:0:0:0:
383,301,64898,2,0,L|307:308,1,61,10|2,0:0|3:2,0:0:0:0:
299,339,65300,2,0,B|250:352|217:321|225:315|196:279|137:293,1,152.5,2|8,1:2|0:0,0:0:0:0:
24,371,66505,5,2,3:2:0:0:
9,292,66773,2,0,L|12:234,1,30.5,2|2,1:2|1:2,0:0:0:0:
15,221,67041,1,0,0:0:0:0:
160,158,67577,1,2,1:2:0:0:
150,79,67845,2,0,L|147:21,1,30.5,2|2,3:2|1:2,0:0:0:0:
146,8,68113,1,8,0:0:0:0:
303,28,68648,6,0,L|375:37,1,61,2|2,3:3|1:3,0:0:0:0:
442,47,69184,1,10,1:3:0:0:
478,117,69452,2,0,B|490:162|490:162|459:247,1,122,2|2,3:3|3:3,0:0:0:0:
466,312,70255,2,0,L|515:324,2,30.5,10|2|8,0:0|1:3|3:3,0:0:0:0:
400,357,70791,5,6,3:2:0:0:
322,341,71059,1,2,1:2:0:0:
244,322,71327,1,10,0:0:0:0:
134,366,71728,2,0,L|70:356,1,61,2|2,1:2|1:2,0:0:0:0:
34,349,72130,1,2,3:2:0:0:
10,273,72398,1,8,0:0:0:0:
71,126,72934,6,0,L|39:61,2,61,2|2|10,3:2|1:2|0:0,0:0:0:0:
129,180,73737,1,2,3:2:0:0:
129,180,73871,2,0,L|236:173,1,91.5,2|2,1:2|3:2,0:0:0:0:
299,166,74541,1,10,0:0:0:0:
442,98,75077,6,0,P|451:58|465:-1,2,91.5,2|2|2,3:1|0:1|3:1,0:0:0:0:
479,210,76282,1,2,0:1:0:0:
386,284,76684,2,0,L|365:355,1,61,10|2,0:1|0:1,0:0:0:0:
293,369,77220,5,2,3:2:0:0:
135,349,77755,1,10,0:0:0:0:
37,224,78291,2,0,L|51:148,1,61,2|2,1:3|3:3,0:0:0:0:
70,93,78827,2,0,L|144:78,1,61,10|2,0:0|3:2,0:0:0:0:
198,104,79362,6,0,B|237:131|237:131|334:119,1,122,4|8,3:2|0:0,0:0:0:0:
383,109,80166,2,0,L|393:222,1,91.5,0|0,3:0|3:0,0:0:0:0:
469,277,80970,1,8,0:0:0:0:
338,343,81505,6,0,L|232:327,1,91.5,0|0,3:0|0:0,0:0:0:0:
139,351,82309,1,0,3:0:0:0:
49,287,82711,1,0,3:0:0:0:
103,191,83112,2,0,L|178:175,1,61,8|8,0:0|0:1,0:0:0:0:
231,203,83648,6,0,L|321:214,1,91.5,0|0,3:0|1:0,0:0:0:0:
430,230,84452,1,0,3:0:0:0:
478,131,84853,1,0,3:0:0:0:
406,47,85255,1,8,0:0:0:0:
265,87,85791,6,0,B|178:94|178:94|155:84|155:84|84:88,2,183,0|0|0,3:0|3:0|0:0,0:0:0:0:
