osu file format v14

[General]
AudioFilename: audio.mp3
AudioLeadIn: 0
PreviewTime: 27398
Countdown: 0
SampleSet: Soft
StackLeniency: 0.7
Mode: 0
LetterboxInBreaks: 0
WidescreenStoryboard: 1

[Editor]
DistanceSpacing: 0.5
BeatDivisor: 4
GridSize: 8
TimelineZoom: 1.8

[Metadata]
Title:Itsuka no Hakuchuumu
TitleUnicode:いつかの白昼夢
Artist:yuki
ArtistUnicode:yuki
Creator:Mimari
Version:Hard
Source:白昼夢の青写真
Tags:eroge galgame video game op opening japanese female vocals short version ver vn visual novel Hakuchuumu no Aojashin The girl who's whos called the world musei never_log_off bellicose
BeatmapID:2418531
BeatmapSetID:1159013

[Difficulty]
HPDrainRate:5
CircleSize:3.8
OverallDifficulty:6.5
ApproachRate:7.5
SliderMultiplier:1.52
SliderTickRate:1

[Events]
//Background and Video events
0,0,"rin_wall.jpg",0,0
//Break Periods
2,45277,52748
//Storyboard Layer 0 (Background)
//Storyboard Layer 1 (Fail)
//Storyboard Layer 2 (Pass)
//Storyboard Layer 3 (Foreground)
//Storyboard Layer 4 (Overlay)
//Storyboard Sound Samples

[TimingPoints]
2220,535.714285714286,4,2,1,40,1,0
10791,-125,4,2,1,40,0,0
12934,-125,4,2,1,50,0,0
19362,-111.111111111111,4,2,1,60,0,0
23648,-100,4,2,1,60,0,0
26862,-83.3333333333333,4,2,0,70,0,0
27398,-83.3333333333333,4,2,1,70,0,0
27934,-142.857142857143,4,2,1,80,0,0
45478,-142.857142857143,4,2,1,50,0,0
53648,-125,4,2,2,50,0,0
53849,-125,4,2,2,5,0,0
53916,-125,4,2,2,70,0,0
54251,-125,4,2,2,5,0,0
54318,-125,4,2,2,70,0,0
54653,-125,4,2,2,5,0,0
54720,-125,4,2,2,70,0,0
55054,-125,4,2,2,5,0,0
55121,-125,4,2,2,70,0,0
55791,-111.111111111111,4,2,2,70,0,0
55992,-111.111111111111,4,2,2,5,0,0
56059,-111.111111111111,4,2,2,70,0,0
56394,-111.111111111111,4,2,2,5,0,0
56461,-111.111111111111,4,2,2,70,0,0
56795,-111.111111111111,4,2,2,5,0,0
56862,-111.111111111111,4,2,2,70,0,0
57197,-111.111111111111,4,2,2,5,0,0
57264,-111.111111111111,4,2,2,70,0,0
57934,-100,4,2,2,55,0,0
59005,-100,4,2,2,60,0,0
60077,-100,4,2,2,65,0,0
61148,-83.3333333333333,4,2,2,70,0,0
61617,-83.3333333333333,4,2,0,5,0,0
62220,-111.111111111111,4,2,2,70,0,0
62621,-111.111111111111,4,2,2,50,0,0
63023,-111.111111111111,4,2,2,60,0,0
63425,-111.111111111111,4,2,2,70,0,0
63827,-111.111111111111,4,2,3,75,0,0
64362,-76.9230769230769,4,2,3,80,0,0
70523,-76.9230769230769,4,2,1,80,0,0
70791,-76.9230769230769,4,2,3,80,0,0
79362,-83.3333333333333,4,2,1,70,0,0
85791,-133.333333333333,4,2,1,70,0,0
86327,-133.333333333333,4,2,1,5,0,0
86595,-133.333333333333,4,2,1,70,0,0
87398,-133.333333333333,4,2,1,5,0,0

[Colours]
Combo1 : 253,252,193
Combo2 : 252,222,190

[HitObjects]
92,315,10791,6,0,P|89:274|97:250,1,60.8,6|2,0:0|0:0,0:0:0:0:
116,225,11193,2,0,P|122:195|118:165,1,60.8,2|2,0:0|0:0,0:0:0:0:
74,106,11728,1,2,0:0:0:0:
74,106,12934,6,0,L|159:98,1,60.8,2|2,0:0|0:0,0:0:0:0:
163,77,13336,2,0,L|250:68,1,60.8,2|2,0:0|0:0,0:0:0:0:
290,99,13871,2,0,L|282:184,2,60.8,2|2|2,0:0|0:0|0:0,0:0:0:0:
360,77,14675,2,0,L|440:70,1,60.8,2|2,0:0|0:0,0:0:0:0:
453,88,15077,6,0,P|465:119|465:160,1,60.8,0|0,0:0|0:0,0:0:0:0:
431,210,15612,2,0,P|419:241|419:282,1,60.8,2|2,0:0|0:0,0:0:0:0:
405,340,16148,2,0,L|506:354,2,91.2,2|0|2,0:0|0:0|0:0,0:0:0:0:
344,299,17220,6,0,L|259:313,1,60.8,2|2,0:0|0:0,0:0:0:0:
253,328,17621,2,0,L|168:342,1,60.8,2|2,0:0|0:0,0:0:0:0:
122,356,18157,2,0,P|107:314|118:279,1,60.8,2|2,0:0|0:0,0:0:0:0:
125,265,18559,1,2,0:0:0:0:
125,265,18693,1,2,0:0:0:0:
64,69,19362,6,0,L|141:61,1,68.3999979125977,4|0,0:0|1:0,0:0:0:0:
171,74,19764,2,0,L|248:66,1,68.3999979125977,2|2,0:0|0:0,0:0:0:0:
316,38,20300,2,0,P|341:57|347:137,1,102.599996868897,2|0,0:0|1:0,0:0:0:0:
331,159,20836,1,2,0:0:0:0:
492,285,21505,6,0,L|415:277,1,68.3999979125977,2|0,0:0|1:0,0:0:0:0:
387,296,21907,2,0,L|310:288,1,68.3999979125977,2|2,0:0|0:0,0:0:0:0:
236,294,22443,2,0,P|202:266|199:196,1,102.599996868897,2|0,0:0|0:0,0:0:0:0:
213,174,22978,2,0,P|230:142|219:88,1,68.3999979125977,2|0,0:0|0:0,0:0:0:0:
69,27,23648,6,0,P|60:50|58:83,1,38,2|0,0:3|0:0,0:0:0:0:
34,95,23916,2,0,P|43:118|45:151,1,38,0|0,1:0|0:0,0:0:0:0:
65,183,24184,2,0,P|56:206|54:239,1,38,2|0,0:0|0:0,0:0:0:0:
29,275,24452,2,0,P|38:298|40:331,1,38,0|0,1:0|0:0,0:0:0:0:
96,361,24720,6,0,P|133:374|192:348,1,76,2|0,0:0|1:0,0:0:0:0:
224,313,25121,1,0,0:0:0:0:
224,313,25255,2,0,P|260:306|296:319,1,76,2|0,0:0|1:0,0:0:0:0:
372,356,25657,1,0,0:0:0:0:
448,319,25791,6,0,P|453:334|455:354,2,25.3333333333333,2|2|2,0:0|0:0|0:0,0:0:0:0:
504,267,26059,2,0,P|508:255|512:243,2,25.3333333333333,2|2|2,1:2|0:0|0:0,0:0:0:0:
433,226,26327,2,0,P|430:213|426:201,2,25.3333333333333,2|2|2,0:0|0:0|0:0,0:0:0:0:
344,227,26595,2,0,P|335:217|325:210,2,25.3333333333333,2|2|2,1:2|0:0|0:0,0:0:0:0:
274,278,26862,6,0,B|231:290|231:290|185:272|185:272|104:290,1,151.999995361328,2|0,1:3|0:0,0:0:0:0:
128,284,27398,2,0,L|51:309,2,60.7999981445313,8|8|4,0:0|3:3|3:3,0:0:0:0:
80,211,27934,6,0,L|63:11,1,177.33332792155,6|0,3:2|0:0,0:0:0:0:
64,34,29005,1,10,0:0:0:0:
198,85,29541,1,2,0:0:0:0:
204,103,29720,1,2,0:0:0:0:
209,119,29898,1,2,0:0:0:0:
260,22,30077,6,0,P|302:73|436:67,1,177.33332792155,2|0,3:2|0:0,0:0:0:0:
407,83,31148,1,10,0:0:0:0:
436,344,32220,6,0,P|433:292|464:230,2,106.39999675293,2|2|10,3:2|0:0|0:0,0:0:0:0:
324,273,33693,1,0,0:0:0:0:
324,273,33827,2,0,P|321:249|303:215,2,35.4666655843099,2|2|2,0:0|0:0|0:0,0:0:0:0:
266,330,34362,6,0,P|225:324|169:324,2,70.9333311686199,2|2|0,3:2|3:2|3:0,0:0:0:0:
373,370,35434,2,0,P|408:368|443:362,2,70.9333311686199,8|8|4,0:0|3:3|3:3,0:0:0:0:
324,273,36505,6,0,L|349:75,1,177.33332792155,6|2,3:2|0:0,0:0:0:0:
346,97,37577,1,10,0:0:0:0:
197,25,38112,1,2,0:0:0:0:
205,40,38291,1,2,0:0:0:0:
213,55,38470,1,2,0:0:0:0:
110,50,38648,6,0,P|58:59|56:182,1,177.33332792155,2|2,3:2|0:0,0:0:0:0:
38,166,39720,1,10,0:0:0:0:
179,268,40657,1,2,0:0:0:0:
179,268,40791,6,0,P|184:233|219:170,2,106.39999675293,2|2|10,3:2|0:0|0:0,0:0:0:0:
69,361,42398,2,0,L|0:368,2,35.4666655843099,2|2|2,0:0|0:0|0:0,0:0:0:0:
149,345,42934,6,0,P|182:351|242:359,2,70.9333311686199,2|0|0,3:2|3:0|3:0,0:0:0:0:
41,279,44005,2,0,P|34:234|43:182,1,70.9333311686199,10|0,0:0|0:0,0:0:0:0:
92,155,44541,2,0,P|99:110|97:96,2,35.4666655843099,2|0|0,3:2|0:0|0:0,0:0:0:0:
9,122,45077,5,6,3:2:0:0:
360,100,53648,6,0,P|325:85|285:87,1,60.8,4|0,2:1|1:0,0:0:0:0:
302,83,54050,2,0,P|276:86|251:98,1,30.4,2|0,0:0|3:1,0:0:0:0:
194,43,54452,6,0,P|156:49|124:72,1,60.8,0|0,1:1|3:0,0:0:0:0:
136,60,54854,2,0,P|115:76|101:100,1,30.4,8|0,0:1|1:1,0:0:0:0:
50,146,55255,6,0,L|55:223,1,60.8,8|8,3:1|1:1,0:0:0:0:
57,236,55657,1,8,0:1:0:0:
57,236,55791,6,0,P|91:242|123:266,1,68.3999979125977,8|0,2:1|1:0,0:0:0:0:
118,260,56193,2,0,P|127:279|129:312,1,34.1999989562989,8|0,0:1|3:1,0:0:0:0:
240,251,56595,6,0,P|254:282|253:322,1,68.3999979125977,8|0,1:1|3:0,0:0:0:0:
255,314,56997,2,0,P|244:332|218:352,1,34.1999989562989,8|0,0:1|1:1,0:0:0:0:
369,351,57398,6,0,L|447:346,1,68.3999979125977,8|8,3:1|1:1,0:0:0:0:
486,341,57800,1,8,0:1:0:0:
486,341,57934,6,0,P|489:322|500:303,1,38,8|8,3:1|0:1,0:0:0:0:
478,272,58202,2,0,P|474:253|466:235,1,38,8|8,1:1|0:1,0:0:0:0:
482,189,58470,2,0,P|485:170|496:151,1,38,8|8,3:1|0:1,0:0:0:0:
474,100,58738,2,0,P|470:81|462:63,1,38,8|8,1:1|0:1,0:0:0:0:
392,18,59005,5,8,3:1:0:0:
392,18,59139,1,8,0:1:0:0:
317,46,59273,2,0,P|295:44|267:35,1,38,8|8,1:1|0:1,0:0:0:0:
205,66,59541,1,8,3:1:0:0:
205,66,59675,1,8,0:1:0:0:
131,27,59809,2,0,P|109:29|81:38,1,38,8|8,1:1|0:1,0:0:0:0:
57,115,60077,6,0,L|26:107,2,25.3333333333333,8|8|8,3:1|0:1|0:1,0:0:0:0:
89,191,60345,2,0,L|58:201,2,25.3333333333333,8|8|8,1:1|0:1|0:1,0:0:0:0:
157,239,60612,2,0,L|137:264,2,25.3333333333333,8|8|8,3:1|0:1|0:1,0:0:0:0:
241,235,60880,2,0,L|237:266,2,25.3333333333333,8|8|8,1:1|0:1|0:1,0:0:0:0:
305,187,61148,6,0,B|370:174|370:174|401:188|401:188|484:170,1,182.399994433594,8|0,3:1|0:0,0:0:0:0:
481,170,62220,6,0,L|469:272,1,102.599996868897,6|2,3:2|0:3,0:0:0:0:
306,263,63023,2,0,L|318:365,1,102.599996868897,2|2,0:3|0:3,0:0:0:0:
154,336,63827,5,8,0:0:0:0:
154,336,64095,1,0,3:0:0:0:
57,215,64362,6,0,L|61:160,1,49.3999977386476,6|0,3:2|0:0,0:0:0:0:
27,95,64630,2,0,L|31:40,1,49.3999977386476,2|0,1:2|1:0,0:0:0:0:
112,19,64898,2,0,B|156:30|156:30|175:23|175:23|225:36,1,98.7999954772951,10|2,0:0|3:2,0:0:0:0:
263,83,65300,2,0,P|316:91|374:63,2,98.7999954772951,2|0|0,1:2|1:0|1:0,0:0:0:0:
207,31,65970,1,8,0:0:0:0:
121,150,66237,2,0,P|131:181|135:209,1,49.3999977386476,2|2,1:2|1:2,0:0:0:0:
202,235,66505,6,0,P|185:309|182:346,1,98.7999954772951,2|2,3:2|1:2,0:0:0:0:
253,365,66907,2,0,L|374:355,1,98.7999954772951,2|0,1:2|1:0,0:0:0:0:
420,313,67309,1,2,3:2:0:0:
420,313,67443,1,2,1:2:0:0:
393,230,67577,2,0,B|390:195|390:195|400:177|400:177|397:100,1,98.7999954772951,2|2,1:2|3:2,0:0:0:0:
346,75,67978,2,0,P|390:54|437:65,2,98.7999954772951,2|2|0,1:2|1:2|1:0,0:0:0:0:
279,127,68648,5,2,3:3:0:0:
279,127,68782,1,0,1:0:0:0:
198,104,68916,2,0,L|194:77,3,24.6999988693238,2|2|2|0,1:3|0:3|1:3|0:0,0:0:0:0:
180,132,69184,2,0,L|175:190,1,49.3999977386476,10|0,1:3|1:0,0:0:0:0:
212,257,69452,2,0,P|162:265|112:231,1,98.7999954772951,2|0,3:3|1:0,0:0:0:0:
46,212,69853,1,2,1:3:0:0:
46,212,69987,2,0,L|54:145,1,49.3999977386476,2|0,3:3|1:0,0:0:0:0:
12,90,70255,2,0,P|34:80|59:81,1,49.3999977386476,10|2,0:0|1:3,0:0:0:0:
118,25,70523,2,0,P|142:29|162:43,1,49.3999977386476,8|4,3:3|3:3,0:0:0:0:
224,96,70791,6,0,B|262:101|262:101|279:95|279:95|325:101,1,98.7999954772951,6|2,3:2|1:2,0:0:0:0:
398,74,71193,1,0,1:0:0:0:
398,74,71327,2,0,P|418:117|408:172,1,98.7999954772951,10|2,0:0|3:2,0:0:0:0:
360,224,71728,2,0,L|372:283,1,49.3999977386476,2|0,1:2|1:0,0:0:0:0:
423,336,71996,1,2,1:2:0:0:
423,336,72130,1,2,3:2:0:0:
250,368,72398,2,0,P|255:342|257:300,1,49.3999977386476,8|0,0:0|0:0,0:0:0:0:
215,251,72666,2,0,P|212:226|208:202,1,49.3999977386476,2|0,1:2|1:0,0:0:0:0:
245,124,72934,6,0,P|207:116|162:135,1,49.3999977386476,2|0,3:2|0:0,0:0:0:0:
129,171,73202,2,0,P|91:179|46:160,1,49.3999977386476,2|0,1:2|1:2,0:0:0:0:
23,121,73470,2,0,L|45:21,1,98.7999954772951,10|2,0:0|3:2,0:0:0:0:
127,12,73871,2,0,L|205:27,1,49.3999977386476,2|0,1:2|1:0,0:0:0:0:
241,62,74139,1,0,0:0:0:0:
241,62,74273,2,0,L|319:77,1,49.3999977386476,2|0,3:2|1:0,0:0:0:0:
366,13,74541,2,0,P|386:59|379:114,1,98.7999954772951,10|2,0:0|1:2,0:0:0:0:
460,183,75077,6,0,P|440:229|447:284,1,98.7999954772951,2|2,3:1|1:2,0:0:0:0:
403,346,75478,1,2,0:1:0:0:
403,346,75612,2,0,P|355:354|282:377,2,98.7999954772951,8|2|0,0:0|3:1|1:0,0:0:0:0:
486,352,76282,1,2,0:1:0:0:
510,240,76550,1,2,1:2:0:0:
510,240,76684,2,0,L|499:124,1,98.7999954772951,10|2,0:1|0:1,0:0:0:0:
485,62,77086,1,2,0:1:0:0:
485,62,77220,6,0,P|456:63|433:69,1,49.3999977386476,2|2,3:2|1:2,0:0:0:0:
373,118,77487,2,0,P|344:117|321:111,1,49.3999977386476,2|2,1:2|1:2,0:0:0:0:
255,58,77755,2,0,P|226:59|203:65,1,49.3999977386476,10|2,0:0|1:2,0:0:0:0:
143,114,78023,2,0,P|114:113|91:107,1,49.3999977386476,2|2,3:2|1:2,0:0:0:0:
48,43,78291,2,0,P|57:33|72:26,6,24.6999988693238,2|2|2|2|2|2|2,1:3|0:3|1:3|0:3|3:3|0:3|1:3,0:0:0:0:
10,116,78827,6,0,L|23:221,1,98.7999954772951,10|2,0:0|3:2,0:0:0:0:
117,349,79362,6,0,L|233:361,1,91.199997216797,4|0,3:2|1:0,0:0:0:0:
283,326,79764,1,0,1:0:0:0:
357,356,79898,2,0,L|402:349,1,45.5999986083985,8|0,0:0|1:0,0:0:0:0:
465,299,80166,2,0,L|475:255,1,45.5999986083985,0|0,3:0|1:0,0:0:0:0:
511,188,80434,5,0,1:0:0:0:
511,188,80568,1,0,3:0:0:0:
477,115,80702,2,4,L|454:5,1,91.199997216797,2|8,1:2|0:0,0:0:0:0:
376,15,81103,1,0,1:0:0:0:
376,15,81237,1,0,1:0:0:0:
224,77,81505,5,0,3:0:0:0:
224,77,81639,1,0,1:0:0:0:
153,40,81773,2,0,L|156:10,2,30.3999990722657,8|8|8,1:1|0:1|0:1,0:0:0:0:
119,69,82041,2,0,L|129:158,1,45.5999986083985,8|0,0:0|1:0,0:0:0:0:
181,172,82309,2,0,L|172:237,1,45.5999986083985,0|0,3:0|1:0,0:0:0:0:
96,253,82577,6,0,L|106:312,1,45.5999986083985,0|0,1:0|3:0,0:0:0:0:
147,365,82845,2,0,L|205:355,1,45.5999986083985,2|0,1:2|0:0,0:0:0:0:
281,320,83112,2,0,L|329:331,2,30.3999990722657,8|8|8,0:0|0:1|0:1,0:0:0:0:
257,273,83380,2,0,L|226:266,2,30.3999990722657,8|8|8,0:1|0:1|0:1,0:0:0:0:
292,243,83648,6,0,L|282:128,1,91.199997216797,0|0,3:0|1:0,0:0:0:0:
225,90,84050,1,0,1:0:0:0:
275,25,84184,2,0,L|355:16,1,45.5999986083985,8|0,0:0|1:0,0:0:0:0:
399,31,84452,2,0,L|479:40,1,45.5999986083985,0|0,3:0|1:0,0:0:0:0:
512,95,84720,5,0,1:0:0:0:
512,95,84853,1,0,3:0:0:0:
483,175,84987,2,0,L|470:309,1,91.199997216797,2|8,1:2|0:0,0:0:0:0:
456,361,85389,1,0,1:0:0:0:
358,372,85523,2,0,L|287:357,1,45.5999986083985,0|0,1:0|1:0,0:0:0:0:
250,304,85791,6,0,B|208:287|208:287|182:299|182:299|123:281,1,114.000004348755,0|0,3:0|0:0,0:0:0:0:
143,287,86595,6,0,P|106:263|181:195,1,171.000006523133,0|0,3:0|0:0,0:0:0:0:
