osu file format v14

[General]
AudioFilename: zero.mp3
AudioLeadIn: 0
PreviewTime: 26034
Countdown: 0
SampleSet: Soft
StackLeniency: 0.2
Mode: 0
LetterboxInBreaks: 0
WidescreenStoryboard: 1

[Editor]
Bookmarks: 2220,10791,19362,27934,36505,45077,53648,62220,79362
DistanceSpacing: 1.2
BeatDivisor: 4
GridSize: 16
TimelineZoom: 2.999999

[Metadata]
Title:Itsuka no Hakuchuumu
TitleUnicode:いつかの白昼夢
Artist:yuki
ArtistUnicode:yuki
Creator:Hanakumo Rin
Version:KogumaX's Expert
Source:白昼夢の青写真
Tags:dog food kogumax delis shirohamymommy hinamommy kimikamymommy Cyanotype Daydream Hakuchuumu no Aojashin laplacian eroge visual novel vn japanese electronic pop
BeatmapID:3617537
BeatmapSetID:1767260

[Difficulty]
HPDrainRate:5
CircleSize:4
OverallDifficulty:8
ApproachRate:9.2
SliderMultiplier:1.92
SliderTickRate:1

[Events]
//Background and Video events
0,0,"erogege.png",0,0
//Break Periods
//Storyboard Layer 0 (Background)
//Storyboard Layer 1 (Fail)
//Storyboard Layer 2 (Pass)
//Storyboard Layer 3 (Foreground)
//Storyboard Layer 4 (Overlay)
//Storyboard Sound Samples

[TimingPoints]
990,535.714285714286,4,2,1,45,1,0
990,-133.333333333333,4,2,1,50,0,0
2463,-133.333333333333,4,2,1,5,0,0
2597,-66.6666666666667,4,2,1,50,0,0
2641,-66.6666666666667,4,2,1,5,0,0
2686,-66.6666666666667,4,2,1,50,0,0
2731,-66.6666666666667,4,2,1,5,0,0
2775,-57.1428571428571,4,2,1,50,0,0
2820,-57.1428571428571,4,2,1,5,0,0
2865,-57.1428571428571,4,2,1,50,0,0
2909,-57.1428571428571,4,2,1,5,0,0
2954,-50,4,2,1,50,0,0
2998,-50,4,2,1,5,0,0
3043,-50,4,2,1,50,0,0
3088,-50,4,2,1,5,0,0
3132,-133.333333333333,4,2,1,50,0,0
4204,-133.333333333333,4,2,1,5,0,0
5275,-133.333333333333,4,2,1,50,0,0
6748,-133.333333333333,4,2,1,5,0,0
6882,-66.6666666666667,4,2,1,50,0,0
6927,-66.6666666666667,4,2,1,5,0,0
6972,-66.6666666666667,4,2,1,50,0,0
7016,-66.6666666666667,4,2,1,5,0,0
7061,-57.1428571428571,4,2,1,50,0,0
7106,-57.1428571428571,4,2,1,5,0,0
7150,-57.1428571428571,4,2,1,50,0,0
7195,-57.1428571428571,4,2,1,5,0,0
7240,-50,4,2,1,50,0,0
7284,-50,4,2,1,5,0,0
7329,-50,4,2,1,50,0,0
7373,-50,4,2,1,5,0,0
7418,-133.333333333333,4,2,1,50,0,0
9561,-117.647058823529,4,2,1,50,0,0
18132,-86.9565217391304,4,2,1,60,0,0
25632,-100,4,2,1,65,0,0
26704,-50,4,2,1,65,0,0
27641,-50,4,2,1,5,0,0
27775,-50,4,2,1,65,0,0
29784,-50,4,2,1,5,0,0
29918,-50,4,2,1,65,0,0
31927,-50,4,2,1,5,0,0
32061,-50,4,2,1,65,0,0
32463,-50,4,2,1,5,0,0
32597,-50,4,2,1,65,0,0
33132,-79.9999999999999,4,2,1,65,0,0
33311,-79.9999999999999,4,2,1,5,0,0
33490,-79.9999999999999,4,2,1,65,0,0
35275,-50,4,2,1,65,0,0
36213,-50,4,2,1,5,0,0
36347,-50,4,2,1,65,0,0
36882,-66.6666666666667,4,2,1,65,0,0
36972,-66.6666666666667,4,2,1,5,0,0
37061,-66.6666666666667,4,2,1,65,0,0
37150,-66.6666666666667,4,2,1,5,0,0
37240,-66.6666666666667,4,2,1,65,0,0
37329,-66.6666666666667,4,2,1,5,0,0
37418,-40,4,2,1,65,0,0
40498,-40,4,2,1,5,0,0
40632,-40,4,2,1,65,0,0
41034,-40,4,2,1,5,0,0
41168,-40,4,2,1,65,0,0
41704,-50,4,2,1,65,0,0
42641,-50,4,2,1,5,0,0
42775,-40,4,2,1,65,0,0
42954,-40,4,2,1,5,0,0
43132,-40,4,2,1,65,0,0
43847,-133.333333333333,4,2,1,50,0,0
52418,-66.6666666666667,4,2,1,60,0,0
54561,-80,4,2,1,60,0,0
56704,-100,4,2,1,60,0,0
58847,-66.6666666666667,4,2,1,60,0,0
59918,-28.5714285714286,4,2,1,60,0,1
60454,-133.333333333333,4,2,1,60,0,0
60990,-66.6666666666667,4,2,1,45,0,0
61391,-57.1428571428571,4,2,1,55,0,0
61793,-50,4,2,1,65,0,0
62195,-36.3636363636364,4,2,1,70,0,0
62597,-200,4,2,1,70,0,0
63132,-33.3333333333333,4,2,1,85,0,0
63534,-40,4,2,1,85,0,0
64740,-50,4,2,1,85,0,0
65275,-33.3333333333333,4,2,1,85,0,0
65677,-40,4,2,1,85,0,0
66882,-66.6666666666667,4,2,1,85,0,0
67954,-40,4,2,1,85,0,0
69561,-33.3333333333333,4,2,1,85,0,0
69963,-40,4,2,1,85,0,0
74382,-50,4,2,1,85,0,0
74784,-66.6666666666667,4,2,1,85,0,0
75186,-100,4,2,1,85,0,0
75722,-66.6666666666667,4,2,1,85,0,0
77597,-33.3333333333333,4,2,1,85,0,0
78132,-50,4,2,1,80,0,0
80543,-100,4,2,1,80,0,0
80811,-50,4,2,1,80,0,0
84561,-333.333333333333,4,2,1,60,0,0
85097,-333.333333333333,4,2,1,15,0,0

[Colours]
Combo1 : 188,188,222
Combo2 : 255,255,43
Combo3 : 165,255,74
Combo4 : 207,207,207

[HitObjects]
0,0,990,6,0,B|-21:55|27:45|9:102|9:102|263:26|263:26|281:21|277:67,1,396.000015106202,4|0,1:0|0:0,0:0:0:0:
179,78,2597,6,0,L|155:74,1,24.0000009155274,2|0,0:0|0:0,0:0:0:0:
179,78,2686,2,0,L|165:97,1,24.0000009155274,2|0,0:0|0:0,0:0:0:0:
197,72,2775,6,0,L|175:51,1,28.0000002670288,2|0,0:0|0:0,0:0:0:0:
197,72,2865,2,0,L|197:100,1,28.0000002670288,2|0,0:0|0:0,0:0:0:0:
208,69,2954,6,0,L|202:34,1,32,2|0,0:0|0:0,0:0:0:0:
208,69,3043,2,0,L|233:102,1,32,2|0,0:0|0:0,0:0:0:0:
277,41,3132,6,0,B|291:55|273:60|273:60|196:81|196:81|170:170|227:164|227:168|227:172|278:175|260:258,1,288.000010986329,2|0,0:0|0:0,0:0:0:0:
2,281,5275,6,0,B|16:278|26:328|8:333|-5:336|6:383|6:383|250:315|250:315|269:309|262:288,1,396.000015106202,2|0,0:0|0:0,0:0:0:0:
120,269,6882,6,0,P|121:257|128:246,1,24.0000009155274,2|0,0:0|0:0,0:0:0:0:
120,269,6972,2,0,P|117:280|120:292,1,24.0000009155274,2|0,0:0|0:0,0:0:0:0:
139,270,7061,6,0,P|154:254|174:246,1,28.0000002670288,2|0,0:0|0:0,0:0:0:0:
139,270,7150,2,0,P|149:291|166:306,1,28.0000002670288,2|0,0:0|0:0,0:0:0:0:
158,274,7240,6,0,P|179:270|200:275,1,32,2|0,0:0|0:0,0:0:0:0:
158,274,7329,2,0,P|178:285|201:287,1,32,2|0,0:0|0:0,0:0:0:0:
262,289,7418,6,0,B|373:256|373:256|369:252|369:252|373:247|373:247|366:242|366:242|371:237|371:237|364:233|364:233|369:230|369:230|363:228|363:228|367:225|367:225|361:223|361:223|367:220|367:220|360:218|360:218|365:216|365:216|359:213|359:213|364:211|364:211|358:209|358:209|361:207|361:207|357:204|357:204|360:202|360:202|355:201|355:201|358:198|358:198|353:196|353:196|357:192|357:192|352:190|352:190|355:186|355:186|351:184|351:184|353:180|353:180|349:179|349:179|335:132|335:132|220:165,1,432.000016479493,2|0,0:0|0:0,0:0:0:0:
476,189,9561,5,2,0:0:0:0:
413,273,9829,1,2,0:0:0:0:
419,297,9963,2,0,L|429:353,1,40.8000007781983,2|0,0:0|0:0,0:0:0:0:
346,312,10231,2,0,L|353:352,1,40.8000007781983,2|0,0:0|0:0,0:0:0:0:
340,288,10498,1,2,0:0:0:0:
441,300,10632,2,0,P|453:260|467:222,1,81.6000015563965,2|0,0:0|0:0,0:0:0:0:
286,130,11168,2,0,P|300:168|312:207,1,81.6000015563965,2|0,0:0|0:0,0:0:0:0:
512,59,11704,6,0,P|496:21|463:-1,1,81.6000015563965,2|2,0:0|0:0,0:0:0:0:
370,100,12106,2,0,P|409:94|439:67,1,81.6000015563965,2|2,0:0|0:0,0:0:0:0:
439,67,12641,2,0,L|446:107,1,40.8000007781983,2|0,0:0|0:0,0:0:0:0:
350,106,12909,2,0,L|358:66,1,40.8000007781983,2|0,0:0|0:0,0:0:0:0:
284,35,13177,2,0,L|266:71,1,40.8000007781983,2|0,0:0|0:0,0:0:0:0:
366,36,13445,1,2,0:0:0:0:
366,36,13713,1,0,0:0:0:0:
284,35,13847,6,0,P|246:39|195:47,1,81.6000015563965,2|0,0:0|0:0,0:0:0:0:
251,146,14382,2,0,P|216:167|182:190,1,81.6000015563965,2|0,0:0|0:0,0:0:0:0:
322,247,14918,2,0,P|329:227|337:208,1,40.8000007781983,2|0,0:0|0:0,0:0:0:0:
325,205,15186,2,0,P|304:255|286:306,1,81.6000015563965,2|0,0:0|0:0,0:0:0:0:
317,203,15722,1,0,0:0:0:0:
81,345,15990,6,0,P|83:305|123:256,1,81.6000015563965,2|0,0:0|0:0,0:0:0:0:
160,225,16391,1,2,0:0:0:0:
129,204,16659,1,2,0:0:0:0:
161,336,16927,1,2,0:0:0:0:
158,319,17061,2,0,L|211:307,1,40.8000007781983,2|2,0:0|0:0,0:0:0:0:
268,298,17329,2,0,L|321:286,1,40.8000007781983,2|0,0:0|0:0,0:0:0:0:
432,274,17597,2,0,P|396:292|387:330,1,81.6000015563965,2|2,0:0|0:0,0:0:0:0:
512,160,18132,6,0,B|492:177|485:207|485:207|473:179|450:167,1,110.400002105713,4|0,0:0|0:0,0:0:0:0:
439,92,18534,2,0,B|459:75|466:45|466:45|478:73|502:86,1,110.400002105713,8|0,0:0|0:0,0:0:0:0:
378,136,18936,2,0,B|386:125|336:119|345:150|335:145,1,55.2000010528565,10|0,0:0|0:0,0:0:0:0:
354,224,19204,1,8,0:0:0:0:
274,192,19338,1,0,3:3:0:0:
250,109,19472,1,0,3:0:0:0:
329,100,19606,2,0,B|337:90|358:135|326:136|335:145,1,55.2000010528565,2|8,3:0|0:0,0:0:0:0:
87,58,20007,5,8,0:0:0:0:
157,54,20141,1,8,0:0:0:0:
92,80,20275,2,0,P|102:160|106:215,1,110.400002105713,10|0,0:0|0:0,0:0:0:0:
47,232,20677,2,0,P|95:276|134:238,1,110.400002105713,8|0,0:0|0:0,0:0:0:0:
175,204,21079,1,10,0:0:0:0:
96,377,21347,2,0,P|150:368|222:359,1,110.400002105713,8|0,0:0|0:0,0:0:0:0:
236,358,21748,1,2,3:0:0:0:
145,337,21882,1,8,0:0:0:0:
326,324,22150,2,0,L|353:319,2,27.6000005264282,8|8|8,0:0|0:0|0:0,0:0:0:0:
239,219,22418,5,2,3:0:0:0:
266,261,22551,1,0,0:0:0:0:
262,286,22686,2,0,P|273:266|314:238,1,55.2000010528565,0|0,3:0|3:0,0:0:0:0:
163,198,22954,5,2,3:0:0:0:
120,222,23087,1,0,0:0:0:0:
112,246,23222,2,0,P|111:223|88:179,1,55.2000010528565,0|0,3:0|3:0,0:0:0:0:
258,105,23490,5,2,3:0:0:0:
297,134,23623,1,0,0:0:0:0:
301,158,23758,2,0,P|304:134|333:94,1,55.2000010528565,0|0,3:0|3:0,0:0:0:0:
150,85,24025,5,2,3:0:0:0:
102,92,24158,1,0,0:0:0:0:
86,111,24293,2,0,P|92:89|86:40,1,55.2000010528565,0|0,3:0|3:0,0:0:0:0:
317,23,24561,5,0,3:0:0:0:
353,27,24650,1,0,3:0:0:0:
389,32,24739,1,0,3:0:0:0:
426,37,24828,1,0,3:0:0:0:
462,42,24918,1,0,3:0:0:0:
499,46,25007,1,0,3:0:0:0:
495,79,25097,5,0,3:0:0:0:
476,77,25186,1,0,3:0:0:0:
458,75,25276,1,0,3:0:0:0:
440,72,25365,1,0,3:0:0:0:
422,70,25454,1,0,3:0:0:0:
404,68,25543,1,0,3:0:0:0:
332,102,25632,6,0,B|300:153|335:205|335:205|353:184|362:186,1,144,8|0,1:0|0:0,0:0:0:0:
452,156,26168,5,4,3:0:0:0:
485,234,26347,1,4,3:0:0:0:
485,188,26525,1,4,3:0:0:0:
444,310,26704,6,0,B|311:337|171:368|171:368|171:374|171:374|170:368|170:368|126:377|80:387|80:387|30:310|71:236|75:242|82:252|102:166|37:93,1,672,6|0,1:2|0:0,0:0:0:0:
21,45,27775,1,8,1:0:0:0:
151,272,28311,5,2,0:0:0:0:
162,198,28489,1,2,0:0:0:0:
173,124,28668,1,2,0:0:0:0:
100,336,28847,6,0,B|173:377|221:308|221:308|254:380|331:377|331:377|336:382|336:382|333:376|333:376|406:335|406:335|402:326|402:326|407:334|407:334|418:329|488:270|436:194|424:200|417:204|352:119|390:101|446:75,1,672,6|0,1:2|0:0,0:0:0:0:
472,40,29918,1,8,1:0:0:0:
472,40,30811,1,2,0:0:0:0:
466,111,30990,6,0,B|540:142|552:202|543:286|461:309|359:301|371:180|371:180|243:149|256:27|376:-7|419:92,1,672,6|0,1:2|0:0,0:0:0:0:
466,111,32061,2,0,B|374:107|356:192|359:198|364:204|324:265|251:277,1,288,8|0,1:0|0:0,0:0:0:0:
109,258,32597,5,2,0:0:0:0:
66,316,32776,1,2,0:0:0:0:
128,355,32954,1,2,0:0:0:0:
176,129,33132,6,0,L|190:208,1,80,4|0,3:0|0:0,0:0:0:0:
255,115,33490,1,4,3:0:0:0:
162,55,33668,1,2,3:2:0:0:
169,92,33847,1,4,3:0:0:0:
176,129,34025,1,2,3:2:0:0:
84,70,34204,5,8,1:0:0:0:
155,18,34382,1,0,0:0:0:0:
241,39,34561,1,4,3:0:0:0:
169,92,34740,1,4,3:0:0:0:
176,129,34918,1,4,3:0:0:0:
183,166,35097,1,4,3:0:0:0:
279,303,35275,6,0,B|357:290|420:199|346:185|347:177|347:169|271:138|397:39|460:34|460:34|482:95|450:169|450:169|514:222|479:281|479:281|464:262|443:263,1,672,6|0,1:2|0:0,0:0:0:0:
393,352,36347,1,8,1:0:0:0:
0,269,36882,6,0,P|2:249|15:263,1,48.0000018310548,2|0,0:0|0:0,0:0:0:0:
87,269,37061,2,0,P|104:277|86:285,1,48.0000018310548,2|0,0:0|0:0,0:0:0:0:
44,343,37240,2,0,P|26:352|30:333,1,48.0000018310548,2|0,0:0|0:0,0:0:0:0:
43,294,37418,6,0,B|-95:194|11:2|231:64|169:238|169:238|130:183|66:187|66:187|122:230|174:326|74:385|74:385|134:365|194:361,1,960,6|8,1:2|1:0,0:0:0:0:
87,4,39382,5,2,0:0:0:0:
12,59,39561,2,0,B|8:236|171:365|247:136|172:30|172:30|237:41|294:43|294:43|310:96|310:96|346:101|370:110|370:110|390:95|417:76|444:88|425:67|413:18,1,840,6|0,1:2|0:0,0:0:0:0:
414,24,40632,2,0,B|291:92|234:249|317:368,1,360,8|0,1:0|0:0,0:0:0:0:
476,186,41168,5,2,0:0:0:0:
415,250,41347,1,2,0:0:0:0:
402,336,41525,1,2,0:0:0:0:
476,186,41704,6,0,B|380:252|250:306|250:306|263:269|250:220|242:232|136:188|240:147|249:166|254:117|240:68|240:68|341:86|370:168,1,672,4|0,3:0|0:0,0:0:0:0:
300,191,42775,2,0,P|341:272|365:337,1,160,8|0,1:0|0:0,0:0:0:0:
64,141,43132,5,4,3:0:0:0:
169,101,43311,1,8,3:0:0:0:
107,45,43490,1,2,0:0:0:0:
24,37,43668,1,2,0:0:0:0:
0,383,43847,6,0,P|33:370|68:364,1,72.0000027465821,4|0,0:0|0:0,0:0:0:0:
136,342,44248,2,0,P|167:324|199:349,1,72.0000027465821,2|0,0:0|0:0,0:0:0:0:
257,376,44650,1,2,0:0:0:0:
475,288,44918,5,0,0:0:0:0:
448,291,45051,1,2,0:0:0:0:
390,244,45319,1,0,0:0:0:0:
363,247,45454,2,0,P|361:287|384:329,1,72.0000027465821,2|0,0:0|0:0,0:0:0:0:
491,19,45990,6,0,P|504:52|510:87,1,72.0000027465821,2|0,0:0|0:0,0:0:0:0:
440,106,46391,2,0,P|444:142|428:173,1,72.0000027465821,2|0,0:0|0:0,0:0:0:0:
358,157,46793,1,2,0:0:0:0:
235,114,47061,5,0,0:0:0:0:
231,87,47195,1,2,0:0:0:0:
155,97,47463,1,0,0:0:0:0:
159,124,47597,2,0,L|130:131,1,18.0000006866455,2|0,0:0|0:0,0:0:0:0:
28,237,48132,6,0,P|79:220|132:212,2,108.000004119873,2|2|2,0:0|0:0|0:0,0:0:0:0:
24,345,49204,1,2,0:0:0:0:
29,350,49338,2,0,P|82:358|133:375,1,108.000004119873,2|2,0:0|0:0,0:0:0:0:
259,278,50275,2,0,B|235:290|238:325|238:325|227:292|202:291,2,108.000004119873,2|2|2,0:0|0:0|0:0,0:0:0:0:
409,227,51481,5,2,0:0:0:0:
440,218,51614,1,2,0:0:0:0:
441,228,51748,1,0,0:0:0:0:
472,218,51882,2,0,L|479:262,1,36.0000013732911,2|0,0:0|0:0,0:0:0:0:
489,326,52150,2,0,L|496:370,1,36.0000013732911,2|2,0:0|0:0,0:0:0:0:
318,302,52418,6,0,B|295:171|287:120|287:120|283:103|307:99,1,216.000008239746,14|8,1:2|0:0,0:0:0:0:
387,112,52954,2,0,B|404:171|335:205|335:205|326:196|329:180,1,144.000005493164,4|8,3:0|0:0,0:0:0:0:
469,40,53490,5,4,3:0:0:0:
474,64,53623,1,2,3:0:0:0:
327,45,53891,1,2,0:0:0:0:
322,21,54025,2,0,P|251:34|181:50,1,144.000005493164,4|8,3:0|0:0,0:0:0:0:
242,96,54427,1,8,0:0:0:0:
305,53,54561,6,0,P|257:21|198:28,1,120,4|2,3:0|0:0,0:0:0:0:
287,169,54963,2,0,P|319:119|311:61,1,120,8|0,3:0|0:0,0:0:0:0:
74,35,55365,6,0,B|26:22|3:55|3:55|25:71|15:100,1,120,10|4,0:0|3:0,0:0:0:0:
31,283,55766,2,0,P|42:224|55:165,1,120,8|0,0:0|0:0,0:0:0:0:
159,224,56168,1,10,0:0:0:0:
162,227,56436,1,8,0:0:0:0:
165,230,56570,1,8,0:0:0:0:
167,232,56704,2,0,B|111:239,1,48,4|2,3:0|3:0,3:0:0:0:
181,309,56972,5,2,3:0:0:0:
214,339,57106,1,2,3:0:0:0:
256,349,57240,1,4,3:0:0:0:
300,334,57373,1,2,3:0:0:0:
326,300,57507,1,2,3:0:0:0:
328,253,57641,1,2,3:0:0:0:
397,15,57775,5,4,3:0:0:0:
327,9,57909,1,2,3:0:0:0:
263,41,58043,1,2,3:0:0:0:
232,104,58177,1,2,3:0:0:0:
237,176,58311,5,4,3:0:0:0:
320,166,58445,1,2,3:0:0:0:
403,156,58579,1,2,3:0:0:0:
415,239,58713,1,2,3:0:0:0:
426,322,58847,2,0,L|501:311,5,48.0000018310548,4|2|2|2|2|2,3:0|3:0|3:0|3:0|3:0|3:0,3:0:0:0:
356,284,59382,5,4,3:0:0:0:
346,285,59471,1,2,3:0:0:0:
337,286,59560,1,2,3:0:0:0:
327,288,59649,1,2,3:0:0:0:
318,289,59739,1,2,3:0:0:0:
308,290,59828,1,2,3:0:0:0:
312,368,59918,6,0,B|324:344|306:324|324:304|324:304|326:296|326:296|328:304|328:304|330:297|330:297|332:305|332:305|334:298|334:298|336:305|336:305|337:298|337:298|339:306|339:306|340:299|340:299|343:307|343:307|344:300|344:300|347:308|347:308|348:301|348:301|350:308|350:308|351:301|351:301|354:309|354:309|355:302|355:302|358:310|358:310|359:303|359:303|362:311|362:311|362:304|362:304|364:311|364:311|366:304|366:304|368:312|368:312|370:304|370:304|372:313|372:313|374:305|374:305|375:314|375:314|377:306|377:306|379:314|379:314|381:307|381:307|383:315|383:315|385:307|385:307|387:316|387:316|388:308|388:308|390:317|390:317|391:309|391:309|394:317|394:317|395:310|395:310|398:317|398:317|399:310|399:310|401:318|401:318|402:311|402:311|405:319|405:319|406:312|406:312|409:320|409:320|410:313|410:313|412:320|412:320|413:313|413:313|415:321|415:321|417:314|417:314|419:322|419:322|421:315|421:315|423:323|423:323|425:316|425:316|426:323|426:323|428:317|428:317|430:324|430:324|432:317|432:317|434:325|434:325|436:317|436:317|438:326|438:326|438:318|438:318|441:326|441:326|442:319|442:319|445:327|445:327|446:319|446:319|449:328|449:328|450:320|450:320|452:329|452:329|453:321|453:321|456:326,1,504.000004806519,2|0,1:0|0:0,0:0:0:0:
242,333,60454,6,0,P|188:341|135:352,1,108.000004119873
12,191,60990,6,0,B|0:159|0:159|39:159|39:159|65:186|65:186|35:201,1,144.000005493164,4|0,1:0|0:0,0:0:0:0:
12,191,61391,6,0,B|-5:157|-5:157|42:151|42:151|71:190|71:190|36:201,1,168.000001602173,4|0,0:0|0:0,0:0:0:0:
12,191,61793,6,0,B|-10:160|-10:160|45:145|45:145|72:196|72:196|35:201,1,192,4|0,0:0|0:0,0:0:0:0:
11,191,62195,6,0,B|-29:158|-29:158|48:139|48:139|88:208|88:208|36:201,1,264.0000025177,4|0,0:0|0:0,0:0:0:0:
76,75,62597,6,0,L|85:52,1,24,8|0,0:0|0:0,0:0:0:0:
96,18,62865,1,0,1:0:0:0:
348,123,63132,6,0,B|386:57|408:-31|307:-72|224:2|271:66,1,288.000010986329,4|2,1:0|0:0,0:0:0:0:
189,242,63534,2,0,B|190:248|188:272|188:272|198:250|205:242,1,60,2|0,3:0|3:0,0:0:0:0:
263,208,63668,2,0,P|317:225|413:258,1,120,8|0,1:0|0:0,0:0:0:0:
462,329,63936,2,0,P|502:288|490:229,1,120,0|0,1:0|0:0,0:0:0:0:
287,88,64204,5,2,3:0:0:0:
376,167,64338,1,2,3:0:0:0:
493,132,64472,1,0,1:0:0:0:
417,0,64606,2,0,L|400:57,1,60,0|0,3:0|3:0,0:0:0:0:
395,81,64740,5,8,1:0:0:0:
275,15,64873,1,0,0:0:0:0:
196,86,65007,2,0,P|144:98|89:115,1,96,8|8,0:0|0:0,0:0:0:0:
5,146,65275,6,0,B|5:77|98:32|186:84|186:84|156:111|161:134,1,288.000010986329,6|2,1:2|0:0,0:0:0:0:
116,342,65677,2,0,P|138:322|146:294,1,60,2|0,3:0|3:0,0:0:0:0:
105,238,65811,2,0,P|54:266|50:324,1,120,8|0,1:0|0:0,0:0:0:0:
285,235,66079,5,2,3:0:0:0:
276,360,66213,1,2,3:0:0:0:
247,249,66347,1,0,1:0:0:0:
343,181,66481,2,0,P|359:217|358:267,1,60,0|0,3:0|3:0,0:0:0:0:
264,151,66615,2,0,P|309:104|382:111,1,120,0|2,1:0|3:0,0:0:0:0:
314,346,66882,5,8,1:0:0:0:
402,325,67016,2,0,B|391:372|345:240|462:259,1,144,2|0,1:2|0:0,0:0:0:0:
490,256,67418,1,0,1:0:0:0:
512,325,67552,1,8,0:0:0:0:
461,376,67686,6,0,P|472:374|461:340,2,36.0000013732911,2|2|2,3:0|3:0|3:0,0:0:0:0:
402,325,67954,2,0,P|367:273|359:217,1,120,8|0,1:0|0:0,0:0:0:0:
455,58,68222,1,0,1:0:0:0:
511,115,68356,2,0,B|472:111|478:154|478:154|463:113|429:133,1,120,2|0,0:0|0:0,0:0:0:0:
275,44,68623,1,2,3:0:0:0:
253,155,68757,1,0,1:0:0:0:
292,51,68891,1,2,3:0:0:0:
146,75,69025,5,8,1:0:0:0:
80,151,69159,5,8,1:0:0:0:
27,252,69293,5,8,1:0:0:0:
0,384,69427,5,8,1:0:0:0:
210,344,69561,6,0,B|210:359|231:372|236:356|236:356|237:250|153:186|153:186|136:179|134:205|165:239,1,288.000010986329,4|2,1:0|0:0,0:0:0:0:
96,379,69963,2,0,B|113:357|97:349|118:325,1,60,2|2,3:0|3:0,0:0:0:0:
147,298,70097,5,8,1:0:0:0:
241,254,70231,1,0,0:0:0:0:
244,384,70365,1,0,1:0:0:0:
338,340,70498,1,0,0:0:0:0:
457,186,70632,5,2,3:0:0:0:
461,190,70766,1,2,3:0:0:0:
419,291,70900,5,0,1:0:0:0:
488,314,71034,2,0,B|494:279|494:279|481:258,1,60,0|0,3:0|3:0,0:0:0:0:
394,224,71168,5,8,1:0:0:0:
419,121,71302,1,8,0:0:0:0:
437,47,71436,1,8,0:0:0:0:
446,12,71570,1,8,0:0:0:0:
302,106,71704,6,0,B|303:127|328:150|328:150|304:145|296:132|296:132|291:139|291:139|259:124|259:124|234:113|207:131,1,180,4|0,1:0|0:0,0:0:0:0:
199,53,71972,2,0,B|218:58|236:35|236:35|259:9|259:9|267:14|267:14|269:-1|290:-16|290:-16|276:14|285:35,1,180,2|0,3:0|0:0,0:0:0:0:
356,51,72240,1,8,1:0:0:0:
359,54,72373,1,0,0:0:0:0:
255,77,72507,5,0,1:0:0:0:
127,73,72641,1,2,0:0:0:0:
14,134,72775,2,0,B|-20:107|10:194|-43:235|5:239|44:273|35:205|119:168|77:160,1,240,2|0,3:0|1:0,0:0:0:0:
250,180,73177,2,0,B|255:179|247:168|247:168|238:137|212:151,1,60,2|2,3:0|3:0,0:0:0:0:
158,207,73311,6,0,B|176:250|174:326|160:263|157:302|181:363,1,120,8|0,1:0|0:0,0:0:0:0:
1,311,73579,2,0,B|34:343|106:370|52:333|89:345|137:390,1,120,2|2,3:0|3:0,0:0:0:0:
311,287,73847,5,0,1:0:0:0:
403,311,73981,2,0,L|525:338,1,120,2|0,0:0|0:0,0:0:0:0:
445,229,74248,5,8,0:0:0:0:
323,264,74382,2,0,L|226:285,1,96,8|0,1:0|0:0,0:0:0:0:
295,169,74649,5,0,1:0:0:0:
428,203,74784,2,0,L|499:219,1,72.0000027465821,2|0,0:0|0:0,0:0:0:0:
469,103,75052,5,8,0:0:0:0:
315,141,75186,2,0,L|244:157,1,48,0|0,1:0|0:0,0:0:0:0:
364,14,75454,5,8,1:0:0:0:
382,90,75588,1,8,0:0:0:0:
382,38,75722,2,0,L|370:90,2,36.0000013732911,8|2|2,0:0|3:0|3:0,0:0:0:0:
205,224,75990,5,10,1:2:0:0:
108,252,76123,1,2,3:0:0:0:
22,207,76257,1,2,3:0:0:0:
0,121,76391,1,2,3:0:0:0:
27,45,76525,1,10,0:0:0:0:
90,6,76659,1,2,1:2:0:0:
158,16,76793,1,2,1:2:0:0:
196,63,76927,1,2,1:2:0:0:
189,117,77061,5,2,1:2:0:0:
151,151,77128,5,2,0:0:0:0:
105,150,77195,5,2,1:2:0:0:
73,132,77262,5,2,0:0:0:0:
60,104,77329,5,10,0:0:0:0:
62,80,77396,5,2,0:0:0:0:
75,66,77463,5,2,1:2:0:0:
86,63,77530,5,2,0:0:0:0:
91,67,77597,6,0,P|140:118|175:181,1,144.000005493164,8|0,1:0|0:0,0:0:0:0:
420,67,77865,2,0,P|371:118|336:181,1,144.000005493164,0|0,1:0|0:0,0:0:0:0:
256,192,78132,5,4,1:0:0:0:
160,352,78266,5,4,3:0:0:0:
64,352,78400,1,6,3:0:0:0:
64,256,78534,1,6,3:0:0:0:
160,256,78668,1,8,1:0:0:0:
160,128,78802,5,2,0:0:0:0:
160,32,78936,2,0,L|64:32,1,96,6|2,3:0|3:0,0:0:0:0:
64,32,79204,2,0,L|64:128,1,96,2|4,0:0|3:0,0:0:0:0:
352,128,79472,5,2,0:0:0:0:
448,128,79606,1,2,0:0:0:0:
448,32,79740,2,0,L|352:32,1,96,8|2,1:0|3:0,0:0:0:0:
352,128,80007,1,2,3:0:0:0:
352,128,80141,1,2,3:0:0:0:
256,192,80275,5,4,3:0:0:0:
352,256,80409,5,2,0:0:0:0:
448,256,80543,2,0,L|480:256,2,32,2|2|2,3:0|0:0|0:0,0:0:0:0:
448,352,80811,2,0,L|352:352,1,96,8|2,1:0|0:0,0:0:0:0:
160,352,81079,5,4,3:0:0:0:
64,352,81213,1,2,0:0:0:0:
64,256,81347,2,0,L|160:256,1,96,2|4,0:0|3:0,0:0:0:0:
448,256,81615,6,0,L|352:256,1,96,2|0,0:0|0:0,0:0:0:0:
256,160,81882,5,8,1:0:0:0:
224,160,81972,1,2,3:0:0:0:
224,192,82061,1,2,3:0:0:0:
256,224,82150,5,2,3:0:0:0:
288,224,82240,1,2,3:0:0:0:
288,192,82329,1,2,3:0:0:0:
256,192,82418,6,0,L|256:288,1,96,4|4,1:0|3:0,0:0:0:0:
368,32,82686,6,0,L|368:128,1,96,4|2,3:0|3:0,0:0:0:0:
144,32,82954,2,0,L|144:128,1,96,8|2,1:0|0:0,0:0:0:0:
256,0,83222,1,4,3:0:0:0:
256,96,83356,1,2,3:0:0:0:
144,256,83490,5,4,3:0:0:0:
144,352,83623,1,2,0:0:0:0:
368,256,83757,1,2,0:0:0:0:
368,352,83891,1,2,0:0:0:0:
256,192,84025,5,8,1:0:0:0:
256,272,84159,1,2,3:0:0:0:
256,320,84293,1,2,3:0:0:0:
256,352,84427,1,2,3:0:0:0:
256,192,84561,6,0,L|256:96,2,86.3999973632813,4|0|0,1:0|1:0|0:0,0:0:0:0:
