osu file format v14

[General]
AudioFilename: zero.mp3
AudioLeadIn: 0
PreviewTime: 26034
Countdown: 0
SampleSet: Soft
StackLeniency: 0.8
Mode: 0
LetterboxInBreaks: 0
WidescreenStoryboard: 1

[Editor]
DistanceSpacing: 0.4
BeatDivisor: 6
GridSize: 4
TimelineZoom: 1.7

[Metadata]
Title:Itsuka no Hakuchuumu
TitleUnicode:いつかの白昼夢
Artist:yuki
ArtistUnicode:yuki
Creator:Hanakumo Rin
Version:HinaMommy's Extra
Source:白昼夢の青写真
Tags:dog food kogumax delis shirohamymommy hinamommy kimikamymommy Cyanotype Daydream Hakuchuumu no Aojashin laplacian eroge visual novel vn japanese electronic pop
BeatmapID:3617536
BeatmapSetID:1767260

[Difficulty]
HPDrainRate:7
CircleSize:4
OverallDifficulty:8
ApproachRate:9.2
SliderMultiplier:1.9
SliderTickRate:1

[Events]
//Background and Video events
0,0,"erogege.png",0,0
//Break Periods
//Storyboard Layer 0 (Background)
//Storyboard Layer 1 (Fail)
//Storyboard Layer 2 (Pass)
//Storyboard Layer 3 (Foreground)
//Storyboard Layer 4 (Overlay)
//Storyboard Sound Samples

[TimingPoints]
990,535.714285714286,4,2,1,45,1,0
9561,-117.647058823529,4,2,1,50,0,0
18132,-86.9565217391304,4,2,1,60,0,0
25632,-100,4,2,1,65,0,0
26704,-333.333333333333,4,2,1,65,0,0
34204,-133.333333333333,4,2,1,65,0,0
35275,-333.333333333333,4,2,1,65,0,0
42775,-133.333333333333,4,2,1,65,0,0
43847,-111.111111111111,4,2,1,50,0,0
52418,-83.3333333333333,4,2,1,60,0,0
60990,-66.6666666666667,4,2,1,45,0,0
61391,-66.6666666666667,4,2,1,55,0,0
61793,-66.6666666666667,4,2,1,65,0,0
62195,-66.6666666666667,4,2,1,70,0,0
63132,-40.8163265306122,4,2,1,85,0,0
66882,-100,4,2,1,85,0,0
67954,-40.8163265306122,4,2,1,85,0,0
73847,-133.333333333333,4,2,1,85,0,0
75722,-40.8163265306122,4,2,1,85,0,0
77597,-35.7142857142857,4,2,1,85,0,0
78132,-35.7142857142857,4,2,1,80,0,0
84561,-333.333333333333,4,2,1,60,0,0
85097,-333.333333333333,4,2,1,15,0,0
85365,-666.666666666667,4,2,1,50,0,0
86168,-666.666666666667,4,2,1,10,0,0

[Colours]
Combo1 : 188,188,222
Combo2 : 255,255,43
Combo3 : 165,255,74
Combo4 : 207,207,207

[HitObjects]
480,324,990,6,0,B|424:348|428:316|428:316|332:336,1,142.5,4|0,1:0|0:0,0:0:0:0:
353,331,2597,1,0,0:0:0:0:
355,320,2686,1,0,0:0:0:0:
357,310,2775,1,0,0:0:0:0:
357,299,2864,1,0,0:0:0:0:
356,289,2954,1,0,0:0:0:0:
354,278,3043,1,0,0:0:0:0:
348,264,3132,2,0,B|300:252|256:272|256:272|236:320,1,142.5
263,122,5275,6,0,B|279:158|267:186|267:186|227:210|243:270,1,142.5,2|0,0:0|0:0,0:0:0:0:
240,253,6882,1,0,0:0:0:0:
242,264,6971,1,0,0:0:0:0:
244,274,7060,1,0,0:0:0:0:
244,285,7149,1,0,0:0:0:0:
243,295,7239,1,0,0:0:0:0:
241,306,7328,1,0,0:0:0:0:
237,316,7418,2,0,B|184:304|128:328|128:328|152:284,1,142.5,2|0,0:0|0:0,0:0:0:0:
256,192,7954,12,0,9025,0:0:0:0:
392,72,9561,5,2,0:0:0:0:
392,72,9829,1,2,0:0:0:0:
392,72,9963,2,0,P|408:120|392:172,1,80.750001540184,0|0,0:0|0:0,0:0:0:0:
332,224,10498,2,0,P|288:212|172:248,1,161.500003080368
144,312,11168,1,2,0:0:0:0:
144,312,11436,1,0,0:0:0:0:
24,192,11704,6,0,L|132:172,1,80.750001540184,2|2,0:0|0:0,0:0:0:0:
84,144,12106,2,0,P|136:140|184:112,1,80.750001540184,2|2,0:0|0:0,0:0:0:0:
212,68,12641,1,2,0:0:0:0:
212,68,12909,1,0,0:0:0:0:
140,236,13177,2,0,P|196:248|272:220,1,121.125002310276
308,176,13713,1,0,0:0:0:0:
380,200,13847,6,0,P|428:196|472:168,1,80.750001540184,2|0,0:0|0:0,0:0:0:0:
432,84,14382,2,0,P|384:88|340:116,1,80.750001540184,2|2,0:0|0:0,0:0:0:0:
238,113,14918,2,0,P|258:165|246:257,1,121.125002310276,2|2,0:0|0:0,0:0:0:0:
192,272,15454,1,0,0:0:0:0:
192,272,15722,1,0,0:0:0:0:
28,200,15990,6,0,L|156:184,1,121.125002310276,2|2,0:0|0:0,0:0:0:0:
56,296,16659,1,2,0:0:0:0:
76,285,16927,2,0,P|132:293|204:261,1,121.125002310276,2|2,0:0|0:0,0:0:0:0:
256,232,17463,1,2,0:0:0:0:
328,252,17597,2,0,P|376:260|416:304,1,80.750001540184,2|2,0:0|0:0,0:0:0:0:
496,156,18132,6,0,L|368:172,1,109.250002083778,4|0,0:0|0:0,0:0:0:0:
424,124,18534,2,0,L|236:144,1,163.875003125668,8|8,0:0|0:0,0:0:0:0:
212,204,19070,2,0,P|184:148|208:36,1,163.875003125668,2|2,0:0|0:0,0:0:0:0:
198,50,19606,1,0,0:0:0:0:
280,36,19740,1,8,0:0:0:0:
28,200,20007,5,8,0:0:0:0:
28,200,20141,1,8,0:0:0:0:
28,200,20275,2,0,P|88:216|136:280,1,109.250002083778,10|0,0:0|0:0,0:0:0:0:
192,280,20677,2,0,P|252:264|300:200,1,109.250002083778,8|0,0:0|0:0,0:0:0:0:
268,292,21079,1,10,0:0:0:0:
496,156,21347,2,0,P|436:124|328:156,1,163.875003125668,8|8,0:0|0:0,0:0:0:0:
464,176,21882,1,8,0:0:0:0:
261,141,22150,5,2,3:0:0:0:
237,155,22216,1,2,3:0:0:0:
211,162,22283,1,2,3:0:0:0:
184,162,22350,1,2,3:0:0:0:
156,156,22418,5,2,3:0:0:0:
106,208,22551,1,0,0:0:0:0:
158,258,22686,1,2,3:0:0:0:
108,310,22820,1,2,3:0:0:0:
160,360,22954,5,2,3:0:0:0:
84,316,23088,1,0,0:0:0:0:
184,252,23222,1,0,3:0:0:0:
80,196,23356,1,0,3:0:0:0:
176,140,23490,5,2,3:0:0:0:
56,184,23623,1,0,0:0:0:0:
60,324,23757,1,0,3:0:0:0:
184,368,23891,1,0,3:0:0:0:
261,141,24025,5,8,0:0:0:0:
333,206,24159,1,0,0:0:0:0:
312,302,24293,1,2,3:0:0:0:
218,333,24427,1,0,0:0:0:0:
238,255,24561,5,0,3:0:0:0:
221,230,24650,1,0,3:0:0:0:
221,201,24739,1,0,3:0:0:0:
237,178,24828,1,0,3:0:0:0:
263,166,24918,1,0,3:0:0:0:
288,172,25007,1,0,3:0:0:0:
300,192,25097,1,0,3:0:0:0:
280,229,25186,1,0,3:0:0:0:
284,270,25275,1,0,3:0:0:0:
312,302,25364,1,0,3:0:0:0:
352,312,25454,1,0,3:0:0:0:
392,298,25543,1,0,3:0:0:0:
415,264,25632,2,0,P|424:192|488:148,1,142.5,8|0,1:0|0:0,0:0:0:0:
424,40,26168,5,4,3:0:0:0:
224,68,26347,5,4,3:0:0:0:
24,96,26525,5,4,3:0:0:0:
128,340,26704,6,0,P|152:296|148:240,1,104.499996810913,4|0,0:0|0:0,0:0:0:0:
0,384,27775,1,8,1:0:0:0:
339,256,28311,5,2,0:0:0:0:
415,264,28490,1,2,0:0:0:0:
387,192,28668,1,2,0:0:0:0:
328,300,28847,6,0,P|304:256|308:200,1,104.499996810913,4|0,0:0|0:0,0:0:0:0:
424,40,29918,1,8,1:0:0:0:
54,75,30811,5,2,0:0:0:0:
122,107,30990,2,0,P|106:135|74:151,2,56.9999982604981,4|0|8,0:0|3:0|1:0,0:0:0:0:
440,160,32597,5,2,0:0:0:0:
416,236,32775,1,2,0:0:0:0:
492,220,32954,1,2,0:0:0:0:
440,160,33132,1,4,3:0:0:0:
224,272,33490,1,4,3:0:0:0:
48,128,33847,1,4,3:0:0:0:
96,192,34204,2,0,P|124:152|112:88,2,95.0000036239625,8|4|8,1:0|3:0|3:0,0:0:0:0:
328,300,35275,6,0,P|376:324|428:316,1,104.499996810913,4|0,0:0|0:0,0:0:0:0:
237,178,36347,1,8,1:0:0:0:
117,358,36882,5,2,0:0:0:0:
16,368,37061,1,2,0:0:0:0:
53,273,37239,1,2,0:0:0:0:
64,332,37418,6,0,P|96:320|132:260,1,104.499996810913,4|0,0:0|0:0,0:0:0:0:
68,52,38490,1,8,1:0:0:0:
296,112,39382,5,2,0:0:0:0:
356,164,39561,2,0,P|372:140|372:96,2,56.9999982604981,4|0|8,0:0|3:0|1:0,0:0:0:0:
208,244,41168,5,2,0:0:0:0:
184,320,41346,1,2,0:0:0:0:
130,263,41525,1,2,0:0:0:0:
52,244,41704,1,4,3:0:0:0:
300,308,42061,1,4,3:0:0:0:
448,128,42418,1,4,3:0:0:0:
396,64,42775,6,0,P|372:100|376:164,1,95.0000036239625,8|4,1:0|3:0,0:0:0:0:
437,213,43311,1,8,3:0:0:0:
445,217,43490,1,0,0:0:0:0:
453,221,43668,1,0,0:0:0:0:
176,276,43847,5,4,0:0:0:0:
104,240,44115,1,0,0:0:0:0:
104,240,44248,1,2,0:0:0:0:
32,204,44516,1,0,0:0:0:0:
32,204,44649,1,0,0:0:0:0:
68,132,44918,1,0,0:0:0:0:
68,132,45051,1,2,0:0:0:0:
104,60,45319,1,0,0:0:0:0:
104,60,45454,2,0,L|200:40,1,85.4999973907472,2|2,0:0|0:0,0:0:0:0:
381,77,45990,5,2,0:0:0:0:
417,149,46258,1,0,0:0:0:0:
417,149,46391,1,2,0:0:0:0:
453,221,46659,1,0,0:0:0:0:
453,221,46793,2,0,P|456:264|404:344,2,128.249996086121,2|2|2,0:0|0:0|0:0,0:0:0:0:
296,312,47865,1,2,0:0:0:0:
176,276,48132,5,2,0:0:0:0:
223,209,48400,1,0,0:0:0:0:
223,209,48534,1,2,0:0:0:0:
296,175,48802,1,0,0:0:0:0:
296,175,48936,1,2,0:0:0:0:
376,180,49204,1,0,0:0:0:0:
376,180,49338,1,2,0:0:0:0:
432,124,49606,1,0,0:0:0:0:
432,124,49740,2,0,P|444:76|424:24,1,85.4999973907472,2|2,0:0|0:0,0:0:0:0:
308,80,50275,6,0,P|244:96|180:64,2,128.249996086121,2|2|2,0:0|0:0|0:0,0:0:0:0:
189,73,51481,1,2,0:0:0:0:
53,130,51614,1,0,0:0:0:0:
112,80,51748,1,2,0:0:0:0:
32,204,51882,1,2,0:0:0:0:
96,244,52016,5,0,0:0:0:0:
79,266,52149,1,2,0:0:0:0:
54,279,52283,1,2,0:0:0:0:
93,342,52418,6,0,P|180:320|276:348,1,170.999994781494,4|8,0:0|0:0,0:0:0:0:
296,268,52954,2,0,L|432:244,1,113.999996520996,4|0,3:0|0:0,0:0:0:0:
472,200,53490,1,4,3:0:0:0:
472,200,53623,1,8,0:0:0:0:
352,169,54025,2,0,L|282:288,1,113.999996520996,6|8,3:0|0:0,0:0:0:0:
256,188,54427,5,8,0:0:0:0:
164,88,54561,2,0,P|140:140|164:224,1,113.999996520996,4|2,3:0|0:0,0:0:0:0:
334,275,54963,2,0,P|358:223|334:139,1,113.999996520996,8|0,0:0|0:0,0:0:0:0:
263,41,55365,2,0,P|209:61|167:137,1,113.999996520996,8|4,0:0|3:0,0:0:0:0:
369,195,55766,2,0,P|350:141|273:99,1,113.999996520996,8|0,0:0|0:0,0:0:0:0:
240,200,56168,1,8,0:0:0:0:
188,356,56436,5,8,0:0:0:0:
180,360,56570,1,8,0:0:0:0:
171,364,56704,1,4,3:0:0:0:
102,337,56837,1,2,3:0:0:0:
62,275,56971,1,2,3:0:0:0:
65,202,57105,1,2,3:0:0:0:
110,143,57239,1,4,3:0:0:0:
180,120,57373,1,2,3:0:0:0:
239,166,57507,1,2,3:0:0:0:
237,240,57641,1,2,3:0:0:0:
175,279,57775,1,4,3:0:0:0:
123,227,57909,1,2,3:0:0:0:
170,171,58043,1,2,3:0:0:0:
230,213,58177,1,2,3:0:0:0:
172,252,58311,1,4,3:0:0:0:
116,209,58445,1,2,3:0:0:0:
142,143,58579,1,2,3:0:0:0:
212,149,58713,1,2,3:0:0:0:
277,232,58847,5,4,3:0:0:0:
299,261,58936,1,2,3:0:0:0:
334,275,59025,1,2,3:0:0:0:
371,270,59115,1,2,3:0:0:0:
401,246,59204,1,2,3:0:0:0:
414,211,59293,1,2,3:0:0:0:
504,248,59382,5,4,3:0:0:0:
460,217,59472,1,2,3:0:0:0:
433,172,59561,1,2,3:0:0:0:
427,120,59650,1,2,3:0:0:0:
444,69,59740,1,2,3:0:0:0:
479,30,59829,1,2,3:0:0:0:
364,44,59918,5,4,0:0:0:0:
359,49,59985,1,2,3:0:0:0:
355,55,60052,1,2,3:0:0:0:
350,60,60119,1,2,3:0:0:0:
346,66,60186,1,2,3:0:0:0:
341,71,60253,1,2,3:0:0:0:
337,77,60320,1,2,3:0:0:0:
332,82,60387,1,2,3:0:0:0:
328,88,60454,1,0,1:0:0:0:
65,202,60990,6,0,L|41:26,1,142.500005435944,4|0,1:0|0:0,0:0:0:0:
152,240,61391,6,0,P|168:152|128:72,1,142.500005435944,4|0,0:0|0:0,0:0:0:0:
240,304,61793,6,0,P|296:232|284:128,1,142.500005435944,4|0,0:0|0:0,0:0:0:0:
328,380,62195,6,0,P|408:352|448:252,1,178.12500679493,4|0,0:0|0:0,0:0:0:0:
301,183,62597,1,8,1:0:0:0:
152,240,62865,1,0,1:0:0:0:
464,108,63132,6,0,L|216:80,1,232.750002219677,4|2,1:0|0:0,0:0:0:0:
224,160,63534,2,0,B|208:184|208:184|232:240,1,58.1875005549192,2|0,3:0|0:0,0:0:0:0:
236,244,63668,1,8,1:0:0:0:
76,320,63802,1,0,0:0:0:0:
328,380,63936,2,0,B|356:328|348:260|348:260|296:208|324:136,1,232.750002219677,0|2,1:0|3:0,0:0:0:0:
335,82,64338,1,2,3:0:0:0:
303,9,64472,1,0,1:0:0:0:
95,87,64606,6,0,L|163:107,1,58.1875005549192,0|0,3:0|3:0,0:0:0:0:
180,116,64740,1,8,1:0:0:0:
56,12,64873,1,0,0:0:0:0:
92,200,65007,1,8,0:0:0:0:
248,68,65141,1,8,0:0:0:0:
208,320,65275,2,0,P|300:312|364:164,1,232.750002219677,4|2,0:0|0:0,0:0:0:0:
428,120,65677,2,0,L|500:108,1,58.1875005549192,2|0,3:0|3:0,0:0:0:0:
512,104,65811,1,8,1:0:0:0:
352,68,65945,1,0,0:0:0:0:
364,196,66079,6,0,P|313:296|202:315,1,232.750002219677,0|2,1:0|3:0,0:0:0:0:
96,252,66481,1,0,0:0:0:0:
260,224,66615,1,0,1:0:0:0:
152,128,66748,1,2,3:0:0:0:
20,300,66882,2,0,B|8:344|8:344|40:392,2,95,8|2|10,1:0|0:0|1:2,0:0:0:0:
387,274,67686,5,8,0:0:0:0:
394,259,67752,1,8,0:0:0:0:
401,246,67819,1,8,0:0:0:0:
492,268,67954,2,0,P|452:192|512:104,1,174.562501664758,8|0,1:0|0:0,0:0:0:0:
512,144,68222,2,0,B|324:164|324:164|304:140|272:140,1,232.750002219677,0|0,1:0|0:0,0:0:0:0:
128,192,68623,1,2,3:0:0:0:
248,68,68757,1,0,1:0:0:0:
276,252,68891,1,0,0:0:0:0:
28,192,69025,5,8,1:0:0:0:
4,112,69159,1,8,1:0:0:0:
256,336,69293,5,8,1:0:0:0:
200,136,69427,1,8,1:0:0:0:
466,343,69561,6,0,B|384:320|368:224|368:224|288:200,1,232.750002219677,4|2,1:0|0:0,0:0:0:0:
160,292,69963,2,0,L|176:360,1,58.1875005549192,2|0,3:0|3:0,0:0:0:0:
180,380,70097,1,8,1:0:0:0:
84,260,70231,1,0,0:0:0:0:
219,161,70365,2,0,B|276:112|280:48|280:48|288:64|288:64|328:24|396:44,1,232.750002219677,0|2,1:0|3:0,0:0:0:0:
428,100,70766,1,2,3:0:0:0:
352,136,70900,1,0,1:0:0:0:
488,313,71034,6,0,B|494:279|494:279|459:220,1,58.1875005549192,0|0,3:0|3:0,0:0:0:0:
453,233,71168,1,8,1:0:0:0:
344,368,71302,1,8,0:0:0:0:
173,348,71436,1,8,0:0:0:0:
302,204,71570,1,8,0:0:0:0:
124,116,71704,2,0,B|64:140|64:140|40:324,2,232.750002219677,4|2|8,1:2|3:0|1:0,0:0:0:0:
302,204,72507,5,0,1:0:0:0:
236,36,72641,1,0,0:0:0:0:
313,94,72775,2,0,P|366:126|366:315,1,232.750002219677,2|0,3:0|1:0,0:0:0:0:
173,348,73177,2,0,L|184:260,1,58.1875005549192,0|0,3:0|3:0,0:0:0:0:
212,268,73311,2,0,L|240:7,1,232.750002219677,8|2,1:0|3:0,0:0:0:0:
104,8,73713,5,2,3:0:0:0:
85,14,73779,1,2,3:0:0:0:
68,20,73847,2,0,P|44:60|48:112,1,89.0625033974649,10|0,1:2|0:0,0:0:0:0:
389,283,74248,2,0,P|413:243|409:191,1,89.0625033974649,8|0,0:0|0:0,0:0:0:0:
123,283,74650,2,0,P|99:243|103:191,1,89.0625033974649,10|0,1:2|0:0,0:0:0:0:
444,20,75052,2,0,P|468:60|464:112,1,89.0625033974649,8|0,0:0|0:0,0:0:0:0:
236,36,75454,1,8,1:0:0:0:
256,320,75722,6,0,L|328:312,1,58.1875005549192,2|0,3:0|0:0,0:0:0:0:
389,283,75856,2,0,L|331:289,1,58.1875005549192,2|0,3:0|0:0,0:0:0:0:
250,236,75990,5,0,1:0:0:0:
179,298,76123,1,2,3:0:0:0:
227,228,76257,5,2,3:0:0:0:
96,269,76390,1,2,3:0:0:0:
211,214,76525,5,2,3:0:0:0:
53,189,76658,1,2,3:0:0:0:
201,193,76793,5,2,3:0:0:0:
44,81,76926,1,2,3:0:0:0:
328,24,77061,5,2,3:0:0:0:
360,36,77127,1,2,3:0:0:0:
368,72,77194,1,2,3:0:0:0:
344,96,77261,1,2,3:0:0:0:
313,94,77329,1,2,3:0:0:0:
361,123,77395,1,2,3:0:0:0:
357,178,77462,1,2,3:0:0:0:
307,201,77529,1,2,3:0:0:0:
252,144,77597,2,0,P|124:116|-8:196,1,265.999991882324,8|0,1:0|1:0,0:0:0:0:
462,304,78132,5,4,1:0:0:0:
511,245,78265,1,4,3:0:0:0:
493,170,78399,1,4,3:0:0:0:
423,139,78533,1,4,3:0:0:0:
357,178,78667,1,8,1:0:0:0:
291,218,78802,1,0,0:0:0:0:
220,187,78936,1,4,3:0:0:0:
202,112,79070,1,2,3:0:0:0:
253,54,79203,1,0,0:0:0:0:
292,120,79338,1,4,3:0:0:0:
261,190,79472,1,2,0:0:0:0:
187,208,79606,1,2,0:0:0:0:
128,158,79739,5,8,1:0:0:0:
32,152,79873,1,2,3:0:0:0:
64,140,80007,1,2,3:0:0:0:
96,144,80141,1,2,3:0:0:0:
8,175,80275,5,4,3:0:0:0:
28,247,80408,1,0,3:0:0:0:
93,290,80542,1,2,3:0:0:0:
170,281,80677,1,0,3:0:0:0:
223,223,80810,1,8,1:0:0:0:
243,147,80945,1,0,0:0:0:0:
308,104,81079,1,4,3:0:0:0:
385,113,81213,1,0,0:0:0:0:
438,171,81347,1,0,0:0:0:0:
366,204,81481,1,4,3:0:0:0:
292,182,81615,1,0,0:0:0:0:
249,117,81749,1,0,0:0:0:0:
259,40,81882,5,8,1:0:0:0:
250,27,81972,5,2,3:0:0:0:
239,18,82061,5,2,3:0:0:0:
226,11,82150,5,2,3:0:0:0:
212,7,82240,5,2,3:0:0:0:
197,7,82329,5,2,3:0:0:0:
183,11,82418,5,4,1:0:0:0:
106,22,82551,1,4,3:0:0:0:
66,88,82685,1,4,3:0:0:0:
91,161,82819,1,4,3:0:0:0:
163,189,82953,1,8,1:0:0:0:
175,265,83088,1,0,0:0:0:0:
241,305,83222,1,4,3:0:0:0:
314,280,83356,1,2,3:0:0:0:
342,208,83490,1,4,3:0:0:0:
265,199,83623,1,0,0:0:0:0:
209,253,83757,1,2,0:0:0:0:
214,330,83891,1,2,0:0:0:0:
276,375,84025,5,8,1:0:0:0:
369,353,84158,1,2,3:0:0:0:
336,350,84292,1,2,3:0:0:0:
304,357,84426,1,2,3:0:0:0:
404,364,84561,6,0,P|426:356|450:328,1,56.9999982604981,4|0,1:0|0:0,0:0:0:0:
66,88,85365,6,0,P|52:68|51:45,1,42.7499986953736,0|0,1:0|0:0,0:0:0:0:
