osu file format v14

[General]
AudioFilename: zero.mp3
AudioLeadIn: 0
PreviewTime: 26034
Countdown: 0
SampleSet: Soft
StackLeniency: 0.3
Mode: 0
LetterboxInBreaks: 0
WidescreenStoryboard: 1

[Editor]
Bookmarks: 2220,10791,19362,27934,36505,45077,53648,62220,79362
DistanceSpacing: 1.2
BeatDivisor: 4
GridSize: 16
TimelineZoom: 2.999999

[Metadata]
Title:Itsuka no Hakuchuumu
TitleUnicode:いつかの白昼夢
Artist:yuki
ArtistUnicode:yuki
Creator:Hanakumo Rin
Version:Easy
Source:白昼夢の青写真
Tags:dog food kogumax delis shirohamymommy hinamommy kimikamymommy Cyanotype Daydream Hakuchuumu no Aojashin laplacian eroge visual novel vn japanese electronic pop
BeatmapID:3625292
BeatmapSetID:1767260

[Difficulty]
HPDrainRate:2
CircleSize:3
OverallDifficulty:2.5
ApproachRate:3
SliderMultiplier:0.999999999999999
SliderTickRate:1

[Events]
//Background and Video events
0,0,"bg.jpg",0,0
//Break Periods
2,46190,50978
//Storyboard Layer 0 (Background)
//Storyboard Layer 1 (Fail)
//Storyboard Layer 2 (Pass)
//Storyboard Layer 3 (Foreground)
//Storyboard Layer 4 (Overlay)
//Storyboard Sound Samples

[TimingPoints]
990,535.714285714286,4,2,1,45,1,0
1257,-100,4,2,1,5,0,0
1391,-100,4,2,1,45,0,0
2462,-100,4,2,1,5,0,0
2597,-100,4,2,1,45,0,0
5542,-100,4,2,1,5,0,0
5677,-100,4,2,1,45,0,0
6748,-100,4,2,1,5,0,0
6882,-100,4,2,1,45,0,0
9561,-100,4,2,1,50,0,0
18132,-100,4,2,1,60,0,0
25632,-100,4,2,1,65,0,0
43847,-100,4,2,1,50,0,0
52418,-100,4,2,1,60,0,0
60990,-100,4,2,1,45,0,0
61391,-100,4,2,1,55,0,0
61793,-100,4,2,1,65,0,0
62195,-100,4,2,1,70,0,0
63132,-100,4,2,1,85,0,0
78132,-100,4,2,1,80,0,0
84561,-100,4,2,1,60,0,0
85097,-100,4,2,1,15,0,0
85365,-100,4,2,1,50,0,0
86168,-100,4,2,1,10,0,0

[Colours]
Combo1 : 188,188,222
Combo2 : 255,255,43
Combo3 : 165,255,74
Combo4 : 207,207,207

[HitObjects]
489,78,9561,6,0,P|464:56|392:46,1,99.9999999999999,6|0,0:0|0:0,0:0:0:0:
330,117,10632,2,0,P|280:121|240:150,1,99.9999999999999,2|0,0:0|0:0,0:0:0:0:
141,149,11704,2,0,P|144:205|160:263,1,99.9999999999999,2|0,0:0|0:0,0:0:0:0:
101,331,12775,1,2,0:0:0:0:
187,382,13311,1,2,0:0:0:0:
277,339,13847,6,0,B|293:248|350:307|439:264|426:166|370:124|307:146|308:171,1,300,2|0,0:0|0:0,0:0:0:0:
230,216,15990,1,2,0:0:0:0:
164,140,16525,1,0,0:0:0:0:
96,214,17061,2,0,P|41:235|-12:229,1,99.9999999999999,2|0,0:0|0:0,0:0:0:0:
26,135,18132,6,0,P|23:100|43:53,1,74.9999999999999,4|8,0:0|0:0,0:0:0:0:
97,20,18936,2,0,L|183:39,1,74.9999999999999,8|2,0:0|3:3,0:0:0:0:
217,94,19740,1,8,0:0:0:0:
314,71,20275,6,0,P|324:7|329:1,2,74.9999999999999,10|8|10,0:0|0:0|0:0,0:0:0:0:
344,110,21347,1,8,0:0:0:0:
443,96,21882,2,0,L|452:149,1,50,8|2,0:0|3:0,0:0:0:0:
468,192,22418,6,0,P|449:248|448:305,1,99.9999999999999,10|0,3:2|3:0,0:0:0:0:
396,375,23490,2,0,P|367:337|343:282,1,99.9999999999999,0|8,3:2|0:0,0:0:0:0:
273,219,24561,1,0,3:0:0:0:
189,163,25097,1,0,3:0:0:0:
98,206,25632,1,12,1:0:0:0:
220,363,26704,6,0,P|269:287|241:176,1,200,6|8,1:2|1:0,0:0:0:0:
63,107,28847,2,0,P|14:183|42:294,1,200,6|8,1:2|1:0,0:0:0:0:
220,363,30990,6,0,P|267:354|327:336,2,99.9999999999999,4|2|8,0:0|3:2|1:0,0:0:0:0:
140,293,32597,1,0,3:0:0:0:
213,225,33132,2,0,L|282:205,2,66.6666666666666,4|4|4,3:0|3:0|3:0,0:0:0:0:
148,207,34204,2,0,B|149:172|149:172|132:145,2,66.6666666666666,8|4|8,1:0|3:0|3:0,0:0:0:0:
96,256,35275,6,0,B|92:301|58:327|58:327|119:310|193:355,1,200,6|8,1:2|1:0,0:0:0:0:
355,264,37418,2,0,B|318:281|318:281|306:333|306:333|367:367|367:367|393:353|393:353|376:340,1,200,6|8,1:2|1:0,0:0:0:0:
460,162,39561,6,0,P|470:110|498:59,2,99.9999999999999,6|0|8,1:2|3:0|1:0,0:0:0:0:
380,222,41168,1,2,0:0:0:0:
304,156,41704,2,0,P|280:110|280:83,2,66.6666666666666,4|4|4,3:0|3:0|3:0,0:0:0:0:
279,217,42775,2,0,P|220:270|221:288,1,99.9999999999999,8|8,1:0|3:0,0:0:0:0:
132,332,43847,1,6,1:2:0:0:
256,192,44115,12,2,45990,0:0:0:0:
480,36,52418,6,0,P|440:40|398:91,1,99.9999999999999,4|0,0:0|1:0,0:0:0:0:
302,59,53490,1,4,3:0:0:0:
235,133,54025,2,0,L|251:188,1,50,4|8,3:0|0:0,0:0:0:0:
261,229,54561,2,0,P|256:288|234:339,1,99.9999999999999,4|4,3:0|3:0,0:0:0:0:
155,376,55632,1,4,3:0:0:0:
59,345,56168,1,8,0:0:0:0:
31,248,56704,5,6,3:0:0:0:
116,196,57240,1,4,3:0:0:0:
51,120,57775,1,4,3:0:0:0:
96,30,58311,1,4,3:0:0:0:
178,86,58847,2,0,L|156:189,2,99.9999999999999,4|4|4,3:0|3:0|0:0,0:0:0:0:
370,29,60990,5,4,1:0:0:0:
370,29,62597,6,0,L|358:78,1,50,8|0,1:0|1:0,0:0:0:0:
391,114,63132,6,0,B|418:159|418:159|405:211,1,99.9999999999999,4|8,1:0|1:0,0:0:0:0:
361,226,63936,2,0,B|336:242|336:242|268:219|208:258,1,150,0|8,1:0|1:0,0:0:0:0:
161,355,65275,1,6,1:2:0:0:
49,311,65811,1,8,0:0:0:0:
12,263,66079,2,0,B|25:208|38:160|38:160|40:98,1,150,2|8,1:2|1:0,0:0:0:0:
144,59,67418,2,0,L|130:-7,2,50,8|8|8,0:0|0:0|1:0,0:0:0:0:
161,116,68222,2,0,P|204:94|255:102,1,99.9999999999999,8|2,1:2|1:3,0:0:0:0:
279,155,69025,1,8,1:0:0:0:
384,212,69561,6,0,P|426:223|454:288,1,99.9999999999999,4|8,1:0|1:0,0:0:0:0:
488,219,70365,2,0,B|507:174|504:142|504:142|486:104|472:59,1,150,2|8,1:2|1:0,0:0:0:0:
371,21,71704,1,6,1:2:0:0:
302,119,72240,1,8,0:1:0:0:
249,91,72507,2,0,B|210:118|210:118|178:113|151:114|151:114|103:138,1,150,2|8,1:2|1:0,0:0:0:0:
18,208,73847,6,0,B|27:247|27:247|26:253|26:253|33:285,1,74.9999999999999,6|8,1:2|0:0,0:0:0:0:
121,269,74650,2,0,B|130:308|130:308|129:314|129:314|136:346,1,74.9999999999999,8|8,0:0|0:0,0:0:0:0:
219,366,75454,2,0,B|238:358|238:358|239:355|239:355|263:344,1,50,8|2,1:0|3:0,0:0:0:0:
306,302,75990,2,0,L|405:331,1,99.9999999999999,0|8,1:0|1:0,0:0:0:0:
492,251,77061,1,2,3:0:0:0:
382,200,77597,1,8,1:0:0:0:
458,107,78132,6,0,P|476:77|429:19,1,99.9999999999999,4|8,1:0|1:0,0:0:0:0:
391,4,78936,2,0,P|384:71|316:66,1,150,4|8,3:0|1:0,0:0:0:0:
212,6,80275,1,0,3:0:0:0:
123,87,80811,1,8,0:1:0:0:
169,124,81079,2,0,P|130:166|32:149,1,150,4|8,3:0|1:0,0:0:0:0:
57,278,82418,6,0,P|29:342|30:378,1,99.9999999999999,4|8,1:0|1:0,0:0:0:0:
89,372,83222,2,0,B|125:364|125:364|159:333|229:315,1,150,4|8,3:0|1:0,0:0:0:0:
342,346,84561,2,0,B|481:351|356:350|501:353,2,150,4|0|0,1:0|1:0|0:0,0:0:0:0:
