osu file format v14

[General]
AudioFilename: audio.mp3
AudioLeadIn: 0
PreviewTime: 26426
Countdown: 0
SampleSet: Soft
StackLeniency: 0.3
Mode: 0
LetterboxInBreaks: 0
WidescreenStoryboard: 1

[Editor]
Bookmarks: 10796,61153,61689,64903,65037,67046,67180,68519,68653,68921,69189,73475,73608,76689,76823,78296,78832
DistanceSpacing: 0.5
BeatDivisor: 4
GridSize: 4
TimelineZoom: 3.199999

[Metadata]
Title:Itsuka no Hakuchuumu
TitleUnicode:いつかの白昼夢
Artist:yuki
ArtistUnicode:yuki
Creator:Fushimi Rio
Version:CASE - Insane
Source:白昼夢の青写真
Tags:夢青 Musei The girl who's called the world yonagi no aojashin Wasabi Ono 緒乃ワサビ xelfery Muu Dogg eroge visual novel video game japanese opening Daichi Ashikaga anime girl jungkyuyoung ScubDomino Natsume Shiki PinkHeart Fia Misure Kuse KuBsNia_ZhoYL_ Bellicose laplacian 4th electronic Chinese City Tournament CCT HD1
BeatmapID:2257786
BeatmapSetID:1077578

[Difficulty]
HPDrainRate:4.5
CircleSize:4
OverallDifficulty:7.5
ApproachRate:9
SliderMultiplier:2.4
SliderTickRate:1

[Events]
//Background and Video events
0,0,"sumomo_wall.jpg",0,0
//Break Periods
2,46190,51818
//Storyboard Layer 0 (Background)
//Storyboard Layer 1 (Fail)
//Storyboard Layer 2 (Pass)
//Storyboard Layer 3 (Foreground)
//Storyboard Layer 4 (Overlay)
//Storyboard Sound Samples

[TimingPoints]
990,535.714285714286,4,2,1,40,1,0
990,-200,4,2,1,35,0,0
9561,-153.846153846154,4,2,1,35,0,0
11704,-153.846153846154,4,2,1,50,0,0
18132,-125,4,2,1,60,0,0
22418,-100,4,2,1,35,0,0
24561,-83.3333333333333,4,2,1,35,0,0
25632,-83.3333333333333,4,2,1,70,0,0
26168,-250,4,2,1,70,0,0
26704,-83.3333333333333,4,2,1,80,0,1
27775,-83.3333333333333,4,2,1,80,0,0
28847,-83.3333333333333,4,2,1,80,0,1
29918,-83.3333333333333,4,2,1,80,0,0
30990,-100,4,2,1,80,0,1
32061,-100,4,2,1,80,0,1
33132,-100,4,2,1,55,0,0
34204,-100,4,2,1,80,0,0
34740,-100,4,2,1,55,0,0
35275,-83.3333333333333,4,2,1,80,0,1
36347,-100,4,2,1,80,0,0
37418,-83.3333333333333,4,2,1,80,0,1
38490,-100,4,2,1,80,0,0
39561,-100,4,2,1,80,0,1
40632,-100,4,2,1,80,0,1
43847,-200,4,2,1,80,0,0
44248,-100,4,2,1,50,0,0
52418,-166.666666666667,4,2,2,50,0,0
52619,-166.666666666667,4,2,2,5,0,0
52686,-166.666666666667,4,2,2,70,0,0
53021,-166.666666666667,4,2,2,5,0,0
53088,-166.666666666667,4,2,2,70,0,0
53423,-166.666666666667,4,2,2,5,0,0
53490,-166.666666666667,4,2,2,70,0,0
53824,-166.666666666667,4,2,2,5,0,0
53891,-166.666666666667,4,2,2,70,0,0
54762,-166.666666666667,4,2,2,5,0,0
54829,-166.666666666667,4,2,2,70,0,0
55164,-166.666666666667,4,2,2,5,0,0
55231,-166.666666666667,4,2,2,70,0,0
55565,-166.666666666667,4,2,2,5,0,0
55632,-166.666666666667,4,2,2,70,0,0
55967,-166.666666666667,4,2,2,5,0,0
56034,-100,4,2,2,70,0,0
56704,-250.000000000001,4,2,2,55,0,0
57240,-166.666666666667,4,2,2,55,0,0
57775,-125,4,2,2,60,0,0
58311,-100,4,2,2,60,0,0
58847,-83.3333333333333,4,2,2,65,0,0
59115,-71.4285714285714,4,2,2,65,0,0
59382,-62.5,4,2,2,65,0,0
59650,-55.5555555555556,4,2,2,65,0,0
59918,-50,4,2,2,70,0,0
60387,-50,4,2,0,5,0,0
60990,-66.6666666666667,4,2,2,70,0,0
61391,-66.6666666666667,4,2,2,50,0,0
61793,-50,4,2,2,60,0,0
62195,-40,4,2,2,70,0,0
62597,-100,4,2,3,75,0,0
63132,-100,4,2,3,80,0,1
69293,-100,4,2,1,80,0,1
69561,-100,4,2,3,80,0,1
77061,-83.3333333333333,4,2,3,75,0,1
78132,-100,4,2,1,70,0,0
84561,-500,4,2,1,70,0,0
85097,-100,4,2,1,5,0,0
85365,-714.285714285714,4,2,1,70,0,0
86168,-100,4,2,1,5,0,0

[Colours]
Combo1 : 255,128,128
Combo2 : 102,155,253
Combo3 : 250,204,118
Combo4 : 74,255,74

[HitObjects]
82,69,990,6,0,P|135:62|183:89,1,90,2|0,0:0|0:0,0:0:0:0:
168,76,2597,2,0,L|186:69,5,20,2|2|2|2|2|2,0:0|0:0|0:0|0:0|0:0|0:0,0:0:0:0:
206,60,3132,2,0,P|257:66|285:96,1,90,2|0,0:0|0:0,0:0:0:0:
430,315,5275,6,0,P|377:322|329:295,1,90,2|0,0:0|0:0,0:0:0:0:
344,308,6882,2,0,L|326:315,5,20,2|2|2|2|2|2,0:0|0:0|0:0|0:0|0:0|0:0,0:0:0:0:
306,324,7418,2,0,P|255:318|227:288,1,90,2|0,0:0|0:0,0:0:0:0:
256,192,7954,12,0,9025,0:0:0:0:
181,79,9561,5,6,0:0:0:0:
247,134,9829,1,2,0:0:0:0:
247,134,9963,2,0,P|275:97|333:84,2,77.9999964294435,2|2|2,0:0|0:0|0:0,0:0:0:0:
250,215,10632,2,0,P|271:246|306:264,1,77.9999964294435,0|2,0:0|0:0,0:0:0:0:
380,278,11034,2,0,P|421:259|500:273,1,116.999994644165,2|0,0:0|0:0,0:0:0:0:
277,348,11704,6,0,P|250:327|203:323,1,77.9999964294435,2|2,0:0|0:0,0:0:0:0:
138,355,12106,2,0,L|49:342,1,77.9999964294435,2|2,0:0|0:0,0:0:0:0:
96,182,12641,6,0,L|191:197,2,77.9999964294435,2|2|2,0:0|0:0|0:0,0:0:0:0:
127,18,13445,1,2,0:0:0:0:
170,111,13713,2,0,P|234:107|283:89,1,116.999994644165,2|0,0:0|0:0,0:0:0:0:
383,158,14382,5,2,0:0:0:0:
442,71,14650,1,2,0:0:0:0:
348,2,14918,2,0,P|350:51|344:93,1,77.9999964294435,2|2,0:0|0:0,0:0:0:0:
281,128,15320,2,0,P|279:177|285:219,1,77.9999964294435,0|0,0:0|0:0,0:0:0:0:
319,273,15722,1,2,0:0:0:0:
167,362,15990,6,0,P|165:309|169:268,1,77.9999964294435,2|2,0:0|0:0,0:0:0:0:
196,208,16391,2,0,P|198:155|194:114,1,77.9999964294435,2|2,0:0|0:0,0:0:0:0:
169,50,16927,1,2,0:0:0:0:
169,50,17061,2,0,P|213:44|251:71,1,77.9999964294435,0|2,0:0|0:0,0:0:0:0:
300,120,17463,2,0,P|350:129|405:72,1,116.999994644165,2|0,0:0|0:0,0:0:0:0:
493,208,18132,6,0,P|479:264|472:310,1,96,4|0,0:0|1:0,0:0:0:0:
430,375,18534,2,0,P|383:384|332:381,1,96,2|2,0:0|0:0,0:0:0:0:
250,353,18936,1,0,1:0:0:0:
285,203,19204,2,0,P|305:257|325:329,1,96,0|0,0:0|1:0,0:0:0:0:
172,381,19740,1,0,0:0:0:0:
56,248,20007,1,0,1:0:0:0:
56,236,20141,1,0,0:0:0:0:
56,224,20275,6,0,P|61:180|75:116,1,96,2|0,0:0|1:0,0:0:0:0:
132,68,20677,2,0,P|174:95|243:70,1,96,2|2,0:0|0:0,0:0:0:0:
294,54,21079,1,0,1:0:0:0:
294,54,21213,1,2,0:0:0:0:
413,143,21481,1,0,0:0:0:0:
271,198,21748,1,2,0:0:0:0:
447,219,22016,2,0,L|440:278,1,48,0|0,0:0|1:0,0:0:0:0:
384,325,22284,1,2,0:0:0:0:
342,255,22418,6,0,P|345:219|371:187,3,60,2|0|0|0,0:3|0:0|1:0|0:0,0:0:0:0:
286,156,22954,2,0,P|311:130|351:122,3,60,2|0|0|0,0:0|0:0|1:0|0:0,0:0:0:0:
209,186,23490,2,0,P|201:150|218:112,3,60,2|0|0|0,0:0|0:0|1:0|0:0,0:0:0:0:
127,105,24026,2,0,P|144:73|181:54,3,60,2|0|0|0,0:0|0:0|1:0|0:0,0:0:0:0:
89,243,24561,6,0,L|93:290,2,47.9999985351563,2|2|2,0:0|0:0|0:0,0:0:0:0:
172,269,24829,2,0,L|165:330,2,47.9999985351563,2|2|2,1:2|0:0|0:0,0:0:0:0:
251,295,25097,2,0,L|254:354,2,47.9999985351563,2|2|2,0:0|0:0|0:0,0:0:0:0:
334,325,25365,1,2,1:2:0:0:
332,340,25454,1,2,0:0:0:0:
331,356,25543,1,2,0:0:0:0:
329,373,25632,6,0,P|298:329|403:324,1,215.999993408203,2|0,1:3|0:0,0:0:0:0:
461,378,26168,6,0,L|507:388,2,32,8|8|4,0:0|3:3|3:3,0:0:0:0:
353,115,26704,6,0,B|352:41|427:18|513:82|412:173|412:173|318:243|342:332|486:344|496:237|426:176,1,575.999982421876,6|10,3:2|0:0,0:0:0:0:
156,156,28311,1,2,0:0:0:0:
294,169,28490,1,2,0:0:0:0:
432,182,28668,1,2,0:0:0:0:
156,156,28847,6,0,B|144:205|205:283|267:292|267:292|239:258|153:271|89:379|89:379|127:288|102:233|42:201,1,575.999982421876,2|10,3:2|0:0,0:0:0:0:
41,90,30990,6,0,B|151:64|267:144|267:144|330:36|499:15,2,480,2|10|2,3:2|0:0|3:2,0:0:0:0:
170,62,33490,1,2,3:2:0:0:
198,218,33668,5,2,0:0:0:0:
266,144,33846,1,0,3:0:0:0:
295,240,34025,1,2,0:0:0:0:
459,197,34204,1,8,0:0:0:0:
391,271,34382,1,2,0:0:0:0:
362,175,34561,1,8,3:3:0:0:
308,315,34740,2,0,P|359:360|468:324,1,180,2|0,0:0|0:0,0:0:0:0:
391,271,35275,6,0,B|287:260|201:329|201:329|257:167|156:82|156:82|108:148|139:198,1,575.999982421876,6|10,3:2|0:0,0:0:0:0:
407,204,36882,1,2,0:0:0:0:
269,191,37061,1,2,0:0:0:0:
131,178,37239,1,2,0:0:0:0:
407,204,37418,6,0,B|513:73|386:-20|281:38|283:232|337:341|508:375,1,575.999982421876,2|10,3:2|0:0,0:0:0:0:
472,366,39561,6,0,P|345:316|240:362,1,240,2|2,3:2|0:0,0:0:0:0:
35,334,40632,2,0,P|162:384|267:338,1,240,10|2,0:0|0:0,0:0:0:0:
231,226,41347,1,2,0:0:0:0:
250,103,41525,1,2,0:0:0:0:
381,191,41704,6,0,P|432:132|429:54,2,160,2|0|0,3:2|3:0|3:0,0:0:0:0:
509,257,42775,2,0,P|391:210|268:269,1,240,10|2,0:0|3:2,0:0:0:0:
359,324,43490,5,2,0:0:0:0:
179,282,43668,1,2,0:0:0:0:
305,148,43847,1,6,3:2:0:0:
256,192,44025,12,2,45990,0:0:0:0:
184,124,52418,6,0,P|227:107|253:76,1,71.9999978027344,4|0,3:2|1:0,0:0:0:0:
178,44,52820,2,0,P|141:15|101:8,1,71.9999978027344,8|0,0:1|0:0,0:0:0:0:
107,89,53222,6,0,P|100:134|114:172,1,71.9999978027344,8|0,1:0|3:0,0:0:0:0:
173,214,53623,1,8,0:1:0:0:
282,179,53891,1,0,0:0:0:0:
282,179,54025,1,8,3:1:0:0:
373,234,54293,1,8,1:1:0:0:
373,234,54427,1,8,0:1:0:0:
420,81,54561,6,0,P|377:98|351:129,1,71.9999978027344,8|0,3:1|1:0,0:0:0:0:
426,161,54963,2,0,P|463:190|503:197,1,71.9999978027344,8|0,0:1|0:0,0:0:0:0:
497,116,55365,2,0,P|504:71|490:33,1,71.9999978027344,8|0,1:1|3:0,0:0:0:0:
428,0,55766,1,8,0:1:0:0:
317,47,56034,1,0,0:0:0:0:
317,47,56168,1,8,3:1:0:0:
197,6,56436,1,8,1:1:0:0:
197,6,56570,1,8,0:1:0:0:
116,68,56704,6,0,L|141:93,3,24,8|8|8|8,3:1|0:1|1:1|0:1,0:0:0:0:
106,163,57240,2,0,L|161:166,3,35.9999989013672,8|8|8|8,3:1|0:1|1:1|0:1,0:0:0:0:
156,246,57775,2,0,L|221:219,3,48,8|8|8|8,3:1|0:1|1:1|0:1,0:0:0:0:
276,280,58311,2,0,L|281:195,3,60,8|8|8|8,3:1|0:1|1:1|0:1,0:0:0:0:
396,258,58847,6,0,B|399:286|399:286|409:314,2,47.9999985351563,8|8|8,3:1|0:1|0:1,0:0:0:0:
362,188,59115,2,0,B|351:214|351:214|356:249,2,55.9999982910157,8|8|8,1:1|0:1|0:1,0:0:0:0:
351,112,59382,2,0,B|321:130|321:130|315:163,2,64,8|8|8,3:1|0:1|0:1,0:0:0:0:
365,38,59650,2,0,B|329:41|329:41|307:79,2,71.9999978027344,8|8|8,1:1|0:1|0:1,0:0:0:0:
434,96,59918,6,0,B|463:90|463:90|444:56,7,60,8|8|8|8|8|8|8|8,3:1|0:1|0:1|0:1|0:1|0:1|0:1|0:1,0:0:0:0:
256,192,60454,12,8,62597,0:0:0:0:
256,192,62865,5,0,3:0:0:0:
189,68,63132,2,0,P|121:77|62:99,1,120,6|2,3:2|1:2,0:0:0:0:
6,173,63534,1,0,1:0:0:0:
94,231,63668,2,0,L|175:215,2,60,10|0|2,0:0|1:0|3:2,0:0:0:0:
53,336,64070,2,0,P|138:311|214:339,1,120,2|0,1:2|1:0,0:0:0:0:
237,350,64472,1,0,3:0:0:0:
421,377,64740,2,0,P|428:311|425:256,1,120,8|2,0:0|1:2,0:0:0:0:
367,171,65141,5,2,1:2:0:0:
367,171,65275,2,0,P|403:157|457:153,1,60,2|0,3:2|1:0,0:0:0:0:
493,112,65543,2,0,L|483:38,1,60,2|2,1:2|1:2,0:0:0:0:
356,22,65811,2,0,L|339:157,1,120,8|2,0:0|3:2,0:0:0:0:
240,201,66213,1,2,1:2:0:0:
240,201,66347,2,0,L|229:118,1,60,2|0,1:2|1:0,0:0:0:0:
188,67,66615,2,0,L|196:6,1,60,2|2,3:2|1:2,0:0:0:0:
61,41,66882,1,8,0:0:0:0:
61,41,67016,2,0,P|57:109|73:185,1,120,2|0,1:2|1:0,0:0:0:0:
118,225,67418,1,2,3:3:0:0:
263,313,67686,6,0,L|326:304,1,60,2|2,1:3|1:3,0:0:0:0:
402,348,67954,2,0,L|475:362,1,60,10|0,1:3|1:0,0:0:0:0:
501,219,68222,2,0,P|432:246|351:229,1,120,2|0,3:3|1:0,0:0:0:0:
269,226,68623,1,2,1:3:0:0:
269,226,68757,2,0,L|281:155,1,60,2|0,3:3|1:0,0:0:0:0:
301,81,69025,1,10,0:0:0:0:
301,81,69159,1,2,1:3:0:0:
405,140,69293,1,8,3:3:0:0:
405,140,69427,1,4,3:3:0:0:
464,0,69561,5,6,3:2:0:0:
464,0,69695,2,0,P|392:4|334:35,1,120,0|0,0:0|1:0,0:0:0:0:
301,81,70097,2,0,P|258:77|201:42,2,60,10|0|2,0:0|1:0|3:2,0:0:0:0:
158,1,70498,2,0,L|163:74,1,60,2|0,1:2|1:0,0:0:0:0:
101,176,70766,1,2,1:2:0:0:
101,176,70900,2,0,P|142:160|185:251,1,120,2|8,3:2|0:0,0:0:0:0:
42,315,71436,5,2,1:2:0:0:
42,315,71570,1,0,1:0:0:0:
138,301,71704,2,0,P|145:336|148:370,1,60,2|0,3:2|0:0,0:0:0:0:
254,250,71972,2,0,P|220:243|177:228,1,60,2|0,1:2|1:2,0:0:0:0:
238,380,72240,2,0,P|258:351|281:330,1,60,10|0,0:0|1:0,0:0:0:0:
362,290,72507,1,2,3:2:0:0:
362,290,72641,1,2,1:2:0:0:
446,345,72775,1,0,1:0:0:0:
446,345,72909,2,0,P|458:285|461:234,2,60,2|2|0,1:2|3:2|1:0,0:0:0:0:
403,182,73311,6,0,P|401:122|411:63,2,120,10|2|2,0:0|1:2|3:1,0:0:0:0:
310,68,73981,1,2,1:2:0:0:
310,68,74115,2,0,P|277:115|244:132,1,60,2|2,1:2|0:1,0:0:0:0:
124,29,74382,2,0,P|191:23|245:69,1,120,8|2,0:0|3:1,0:0:0:0:
42,138,74918,5,0,1:0:0:0:
42,138,75052,1,2,0:1:0:0:
115,186,75186,2,0,L|176:184,1,60,0|2,3:0|1:2,0:0:0:0:
261,132,75454,2,0,P|284:211|284:266,2,120,10|2|2,0:1|0:1|3:2,0:0:0:0:
364,69,76123,5,2,1:2:0:0:
364,69,76257,1,2,1:2:0:0:
359,175,76391,1,2,1:2:0:0:
359,175,76525,1,10,0:0:0:0:
411,267,76659,1,2,1:2:0:0:
428,263,76793,1,2,3:2:0:0:
445,259,76927,1,2,1:2:0:0:
489,286,77061,6,0,L|481:345,5,47.9999985351563,2|0|0|2|0|0,1:3|0:0|0:0|3:3|0:0|0:0,0:0:0:0:
409,348,77597,6,0,L|382:306,6,35.9999989013672,10|0|0|0|2|0|0,0:0|0:0|1:0|0:0|3:2|0:0|1:0,0:0:0:0:
316,350,78132,5,4,3:2:0:0:
316,350,78266,1,0,1:0:0:0:
196,303,78400,1,0,1:0:0:0:
196,303,78534,1,0,1:0:0:0:
313,257,78668,2,0,P|316:222|316:176,1,60,8|0,0:0|1:0,0:0:0:0:
179,153,78936,2,0,P|176:188|176:234,1,60,0|0,3:0|1:0,0:0:0:0:
259,122,79204,5,0,1:0:0:0:
266,92,79338,1,0,3:0:0:0:
164,57,79472,1,2,1:2:0:0:
158,26,79606,1,0,1:0:0:0:
41,124,79740,2,0,P|79:127|114:120,1,60,8|0,0:0|1:0,0:0:0:0:
239,13,80007,2,0,P|268:9|298:12,1,60,0|0,1:0|1:0,0:0:0:0:
450,77,80275,5,0,3:0:0:0:
450,77,80409,1,0,1:0:0:0:
370,163,80543,1,8,1:1:0:0:
370,163,80677,1,0,0:0:0:0:
483,217,80811,2,0,P|487:261|483:303,1,60,8|0,0:0|1:0,0:0:0:0:
341,238,81079,2,0,P|337:282|341:324,1,60,0|0,3:0|1:0,0:0:0:0:
398,384,81347,5,0,1:0:0:0:
402,352,81481,1,0,3:0:0:0:
272,363,81615,1,2,1:2:0:0:
270,337,81748,1,0,1:0:0:0:
203,258,81882,1,8,0:0:0:0:
183,263,81972,1,8,0:1:0:0:
163,267,82061,1,8,0:1:0:0:
144,273,82150,1,8,0:1:0:0:
124,278,82240,1,8,0:1:0:0:
104,283,82329,1,8,0:1:0:0:
77,292,82418,6,0,P|84:227|84:188,1,60,0|0,3:0|1:0,0:0:0:0:
20,67,82686,2,0,P|21:100|26:126,1,60,0|0,1:0|1:0,0:0:0:0:
171,155,82954,1,8,0:0:0:0:
171,155,83088,1,0,1:0:0:0:
254,46,83222,1,0,3:0:0:0:
254,46,83356,1,0,1:0:0:0:
344,173,83490,1,0,1:0:0:0:
387,167,83623,1,0,3:0:0:0:
440,30,83757,6,0,P|400:57|386:79,1,60,2|0,1:2|1:0,0:0:0:0:
344,173,84025,2,0,P|344:231|354:258,1,60,8|0,0:0|1:0,0:0:0:0:
402,335,84293,2,0,P|432:360|476:373,1,60,0|0,1:0|1:0,0:0:0:0:
509,122,84561,6,0,L|454:130,1,48,0|0,3:0|0:0,0:0:0:0:
462,136,85365,2,0,L|513:127,1,50.4000006152344,0|0,3:0|0:0,0:0:0:0:
