osu file format v14

[General]
AudioFilename: audio.mp3
AudioLeadIn: 0
PreviewTime: 26426
Countdown: 0
SampleSet: Soft
StackLeniency: 0.2
Mode: 0
LetterboxInBreaks: 0
WidescreenStoryboard: 1

[Editor]
Bookmarks: 10796,61153,61689,64903,65037,67046,67180,68519,68653,68921,69189,73475,73608,76689,76823,78296,78832
DistanceSpacing: 0.5
BeatDivisor: 4
GridSize: 4
TimelineZoom: 1.6

[Metadata]
Title:Itsuka no Hakuchuumu
TitleUnicode:いつかの白昼夢
Artist:yuki
ArtistUnicode:yuki
Creator:Fushimi Rio
Version:CASE - Extra
Source:白昼夢の青写真
Tags:夢青 Musei The girl who's called the world yonagi no aojashin Wasabi Ono 緒乃ワサビ xelfery Muu Dogg eroge visual novel video game japanese opening Daichi Ashikaga anime girl jungkyuyoung ScubDomino Natsume Shiki PinkHeart Fia Misure Kuse KuBsNia_ZhoYL_ Bellicose laplacian 4th electronic Chinese City Tournament CCT HD1
BeatmapID:2326669
BeatmapSetID:1077578

[Difficulty]
HPDrainRate:6
CircleSize:4
OverallDifficulty:8.5
ApproachRate:9.2
SliderMultiplier:2.4
SliderTickRate:1

[Events]
//Background and Video events
0,0,"yonagi_wall.jpg",0,0
//Break Periods
2,44047,51848
//Storyboard Layer 0 (Background)
//Storyboard Layer 1 (Fail)
//Storyboard Layer 2 (Pass)
//Storyboard Layer 3 (Foreground)
//Storyboard Layer 4 (Overlay)
//Storyboard Sound Samples

[TimingPoints]
990,535.714285714286,4,2,1,40,1,0
9561,-100,4,2,1,50,0,0
18132,-100,4,2,1,60,0,0
26168,-50,4,2,1,70,0,0
26704,-66.6666666666667,4,2,1,80,0,1
27775,-266.666666666667,4,2,1,80,0,0
28311,-100,4,2,1,80,0,0
28847,-66.6666666666667,4,2,1,80,0,1
29918,-400,4,2,1,80,0,0
30990,-100,4,2,1,80,0,1
32061,-66.6666666666667,4,2,1,80,0,1
34204,-66.6666666666667,4,2,1,80,0,0
34740,-263.157894736842,4,2,1,80,0,0
35275,-66.6666666666667,4,2,1,80,0,1
36347,-263.157894736842,4,2,1,80,0,0
36882,-100,4,2,1,80,0,0
37418,-66.6666666666667,4,2,1,80,0,1
38490,-400,4,2,1,80,0,0
39561,-100,4,2,1,80,0,1
40632,-66.6666666666667,4,2,1,80,0,1
41168,-100,4,2,1,80,0,1
43847,-100,4,2,1,80,0,0
45990,-100,4,2,1,50,0,0
52418,-100,4,2,2,50,0,0
56704,-100,4,2,2,55,0,0
57775,-100,4,2,2,60,0,0
58847,-100,4,2,2,65,0,0
59918,-25,4,2,2,70,0,0
60990,-133.333333333333,4,2,2,70,0,1
61391,-100,4,2,2,50,0,1
61793,-80,4,2,2,60,0,1
62195,-66.6666666666667,4,2,2,70,0,1
62597,-50,4,2,3,75,0,0
63132,-66.6666666666667,4,2,3,80,0,1
69293,-100,4,2,1,80,0,1
69561,-66.6666666666667,4,2,3,80,0,1
73847,-100,4,2,3,80,0,1
75454,-66.6666666666667,4,2,3,80,0,1
77597,-100,4,2,3,80,0,1
78132,-100,4,2,1,70,0,0
84561,-400,4,2,1,70,0,0
85097,-100,4,2,1,5,0,0
85365,-133.333333333333,4,2,1,70,0,0
86168,-100,4,2,1,5,0,0

[Colours]
Combo1 : 255,128,128
Combo2 : 128,128,255
Combo3 : 223,128,255
Combo4 : 128,217,255

[HitObjects]
256,192,990,5,2,0:0:0:0:
256,192,5275,12,0,9025,0:0:0:0:
71,249,9561,6,0,P|141:250|184:189,1,120,6|2,0:0|0:0,0:0:0:0:
271,101,9963,2,0,P|213:96|168:133,1,120,2|2,0:0|0:0,0:0:0:0:
256,243,10365,1,0,0:0:0:0:
256,243,10498,2,0,P|307:147|215:92,1,180,2|2,0:0|0:0,0:0:0:0:
243,88,11034,2,0,L|317:69,1,60,2|0,0:0|0:0,0:0:0:0:
144,169,11436,1,0,0:0:0:0:
400,105,11704,6,0,P|437:149|432:208,1,120,2|2,0:0|0:0,0:0:0:0:
315,112,12106,2,0,P|278:66|283:8,1,120,2|2,0:0|0:0,0:0:0:0:
210,193,12641,2,0,P|164:156|106:161,2,120,2|2|2,0:0|0:0|0:0,0:0:0:0:
223,220,13445,1,2,0:0:0:0:
189,291,13579,2,0,P|189:317|202:352,1,60,0|2,0:0|0:0,0:0:0:0:
142,227,13847,6,0,P|100:262|38:258,1,120,0|0,0:0|0:0,0:0:0:0:
274,303,14382,2,0,B|283:247|283:247|326:201,1,120,2|2,0:0|0:0,0:0:0:0:
465,274,14918,2,0,B|456:330|456:330|413:376,1,120,2|2,0:0|0:0,0:0:0:0:
403,221,15320,2,0,P|458:191|522:212,1,120,0|0,0:0|0:0,0:0:0:0:
511,204,15722,1,2,0:0:0:0:
308,213,15990,6,0,B|317:269|317:269|360:315,1,120,2|2,0:0|0:0,0:0:0:0:
370,160,16392,2,0,P|314:130|250:151,1,120,2|2,0:0|0:0,0:0:0:0:
206,207,16793,1,0,0:0:0:0:
206,207,16927,2,0,P|150:236|86:215,1,120,2|2,0:0|0:0,0:0:0:0:
77,200,17329,1,2,0:0:0:0:
67,171,17463,1,2,0:0:0:0:
143,158,17597,5,0,0:0:0:0:
28,274,17865,5,0,0:0:0:0:
186,316,18132,6,0,P|253:298|279:228,1,120,4|0,0:0|1:0,0:0:0:0:
435,384,18534,2,0,P|377:373|343:326,1,120,2|2,0:0|0:0,0:0:0:0:
457,243,18936,1,0,1:0:0:0:
457,243,19070,2,0,P|481:348|378:378,1,180,2|0,0:0|1:0,0:0:0:0:
381,259,19606,1,2,0:0:0:0:
381,259,19740,2,0,P|391:201|438:167,1,120,0|0,0:0|1:0,0:0:0:0:
469,168,20141,1,0,0:0:0:0:
244,168,20275,6,0,P|193:119|206:45,1,120,2|0,0:0|1:0,0:0:0:0:
326,45,20677,2,0,P|345:112|297:169,1,120,2|2,0:0|0:0,0:0:0:0:
322,153,21079,1,0,1:0:0:0:
192,72,21213,2,0,P|133:78|96:123,2,120,2|2|2,0:0|0:0|0:0,0:0:0:0:
218,86,22016,1,2,0:0:0:0:
225,170,22151,1,0,1:0:0:0:
237,185,22217,1,0,0:0:0:0:
254,195,22284,1,2,0:0:0:0:
273,199,22351,1,0,0:0:0:0:
294,197,22418,6,0,L|352:180,1,60,2|0,0:3|0:0,0:0:0:0:
368,55,22686,2,0,L|386:112,1,60,0|0,1:0|0:0,0:0:0:0:
511,129,22954,2,0,L|454:147,1,60,2|0,0:0|0:0,0:0:0:0:
438,273,23222,2,0,L|420:216,1,60,0|0,1:0|0:0,0:0:0:0:
172,149,23490,6,0,L|229:166,1,60,2|0,0:0|0:0,0:0:0:0:
104,184,23758,2,0,L|85:241,1,60,0|0,1:0|0:0,0:0:0:0:
70,115,24025,2,0,L|13:97,1,60,2|0,0:0|0:0,0:0:0:0:
138,80,24293,2,0,L|155:23,1,60,0|0,1:0|0:0,0:0:0:0:
172,149,24561,5,2,0:0:0:0:
211,144,24651,1,2,0:0:0:0:
249,158,24740,1,2,0:0:0:0:
276,187,24829,1,2,1:2:0:0:
287,225,24918,1,2,0:0:0:0:
279,264,25008,1,2,0:0:0:0:
254,295,25097,1,2,0:0:0:0:
218,311,25186,1,2,0:0:0:0:
179,310,25275,1,2,0:0:0:0:
142,297,25364,1,2,1:2:0:0:
118,271,25453,1,2,0:0:0:0:
103,243,25542,1,2,0:0:0:0:
84,223,25632,1,2,1:3:0:0:
64,211,25721,1,2,0:3:0:0:
46,205,25810,1,2,0:3:0:0:
31,204,25899,1,2,0:3:0:0:
20,207,25989,1,2,0:3:0:0:
13,211,26078,1,2,0:3:0:0:
11,214,26168,6,0,P|6:253|16:292,1,80,8|0,0:0|0:0,0:0:0:0:
174,241,26347,2,0,P|177:201|167:162,1,80,8|0,3:3|0:0,0:0:0:0:
96,247,26525,2,0,P|135:250|174:240,1,80,4|0,3:3|0:0,0:0:0:0:
230,46,26704,6,0,P|326:17|370:147,1,240.000009155274,6|0,3:2|0:0,0:0:0:0:
503,6,27240,6,0,L|475:59,1,60.0000022888184,2|0,0:0|0:0,0:0:0:0:
477,152,27418,2,0,L|449:205,1,60.0000022888184,2|0,0:0|0:0,0:0:0:0:
351,127,27597,2,0,L|323:180,1,60.0000022888184,2|0,0:0|0:0,0:0:0:0:
419,213,27775,6,0,L|391:266,1,60.0000022888184,10|0,0:0|0:0,0:0:0:0:
348,349,28311,2,0,P|344:309|360:274,2,80,2|2|2,0:0|0:0|0:0,0:0:0:0:
409,182,28847,6,0,P|313:153|269:283,1,240.000009155274,2|0,3:2|0:0,0:0:0:0:
178,109,29382,6,0,L|150:162,1,60.0000022888184,2|0,0:0|0:0,0:0:0:0:
46,159,29561,2,0,L|18:212,1,60.0000022888184,2|0,0:0|0:0,0:0:0:0:
140,258,29740,2,0,L|112:311,1,60.0000022888184,2|0,0:0|0:0,0:0:0:0:
163,80,29918,6,0,L|135:133,1,60.0000022888184,10|0,0:0|0:0,0:0:0:0:
135,133,30811,1,2,0:0:0:0:
359,49,30990,6,0,P|460:91|437:199,2,240.000009155274,2|2|10,3:2|0:0|0:0,0:0:0:0:
282,93,32418,1,0,0:0:0:0:
359,49,32597,6,0,P|435:61|467:127,2,120.000004577637,2|2|2,0:0|0:0|0:0,0:0:0:0:
233,181,33132,6,0,P|245:257|311:289,2,120.000004577637,2|0|2,3:2|0:0|3:2,0:0:0:0:
428,237,33668,6,0,P|415:313|349:345,2,120.000004577637,2|0|2,0:0|3:0|0:0,0:0:0:0:
100,257,34204,6,0,L|157:238,1,60.0000022888184,8|0,0:0|0:0,0:0:0:0:
281,197,34382,2,0,L|338:178,1,60.0000022888184,2|0,0:0|0:0,0:0:0:0:
367,67,34561,2,0,L|424:48,1,60.0000022888184,8|0,3:3|0:0,0:0:0:0:
360,203,34740,6,0,L|417:184,1,60.7999992578125,2|2,0:0|0:0,0:0:0:0:
348,313,35275,6,0,P|240:336|197:234,1,240.000009155274,6|0,3:2|0:0,0:0:0:0:
231,106,35811,6,0,L|258:159,1,60.0000022888184,2|0,0:0|0:0,0:0:0:0:
74,186,35989,2,0,L|101:239,1,60.0000022888184,2|0,0:0|0:0,0:0:0:0:
48,40,36168,2,0,L|75:93,1,60.0000022888184,2|0,0:0|0:0,0:0:0:0:
135,236,36347,6,0,L|162:289,1,60.7999992578125,10|0,0:0|0:0,0:0:0:0:
199,384,36882,2,0,P|168:359|154:322,2,80,2|2|2,0:0|0:0|0:0,0:0:0:0:
359,242,37418,6,0,P|316:140|208:163,1,240.000009155274,2|0,3:2|0:0,0:0:0:0:
104,60,37954,6,0,L|131:113,1,60.0000022888184,2|0,0:0|0:0,0:0:0:0:
130,206,38132,2,0,L|157:259,1,60.0000022888184,2|0,0:0|0:0,0:0:0:0:
15,185,38311,2,0,L|42:238,1,60.0000022888184,2|0,0:0|0:0,0:0:0:0:
134,281,38490,6,0,L|161:334,1,60.0000022888184,10|0,0:0|0:0,0:0:0:0:
161,334,39382,1,0,0:0:0:0:
104,164,39561,6,0,P|147:62|256:85,1,240.000009155274,2|2,3:2|0:0,0:0:0:0:
407,320,40632,6,0,P|364:218|256:242,1,240.000009155274,10|0,0:0|0:0,0:0:0:0:
254,329,41168,2,0,P|293:321|323:294,2,80,2|2|2,0:0|0:0|0:0,0:0:0:0:
169,200,41704,6,0,B|95:175|95:175|67:252,2,160,2|0|0,3:2|3:0|3:0,0:0:0:0:
443,138,42775,6,0,B|416:61|416:61|343:87,1,160,10|2,0:0|3:2,0:0:0:0:
325,93,43222,1,0,0:0:0:0:
308,99,43311,1,2,3:2:0:0:
162,52,43490,1,2,0:0:0:0:
115,198,43668,1,2,0:0:0:0:
261,245,43847,1,6,3:2:0:0:
0,205,52418,6,0,B|44:215|44:215|84:199,1,90,4|0,3:2|0:0,0:0:0:0:
106,180,52686,2,0,P|117:207|118:237,1,60,0|0,1:0|0:0,0:0:0:0:
39,130,52954,2,0,P|87:96|145:104,1,120,0|0,3:0|1:0,0:0:0:0:
165,123,53356,5,0,0:0:0:0:
245,82,53490,5,0,3:0:0:0:
245,82,53623,2,0,L|256:23,1,60,8|0,0:1|1:0,0:0:0:0:
318,142,53891,1,0,0:0:0:0:
318,142,54025,2,0,L|329:83,1,60,8|0,3:1|0:0,0:0:0:0:
387,202,54293,1,8,1:1:0:0:
381,231,54427,1,8,0:1:0:0:
375,260,54561,6,0,B|330:270|330:270|290:254,1,90,8|0,3:1|0:0,0:0:0:0:
439,218,54829,2,0,P|450:245|451:275,1,60,0|8,1:0|0:1,0:0:0:0:
406,145,55097,2,0,P|454:112|512:120,1,120,0|8,3:0|1:1,0:0:0:0:
387,125,55498,1,0,0:0:0:0:
320,24,55632,5,0,3:0:0:0:
320,24,55766,2,0,L|308:82,1,60,8|0,0:1|1:0,0:0:0:0:
287,175,56033,1,0,0:0:0:0:
287,175,56168,2,0,L|275:233,1,60,8|0,3:1|0:0,0:0:0:0:
252,326,56436,5,8,1:1:0:0:
275,233,56570,1,8,0:1:0:0:
217,268,56704,5,8,3:1:0:0:
310,291,56838,1,8,0:1:0:0:
275,233,56972,5,8,1:1:0:0:
252,326,57106,1,8,0:1:0:0:
277,223,57240,5,8,3:1:0:0:
249,335,57374,1,8,0:1:0:0:
207,265,57508,5,8,1:1:0:0:
319,293,57642,1,8,0:1:0:0:
431,234,57775,5,8,3:1:0:0:
319,261,57909,1,8,0:1:0:0:
361,191,58043,5,8,1:1:0:0:
388,303,58177,1,8,0:1:0:0:
417,178,58311,5,8,3:1:0:0:
332,316,58445,1,8,0:1:0:0:
305,205,58579,5,8,1:1:0:0:
444,289,58713,1,8,0:1:0:0:
482,134,58847,5,8,3:1:0:0:
477,115,58936,1,8,0:1:0:0:
464,100,59025,1,8,0:1:0:0:
445,93,59115,1,8,1:1:0:0:
425,95,59204,1,8,0:1:0:0:
408,106,59293,1,8,0:1:0:0:
399,124,59383,1,8,3:1:0:0:
399,144,59472,1,8,0:1:0:0:
408,162,59561,1,8,0:1:0:0:
425,173,59650,1,8,1:1:0:0:
445,176,59740,1,8,0:1:0:0:
464,169,59829,1,8,0:1:0:0:
477,154,59918,5,8,3:1:0:0:
460,160,59985,1,8,0:1:0:0:
443,154,60052,1,8,0:1:0:0:
436,137,60119,1,8,0:1:0:0:
443,120,60186,1,8,0:1:0:0:
460,113,60253,1,8,0:1:0:0:
477,120,60320,1,8,0:1:0:0:
482,134,60387,2,0,L|362:134,1,120,8|0,0:1|0:0,0:0:0:0:
30,134,60990,6,0,L|142:134,1,112.500004291535,6|0,3:2|1:0,0:0:0:0:
143,134,61391,6,0,B|181:28|181:28|202:84,1,150,2|0,0:3|1:0,0:0:0:0:
194,63,61793,6,0,L|262:256,1,187.5,2|0,0:3|1:0,0:0:0:0:
256,239,62195,6,0,B|294:134|294:134|362:134,1,180.000006866455,2|0,0:3|1:0,0:0:0:0:
482,134,62597,5,8,0:0:0:0:
30,134,62865,1,0,3:0:0:0:
221,320,63132,6,0,P|286:314|334:260,1,90.0000034332277,6|0,3:2|1:0,0:0:0:0:
343,128,63400,2,0,P|278:134|230:188,1,90.0000034332277,2|0,1:2|1:0,0:0:0:0:
352,222,63668,2,0,P|429:159|415:70,1,180.000006866455,10|2,0:0|3:2,0:0:0:0:
425,86,64070,1,2,1:2:0:0:
507,44,64204,5,0,1:0:0:0:
343,128,64338,1,0,1:0:0:0:
383,4,64472,5,0,3:0:0:0:
467,168,64606,1,0,1:0:0:0:
315,109,64740,2,0,P|250:115|202:169,1,90.0000034332277,8|0,0:0|1:0,0:0:0:0:
406,99,65007,1,2,1:2:0:0:
289,193,65141,1,2,1:2:0:0:
120,93,65275,6,0,P|42:155|56:244,1,180.000006866455,2|2,3:2|1:2,0:0:0:0:
214,163,65677,1,2,1:2:0:0:
161,269,65811,2,0,L|128:185,1,90.0000034332277,8|0,0:0|1:0,0:0:0:0:
256,30,66079,2,0,L|288:113,1,90.0000034332277,2|2,3:2|1:2,0:0:0:0:
399,317,66347,6,0,P|400:230|472:181,1,180.000006866455,2|2,1:2|3:2,0:0:0:0:
482,275,66748,1,2,1:2:0:0:
373,131,66882,2,0,P|372:87|392:47,1,90.0000034332277,8|2,0:0|1:2,0:0:0:0:
313,200,67150,2,0,L|226:175,1,90.0000034332277,0|0,1:0|1:0,0:0:0:0:
108,281,67418,6,0,L|133:194,1,90.0000034332277,2|0,3:3|1:0,0:0:0:0:
167,103,67686,1,2,1:3:0:0:
167,103,67753,1,2,0:3:0:0:
167,103,67820,1,2,1:3:0:0:
195,341,67954,6,0,L|220:254,1,90.0000034332277,10|0,1:3|1:0,0:0:0:0:
59,349,68222,2,0,L|80:256,1,90.0000034332277,2|0,3:3|1:0,0:0:0:0:
313,315,68490,5,0,1:0:0:0:
260,128,68623,1,2,1:3:0:0:
166,298,68757,5,2,3:3:0:0:
371,239,68890,1,0,1:0:0:0:
116,166,69025,5,10,0:0:0:0:
340,229,69158,1,2,1:3:0:0:
237,23,69293,5,8,3:3:0:0:
168,266,69427,1,4,3:3:0:0:
107,72,69561,6,0,P|35:121|34:208,1,180.000006866455,6|2,3:2|1:2,0:0:0:0:
195,178,69963,1,0,1:0:0:0:
95,90,70097,2,0,P|57:113|37:153,1,90.0000034332277,10|0,0:0|1:0,0:0:0:0:
138,243,70365,2,0,P|175:219|195:179,1,90.0000034332277,2|2,3:2|1:2,0:0:0:0:
245,347,70632,5,0,1:0:0:0:
269,250,70766,1,2,1:2:0:0:
354,199,70900,1,2,3:2:0:0:
450,223,71034,1,0,1:0:0:0:
329,112,71168,2,0,L|354:199,1,90.0000034332277,8|0,0:0|1:0,0:0:0:0:
483,119,71436,2,0,L|458:32,1,90.0000034332277,2|0,1:2|1:0,0:0:0:0:
333,223,71704,6,0,L|358:310,1,90.0000034332277,2|0,3:2|1:0,0:0:0:0:
194,141,71972,2,0,L|169:54,1,90.0000034332277,2|0,1:2|1:2,0:0:0:0:
232,226,72240,2,0,P|133:209|101:125,1,180.000006866455,10|2,0:0|3:2,0:0:0:0:
100,145,72642,1,2,1:2:0:0:
28,203,72775,5,0,1:0:0:0:
192,140,72909,1,2,1:2:0:0:
21,95,73042,5,2,3:2:0:0:
132,231,73177,1,0,1:0:0:0:
123,55,73311,6,0,P|174:30|223:37,1,90.0000034332277,10|0,0:0|1:0,0:0:0:0:
316,154,73579,2,0,P|291:103|298:54,1,90.0000034332277,2|0,1:2|1:0,0:0:0:0:
477,59,73847,6,0,P|460:157|376:189,3,180.000006866455,2|2|2|2,3:1|0:1|3:1|0:1,0:0:0:0:
365,191,75186,2,0,P|336:199|311:216,1,60,0|2,3:0|1:2,0:0:0:0:
244,340,75454,6,0,L|230:251,1,90.0000034332277,10|0,0:1|1:0,0:0:0:0:
165,115,75722,2,0,P|193:123|234:165,1,90.0000034332277,2|2,0:1|0:1,0:0:0:0:
33,286,75990,5,2,3:2:0:0:
156,202,76124,1,2,1:2:0:0:
28,190,76257,5,2,1:2:0:0:
121,327,76391,1,2,1:2:0:0:
152,165,76525,5,10,0:0:0:0:
0,269,76659,1,2,1:2:0:0:
24,141,76793,5,2,3:2:0:0:
128,293,76927,1,2,1:2:0:0:
221,246,77061,5,2,1:3:0:0:
229,241,77128,1,2,0:3:0:0:
241,239,77195,1,2,1:3:0:0:
256,241,77262,1,2,0:3:0:0:
273,248,77329,1,2,3:3:0:0:
289,263,77396,1,2,0:3:0:0:
298,286,77463,1,2,1:3:0:0:
295,313,77530,1,2,0:3:0:0:
275,334,77597,6,0,L|177:366,1,60,10|0,0:0|1:0,0:0:0:0:
263,131,77865,6,0,L|310:172,1,60,2|0,3:2|1:0,0:0:0:0:
93,243,78132,6,0,L|105:184,1,60,4|0,3:2|1:0,0:0:0:0:
123,107,78400,1,0,1:0:0:0:
123,107,78534,1,0,1:0:0:0:
177,220,78668,6,0,L|189:161,1,60,8|0,0:0|1:0,0:0:0:0:
207,84,78936,1,0,3:0:0:0:
207,84,79070,1,0,1:0:0:0:
261,197,79204,6,0,L|273:138,1,60,0|0,1:0|3:0,0:0:0:0:
353,111,79472,1,2,1:2:0:0:
382,105,79605,1,0,1:0:0:0:
410,113,79739,1,8,0:0:0:0:
433,133,79873,1,0,1:0:0:0:
445,160,80007,1,0,1:0:0:0:
443,190,80141,1,0,1:0:0:0:
429,216,80275,6,0,L|370:204,1,60,0|0,3:0|1:0,0:0:0:0:
477,282,80543,1,8,1:1:0:0:
491,284,80632,1,8,0:1:0:0:
506,287,80721,1,8,0:1:0:0:
397,295,80811,6,0,L|338:283,1,60,8|0,0:0|1:0,0:0:0:0:
452,368,81079,1,0,3:0:0:0:
452,368,81213,1,0,1:0:0:0:
397,295,81347,5,0,1:0:0:0:
352,366,81481,1,0,3:0:0:0:
270,384,81615,1,2,1:2:0:0:
200,337,81748,1,0,1:0:0:0:
124,299,81882,5,8,0:0:0:0:
93,288,81972,1,8,0:1:0:0:
65,291,82061,1,8,0:1:0:0:
48,308,82150,1,8,0:1:0:0:
47,328,82240,1,8,0:1:0:0:
55,341,82329,1,8,0:1:0:0:
64,348,82418,6,0,L|76:289,1,60,0|0,3:0|1:0,0:0:0:0:
94,212,82686,1,0,1:0:0:0:
94,212,82820,1,0,1:0:0:0:
148,325,82954,6,0,L|160:266,1,60,8|0,0:0|1:0,0:0:0:0:
178,189,83222,1,0,3:0:0:0:
178,189,83356,1,0,1:0:0:0:
232,302,83490,6,0,L|244:243,1,60,0|0,1:0|3:0,0:0:0:0:
315,292,83758,1,2,1:2:0:0:
344,298,83891,1,0,1:0:0:0:
372,290,84025,1,8,0:0:0:0:
395,270,84159,1,0,1:0:0:0:
407,243,84293,1,0,1:0:0:0:
405,213,84427,1,0,1:0:0:0:
391,187,84561,6,0,L|332:199,1,60,0|0,3:0|0:0,0:0:0:0:
248,179,85365,6,0,B|339:157|339:157|383:226|383:226|474:205,1,270.000010299683,0|0,3:0|0:0,0:0:0:0:
