osu file format v14

[General]
AudioFilename: audio.mp3
AudioLeadIn: 0
PreviewTime: 26426
Countdown: 0
SampleSet: Soft
StackLeniency: 0.2
Mode: 0
LetterboxInBreaks: 0
WidescreenStoryboard: 1

[Editor]
Bookmarks: 10796,61153,61689,64903,65037,67046,67180,68519,68653,68921,69189,73475,73608,76689,76823,78296,78832
DistanceSpacing: 1
BeatDivisor: 8
GridSize: 4
TimelineZoom: 1.1

[Metadata]
Title:Itsuka no Hakuchuumu
TitleUnicode:いつかの白昼夢
Artist:yuki
ArtistUnicode:yuki
Creator:Fushimi Rio
Version:CASE - 0
Source:白昼夢の青写真
Tags:夢青 Musei The girl who's called the world yonagi no aojashin Wasabi Ono 緒乃ワサビ xelfery Muu Dogg eroge visual novel video game japanese opening Daichi Ashikaga anime girl jungkyuyoung ScubDomino Natsume Shiki PinkHeart Fia Misure Kuse KuBsNia_ZhoYL_ Bellicose laplacian 4th electronic Chinese City Tournament CCT HD1
BeatmapID:2257799
BeatmapSetID:1077578

[Difficulty]
HPDrainRate:6
CircleSize:4.3
OverallDifficulty:8.7
ApproachRate:9.5
SliderMultiplier:2.4
SliderTickRate:1

[Events]
//Background and Video events
0,0,"yonagi_wall.jpg",0,0
//Break Periods
//Storyboard Layer 0 (Background)
//Storyboard Layer 1 (Fail)
//Storyboard Layer 2 (Pass)
//Storyboard Layer 3 (Foreground)
//Storyboard Layer 4 (Overlay)
//Storyboard Sound Samples

[TimingPoints]
990,535.714285714286,4,2,1,40,1,0
990,-133.333333333333,4,2,1,40,0,0
11704,-100,4,2,1,50,0,0
12106,-133.333333333333,4,2,1,50,0,0
14918,-100,4,2,1,50,0,0
15320,-133.333333333333,4,2,1,50,0,0
15990,-100,4,2,1,50,0,0
16391,-133.333333333333,4,2,1,50,0,0
18132,-100,4,2,1,60,0,0
25632,-100,4,2,2,70,0,0
26168,-100,4,2,1,70,0,0
26704,-28.5714285714286,4,2,1,80,0,1
27418,-25,4,2,1,80,0,1
27775,-100,4,2,1,80,0,0
28847,-40,4,2,1,80,0,1
29918,-100,4,2,1,80,0,0
30990,-28.5714285714286,4,2,1,80,0,1
32061,-50,4,2,1,80,0,1
34204,-100,4,2,1,80,0,0
35275,-28.5714285714286,4,2,1,80,0,1
35990,-25,4,2,1,80,0,1
36347,-100,4,2,1,80,0,0
37418,-40,4,2,1,80,0,1
38490,-100,4,2,1,80,0,0
39561,-28.5714285714286,4,2,1,80,0,1
40632,-40,4,2,1,80,0,1
43847,-200,4,2,1,80,0,0
44248,-200,4,2,1,50,0,0
52418,-100,4,2,2,50,0,0
52619,-100,4,2,2,5,0,0
52686,-100,4,2,2,70,0,0
53021,-100,4,2,2,5,0,0
53088,-100,4,2,2,70,0,0
53423,-100,4,2,2,5,0,0
53490,-100,4,2,2,70,0,0
53824,-100,4,2,2,5,0,0
53891,-100,4,2,2,70,0,0
54762,-100,4,2,2,5,0,0
54829,-100,4,2,2,70,0,0
55164,-100,4,2,2,5,0,0
55231,-100,4,2,2,70,0,0
55565,-100,4,2,2,5,0,0
55632,-100,4,2,2,70,0,0
55967,-100,4,2,2,5,0,0
56034,-100,4,2,2,70,0,0
56704,-100,4,2,2,55,0,0
57775,-100,4,2,2,60,0,0
58847,-100,4,2,2,65,0,0
59918,-100,4,2,2,70,0,0
60387,-50,4,2,2,70,0,0
60454,-50,4,2,0,5,0,0
60990,-66.6666666666667,4,2,2,70,0,1
61391,-66.6666666666667,4,2,2,50,0,0
61793,-50,4,2,2,60,0,0
62195,-40,4,2,2,70,0,0
62597,-100,4,2,3,75,0,0
63132,-66.6666666666667,4,2,3,80,0,1
69293,-100,4,2,1,80,0,1
69561,-66.6666666666667,4,2,3,80,0,1
77597,-40,4,2,3,80,0,1
77865,-27.7777777777778,4,2,3,80,0,1
78132,-100,4,2,1,70,0,0
84561,-500,4,2,1,70,0,0
85097,-100,4,2,1,5,0,0
85365,-66.6666666666667,4,2,1,70,0,0
86168,-100,4,2,1,5,0,0

[Colours]
Combo1 : 255,128,128
Combo2 : 128,128,255
Combo3 : 223,128,255
Combo4 : 128,217,255
SliderBorder : 220,188,141
SliderTrackOverride : 85,50,45

[HitObjects]
192,192,990,6,0,B|256:213|256:213|319:192,1,135.000005149841,2|0,0:0|0:0,0:0:0:0:
320,205,2597,5,2,0:0:0:0:
306,185,2686,1,2,0:0:0:0:
330,181,2775,1,2,0:0:0:0:
307,200,2865,5,2,0:0:0:0:
317,176,2954,1,2,0:0:0:0:
332,196,3043,1,2,0:0:0:0:
320,192,3132,6,0,B|256:170|256:170|192:192,1,135.000005149841,2|0,0:0|0:0,0:0:0:0:
192,320,5275,22,0,B|255:341|255:341|319:320,1,135.000005149841,2|0,0:0|0:0,0:0:0:0:
320,77,6882,5,2,0:0:0:0:
306,57,6971,1,2,0:0:0:0:
330,53,7060,1,2,0:0:0:0:
307,72,7150,5,2,0:0:0:0:
317,48,7239,1,2,0:0:0:0:
332,68,7328,1,2,0:0:0:0:
320,64,7418,6,0,B|256:42|256:42|192:64,1,135.000005149841,2|0,0:0|0:0,0:0:0:0:
256,192,7954,12,0,9025,0:0:0:0:
62,212,9561,22,0,P|81:251|124:262,1,90.0000034332277,6|2,0:0|0:0,0:0:0:0:
146,257,9963,1,2,0:0:0:0:
258,318,10231,2,0,L|240:276,1,45.0000017166138,2|0,0:0|0:0,0:0:0:0:
276,191,10498,2,0,B|291:233|291:233|258:318,1,135.000005149841,2|2,0:0|0:0,0:0:0:0:
258,318,11034,1,2,0:0:0:0:
342,358,11168,2,0,P|375:311|409:308,1,90.0000034332277,0|0,0:0|0:0,0:0:0:0:
470,347,11704,6,0,P|430:295|365:295,1,120,2|2,0:0|0:0,0:0:0:0:
302,271,12106,2,0,B|321:230|321:230|403:195,1,90.0000034332277,2|2,0:0|0:0,0:0:0:0:
385,205,12507,1,0,0:0:0:0:
342,132,12641,2,0,P|337:88|358:46,1,90.0000034332277,2|2,0:0|0:0,0:0:0:0:
469,68,13177,2,0,P|473:113|454:153,2,90.0000034332277,2|2|2,0:0|0:0|0:0,0:0:0:0:
439,170,13847,6,0,B|397:184|397:184|314:153,1,90.0000034332277,0|0,0:0|0:0,0:0:0:0:
209,133,14382,2,0,P|217:90|255:68,1,90.0000034332277,2|2,0:0|0:0,0:0:0:0:
280,182,14918,2,0,P|222:172|189:124,1,120,2|2,0:0|0:0,0:0:0:0:
371,174,15320,2,0,L|352:262,1,90.0000034332277,0|0,0:0|0:0,0:0:0:0:
373,254,15722,1,2,0:0:0:0:
117,334,15990,6,0,B|102:292|102:292|135:207,1,120,2|2,0:0|0:0,0:0:0:0:
85,250,16391,2,0,L|-29:212,1,90.0000034332277,2|2,0:0|0:0,0:0:0:0:
74,120,16793,1,0,0:0:0:0:
172,156,16927,2,0,P|214:145|233:105,1,90.0000034332277,2|2,0:0|0:0,0:0:0:0:
231,83,17329,1,2,0:0:0:0:
236,61,17463,1,2,0:0:0:0:
312,94,17597,21,0,0:0:0:0:
412,71,17865,5,0,0:0:0:0:
511,48,18132,21,4,0:0:0:0:
435,171,18400,1,0,1:0:0:0:
435,171,18534,2,0,P|445:199|466:219,1,60,2|0,0:0|0:0,0:0:0:0:
436,140,18802,1,2,0:0:0:0:
361,190,18936,1,0,1:0:0:0:
343,277,19070,1,2,0:0:0:0:
343,277,19204,22,0,B|301:262|301:262|216:295,1,120,0|0,0:0|1:0,0:0:0:0:
47,236,19606,1,2,0:0:0:0:
47,236,19740,2,0,P|105:233|154:267,1,120,0|0,0:0|1:0,0:0:0:0:
299,354,20275,22,0,P|332:305|330:246,1,120,2|0,0:0|1:0,0:0:0:0:
269,204,20677,2,0,P|289:182|317:172,1,60,2|0,0:0|0:0,0:0:0:0:
362,110,20945,1,2,0:0:0:0:
282,68,21079,1,0,1:0:0:0:
295,150,21213,1,2,0:0:0:0:
295,150,21347,6,0,P|323:139|362:52,1,120,0|0,0:0|1:0,0:0:0:0:
459,189,21748,1,2,0:0:0:0:
459,189,21882,2,0,P|402:179|366:132,1,120,0|0,0:0|1:0,0:0:0:0:
356,143,22217,1,0,0:0:0:0:
345,153,22284,1,2,0:0:0:0:
334,164,22351,1,0,0:0:0:0:
324,175,22418,21,2,0:3:0:0:
287,97,22552,5,0,0:0:0:0:
205,68,22686,5,0,1:0:0:0:
127,105,22820,5,0,0:0:0:0:
98,185,22954,21,2,0:0:0:0:
136,264,23088,5,0,0:0:0:0:
216,293,23222,5,0,1:0:0:0:
294,256,23356,5,0,0:0:0:0:
324,175,23490,21,2,0:0:0:0:
294,67,23624,5,0,0:0:0:0:
196,11,23758,5,0,1:0:0:0:
88,41,23892,5,0,0:0:0:0:
32,138,24025,21,2,0:0:0:0:
62,246,24160,5,0,0:0:0:0:
160,302,24294,5,0,1:0:0:0:
268,272,24428,5,0,0:0:0:0:
324,175,24561,21,2,0:0:0:0:
339,175,24650,1,2,0:0:0:0:
353,182,24739,1,2,0:0:0:0:
362,195,24828,1,2,1:2:0:0:
367,216,24918,1,2,0:0:0:0:
367,243,25007,1,2,0:0:0:0:
356,274,25096,1,2,0:0:0:0:
348,313,25186,1,2,0:0:0:0:
359,357,25275,1,2,0:0:0:0:
403,384,25364,1,2,1:2:0:0:
460,384,25453,1,2,0:0:0:0:
505,339,25543,1,2,0:0:0:0:
509,270,25632,5,2,1:3:0:0:
473,205,25721,1,2,0:3:0:0:
409,168,25810,1,2,0:3:0:0:
335,169,25900,1,2,0:3:0:0:
272,209,25989,1,2,0:3:0:0:
239,275,26078,1,2,0:3:0:0:
245,349,26168,5,8,0:0:0:0:
418,384,26347,1,8,3:3:0:0:
488,38,26525,1,4,3:3:0:0:
0,212,26704,22,0,B|26:239|65:249|65:249|55:286|55:286|65:249|65:249|103:259|141:248|141:248|151:285|151:285|141:248|141:248|179:237|207:208|207:208|232:233|232:233|207:208|207:208|232:178|240:139|240:139|278:147|278:147|240:139|240:139|249:100|236:62|236:62|271:50|271:50|236:62|236:62|222:23|192:0,1,840.000008010864,6|2,3:2|0:0,0:0:0:0:
64,161,27418,2,0,P|164:109|37:98,1,320,2|2,0:0|0:0,0:0:0:0:
367,173,27775,5,10,0:0:0:0:
337,312,28311,5,2,0:0:0:0:
198,281,28490,1,2,0:0:0:0:
258,6,28668,1,2,0:0:0:0:
502,226,28847,38,0,B|467:232|434:220|434:220|423:252|423:252|434:220|434:220|402:207|379:182|379:182|355:201|355:201|379:182|379:182|357:155|353:121|353:121|320:125|320:125|353:121|353:121|347:86|361:54|361:54|330:42|330:42|361:54|361:54|373:23|401:2,1,600,2|2,3:2|0:0,0:0:0:0:
511,133,29561,2,0,P|457:144|501:64,1,200
281,266,29918,37,10,0:0:0:0:
225,317,30454,5,0,0:0:0:0:
192,384,30811,5,2,0:0:0:0:
192,384,30990,2,0,B|222:361|236:322|236:322|271:334|271:334|236:322|236:322|249:284|240:245|240:245|278:237|278:237|240:245|240:245|232:206|207:176|207:176|232:151|232:151|207:176|207:176|179:147|141:136|141:136|151:99|151:99|141:136|141:136|103:125|65:135|65:135|55:98|55:98|65:135|65:135|26:145|0:172,1,840.000008010864,2|2,3:2|0:0,0:0:0:0:
24,357,32061,2,0,P|163:368|204:217,1,320,10|0,0:0|0:0,0:0:0:0:
276,384,32597,5,2,0:0:0:0:
318,242,32775,1,2,0:0:0:0:
361,101,32954,1,2,0:0:0:0:
485,237,33132,5,2,3:2:0:0:
272,173,33311,1,0,0:0:0:0:
61,109,33489,1,2,3:2:0:0:
172,320,33668,5,2,0:0:0:0:
277,352,33846,1,0,3:0:0:0:
384,384,34025,1,2,0:0:0:0:
177,13,34204,5,8,0:0:0:0:
140,134,34383,1,2,0:0:0:0:
104,255,34561,1,8,3:3:0:0:
67,376,34740,1,2,0:0:0:0:
166,49,35097,1,2,0:0:0:0:
312,379,35275,6,0,B|318:384|287:360|273:321|273:321|238:333|238:333|273:321|273:321|260:283|269:243|269:243|231:235|231:235|269:243|269:243|277:204|303:174|303:174|277:148|277:148|303:174|303:174|331:144|369:133|369:133|359:96|359:96|369:133|369:133|408:122|446:132|446:132|456:95|456:95|446:132|446:132|485:142|512:170,1,840.000008010865,6|2,3:2|0:0,0:0:0:0:
448,321,35990,2,0,P|346:271|471:251,1,320,2|2,0:0|0:0,0:0:0:0:
221,97,36347,5,10,0:0:0:0:
133,191,36882,5,2,0:0:0:0:
227,278,37061,1,2,0:0:0:0:
401,90,37240,1,2,0:0:0:0:
0,255,37418,38,0,B|23:229|56:221|56:221|48:189|48:189|56:221|56:221|89:212|123:222|123:222|132:190|132:190|123:222|123:222|156:231|180:257|180:257|202:235|202:235|180:257|180:257|202:283|209:316|209:316|242:310|242:310|209:316|209:316|217:351|206:384,1,600,2|2,3:2|0:0,0:0:0:0:
118,373,38132,2,0,P|97:295|44:357,1,200
171,75,38490,37,10,0:0:0:0:
193,0,39025,5,0,0:0:0:0:
512,254,39382,5,0,0:0:0:0:
512,254,39561,2,0,B|479:273|439:272|439:272|439:311|439:311|439:272|439:272|400:272|366:252|366:252|347:285|347:285|366:252|366:252|332:231|313:196|313:196|282:214|282:214|313:196|313:196|296:161|299:121|299:121|260:119|260:119|299:121|299:121|300:81|322:48|322:48|292:27|292:27|322:48|322:48|346:13|381:0,1,840.000008010864,2|2,3:2|0:0,0:0:0:0:
510,36,40632,2,0,P|335:63|380:234,1,400,10|0,0:0|0:0,0:0:0:0:
435,129,41168,5,2,0:0:0:0:
327,341,41347,1,2,0:0:0:0:
115,233,41525,1,2,0:0:0:0:
317,95,41704,5,2,3:2:0:0:
253,223,41883,1,0,0:0:0:0:
188,350,42061,1,0,3:0:0:0:
102,68,42240,5,2,0:0:0:0:
248,141,42418,1,0,3:0:0:0:
394,214,42597,1,0,0:0:0:0:
102,100,42775,5,10,0:0:0:0:
303,202,42954,1,0,0:0:0:0:
405,0,43110,1,0,0:0:0:0:
120,252,43311,21,2,3:2:0:0:
247,0,43489,5,2,0:0:0:0:
501,128,43668,5,2,0:0:0:0:
373,381,43847,5,6,3:2:0:0:
455,345,44248,2,0,L|510:321,1,60,0|0,0:0|0:0,0:0:0:0:
448,256,44650,2,0,L|442:196,1,60,0|0,0:0|0:0,0:0:0:0:
361,236,45052,2,0,L|302:222,1,60,0|0,0:0|0:0,0:0:0:0:
314,313,45454,2,0,L|282:364,1,60,0|0,0:0|0:0,0:0:0:0:
139,260,45990,22,0,L|55:224,1,60,2|0,0:0|0:0,0:0:0:0:
149,171,46391,2,0,L|154:111,1,60,0|0,0:0|0:0,0:0:0:0:
235,150,46793,2,0,L|293:136,1,60,0|0,0:0|0:0,0:0:0:0:
281,227,47195,2,0,L|311:278,1,60,0|0,0:0|0:0,0:0:0:0:
222,295,47597,2,0,L|182:340,1,60,0|0,0:0|0:0,0:0:0:0:
346,57,48132,6,0,L|404:-10,1,60,2|0,0:0|0:0,0:0:0:0:
285,126,48534,2,0,L|255:75,1,60,0|0,0:0|0:0,0:0:0:0:
333,203,48936,2,0,L|274:216,1,60,0|0,0:0|0:0,0:0:0:0:
420,182,49338,2,0,L|415:243,1,60,0|0,0:0|0:0,0:0:0:0:
427,94,49740,2,0,L|481:118,1,60,0|0,0:0|0:0,0:0:0:0:
169,177,50275,6,0,L|109:189,1,60,2|0,0:0|0:0,0:0:0:0:
256,159,50677,2,0,L|225:107,1,60
298,238,51079,2,0,L|338:193,1,60
237,304,51480,2,0,L|290:330,1,60
155,265,51882,2,0,L|146:325,1,60
368,140,52418,6,0,P|328:117|334:66,1,90,4|0,3:2|0:0,0:0:0:0:
346,63,52686,1,0,1:0:0:0:
346,63,52820,22,0,P|355:17|405:8,1,60,0|0,0:0|3:0,0:0:0:0:
474,70,53088,1,0,0:0:0:0:
412,20,53222,6,0,P|457:14|481:59,1,90,0|0,1:0|0:0,0:0:0:0:
446,144,53490,1,0,3:0:0:0:
474,70,53623,6,0,P|493:111|457:148,1,90,8|0,0:1|0:0,0:0:0:0:
446,144,53891,1,0,0:0:0:0:
446,144,54025,5,8,3:1:0:0:
446,144,54293,1,8,1:1:0:0:
418,218,54427,21,8,0:1:0:0:
390,292,54561,6,0,P|418:323|460:315,1,90,8|0,3:1|0:0,0:0:0:0:
496,222,54829,1,0,1:0:0:0:
468,296,54963,6,0,P|507:278|512:235,1,90,8|0,0:1|0:0,0:0:0:0:
434,172,55231,1,0,0:0:0:0:
496,222,55365,6,0,P|491:179|452:161,1,90,8|0,1:1|0:0,0:0:0:0:
434,172,55632,1,0,3:0:0:0:
434,172,55766,22,0,P|391:163|362:194,1,90,8|0,0:1|0:0,0:0:0:0:
389,291,56034,1,0,0:0:0:0:
368,215,56168,5,8,3:1:0:0:
368,215,56436,1,8,1:1:0:0:
389,291,56570,5,8,0:1:0:0:
350,360,56704,5,8,3:1:0:0:
273,380,56838,21,8,0:1:0:0:
204,341,56972,5,8,1:1:0:0:
183,263,57105,5,8,0:1:0:0:
223,192,57240,5,8,3:1:0:0:
202,114,57373,21,8,0:1:0:0:
133,75,57507,5,8,1:1:0:0:
56,95,57641,5,8,0:1:0:0:
17,164,57775,5,8,3:1:0:0:
133,75,57909,1,8,0:1:0:0:
25,54,58043,21,8,1:1:0:0:
125,185,58177,1,8,0:1:0:0:
141,69,58311,5,8,3:1:0:0:
9,170,58445,1,8,0:1:0:0:
130,192,58579,5,8,1:1:0:0:
20,46,58713,1,8,0:1:0:0:
2,175,58847,5,8,3:1:0:0:
5,240,58936,1,8,0:1:0:0:
34,296,59026,1,8,0:1:0:0:
88,326,59115,1,8,1:1:0:0:
146,330,59204,1,8,0:1:0:0:
200,316,59294,1,8,0:1:0:0:
243,283,59383,1,8,3:1:0:0:
276,246,59472,1,8,0:1:0:0:
322,229,59561,1,8,0:1:0:0:
369,230,59651,1,8,1:1:0:0:
411,242,59740,1,8,0:1:0:0:
440,270,59829,1,8,0:1:0:0:
458,304,59918,21,8,3:1:0:0:
464,275,59985,1,8,0:1:0:0:
470,246,60052,1,8,0:1:0:0:
476,216,60119,1,8,0:1:0:0:
482,187,60186,1,8,0:1:0:0:
488,158,60253,1,8,0:1:0:0:
494,128,60320,1,8,0:1:0:0:
500,98,60387,2,0,L|514:26,1,60,8|0,0:1|0:0,0:0:0:0:
0,67,60990,6,0,B|0:23|0:23|27:58|27:58|-16:46|-16:46|27:32,1,180,6|0,3:2|1:0,0:0:0:0:
28,31,61391,6,0,B|90:11|90:11|25:142,1,180.000006866455,2|0,0:3|1:0,0:0:0:0:
39,114,61793,6,0,B|-12:216|-12:216|108:183,1,240,2|0,0:3|1:0,0:0:0:0:
109,183,62195,21,2,0:3:0:0:
109,183,62329,6,0,P|194:190|246:277,1,150,0|0,3:0|0:0,0:0:0:0:
256,384,62597,5,8,0:0:0:0:
256,0,62865,5,0,3:0:0:0:
432,241,63132,22,0,P|419:302|392:336,1,90.0000034332277,6|0,3:2|1:0,0:0:0:0:
364,161,63400,2,0,P|344:102|348:63,1,90.0000034332277,2|0,1:2|1:0,0:0:0:0:
268,194,63668,2,0,L|225:208,2,45.0000017166138,10|0|0,0:0|0:0|1:0,0:0:0:0:
364,161,63936,5,2,3:2:0:0:
130,240,64070,1,2,1:2:0:0:
189,20,64204,5,0,1:0:0:0:
103,138,64338,1,0,1:0:0:0:
241,93,64472,5,0,3:0:0:0:
103,48,64606,1,0,1:0:0:0:
189,166,64740,6,0,P|217:221|220:260,1,90.0000034332277,8|0,0:2|1:0,0:0:0:0:
264,95,65007,1,2,1:2:0:0:
338,24,65141,1,2,1:2:0:0:
423,158,65275,6,0,P|379:159|337:142,1,90.0000034332277,2|0,3:2|1:0,0:0:0:0:
338,24,65543,1,2,1:2:0:0:
263,190,65677,1,2,1:2:0:0:
167,73,65811,6,0,L|223:65,2,45.0000017166138,8|0|0,0:0|0:0|1:0,0:0:0:0:
159,183,66079,1,2,3:2:0:0:
85,79,66213,1,2,1:2:0:0:
141,280,66347,6,0,P|185:277|225:255,1,90.0000034332277,2|0,1:2|1:0,0:0:0:0:
238,149,66615,1,2,3:2:0:0:
305,298,66748,1,2,1:2:0:0:
420,139,66882,6,0,L|464:74,2,45.0000017166138,8|0|2,0:0|0:0|1:2,0:0:0:0:
324,271,67150,1,0,1:0:0:0:
232,63,67284,1,0,1:0:0:0:
343,244,67418,5,2,3:3:0:0:
420,139,67552,1,0,1:0:0:0:
219,203,67686,1,2,1:3:0:0:
203,197,67753,1,2,0:3:0:0:
203,182,67820,1,2,1:3:0:0:
219,176,67887,1,0,0:0:0:0:
228,190,67954,5,10,1:3:0:0:
104,149,68088,1,0,1:0:0:0:
260,18,68222,5,2,3:3:0:0:
67,57,68356,1,0,1:0:0:0:
231,173,68490,21,0,1:0:0:0:
100,165,68624,1,2,1:3:0:0:
231,324,68757,5,2,3:3:0:0:
81,274,68891,1,0,1:0:0:0:
316,124,69025,5,10,0:0:0:0:
6,186,69159,1,2,1:3:0:0:
130,0,69293,5,8,3:3:0:0:
192,310,69427,1,4,3:3:0:0:
373,45,69561,22,0,P|416:41|454:128,1,135.000005149841,6|0,3:2|0:0,0:0:0:0:
437,223,69829,2,0,P|394:207|349:212,1,90.0000034332277,2|0,1:2|1:0,0:0:0:0:
253,123,70097,2,0,P|238:165|244:210,1,90.0000034332277,10|0,0:0|1:0,0:0:0:0:
148,332,70365,2,0,L|165:291,2,45.0000017166138,2|0|2,3:2|0:0|1:2,0:0:0:0:
270,331,70632,5,0,1:0:0:0:
59,250,70766,1,2,1:2:0:0:
254,124,70900,5,2,3:2:0:0:
104,147,71034,1,0,1:0:0:0:
339,238,71168,6,0,P|346:194|333:151,1,90.0000034332277,8|0,0:0|1:0,0:0:0:0:
191,215,71436,2,0,P|179:258|188:301,1,90.0000034332277,2|0,1:2|1:0,0:0:0:0:
118,43,71704,22,0,P|130:122|206:109,1,135.000005149841,2|0,3:2|0:0,0:0:0:0:
304,51,71972,2,0,P|367:52|411:84,1,90.0000034332277,2|0,1:2|1:2,0:0:0:0:
484,154,72240,2,0,P|429:165|389:208,1,90.0000034332277,10|0,0:0|1:0,0:0:0:0:
326,340,72507,1,2,3:2:0:0:
326,340,72641,2,0,P|327:281|295:233,1,90.0000034332277,2|0,1:2|1:0,0:0:0:0:
1,246,72909,5,2,1:2:0:0:
117,224,73043,1,2,3:2:0:0:
232,202,73177,1,0,1:0:0:0:
82,46,73311,2,0,L|99:134,1,90.0000034332277,10|0,0:0|1:0,0:0:0:0:
215,112,73579,2,0,L|198:23,1,90.0000034332277,2|0,1:2|1:0,0:0:0:0:
134,250,73847,5,2,3:1:0:0:
226,232,73981,1,2,1:2:0:0:
317,214,74115,1,2,1:2:0:0:
180,366,74248,5,2,0:1:0:0:
226,232,74382,1,8,0:0:0:0:
273,99,74516,1,0,1:0:0:0:
363,354,74650,21,2,3:1:0:0:
256,317,74784,1,0,1:0:0:0:
149,280,74918,1,0,1:0:0:0:
298,25,75052,5,2,0:1:0:0:
242,185,75186,1,0,3:0:0:0:
188,346,75320,1,2,1:2:0:0:
27,290,75454,5,10,0:1:0:0:
27,290,75521,1,0,0:0:0:0:
27,290,75588,1,0,1:0:0:0:
216,252,75721,1,2,0:1:0:0:
405,214,75856,1,2,0:1:0:0:
306,349,75990,5,2,3:2:0:0:
441,322,76123,1,2,1:2:0:0:
413,186,76257,1,2,1:2:0:0:
279,213,76391,1,2,1:2:0:0:
453,49,76525,21,10,0:0:0:0:
424,202,76659,1,2,1:2:0:0:
268,173,76793,1,2,3:2:0:0:
299,19,76927,1,2,1:2:0:0:
249,192,77061,5,2,1:3:0:0:
224,202,77127,1,2,0:3:0:0:
198,205,77194,1,2,1:3:0:0:
171,201,77261,1,2,0:3:0:0:
147,189,77328,1,2,3:3:0:0:
127,171,77395,1,2,0:3:0:0:
114,147,77462,1,2,1:3:0:0:
108,120,77529,1,2,0:3:0:0:
110,94,77597,6,0,L|54:310,1,150,10|0,0:0|1:0,0:0:0:0:
223,87,77865,6,0,L|2:30,1,215.999993408203,2|0,3:2|1:0,0:0:0:0:
291,156,78132,21,4,3:2:0:0:
254,61,78266,1,0,1:0:0:0:
161,19,78400,1,0,1:0:0:0:
67,55,78534,1,0,1:0:0:0:
26,146,78668,1,8,0:0:0:0:
60,240,78802,1,0,1:0:0:0:
152,283,78936,1,0,3:0:0:0:
247,247,79070,1,0,1:0:0:0:
291,156,79203,1,0,1:0:0:0:
384,119,79338,1,0,3:0:0:0:
477,162,79472,1,2,1:2:0:0:
512,257,79606,1,0,1:0:0:0:
469,348,79740,1,8,0:0:0:0:
375,383,79874,1,0,1:0:0:0:
283,341,80008,1,0,1:0:0:0:
247,247,80141,1,0,1:0:0:0:
291,156,80275,5,0,3:0:0:0:
335,65,80409,1,0,1:0:0:0:
244,21,80543,1,8,1:1:0:0:
236,36,80632,1,8,0:1:0:0:
229,51,80722,1,8,0:1:0:0:
222,67,80811,1,8,0:0:0:0:
178,158,80945,1,0,1:0:0:0:
134,249,81079,1,0,3:0:0:0:
91,340,81213,1,0,1:0:0:0:
0,296,81347,1,0,1:0:0:0:
43,205,81481,1,0,3:0:0:0:
87,114,81615,1,2,1:2:0:0:
178,158,81749,1,0,1:0:0:0:
269,202,81882,1,8,0:0:0:0:
288,212,81972,1,8,0:1:0:0:
307,222,82061,1,8,0:1:0:0:
327,233,82150,1,8,0:1:0:0:
346,243,82239,1,8,0:1:0:0:
365,253,82329,1,8,0:1:0:0:
384,263,82418,5,0,3:0:0:0:
477,220,82553,1,0,1:0:0:0:
512,125,82687,1,0,1:0:0:0:
469,34,82821,1,0,1:0:0:0:
375,0,82955,1,8,0:0:0:0:
283,41,83089,1,0,1:0:0:0:
247,135,83222,1,0,3:0:0:0:
291,226,83355,1,0,1:0:0:0:
254,321,83489,1,0,1:0:0:0:
161,363,83623,1,0,3:0:0:0:
67,327,83757,1,2,1:2:0:0:
26,236,83891,1,0,1:0:0:0:
60,142,84025,1,8,0:0:0:0:
152,99,84159,1,0,1:0:0:0:
247,135,84293,1,0,1:0:0:0:
291,226,84427,1,0,1:0:0:0:
432,112,84561,22,0,L|432:64,1,48,0|0,3:0|0:0,0:0:0:0:
383,0,85365,2,0,P|432:191|480:0,1,540.000020599366,0|0,3:0|0:0,0:0:0:0:
