osu file format v14

[General]
AudioFilename: audio.mp3
AudioLeadIn: 0
PreviewTime: 78983
Countdown: 0
SampleSet: Soft
StackLeniency: 0.4
Mode: 0
LetterboxInBreaks: 0
WidescreenStoryboard: 0

[Editor]
DistanceSpacing: 1.2
BeatDivisor: 4
GridSize: 32
TimelineZoom: 1.5

[Metadata]
Title:Into Gray
TitleUnicode:Into Gray
Artist:yuki
ArtistUnicode:yuki
Creator:gazimal
Version:I wish.
Source:白昼夢の青写真
Tags:eroge momo 緒乃ワサビ case-0 case 0 Laplacian Hakuchuumu no Aojashin The girl who's whos called the world japanese pop rock full version opening op visual novel vn video game [ TNTlealu ] KoldNoodl pnky cyanotype daydream
BeatmapID:3625983
BeatmapSetID:1771240

[Difficulty]
HPDrainRate:6
CircleSize:4
OverallDifficulty:9
ApproachRate:9.4
SliderMultiplier:1.8
SliderTickRate:1

[Events]
//Background and Video events
0,0,"a1.jpg",0,0
//Break Periods
//Storyboard Layer 0 (Background)
//Storyboard Layer 1 (Fail)
//Storyboard Layer 2 (Pass)
//Storyboard Layer 3 (Foreground)
//Storyboard Layer 4 (Overlay)
//Storyboard Sound Samples

[TimingPoints]
406,352.941176470588,4,2,1,30,1,0
1817,-250,4,2,1,30,0,0
12405,-125,4,2,1,30,0,0
13111,-250,4,2,1,40,0,0
13817,-142.857142857143,4,2,1,40,0,0
18758,-250.000000000001,4,2,1,40,0,0
19817,-166.666666666667,4,2,1,40,0,0
21582,-250.000000000001,4,2,1,40,0,0
23788,-250.000000000001,4,2,1,5,0,0
23876,-250.000000000001,4,2,1,40,0,0
24053,-142.857142857143,4,2,1,40,0,0
24405,-142.857142857143,4,2,10,40,0,0
24758,-333.333333333334,4,2,1,40,0,0
25817,-166.666666666667,4,2,1,40,0,0
27229,-166.666666666667,4,2,9,40,0,0
27582,-333.333333333334,4,2,1,40,0,0
28641,-166.666666666667,4,2,1,40,0,0
31464,-166.666666666667,4,2,10,60,0,0
31817,-166.666666666667,4,2,1,40,0,0
34111,-285.714285714286,4,2,1,40,0,0
35700,-285.714285714286,4,2,9,40,0,0
36935,-166.666666666667,4,2,1,40,0,0
37111,-125,4,2,1,40,0,0
37376,-125,4,2,1,5,0,0
37464,-500,4,2,1,40,0,0
37733,-125,4,2,1,5,0,0
37817,333.333333333333,4,2,1,70,1,0
42983,-100,4,2,2,70,0,0
43150,-100,4,2,1,70,0,0
46150,-83.3333333333333,4,2,1,70,0,0
46483,-100,4,2,1,70,0,0
46650,-200,4,2,1,70,0,0
46983,-83.3333333333333,4,2,1,70,0,0
47233,-125,4,2,1,5,0,0
47316,-100,4,2,1,70,0,0
47816,-166.666666666667,4,2,1,70,0,0
47983,-166.666666666667,4,2,2,70,0,0
48150,-500.000000000003,4,2,1,70,0,0
48400,-125,4,2,1,5,0,0
48483,-83.3333333333333,4,2,1,60,0,0
48650,-83.3333333333333,4,2,1,50,0,0
48816,-83.3333333333333,4,2,4,50,0,0
49316,-250,4,2,1,50,0,0
50150,-250,4,2,4,50,0,0
50650,-250,4,2,1,50,0,0
50816,-250,4,2,4,50,0,0
51150,-250,4,2,1,50,0,0
51483,-250,4,2,4,50,0,0
51733,-250,4,2,1,50,0,0
51983,-100,4,2,1,50,0,0
52316,-142.857142857143,4,2,1,50,0,0
52816,-142.857142857143,4,2,4,50,0,0
53316,-142.857142857143,4,2,1,50,0,0
53566,-142.857142857143,4,2,4,50,0,0
53816,-83.3333333333333,4,2,1,50,0,0
54150,-83.3333333333333,4,2,4,50,0,0
54566,-200,4,2,1,50,0,0
54900,-125,4,2,1,5,0,0
54983,-200,4,2,1,50,0,0
55483,-200,4,2,4,50,0,0
55983,-200,4,2,1,50,0,0
56150,-100,4,2,1,50,0,0
56816,-100,4,2,4,50,0,0
57066,-100,4,2,1,50,0,0
57150,-142.857142857143,4,2,1,50,0,0
58150,-142.857142857143,4,2,4,50,0,0
58483,-142.857142857143,4,2,1,50,0,0
59150,-83.3333333333333,4,2,1,65,0,0
59400,-125,4,2,1,5,0,0
59483,-83.3333333333333,4,2,1,65,0,0
59816,-100,4,2,1,65,0,0
60066,-125,4,2,1,5,0,0
60150,-100,4,2,1,65,0,0
64150,-200,4,2,1,65,0,0
64816,-100,4,2,1,65,0,0
65316,-125,4,2,1,65,0,0
66150,-100,4,2,1,65,0,0
66483,-125,4,2,1,65,0,0
66816,-100,4,2,1,65,0,0
67066,-125,4,2,1,5,0,0
67150,-100,4,2,1,65,0,0
69483,-100,4,2,2,65,0,0
69816,-100,4,2,1,65,0,0
70150,-500,4,2,1,40,0,0
71150,-500,4,2,1,45,0,0
71483,-250,4,2,1,45,0,0
71733,-125,4,2,1,5,0,0
71816,-166.666666666667,4,2,1,45,0,0
72400,-125,4,2,1,5,0,0
72483,-100,4,2,1,70,0,0
74816,-142.857142857143,4,2,1,70,0,0
74983,-142.857142857143,4,2,2,70,0,0
75150,-142.857142857143,4,2,1,70,0,0
77150,-125,4,2,1,70,0,0
77733,-125,4,2,1,5,0,0
77816,-142.857142857143,4,2,1,50,0,0
77900,-125,4,2,1,5,0,0
79483,-500.000000000003,4,2,1,50,0,0
80483,-83.3333333333333,4,2,1,80,0,1
80733,-83.3333333333333,4,2,1,5,0,1
80816,-83.3333333333333,4,2,1,80,0,1
81066,-83.3333333333333,4,2,1,5,0,1
81150,-83.3333333333333,4,2,1,80,0,1
81400,-83.3333333333333,4,2,1,5,0,1
81483,-83.3333333333333,4,2,1,80,0,1
81733,-83.3333333333333,4,2,1,5,0,1
81816,-83.3333333333333,4,2,1,80,0,1
82066,-83.3333333333333,4,2,1,5,0,1
82150,-83.3333333333333,4,2,1,80,0,1
82400,-83.3333333333333,4,2,1,5,0,1
82483,-100,4,2,1,80,0,1
82733,-83.3333333333333,4,2,1,5,0,1
82816,-100,4,2,1,80,0,1
83150,-76.9230769230769,4,2,1,80,0,1
83400,-83.3333333333333,4,2,1,5,0,1
83483,-100,4,2,1,80,0,1
83650,-76.9230769230769,4,2,1,80,0,1
84150,-100,4,2,1,80,0,1
84316,-76.9230769230769,4,2,1,80,0,1
84566,-83.3333333333333,4,2,1,5,0,1
84650,-100,4,2,1,80,0,1
88066,-100,4,2,2,80,0,1
88233,-100,4,2,1,80,0,1
89150,-142.857142857143,4,2,1,80,0,1
89483,-100,4,2,1,80,0,1
89650,-76.9230769230769,4,2,1,80,0,1
90150,-142.857142857143,4,2,1,80,0,1
91150,-100,4,2,1,80,0,1
93650,-100,4,2,2,80,0,1
93816,-100,4,2,1,80,0,1
93983,-142.857142857143,4,2,1,80,0,1
94316,-66.6666666666667,4,2,1,80,0,1
94566,-83.3333333333333,4,2,1,5,0,1
94650,-66.6666666666667,4,2,1,80,0,1
94900,-83.3333333333333,4,2,1,5,0,1
94983,-62.5,4,2,1,80,0,1
95233,-83.3333333333333,4,2,1,5,0,1
95316,-100,4,2,1,80,0,1
95483,-66.6666666666667,4,2,1,80,0,1
95816,-66.6666666666667,4,2,2,80,0,1
96150,-66.6666666666667,4,2,1,80,0,1
96483,-100,4,2,1,80,0,1
96816,-83.3333333333333,4,2,1,80,0,1
97316,-142.857142857143,4,2,1,80,0,1
97816,-83.3333333333333,4,2,1,80,0,1
98983,-83.3333333333333,4,2,2,80,0,1
99150,-83.3333333333333,4,2,1,80,0,1
101483,-83.3333333333333,4,2,2,80,0,1
101816,-1000,4,2,1,80,0,0
103150,-1000,4,2,1,60,0,0
103483,-142.857142857143,4,2,4,55,0,0
103816,-142.857142857143,4,2,1,55,0,0
104233,-83.3333333333333,4,2,1,5,0,0
104316,-142.857142857143,4,2,1,55,0,0
104816,-142.857142857143,4,2,4,55,0,0
105150,-142.857142857143,4,2,1,55,0,0
106150,-142.857142857143,4,2,4,55,0,0
106400,-142.857142857143,4,2,1,55,0,0
107483,-142.857142857143,4,2,4,55,0,0
107733,-250.000000000001,4,2,4,55,0,0
107816,-250.000000000001,4,2,1,55,0,0
108150,-250.000000000001,4,2,4,55,0,0
108483,-250.000000000001,4,2,1,55,0,0
108816,-250.000000000001,4,2,4,55,0,0
109150,-250.000000000001,4,2,1,55,0,0
109316,-142.857142857143,4,2,1,55,0,0
110150,-142.857142857143,4,2,4,55,0,0
110483,-142.857142857143,4,2,1,55,0,0
110650,-250.000000000001,4,2,1,55,0,0
111483,-250.000000000001,4,2,4,55,0,0
111733,-250.000000000001,4,2,1,55,0,0
112316,-166.666666666667,4,2,1,55,0,0
112816,-166.666666666667,4,2,4,55,0,0
113316,-166.666666666667,4,2,1,55,0,0
113816,-83.3333333333333,4,2,3,60,0,0
114400,-83.3333333333333,4,2,1,5,0,0
114483,-83.3333333333333,4,2,3,60,0,0
114733,-83.3333333333333,4,2,1,5,0,0
114816,-333.333333333333,4,2,3,60,0,0
115066,-83.3333333333333,4,2,1,5,0,0
115150,-200,4,2,3,60,0,0
116483,-83.3333333333333,4,2,3,60,0,0
117066,-83.3333333333333,4,2,3,5,0,0
117150,-83.3333333333333,4,2,3,60,0,0
117400,-83.3333333333333,4,2,3,5,0,0
117483,-333.333333333333,4,2,3,60,0,0
117733,-83.3333333333333,4,2,3,5,0,0
117816,-200,4,2,3,60,0,0
118483,-83.3333333333333,4,2,3,60,0,0
118733,-83.3333333333333,4,2,3,5,0,0
118816,-250,4,2,3,60,0,0
119066,-83.3333333333333,4,2,3,5,0,0
119150,-83.3333333333333,4,2,3,60,0,0
119733,-83.3333333333333,4,2,3,5,0,0
119816,-83.3333333333333,4,2,3,60,0,0
120066,-83.3333333333333,4,2,3,5,0,0
120150,-83.3333333333333,4,2,3,60,0,0
120483,-250,4,2,3,60,0,0
121400,-83.3333333333333,4,2,3,5,0,0
121650,-250,4,2,3,60,0,0
122483,-83.3333333333333,4,2,3,60,0,0
122733,-83.3333333333333,4,2,3,5,0,0
122816,-333.333333333333,4,2,3,60,0,0
123066,-83.3333333333333,4,2,3,5,0,0
123150,-83.3333333333333,4,2,3,60,0,0
123733,-83.3333333333333,4,2,3,5,0,0
123816,-333.333333333333,4,2,3,60,0,0
123900,-83.3333333333333,4,2,3,5,0,0
124150,-333.333333333333,4,2,1,60,0,0
124483,-100,4,2,1,65,0,0
127400,-83.3333333333333,4,2,3,5,0,0
127483,-100,4,2,1,65,0,0
128733,-83.3333333333333,4,2,3,5,0,0
128816,-125,4,2,1,65,0,0
129983,-100,4,2,1,65,0,0
130233,-83.3333333333333,4,2,3,5,0,0
130316,-100,4,2,1,65,0,0
130566,-83.3333333333333,4,2,3,5,0,0
130650,-100,4,2,1,65,0,0
131233,-83.3333333333333,4,2,3,5,0,0
131316,-100,4,2,1,65,0,0
132150,-250,4,2,1,65,0,0
134816,-250,4,2,2,65,0,0
134983,-250,4,2,1,65,0,0
140400,-83.3333333333333,4,2,3,5,0,0
140483,-100,4,2,1,60,0,0
140816,-166.666666666667,4,2,1,60,0,0
141983,-100,4,2,1,60,0,0
143483,-142.857142857143,4,2,1,60,0,0
143650,-142.857142857143,4,2,2,60,0,0
143983,-111.111111111111,4,2,2,60,0,0
144150,-111.111111111111,4,2,1,60,0,0
144483,-111.111111111111,4,2,1,65,0,0
144816,-111.111111111111,4,2,1,70,0,0
145150,-111.111111111111,4,2,1,75,0,0
145816,-111.111111111111,4,2,1,80,0,0
146483,-83.3333333333333,4,2,1,80,0,0
147483,-111.111111111111,4,2,1,80,0,0
147816,-83.3333333333333,4,2,1,80,0,0
148483,-66.6666666666667,4,2,1,80,0,0
148816,-111.111111111111,4,2,1,80,0,0
149816,-66.6666666666667,4,2,1,80,0,0
150817,333.333333333333,4,2,1,80,1,0
151817,-66.6666666666667,4,2,1,80,0,0
152816,-100,4,2,1,80,0,0
153483,-66.6666666666667,4,2,1,80,0,0
153816,-100,4,2,1,80,0,0
153983,-66.6666666666667,4,2,1,80,0,0
154316,-100,4,2,1,80,0,0
154483,-66.6666666666667,4,2,1,80,0,0
155483,-66.6666666666667,4,2,1,80,0,1
155567,-66.6666666666667,4,2,1,80,0,0
155650,-66.6666666666667,4,2,1,80,0,1
155733,-66.6666666666667,4,2,1,80,0,0
155817,-66.6666666666667,4,2,1,80,0,1
155900,-66.6666666666667,4,2,1,80,0,0
155983,-66.6666666666667,4,2,1,80,0,1
156067,-66.6666666666667,4,2,1,80,0,0
156150,-66.6666666666667,4,2,1,80,0,1
156233,-66.6666666666667,4,2,1,80,0,0
157483,-1000,4,2,1,60,0,0
158733,-1000,4,2,1,5,0,0
158817,-1000,4,2,1,75,0,0
159483,-200,4,2,2,75,0,0
159817,-200,4,2,1,75,0,0
160983,-200,4,2,2,75,0,0
161150,-200,4,2,1,75,0,0
161483,-125,4,2,1,75,0,0
166816,-76.9230769230769,4,2,1,75,0,0
167233,-1000,4,2,1,5,0,0
167316,-76.9230769230769,4,2,1,75,0,0
167733,-1000,4,2,1,5,0,0
167816,-200,4,2,1,75,0,0
167900,-1000,4,2,1,5,0,0
168483,-200,4,2,1,35,0,0
169483,-100,4,2,1,70,0,0
170733,-83.3333333333333,4,2,1,70,0,0
171400,-1000,4,2,1,5,0,0
171483,-333.333333333333,4,2,1,70,0,0
171733,-1000,4,2,1,5,0,0
171816,-100,4,2,1,70,0,0
172150,-83.3333333333333,4,2,1,85,0,1
172400,-83.3333333333333,4,2,1,5,0,1
172483,-83.3333333333333,4,2,1,85,0,1
173566,-83.3333333333333,4,2,1,5,0,1
173650,-83.3333333333333,4,2,1,85,0,1
177150,-83.3333333333333,4,2,2,85,0,1
177316,-83.3333333333333,4,2,1,85,0,1
178816,-125,4,2,1,85,0,1
179150,-55.5555555555556,4,2,1,85,0,1
179733,-83.3333333333333,4,2,1,5,0,1
179816,-55.5555555555556,4,2,1,85,0,1
180150,-100,4,2,1,85,0,1
182650,-100,4,2,2,85,0,1
182816,-100,4,2,1,85,0,1
182983,-142.857142857143,4,2,1,85,0,1
183316,-76.9230769230769,4,2,1,85,0,1
183566,-83.3333333333333,4,2,1,5,0,1
183650,-76.9230769230769,4,2,1,85,0,1
183900,-83.3333333333333,4,2,1,5,0,1
183983,-66.6666666666667,4,2,1,85,0,1
184233,-83.3333333333333,4,2,1,5,0,1
184316,-125,4,2,1,85,0,1
184483,-83.3333333333333,4,2,1,85,0,1
184816,-83.3333333333333,4,2,2,85,0,1
185150,-83.3333333333333,4,2,1,85,0,1
185483,-125,4,2,1,85,0,1
185816,-83.3333333333333,4,2,1,85,0,1
186316,-125,4,2,1,85,0,1
186816,-83.3333333333333,4,2,1,85,0,1
187983,-83.3333333333333,4,2,2,85,0,1
188150,-83.3333333333333,4,2,1,85,0,1
190816,-76.9230769230769,4,2,1,80,0,0
191233,-76.9230769230769,4,2,1,5,0,0
191316,-76.9230769230769,4,2,1,80,0,0
191733,-76.9230769230769,4,2,1,5,0,0
191816,-76.9230769230769,4,2,1,80,0,0
192233,-76.9230769230769,4,2,1,5,0,0
192316,-100,4,2,1,80,0,0
192733,-76.9230769230769,4,2,1,5,0,0
192816,-125,4,2,1,80,0,0
193150,-83.3333333333333,4,2,1,80,0,0
193483,-83.3333333333333,4,2,1,80,0,0
193900,-76.9230769230769,4,2,1,5,0,0
193983,-111.111111111111,4,2,1,80,0,0
194400,-76.9230769230769,4,2,1,5,0,0
194483,-83.3333333333333,4,2,1,80,0,0
194900,-76.9230769230769,4,2,1,5,0,0
194983,-83.3333333333333,4,2,1,80,0,0
195400,-76.9230769230769,4,2,1,5,0,0
195483,-125,4,2,1,80,0,0
195816,-83.3333333333333,4,2,1,80,0,0
196150,-100,4,2,1,80,0,0
198483,-142.857142857143,4,2,2,80,0,0
198816,-100,4,2,1,80,0,0
200816,-50,4,2,1,80,0,1
200858,-50,4,2,1,80,0,0
200900,-50,4,2,1,80,0,1
200941,-50,4,2,1,80,0,0
200983,-50,4,2,1,80,0,1
201025,-50,4,2,1,80,0,0
201066,-50,4,2,1,80,0,1
201108,-50,4,2,1,80,0,0
201150,-50,4,2,1,80,0,1
201191,-50,4,2,1,80,0,0
201233,-50,4,2,1,80,0,1
201275,-50,4,2,1,80,0,0
201316,-50,4,2,1,80,0,1
201358,-50,4,2,1,80,0,0
201400,-76.9230769230769,4,2,1,5,0,0
201483,-66.6666666666667,4,2,1,75,0,1
201566,-66.6666666666667,4,2,1,75,0,0
201983,-100,4,2,1,75,0,0
207650,-166.666666666667,4,2,1,75,0,0
209233,-166.666666666667,4,2,2,75,0,0
209483,-58.8235294117647,4,2,1,75,0,0
209733,-58.8235294117647,4,2,1,5,0,0
209816,-100,4,2,1,75,0,0
211150,-100,4,2,1,80,0,0
211483,-100,4,2,1,85,0,0

[Colours]
Combo1 : 255,128,192
Combo2 : 192,192,192

[HitObjects]
502,41,1817,6,0,L|509:5,2,36,2|0|0,0:0|0:0|0:0,0:0:0:0:
484,118,2347,1,2,0:0:0:0:
502,41,3229,6,0,L|509:5,2,36,2|0|0,0:0|0:0|0:0,0:0:0:0:
484,118,3759,1,2,0:0:0:0:
502,41,4641,6,0,L|509:5,2,36,2|0|0,0:0|0:0|0:0,0:0:0:0:
484,118,5171,1,2,0:0:0:0:
502,41,6053,6,0,L|509:5,2,36,2|0|0,0:0|0:0|0:0,0:0:0:0:
484,118,6583,1,2,0:0:0:0:
502,41,7464,6,0,L|509:5,2,36,2|0|0,0:0|0:0|0:0,0:0:0:0:
484,118,7994,1,2,0:0:0:0:
415,77,8876,6,0,L|422:41,2,36,2|0|0,0:0|0:0|0:0,0:0:0:0:
397,154,9406,1,2,0:0:0:0:
328,113,10288,6,0,L|335:77,2,36,2|0|0,0:0|0:0|0:0,0:0:0:0:
310,190,10818,1,2,0:0:0:0:
310,190,11700,5,2,0:0:0:0:
202,194,11876,1,0,0:0:0:0:
254,138,12053,1,0,0:0:0:0:
258,246,12229,1,2,0:0:0:0:
393,183,12405,6,0,L|399:161,2,18,2|2|2,0:3|0:3|0:3,0:0:0:0:
373,301,12582,1,2,0:3:0:0:
373,301,12670,1,2,0:3:0:0:
373,301,12758,1,2,0:3:0:0:
477,243,12935,1,0,0:0:0:0:
491,369,13111,6,0,L|449:360,2,36,2|0|0,3:2|3:2|0:0,0:0:0:0:
491,369,13641,1,2,3:2:0:0:
373,301,13817,2,0,P|312:324|241:338,1,125.999996154785,0|0,1:0|3:2,0:0:0:0:
99,368,14347,1,2,0:0:0:0:
99,368,14523,5,2,0:0:0:0:
143,306,14700,1,0,0:0:0:0:
99,245,14876,1,0,3:2:0:0:
27,269,15053,1,2,0:0:0:0:
143,306,15229,2,0,P|193:272|266:257,1,125.999996154785,0|0,1:0|0:0,0:0:0:0:
425,253,15758,1,2,0:0:0:0:
425,253,15934,5,2,3:2:0:0:
381,191,16111,1,0,0:0:0:0:
425,130,16287,1,0,0:0:0:0:
497,154,16464,1,2,3:2:0:0:
381,191,16640,2,0,P|331:157|258:142,1,125.999996154785,0|0,1:0|3:2,0:0:0:0:
99,138,17171,1,2,0:0:0:0:
99,138,17347,5,2,0:0:0:0:
143,76,17524,1,0,0:0:0:0:
99,15,17700,1,0,3:2:0:0:
27,39,17877,1,2,0:0:0:0:
143,76,18053,2,0,P|193:42|266:27,1,125.999996154785,0|0,1:0|0:0,0:0:0:0:
502,81,18758,6,0,P|490:44|486:9,2,72,2|0|0,3:2|0:0|1:0,0:0:0:0:
502,81,19817,2,0,P|474:66|446:68,1,53.9999983520508,2|0,3:2|0:0,0:0:0:0:
379,109,20170,5,2,0:0:0:0:
379,109,20347,1,0,0:0:0:0:
441,194,20523,2,0,L|453:136,1,53.9999983520508,2|2,3:2|0:0,0:0:0:0:
359,222,20876,2,0,L|382:333,1,107.999996704102,2|0,1:2|0:0,0:0:0:0:
512,375,21582,6,0,L|476:367,2,36,2|0|0,3:2|3:2|0:0,0:0:0:0:
512,375,22111,1,2,1:2:0:0:
381,327,22288,2,0,L|371:280,1,36,2|0,0:0|3:2,0:0:0:0:
443,247,22641,2,0,L|450:282,1,36,2|0,0:0|0:0,0:0:0:0:
311,371,22994,5,2,3:2:0:0:
297,346,23170,1,0,3:2:0:0:
254,316,23347,1,0,0:0:0:0:
181,311,23523,1,2,3:2:0:0:
116,365,23700,2,0,L|109:335,1,18,0|0,1:2|0:0,0:0:0:0:
79,180,23876,1,0,3:2:0:0:
52,303,24053,2,0,L|83:161,1,125.999996154785,0|2,1:2|0:0,0:0:0:0:
24,31,24758,6,0,L|30:63,2,26.9999991760254,2|2|2,0:0|0:0|0:0,0:0:0:0:
213,72,25641,5,2,0:0:0:0:
213,72,25817,2,0,P|153:80|109:33,1,107.999996704102,2|2,0:0|0:0,0:0:0:0:
461,8,27229,5,2,0:0:0:0:
381,102,27582,2,0,L|374:71,2,26.9999991760254,2|2|2,0:0|0:0|0:0,0:0:0:0:
496,185,28464,5,2,0:0:0:0:
496,185,28641,2,0,L|471:299,1,107.999996704102,2|2,0:0|0:0,0:0:0:0:
256,192,30053,5,2,0:0:0:0:
320,128,30405,2,0,P|367:96|432:112,2,107.999996704102,2|2|2,0:0|0:0|0:0,0:0:0:0:
256,192,31464,5,2,0:0:0:0:
192,256,31817,2,0,P|144:287|79:271,2,107.999996704102,2|2|2,0:0|0:0|0:0,0:0:0:0:
345,172,32876,6,0,B|374:171|409:199|412:266|335:298|285:247|295:242|295:199|269:171|219:183|219:183|255:195|257:226,1,323.999990112305,2|2,0:0|0:0,0:0:0:0:
192,256,34111,2,0,P|335:222|470:195,1,283.499991348267,2|2,0:0|0:0,0:0:0:0:
468,195,36935,6,0,L|460:161,1,26.9999991760254,2|0,0:0|0:0,0:0:0:0:
476,127,37111,2,0,L|452:253,1,108,2|0,0:0|0:0,0:0:0:0:
468,195,37464,6,0,L|460:161,1,26.9999991760254,2|0,0:0|0:0,0:0:0:0:
437,48,37817,6,0,L|483:38,1,45,6|0,3:2|1:2,0:0:0:0:
346,127,37983,1,0,1:2:0:0:
300,131,38067,1,0,1:2:0:0:
256,111,38150,1,0,3:2:0:0:
227,74,38233,1,0,1:2:0:0:
223,27,38317,5,2,1:2:0:0:
271,42,38400,1,0,1:2:0:0:
297,82,38483,1,0,3:2:0:0:
300,131,38567,1,0,1:2:0:0:
279,174,38650,1,0,1:2:0:0:
235,197,38733,1,0,1:2:0:0:
183,196,38817,2,0,L|169:132,1,45,2|0,3:2|1:2,0:0:0:0:
70,130,38983,2,0,L|83:193,1,45,0|0,1:2|1:2,0:0:0:0:
107,324,39150,5,0,3:2:0:0:
95,320,39233,1,0,1:2:0:0:
83,316,39317,1,2,1:2:0:0:
110,285,39400,1,0,1:2:0:0:
160,278,39483,1,0,3:2:0:0:
206,295,39567,1,0,1:2:0:0:
239,336,39650,1,0,1:2:0:0:
277,371,39733,1,0,1:2:0:0:
331,372,39817,6,0,P|359:361|378:341,3,45,2|0|0|0,3:2|1:2|1:2|1:2,0:0:0:0:
364,255,40150,1,2,3:2:0:0:
413,258,40233,1,0,1:2:0:0:
441,279,40317,1,0,1:2:0:0:
455,297,40400,1,0,1:2:0:0:
461,309,40483,6,0,L|471:260,1,45,6|0,3:2|1:2,0:0:0:0:
497,109,40650,1,0,1:2:0:0:
462,82,40733,1,0,1:2:0:0:
420,93,40816,1,0,3:2:0:0:
404,133,40900,1,0,1:2:0:0:
427,170,40983,5,2,1:2:0:0:
385,148,41067,1,0,1:2:0:0:
339,143,41150,1,0,3:2:0:0:
297,159,41233,1,0,1:2:0:0:
261,194,41317,1,0,1:2:0:0:
214,207,41400,1,0,1:2:0:0:
169,194,41483,5,2,3:2:0:0:
176,161,41566,1,0,1:2:0:0:
183,128,41649,1,0,1:2:0:0:
190,95,41733,1,0,1:2:0:0:
197,62,41816,6,0,L|148:72,1,45,4|0,3:2|1:2,0:0:0:0:
28,110,41983,1,2,1:2:0:0:
21,143,42066,1,0,1:2:0:0:
14,176,42149,1,0,3:2:0:0:
7,209,42233,1,0,1:2:0:0:
0,242,42316,2,0,L|49:232,1,45,0|0,1:2|1:2,0:0:0:0:
217,315,42483,1,2,3:2:0:0:
211,326,42566,1,0,1:2:0:0:
199,337,42650,1,0,1:2:0:0:
181,342,42733,1,0,1:2:0:0:
154,341,42816,1,8,3:3:0:0:
128,312,42900,1,8,0:3:0:0:
82,294,42983,1,8,0:3:0:0:
29,315,43066,1,8,0:3:0:0:
18,373,43150,5,6,3:2:0:0:
44,233,43316,1,2,3:2:0:0:
217,315,43483,1,8,0:0:0:0:
239,327,43650,1,2,0:0:0:0:
18,373,43816,1,2,3:2:0:0:
189,222,43983,1,2,3:2:0:0:
100,382,44150,2,0,L|77:278,1,90,10|0,0:0|0:0,0:0:0:0:
48,95,44483,6,0,P|77:126|131:124,2,90,2|2|10,3:2|3:2|0:0,0:0:0:0:
129,25,44983,1,2,0:0:0:0:
129,25,45066,1,0,1:0:0:0:
129,25,45150,1,0,3:2:0:0:
224,126,45316,1,2,3:2:0:0:
406,64,45483,1,10,0:0:0:0:
233,11,45650,1,2,0:0:0:0:
340,137,45816,6,0,L|330:92,1,45,6|0,3:2|0:0,0:0:0:0:
497,18,45983,2,0,L|487:62,1,45,0|0,3:2|0:0,0:0:0:0:
450,256,46150,2,0,L|424:134,1,107.999996704102,8|2,0:0|3:2,0:0:0:0:
435,160,46400,1,0,1:0:0:0:
442,170,46483,2,0,L|486:160,1,45,0|0,3:2|0:0,0:0:0:0:
370,294,46650,6,0,L|326:284,1,45,0|2,3:2|0:0,0:0:0:0:
484,365,46983,6,0,B|426:351|426:351|386:375|386:375|331:364,1,161.999995056153,8|0,0:0|0:0,0:0:0:0:
262,329,47316,2,0,L|218:338,1,45,0|0,3:2|0:0,0:0:0:0:
27,377,47483,1,8,0:0:0:0:
139,361,47650,1,0,1:0:0:0:
128,358,47733,1,0,1:0:0:0:
117,355,47816,2,0,L|122:327,1,26.9999991760254,8|0,0:3|0:0,0:0:0:0:
84,257,47983,2,0,L|110:247,1,26.9999991760254,8|0,0:3|0:0,0:0:0:0:
152,179,48150,6,0,L|173:197,1,26.9999991760254,10|0,0:0|0:0,0:0:0:0:
205,259,48483,6,0,L|226:153,1,107.999996704102,4|0,3:2|3:2,0:0:0:0:
246,26,48816,1,0,0:0:0:0:
25,73,48982,1,0,0:0:0:0:
8,77,49066,1,0,0:0:0:0:
81,146,49316,2,0,L|86:123,2,18,2|2|0,0:3|0:3|0:0,0:0:0:0:
50,0,49650,1,0,3:2:0:0:
109,55,49817,5,0,3:2:0:0:
25,73,49984,1,0,3:2:0:0:
193,37,50150,1,0,0:0:0:0:
210,33,50234,1,0,0:0:0:0:
228,29,50317,1,0,0:0:0:0:
246,26,50400,1,0,0:0:0:0:
319,130,50649,6,0,L|289:123,1,18,2|0,3:2|0:0,0:0:0:0:
338,44,50816,2,0,L|328:15,1,18,2|0,0:0|0:0,0:0:0:0:
421,17,50982,2,0,L|441:-5,1,18,2|0,0:0|0:0,0:0:0:0:
485,75,51150,5,0,3:2:0:0:
384,190,51316,1,0,3:2:0:0:
483,214,51483,5,0,0:0:0:0:
478,197,51566,1,0,0:0:0:0:
473,180,51650,1,0,0:0:0:0:
468,163,51733,1,2,0:3:0:0:
326,298,51983,2,0,L|415:280,1,90,2|0,0:0|0:0,0:0:0:0:
510,384,52316,2,0,L|472:376,1,31.4999990386963,8|0,0:0|0:0,0:0:0:0:
402,358,52483,5,0,3:2:0:0:
483,214,52650,1,0,3:2:0:0:
326,298,52816,1,0,0:0:0:0:
348,293,52899,1,0,0:0:0:0:
370,289,52982,1,0,0:0:0:0:
392,284,53066,1,0,0:0:0:0:
275,384,53316,2,0,L|237:376,1,31.4999990386963,0|0,3:2|0:0,0:0:0:0:
106,355,53483,1,0,3:2:0:0:
106,355,53566,1,0,0:0:0:0:
197,235,53733,5,0,0:0:0:0:
197,235,53816,2,0,B|196:195|159:188|159:188|189:203|187:237,1,107.999996704102,6|0,3:2|3:2,0:0:0:0:
111,260,54150,1,0,0:0:0:0:
43,106,54316,1,2,0:0:0:0:
43,106,54400,1,2,0:0:0:0:
12,204,54566,1,2,0:3:0:0:
12,204,54650,2,0,L|95:185,1,67.5,2|0,0:3|0:0,0:0:0:0:
93,177,54983,2,0,L|63:183,1,22.5,8|0,0:0|0:0,0:0:0:0:
215,65,55150,5,0,3:2:0:0:
34,21,55316,1,0,3:2:0:0:
210,87,55483,1,0,0:0:0:0:
206,109,55566,1,0,0:0:0:0:
201,131,55650,1,0,0:0:0:0:
197,153,55733,1,0,0:0:0:0:
356,64,55983,2,0,L|351:40,1,22.5,2|0,3:1|0:0,0:0:0:0:
364,27,56150,2,0,L|373:72,1,45,8|0,0:0|0:0,0:0:0:0:
403,199,56316,1,2,0:0:0:0:
322,143,56483,5,0,3:2:0:0:
460,114,56650,1,0,3:2:0:0:
493,244,56816,1,0,0:0:0:0:
489,266,56899,1,0,0:0:0:0:
484,288,56983,1,0,0:0:0:0:
480,310,57066,1,2,0:3:0:0:
355,276,57650,6,0,L|362:312,1,31.4999990386963,8|0,0:0|0:0,0:0:0:0:
313,384,57816,5,0,3:2:0:0:
403,199,57983,1,0,3:2:0:0:
267,293,58150,1,0,0:0:0:0:
289,289,58233,1,0,0:0:0:0:
311,284,58317,1,0,0:0:0:0:
333,280,58400,1,0,0:0:0:0:
355,276,58483,2,0,P|340:286|330:305,1,31.4999990386963,2|0,0:1|0:0,0:0:0:0:
233,377,58650,5,0,3:2:0:0:
214,384,58733,1,0,1:1:0:0:
189,384,58816,1,8,3:2:0:0:
161,367,58900,1,8,0:0:0:0:
139,334,58983,1,8,0:0:0:0:
98,317,59066,1,8,0:0:0:0:
53,332,59150,6,0,B|10:290|30:246|30:246|68:227|76:184,1,161.999995056153,4|0,3:2|0:0,0:0:0:0:
50,125,59483,1,2,3:2:0:0:
153,255,59650,1,2,0:0:0:0:
259,101,59816,6,0,B|206:112|206:112|184:132|184:132|123:145,1,135,2|0,3:2|0:0,0:0:0:0:
134,142,60150,2,0,P|165:149|187:183,1,45,10|0,3:2|0:0,0:0:0:0:
267,293,60316,2,0,P|310:287|344:244,1,90,2|0,0:0|3:2,0:0:0:0:
492,132,60650,1,2,0:0:0:0:
427,315,60816,1,2,3:2:0:0:
353,165,60983,1,2,0:0:0:0:
512,243,61150,2,0,P|471:225|428:214,2,90,2|2|10,3:2|0:0|3:2,0:0:0:0:
492,132,61650,1,2,0:0:0:0:
427,315,61816,6,0,P|338:289|242:275,2,180,2|0|0,3:2|3:2|3:2,0:0:0:0:
353,165,62650,1,0,0:0:0:0:
191,343,62816,1,10,3:2:0:0:
435,322,62983,5,0,0:0:0:0:
435,322,63066,1,2,0:3:0:0:
435,322,63150,1,2,3:2:0:0:
336,282,63316,1,2,0:0:0:0:
290,352,63483,1,2,3:2:0:0:
184,238,63650,1,2,0:0:0:0:
55,384,63816,2,0,L|106:375,1,45,2|0,3:3|0:0,0:0:0:0:
124,293,63983,5,2,0:3:0:0:
124,293,64066,1,2,0:3:0:0:
124,293,64150,2,0,L|73:302,1,45,2|0,3:3|0:0,0:0:0:0:
0,184,64483,5,6,3:2:0:0:
225,151,64650,1,0,3:2:0:0:
69,37,64816,2,0,B|50:7|13:14|13:14|38:27|38:60,1,90,8|0,0:0|0:0,0:0:0:0:
110,207,65150,1,2,3:3:0:0:
110,207,65233,1,2,0:3:0:0:
110,207,65316,2,0,L|116:169,1,36,2|0,3:3|0:0,0:0:0:0:
145,0,65483,1,8,0:0:0:0:
305,109,65650,5,2,0:0:0:0:
305,109,65733,1,2,0:0:0:0:
305,109,65816,1,0,3:2:0:0:
63,115,65983,1,0,3:2:0:0:
221,36,66150,2,0,L|201:129,1,90,8|0,0:0|0:0,0:0:0:0:
157,306,66483,2,0,L|199:297,1,36,2|0,3:2|0:0,0:0:0:0:
110,207,66650,2,0,L|67:198,1,36,0|0,3:2|0:0,0:0:0:0:
138,384,66816,2,0,L|280:353,1,135,10|0,3:2|0:0,0:0:0:0:
346,337,67150,5,12,3:2:0:0:
187,215,67316,1,0,3:2:0:0:
309,56,67483,1,8,0:3:0:0:
468,178,67650,1,2,3:3:0:0:
468,178,68150,5,8,3:2:0:0:
309,56,68317,1,0,3:2:0:0:
187,215,68484,1,8,0:3:0:0:
346,337,68650,1,2,3:3:0:0:
346,337,68983,5,8,0:0:0:0:
468,178,69150,5,8,0:3:0:0:
403,134,69261,1,8,0:3:0:0:
329,155,69372,1,8,0:3:0:0:
306,221,69483,5,8,0:3:0:0:
242,244,69594,1,8,0:3:0:0:
187,215,69705,1,8,0:3:0:0:
250,168,69816,5,4,3:2:0:0:
250,168,70150,6,0,L|258:129,2,36,2|2|2,0:3|0:3|0:3,0:0:0:0:
156,92,70983,5,0,0:0:0:0:
156,92,71150,2,0,L|161:116,1,18,2|0,0:0|0:0,0:0:0:0:
176,126,71483,2,0,L|164:70,1,54,2|0,0:3|0:0,0:0:0:0:
164,73,71816,2,0,B|167:85|188:98|188:98|71:76|71:76|98:88|103:109,1,188.999994232178,2|0,0:2|0:0,0:0:0:0:
81,176,72483,5,12,3:2:0:0:
215,0,72650,1,2,3:2:0:0:
256,276,72816,1,2,0:0:0:0:
46,361,72983,2,0,B|16:220|16:220|35:246|61:249,1,180,2|0,3:2|3:2,0:0:0:0:
292,350,73483,1,10,0:0:0:0:
488,233,73650,1,0,3:2:0:0:
312,158,73816,5,2,0:0:0:0:
360,381,73983,1,0,3:2:0:0:
256,276,74150,1,2,0:0:0:0:
140,315,74316,1,8,0:0:0:0:
140,315,74400,1,0,1:0:0:0:
140,315,74483,1,0,3:2:0:0:
360,381,74650,1,0,3:2:0:0:
218,384,74816,2,0,L|211:353,1,31.4999990386963,8|0,0:0|0:0,0:0:0:0:
182,218,74983,2,0,L|175:187,1,31.4999990386963,8|0,0:3|0:0,0:0:0:0:
92,65,75150,6,0,B|78:51|72:33|72:33|19:39|-6:93|17:154|61:188|155:154|150:150|151:97|140:43|199:7|258:45|273:105|233:118|200:118|199:116,1,440.999986541748,4|0,3:2|0:0,0:0:0:0:
144,7,76483,2,0,L|121:213,1,188.999994232178,2|0,0:0|0:0,0:0:0:0:
179,375,77150,2,0,B|181:317|231:299|231:299|231:296|231:296|308:297|316:235|316:235|299:257|272:260,1,252,2|0,3:2|0:0,0:0:0:0:
256,192,77816,6,0,L|223:198,1,31.4999990386963,2|0,0:3|0:0,0:0:0:0:
29,369,79483,6,0,L|24:332,2,36,2|2|2,0:0|0:0|0:0,0:0:0:0:
244,348,80483,6,0,P|318:337|378:263,1,161.999995056153,4|0,3:2|0:0,0:0:0:0:
461,269,80816,2,0,P|449:195|376:135,1,161.999995056153,4|0,3:2|0:0,0:0:0:0:
369,354,81150,2,0,P|413:293|403:199,1,161.999995056153,4|0,3:2|0:0,0:0:0:0:
465,143,81483,2,0,P|404:98|310:108,1,161.999995056153,4|0,3:2|0:0,0:0:0:0:
251,47,81816,2,0,P|206:107|216:201,1,161.999995056153,4|0,3:2|0:0,0:0:0:0:
378,51,82150,2,0,P|304:62|244:136,1,161.999995056153,4|0,3:2|0:0,0:0:0:0:
185,268,82483,2,0,B|138:260|136:209|136:209|147:251|184:256,1,135,4|0,3:2|0:0,0:0:0:0:
210,190,82816,2,0,L|259:200,1,45,10|0,3:2|0:0,0:0:0:0:
483,245,82983,1,2,0:0:0:0:
340,384,83150,6,0,B|403:360|388:292|388:292|376:334|351:343,1,175.499991966248,4|0,3:2|3:2,0:0:0:0:
314,282,83483,2,0,L|264:292,1,45,8|0,0:0|0:0,0:0:0:0:
68,329,83650,2,0,B|0:298|21:230|21:230|20:226|20:226|82:187|62:122,1,233.999989288331,2|0,3:2|3:2,0:0:0:0:
1,4,84150,2,0,L|51:14,1,45,10|0,0:0|0:0,0:0:0:0:
183,119,84316,6,0,P|250:97|262:0,1,175.499991966248,0|0,3:2|0:0,0:0:0:0:
166,7,84650,2,0,P|179:28|208:46,1,45,2|0,3:2|0:0,0:0:0:0:
300,158,84816,2,0,P|324:157|354:141,1,45,10|0,0:0|0:0,0:0:0:0:
497,117,84983,1,0,3:2:0:0:
345,11,85150,1,2,0:0:0:0:
492,139,85317,1,0,3:2:0:0:
487,160,85400,1,0,1:0:0:0:
482,182,85483,1,8,0:0:0:0:
477,204,85566,1,8,0:0:0:0:
472,226,85650,2,0,P|440:225|422:213,1,45,8|8,0:0|0:0,0:0:0:0:
300,158,85816,5,2,3:2:0:0:
336,380,85983,1,2,0:0:0:0:
472,226,86150,1,2,3:2:0:0:
445,339,86316,1,2,0:0:0:0:
179,377,86483,5,2,3:2:0:0:
362,263,86650,1,2,0:0:0:0:
143,173,86816,1,2,3:2:0:0:
162,276,86983,1,2,0:0:0:0:
300,158,87150,5,2,3:2:0:0:
49,251,87316,1,2,0:0:0:0:
281,357,87483,1,2,3:2:0:0:
262,254,87650,1,2,0:0:0:0:
53,382,87816,5,2,3:2:0:0:
15,358,87899,1,0,1:0:0:0:
0,317,87982,1,8,0:3:0:0:
13,275,88065,1,8,0:3:0:0:
50,251,88149,1,8,3:3:0:0:
87,225,88234,1,8,0:3:0:0:
101,183,88317,1,0,1:0:0:0:
85,142,88400,1,0,1:0:0:0:
48,120,88483,5,4,3:2:0:0:
294,23,88650,1,0,3:2:0:0:
294,23,88733,1,0,3:2:0:0:
294,23,88816,1,10,0:2:0:0:
85,0,88983,1,0,3:2:0:0:
356,153,89150,2,0,L|341:85,1,62.9999980773926,2|0,3:2|3:2,0:0:0:0:
48,120,89483,2,0,P|72:118|101:95,1,45,14|0,0:0|0:0,0:0:0:0:
287,16,89650,6,0,B|359:-31|417:33|417:33|439:89|503:78,1,233.999989288331,2|0,0:0|3:2,0:0:0:0:
356,153,90150,2,0,L|341:85,1,62.9999980773926,8|0,3:2|3:2,0:0:0:0:
262,252,90483,2,0,L|297:244,1,31.4999990386963,2|0,0:0|0:0,0:0:0:0:
452,209,90650,2,0,L|487:201,1,31.4999990386963,0|0,3:2|0:0,0:0:0:0:
470,373,90816,5,8,0:0:0:0:
432,380,90899,1,8,0:0:0:0:
399,360,90982,1,8,0:0:0:0:
387,324,91065,1,8,0:0:0:0:
403,289,91150,2,0,L|351:300,1,45,6|0,3:2|0:0,0:0:0:0:
204,380,91316,5,8,0:0:0:0:
167,372,91399,1,8,0:0:0:0:
130,364,91482,1,8,0:0:0:0:
94,356,91565,1,8,0:0:0:0:
58,348,91650,2,0,L|110:337,1,45,6|0,3:2|0:0,0:0:0:0:
262,252,91816,5,8,0:0:0:0:
255,208,91899,1,8,0:0:0:0:
222,179,91982,1,8,0:0:0:0:
178,178,92065,1,8,0:0:0:0:
143,206,92150,2,0,L|152:159,1,45,6|0,3:2|0:0,0:0:0:0:
89,22,92316,5,8,0:0:0:0:
89,22,92400,1,8,0:0:0:0:
89,22,92483,2,0,L|80:68,1,45,4|0,3:2|0:0,0:0:0:0:
17,220,92650,5,8,0:0:0:0:
43,256,92733,1,8,0:0:0:0:
85,266,92816,1,8,0:0:0:0:
125,247,92899,1,8,0:0:0:0:
143,206,92983,2,0,L|152:159,1,45,6|0,3:2|0:0,0:0:0:0:
247,25,93150,5,8,0:0:0:0:
316,14,93233,1,8,0:0:0:0:
362,34,93316,1,8,0:0:0:0:
389,74,93400,1,8,0:0:0:0:
395,105,93483,2,0,P|375:120|365:151,1,45,2|8,3:2|0:3,0:0:0:0:
280,285,93650,5,8,0:3:0:0:
275,270,93733,1,8,0:3:0:0:
271,256,93816,1,6,3:2:0:0:
454,170,93983,2,0,L|440:235,1,62.9999980773926,0|2,3:2|0:0,0:0:0:0:
134,258,94316,6,0,B|150:178|236:182|236:182|200:202|197:233,1,202.500007724762,2|0,3:2|0:0,0:0:0:0:
184,384,94650,2,0,B|102:393|80:310|80:310|110:338|140:331,1,202.500007724762,2|0,3:2|0:0,0:0:0:0:
280,285,94983,6,0,L|231:55,1,216,14|0,3:2|0:0,0:0:0:0:
328,14,95316,2,0,L|316:69,1,45,0|0,3:2|0:0,0:0:0:0:
130,77,95483,2,0,B|130:26|182:18|182:18|156:42|162:78,1,135.000005149842,8|0,0:0|0:0,0:0:0:0:
134,258,95816,5,8,0:3:0:0:
75,200,95928,1,8,0:3:0:0:
2,236,96039,1,8,0:3:0:0:
67,343,96150,5,0,3:2:0:0:
123,321,96261,1,0,3:2:0:0:
134,258,96372,1,0,3:2:0:0:
2,236,96483,6,0,L|11:281,1,45,2|0,3:3|0:0,0:0:0:0:
33,292,96650,2,0,L|23:246,1,45,2|0,0:3|0:0,0:0:0:0:
30,58,96816,2,0,P|90:53|138:86,1,107.999996704102,2|2,3:2|0:3,0:0:0:0:
218,227,97150,1,2,3:2:0:0:
283,120,97316,2,0,L|237:129,1,31.4999990386963,2|0,0:3|0:0,0:0:0:0:
141,153,97483,1,2,3:2:0:0:
286,31,97650,2,0,L|331:40,1,31.4999990386963,2|0,0:3|0:0,0:0:0:0:
437,76,97816,6,0,P|400:118|381:176,1,107.999996704102,0|0,3:2|0:0,0:0:0:0:
386,214,98066,1,2,0:3:0:0:
386,214,98150,1,2,3:3:0:0:
201,56,98316,1,2,0:0:0:0:
184,264,98483,5,0,3:2:0:0:
194,242,98566,1,0,1:0:0:0:
218,227,98650,1,0,1:0:0:0:
253,223,98733,1,0,1:0:0:0:
296,243,98816,1,0,3:2:0:0:
327,288,98900,1,8,0:3:0:0:
380,312,98983,1,8,0:3:0:0:
436,300,99066,1,8,0:3:0:0:
467,253,99150,2,0,P|439:250|414:267,1,53.9999983520508,6|0,3:2|0:0,0:0:0:0:
245,354,99316,5,8,0:0:0:0:
236,311,99399,1,8,0:0:0:0:
227,269,99482,1,8,0:0:0:0:
218,227,99565,1,8,0:0:0:0:
209,184,99650,2,0,L|272:197,1,53.9999983520508,6|0,3:2|0:0,0:0:0:0:
455,178,99816,5,8,0:0:0:0:
464,135,99899,1,8,0:0:0:0:
473,93,99982,1,8,0:0:0:0:
482,51,100065,1,8,0:0:0:0:
491,8,100150,2,0,L|428:21,1,53.9999983520508,6|0,3:2|0:0,0:0:0:0:
316,107,100316,5,8,0:0:0:0:
316,107,100400,1,8,0:0:0:0:
316,107,100483,2,0,L|253:94,1,53.9999983520508,2|0,3:2|0:0,0:0:0:0:
146,19,100650,2,0,L|83:32,1,53.9999983520508,6|0,3:2|0:0,0:0:0:0:
6,204,100816,5,8,0:0:0:0:
44,212,100899,1,8,0:0:0:0:
79,193,100982,1,8,0:0:0:0:
95,157,101065,1,8,0:0:0:0:
83,119,101150,5,10,3:2:0:0:
71,164,101233,1,8,0:0:0:0:
77,211,101316,1,8,0:0:0:0:
99,252,101399,1,8,0:0:0:0:
133,283,101483,1,8,0:3:0:0:
171,300,101566,1,8,0:3:0:0:
207,299,101649,1,8,0:3:0:0:
229,291,101733,1,8,0:3:0:0:
240,285,101816,6,0,L|226:223,1,63,2|0,3:2|0:0,0:0:0:0:
266,89,103150,5,6,3:2:0:0:
434,159,103316,1,0,3:2:0:0:
368,60,103483,1,0,0:0:0:0:
365,76,103566,1,0,0:0:0:0:
362,91,103649,1,0,0:0:0:0:
359,107,103732,1,0,0:0:0:0:
355,122,103816,1,2,0:0:0:0:
446,30,103983,2,0,B|443:2|411:-6|411:-6|438:5|440:36,1,94.499997116089,2|0,0:0|0:0,0:0:0:0:
481,99,104316,2,0,P|492:93|511:77,1,31.4999990386963,2|0,3:2|0:0,0:0:0:0:
368,60,104483,5,0,3:2:0:0:
289,177,104650,1,0,3:2:0:0:
447,221,104816,1,0,0:0:0:0:
444,205,104899,1,0,0:0:0:0:
441,190,104982,1,0,0:0:0:0:
438,174,105065,1,0,0:0:0:0:
434,159,105149,1,2,0:0:0:0:
438,304,105316,2,0,B|402:302|385:271|385:271|404:297|441:298,1,125.999996154785,2|2,0:0|0:0,0:0:0:0:
289,177,105816,5,0,3:2:0:0:
342,364,105983,1,0,3:2:0:0:
207,326,106150,1,0,0:0:0:0:
223,323,106233,1,0,0:0:0:0:
238,320,106316,1,0,0:0:0:0:
255,336,106399,1,2,0:3:0:0:
269,313,106483,1,2,0:0:0:0:
178,247,106650,2,0,B|143:255|133:289|133:289|146:260|182:251,1,125.999996154785,2|2,0:0|0:0,0:0:0:0:
132,371,107150,5,0,3:2:0:0:
75,225,107316,1,0,3:2:0:0:
6,368,107483,1,2,0:0:0:0:
26,366,107566,1,2,0:0:0:0:
45,357,107649,1,2,0:0:0:0:
60,341,107733,1,2,0:0:0:0:
65,322,107816,2,0,L|53:302,2,18,2|2|0,0:0|0:3|3:2,0:0:0:0:
79,228,108150,1,0,0:0:0:0:
79,228,108233,1,0,0:0:0:0:
194,117,108400,5,0,0:0:0:0:
194,117,108483,1,4,3:2:0:0:
13,15,108650,1,0,3:2:0:0:
139,50,108816,1,0,0:0:0:0:
123,53,108899,1,0,0:0:0:0:
108,56,108982,1,0,0:0:0:0:
92,59,109065,1,0,0:0:0:0:
77,63,109149,1,2,0:0:0:0:
30,188,109316,2,0,B|62:195|78:226|78:226|68:193|88:167,1,125.999996154785,2|2,0:0|0:0,0:0:0:0:
217,33,109816,5,0,3:2:0:0:
154,205,109983,1,0,3:2:0:0:
256,130,110150,1,0,0:0:0:0:
240,127,110233,1,0,0:0:0:0:
225,124,110316,1,0,0:0:0:0:
209,121,110399,1,0,0:0:0:0:
194,117,110483,1,2,0:0:0:0:
316,66,110650,2,0,L|340:60,2,18,2|2|0,0:3|0:3|0:0,0:0:0:0:
344,162,110983,1,2,0:0:0:0:
512,113,111150,5,0,3:2:0:0:
377,0,111316,1,0,3:2:0:0:
428,134,111483,1,0,0:0:0:0:
425,118,111566,1,0,0:0:0:0:
422,103,111649,1,0,0:0:0:0:
406,87,111732,1,2,0:3:0:0:
415,72,111816,1,2,0:0:0:0:
512,15,111983,2,0,L|508:32,2,18,2|2|0,0:3|0:3|0:0,0:0:0:0:
428,134,112316,2,0,L|435:168,1,26.9999991760254,10|0,0:0|0:0,0:0:0:0:
462,296,112483,5,0,3:2:0:0:
282,242,112650,1,0,3:2:0:0:
340,358,112816,1,0,0:0:0:0:
344,343,112900,1,0,0:0:0:0:
347,327,112983,1,0,0:0:0:0:
350,312,113066,1,0,0:0:0:0:
350,312,113316,6,0,L|317:318,1,26.9999991760254,2|0,3:3|0:0,0:0:0:0:
167,374,113483,1,8,0:0:0:0:
122,357,113566,1,8,0:0:0:0:
108,321,113650,1,0,3:2:0:0:
117,290,113733,1,0,3:2:0:0:
131,276,113816,6,0,B|153:288|161:308|161:308|237:292|244:231|244:231|249:228|249:228|224:156|139:137|73:185,1,377.999988464356,0|0,3:2|0:0,0:0:0:0:
0,184,114483,2,0,B|0:238|55:251|55:251|9:233|9:184,1,161.999995056153,8|0,0:0|0:0,0:0:0:0:
40,116,114816,2,0,L|47:70,1,40.4999987640381,0|0,3:2|0:0,0:0:0:0:
65,59,115150,6,0,L|58:111,2,45,2|0|0,0:0|0:0|0:0,0:0:0:0:
0,0,115650,1,2,0:0:0:0:
145,85,115816,1,8,0:0:0:0:
209,5,115983,6,0,L|216:38,1,22.5,2|0,0:0|0:0,0:0:0:0:
234,108,116150,2,0,L|266:118,1,22.5,2|0,0:0|0:0,0:0:0:0:
335,137,116316,2,0,L|360:114,1,22.5,2|0,0:0|0:0,0:0:0:0:
480,60,116483,6,0,B|510:45|515:8|481:-22|430:-18|393:29|403:91|462:110|464:106|504:129|503:197|471:225|471:225|467:197|439:178,1,377.999988464356,0|0,3:2|0:0,0:0:0:0:
394,242,117150,2,0,B|379:231|374:207|374:207|329:209|297:252|323:290,1,161.999995056153,8|0,0:0|0:0,0:0:0:0:
413,320,117483,2,0,P|439:312|453:299,1,40.4999987640381,0|0,3:2|0:0,0:0:0:0:
461,317,117816,6,0,P|443:334|417:334,2,45,2|0|0,0:0|0:0|0:0,0:0:0:0:
450,187,118316,1,2,0:0:0:0:
323,290,118483,2,0,B|297:252|329:209|374:207|374:207|379:231|396:243,1,161.999995056153,8|0,0:0|0:0,0:0:0:0:
347,363,118816,2,0,P|317:368|283:353,1,54
238,268,119150,6,0,B|206:230|138:236|117:284|124:284|123:323|67:377|-19:347|-29:251|23:188|115:211|116:279,1,377.999988464356,0|0,3:2|0:0,0:0:0:0:
191,328,119816,2,0,L|172:153,1,161.999995056153,8|0,0:0|0:0,0:0:0:0:
196,80,120150,2,0,B|239:85|238:124|238:124|221:100|192:96,1,107.999996704102,0|0,3:2|0:0,0:0:0:0:
31,56,120483,6,0,L|40:11,2,36,2|0|0,0:0|0:0|0:0,0:0:0:0:
116,96,120983,1,2,0:0:0:0:
0,220,121150,1,8,0:0:0:0:
46,143,121316,2,0,L|51:169,1,18,2|0,0:1|0:0,0:0:0:0:
134,384,121650,5,0,0:0:0:0:
134,384,121816,2,0,L|94:375,2,36,2|0|0,3:2|0:0|0:0,0:0:0:0:
157,308,122316,1,2,0:0:0:0:
1,290,122483,2,0,B|68:304|68:304|88:293|88:293|157:308,1,161.999995056153,8|0,0:0|0:0,0:0:0:0:
212,367,122816,2,0,L|251:358,1,40.4999987640381,0|0,3:2|0:0,0:0:0:0:
300,299,123150,6,0,B|323:314|327:345|327:345|306:258|317:161|463:159|501:293|393:350|350:278|357:285,1,377.999988464356,2|0,0:0|0:0,0:0:0:0:
357,285,123816,2,0,L|357:269,1,13.4999995880127,10|0,0:0|0:0,0:0:0:0:
452,48,124150,5,2,0:3:0:0:
443,61,124233,1,2,0:3:0:0:
457,56,124316,1,2,0:3:0:0:
443,51,124400,1,2,0:3:0:0:
452,64,124483,6,0,P|399:60|355:39,1,90,6|0,3:2|3:2,0:0:0:0:
261,156,124816,2,0,P|302:139|347:137,1,90,10|0,0:0|0:0,0:0:0:0:
282,16,125150,1,2,3:2:0:0:
172,167,125316,1,0,3:2:0:0:
41,78,125483,2,0,P|66:78|93:69,1,45,10|0,0:0|0:0,0:0:0:0:
205,16,125650,6,0,P|169:53|157:109,1,90,2|0,0:0|3:2,0:0:0:0:
53,2,125983,1,0,3:2:0:0:
105,226,126150,2,0,P|89:184|57:153,1,90,10|0,0:0|0:0,0:0:0:0:
18,356,126483,1,2,3:2:0:0:
193,245,126650,1,0,3:2:0:0:
112,330,126816,2,0,B|104:301|70:298|70:298|91:313|90:337,1,90,10|0,0:0|0:0,0:0:0:0:
193,367,127066,5,2,0:3:0:0:
193,367,127150,2,0,B|228:389|271:369|271:369|293:339|327:333,1,135,2|0,3:2|0:0,0:0:0:0:
399,365,127483,2,0,L|380:271,1,90,8|0,0:0|0:0,0:0:0:0:
501,135,127816,2,0,L|482:229,1,90,2|0,3:2|3:2,0:0:0:0:
312,336,128150,1,8,0:0:0:0:
467,302,128316,1,2,0:0:0:0:
357,158,128483,6,0,B|329:136|279:142|263:177|263:177|283:192|288:216,1,135,0|0,3:2|0:0,0:0:0:0:
218,242,128816,2,0,L|235:326,1,72,8|0,0:0|0:0,0:0:0:0:
6,373,129150,1,2,3:2:0:0:
127,174,129316,1,0,3:2:0:0:
155,373,129483,1,8,0:0:0:0:
34,267,129650,5,2,0:0:0:0:
34,267,129733,1,2,0:3:0:0:
34,267,129816,1,4,3:2:0:0:
232,312,129983,2,0,L|200:163,1,135,0|0,3:2|0:0,0:0:0:0:
222,104,130316,2,0,B|261:101|282:75|282:75|262:102|272:147,1,135,8|0,0:0|0:0,0:0:0:0:
145,126,130650,1,8,0:0:0:0:
174,9,130816,2,0,P|204:15|228:42,1,45,0|0,3:2|0:0,0:0:0:0:
354,124,130983,6,0,B|398:144|440:110|445:82|445:82|427:69|418:54,1,135,0|0,3:2|0:0,0:0:0:0:
346,3,131316,2,0,L|356:52,1,45,8|0,0:0|0:0,0:0:0:0:
392,214,131483,1,0,3:2:0:0:
512,125,131650,2,0,L|501:174,1,45,8|0,0:0|0:0,0:0:0:0:
466,336,131817,1,2,3:2:0:0:
354,124,131983,1,0,3:2:0:0:
259,308,132150,6,0,L|301:299,1,36,10|0,0:0|0:0,0:0:0:0:
34,190,132483,5,10,0:0:0:0:
205,384,132650,1,0,3:2:0:0:
273,203,132816,1,8,3:2:0:0:
18,283,132983,1,2,3:2:0:0:
18,283,133483,5,10,0:0:0:0:
273,203,133650,1,0,3:2:0:0:
205,384,133816,1,8,3:2:0:0:
34,190,133983,1,2,3:2:0:0:
34,190,134316,6,0,L|39:165,1,18,8|0,0:0|0:0,0:0:0:0:
70,0,134483,1,0,3:2:0:0:
211,161,134650,1,8,0:3:0:0:
284,85,134816,1,8,0:3:0:0:
460,156,134983,1,0,1:0:0:0:
469,136,135150,5,10,0:0:0:0:
386,369,135316,1,2,3:2:0:0:
484,147,135483,1,2,0:3:0:0:
401,380,135649,1,2,0:3:0:0:
180,82,136150,5,10,0:0:0:0:
263,315,136316,1,2,3:2:0:0:
165,93,136483,1,2,0:3:0:0:
248,326,136649,1,2,0:3:0:0:
456,223,137816,5,10,0:0:0:0:
205,152,137983,1,2,3:2:0:0:
423,146,138150,1,2,0:3:0:0:
216,359,138316,1,2,0:3:0:0:
373,213,138816,5,10,0:0:0:0:
122,284,138983,1,2,3:2:0:0:
340,290,139150,1,2,0:3:0:0:
133,77,139316,1,2,0:3:0:0:
137,81,139733,5,2,0:3:0:0:
137,81,139816,1,2,0:3:0:0:
228,103,139983,2,0,L|223:81,1,18,2|2,0:3|0:3,0:0:0:0:
233,60,140150,2,0,L|247:125,1,54,2|0,0:3|0:0,0:0:0:0:
276,191,140483,6,0,P|307:158|361:150,1,90,6|0,3:2|0:0,0:0:0:0:
483,213,140816,1,2,3:3:0:0:
447,54,140983,2,0,L|441:27,2,26.9999991760254,2|2|2,0:0|0:3|3:3,0:0:0:0:
357,155,141316,1,2,0:3:0:0:
357,155,141400,1,2,0:3:0:0:
357,155,141483,2,0,L|349:118,1,26.9999991760254,2|0,3:2|0:0,0:0:0:0:
341,25,141650,5,2,0:3:0:0:
341,25,141733,1,2,0:3:0:0:
341,25,141816,1,2,3:3:0:0:
233,108,141983,2,0,P|202:88|136:86,1,90,2|0,0:0|3:2,0:0:0:0:
150,82,142233,1,2,0:3:0:0:
150,82,142316,1,2,0:3:0:0:
12,12,142483,2,0,L|30:100,1,90,2|2,3:2|0:3,0:0:0:0:
77,275,142733,1,2,0:3:0:0:
77,275,142816,2,0,L|95:186,1,90,2|2,3:2|0:3,0:0:0:0:
107,198,143066,1,2,1:3:0:0:
119,208,143150,5,4,3:2:0:0:
28,344,143316,1,8,0:3:0:0:
21,352,143400,1,8,0:3:0:0:
15,359,143483,2,0,L|7:321,1,31.4999990386963,0|0,3:2|0:0,0:0:0:0:
128,369,143650,1,8,0:3:0:0:
121,377,143734,1,8,0:3:0:0:
115,384,143817,2,0,L|107:346,1,31.4999990386963,0|0,3:2|0:0,0:0:0:0:
204,324,143983,2,0,L|234:294,1,40.4999987640381,8|8,3:3|3:3,0:0:0:0:
301,185,144150,2,0,L|341:196,1,40.4999987640381,12|0,3:2|0:0,0:0:0:0:
487,310,144316,5,0,1:0:0:0:
487,310,144400,1,0,1:0:0:0:
487,310,144483,2,0,L|477:349,1,40.4999987640381,12|0,0:0|0:0,0:0:0:0:
461,320,144650,2,0,L|451:359,1,40.4999987640381,10|0,3:2|0:0,0:0:0:0:
349,298,144816,2,0,L|359:337,1,40.4999987640381,10|0,3:2|0:0,0:0:0:0:
367,269,144983,2,0,L|377:308,1,40.4999987640381,10|0,3:2|0:0,0:0:0:0:
488,163,145150,2,0,L|478:202,1,40.4999987640381,10|0,3:2|0:0,0:0:0:0:
348,64,145316,2,0,L|358:103,1,40.4999987640381,10|0,3:2|0:0,0:0:0:0:
502,18,145483,5,8,3:2:0:0:
481,63,145566,1,8,0:0:0:0:
439,90,145649,1,8,0:0:0:0:
389,90,145733,1,8,0:0:0:0:
348,64,145816,6,0,L|358:103,1,40.4999987640381,6|0,3:2|0:0,0:0:0:0:
245,197,145983,1,2,0:0:0:0:
245,197,146066,1,2,3:2:0:0:
245,197,146150,2,0,L|255:158,1,40.4999987640381,10|0,0:0|0:0,0:0:0:0:
297,0,146316,1,0,3:2:0:0:
106,51,146483,2,0,B|117:29|117:29|211:9,1,107.999996704102,2|0,0:0|3:2,0:0:0:0:
246,80,146733,1,2,0:0:0:0:
246,80,146816,2,0,L|185:94,1,53.9999983520508,8|0,0:0|0:0,0:0:0:0:
0,132,146983,1,2,0:0:0:0:
164,240,147150,5,2,3:2:0:0:
87,132,147316,1,0,0:0:0:0:
87,132,147399,1,2,0:0:0:0:
87,132,147483,2,0,L|97:171,1,40.4999987640381,10|0,0:0|0:0,0:0:0:0:
150,364,147650,1,0,3:2:0:0:
0,310,147816,2,0,P|28:274|91:284,1,107.999996704102,2|0,0:0|3:2,0:0:0:0:
273,377,148150,1,8,0:0:0:0:
325,384,148233,1,8,0:0:0:0:
370,355,148316,1,8,0:0:0:0:
385,305,148400,1,8,0:0:0:0:
364,256,148483,6,0,B|300:269|300:269|295:273|295:273|220:289,1,135.000005149842,6|0,3:2|0:0,0:0:0:0:
204,198,148733,1,2,3:2:0:0:
204,198,148816,2,0,L|249:207,1,40.4999987640381,8|0,0:0|0:0,0:0:0:0:
459,261,148983,1,2,3:2:0:0:
322,145,149150,1,2,0:0:0:0:
343,96,149233,1,2,0:0:0:0:
389,83,149316,1,2,3:2:0:0:
424,98,149400,1,2,0:0:0:0:
453,93,149483,1,10,0:0:0:0:
472,76,149566,1,2,0:0:0:0:
475,55,149650,1,2,0:0:0:0:
465,41,149733,1,2,0:0:0:0:
454,35,149816,6,0,L|419:198,1,135.000005149842,2|0,3:1|0:0,0:0:0:0:
436,158,150066,1,0,3:2:0:0:
446,151,150150,1,8,0:0:0:0:
325,22,150316,2,0,B|291:29|291:29|291:32|291:32|256:39,1,67.5000025749208,2|0,3:2|0:0,0:0:0:0:
52,96,150483,1,8,0:0:0:0:
36,45,150566,1,8,0:0:0:0:
66,3,150649,1,8,0:0:0:0:
118,0,150733,1,8,0:0:0:0:
152,40,150817,5,6,3:2:0:0:
147,62,150900,1,2,0:0:0:0:
142,84,150983,1,2,0:0:0:0:
137,106,151067,1,2,3:2:0:0:
105,154,151150,1,10,0:0:0:0:
113,193,151233,1,0,0:0:0:0:
121,233,151316,1,2,3:2:0:0:
129,272,151400,1,2,0:0:0:0:
137,311,151483,5,2,0:0:0:0:
119,295,151566,1,2,0:0:0:0:
93,291,151650,1,2,3:2:0:0:
71,297,151733,1,2,0:0:0:0:
54,313,151817,2,0,B|101:266|153:318|153:318|170:376|218:376,1,202.500007724762,14|0,0:0|0:0,0:0:0:0:
238,303,152150,2,0,B|236:280|217:272|217:272|229:284|229:307,1,67.5000025749208,2|0,3:2|0:0,0:0:0:0:
318,374,152316,5,2,0:0:0:0:
357,384,152400,1,2,3:2:0:0:
394,370,152483,1,10,0:0:0:0:
413,339,152566,1,2,0:0:0:0:
429,311,152650,1,2,3:2:0:0:
454,300,152733,1,2,0:0:0:0:
474,305,152816,2,0,L|418:293,1,45,2|0,0:0|0:0,0:0:0:0:
291,222,152983,2,0,L|346:210,1,45,2|0,3:2|0:0,0:0:0:0:
512,61,153150,5,8,0:0:0:0:
467,51,153233,1,8,0:0:0:0:
423,42,153316,1,8,0:0:0:0:
379,32,153400,1,8,0:0:0:0:
335,23,153483,6,0,B|298:69|335:133|335:133|333:136|333:136|385:132|407:191,1,202.500007724762,4|0,3:2|3:2,0:0:0:0:
291,222,153816,2,0,L|346:210,1,45,8|0,0:0|0:0,0:0:0:0:
474,305,153983,2,0,B|379:324|379:324|373:335|373:335|270:357,1,202.500007724762,6|0,3:2|0:0,0:0:0:0:
197,384,154316,2,0,L|151:374,1,45,8|0,0:0|0:0,0:0:0:0:
11,347,154483,2,0,B|45:354|60:386|60:386|53:351|77:318,1,135.000005149842,8|0,0:0|0:0,0:0:0:0:
215,154,154817,5,0,3:2:0:0:
217,162,154900,1,0,1:0:0:0:
219,171,154983,1,0,1:0:0:0:
221,180,155067,1,0,1:0:0:0:
223,188,155150,1,0,3:2:0:0:
225,197,155233,1,0,1:0:0:0:
227,206,155317,1,0,1:0:0:0:
230,215,155400,1,0,1:0:0:0:
232,223,155483,5,0,3:2:0:0:
239,202,155566,1,0,1:0:0:0:
255,172,155650,1,0,1:0:0:0:
288,153,155733,1,0,1:0:0:0:
336,138,155816,1,0,3:2:0:0:
359,83,155900,1,0,1:0:0:0:
335,23,155983,1,0,1:0:0:0:
261,0,156066,1,0,1:0:0:0:
196,40,156150,1,4,3:2:0:0:
191,46,157483,6,0,L|206:112,1,67.5,2|0,0:0|0:0,0:0:0:0:
256,192,158816,5,4,3:2:0:0:
501,88,158983,1,0,3:2:0:0:
410,330,159150,1,2,0:0:0:0:
306,112,159316,1,0,3:2:0:0:
436,211,159483,2,0,P|433:194|428:177,1,22.5,8|0,0:3|0:0,0:0:0:0:
506,174,159650,2,0,P|508:185|510:197,1,22.5,8|0,0:3|0:0,0:0:0:0:
256,192,159816,5,10,0:0:0:0:
11,88,159983,1,0,3:2:0:0:
102,330,160150,1,2,3:2:0:0:
206,112,160316,1,0,3:2:0:0:
76,211,160483,6,0,P|79:194|84:177,1,22.5,8|0,3:2|0:0,0:0:0:0:
6,174,160650,2,0,P|4:185|2:197,1,22.5,8|0,0:0|0:0,0:0:0:0:
102,330,160816,2,0,P|99:313|94:296,1,22.5,8|0,0:3|0:0,0:0:0:0:
172,293,160983,2,0,P|174:304|176:316,1,22.5,8|0,0:3|0:0,0:0:0:0:
256,192,161150,1,8,0:0:0:0:
206,112,161316,1,0,3:2:0:0:
258,365,161483,6,0,B|300:387|370:359|374:300|366:304|355:252|395:192|499:198|526:283|526:283|477:286|453:322,1,432,4|0,3:2|0:0,0:0:0:0:
410,384,162816,2,0,P|388:279|358:151,1,216,4|0,3:2|0:0,0:0:0:0:
456,58,163483,2,0,B|494:60|516:26|516:26|516:73|447:105|391:57,1,216,4|0,3:2|0:0,0:0:0:0:
254,0,164150,5,6,3:2:0:0:
289,31,164233,1,0,1:2:0:0:
301,78,164316,1,0,1:2:0:0:
281,122,164400,1,0,1:2:0:0:
241,149,164483,1,0,3:2:0:0:
191,147,164566,1,0,1:2:0:0:
154,117,164650,1,2,1:2:0:0:
117,87,164734,1,0,1:2:0:0:
67,85,164817,1,0,3:2:0:0:
27,112,164900,1,0,1:2:0:0:
7,156,164984,1,0,1:2:0:0:
19,203,165067,1,0,1:2:0:0:
54,234,165150,5,2,3:2:0:0:
96,212,165234,1,0,1:2:0:0:
145,220,165317,1,0,1:2:0:0:
179,255,165400,1,0,1:2:0:0:
189,302,165484,1,0,3:2:0:0:
168,346,165567,1,0,1:2:0:0:
127,369,165650,5,2,1:2:0:0:
144,323,165733,1,0,1:2:0:0:
189,302,165816,1,0,3:2:0:0:
240,315,165900,1,0,1:2:0:0:
293,313,165983,1,0,1:2:0:0:
334,281,166066,1,0,1:2:0:0:
367,203,166150,5,2,3:2:0:0:
420,183,166233,1,0,1:2:0:0:
475,201,166316,1,0,1:2:0:0:
507,248,166400,1,0,1:2:0:0:
504,305,166483,1,2,3:2:0:0:
466,348,166566,1,0,1:2:0:0:
410,359,166650,1,0,1:2:0:0:
359,333,166733,1,0,1:2:0:0:
334,281,166816,6,0,B|314:189|398:154|458:176|458:176|399:191|393:242,1,292.499986610413,6|0,3:2|0:0,0:0:0:0:
471,254,167316,2,0,P|360:218|186:192,1,292.499986610413,6|0,3:2|0:0,0:0:0:0:
186,192,167816,2,0,L|192:162,1,22.5,6|0,3:2|0:0,0:0:0:0:
180,290,169483,6,0,B|218:281|251:326|251:326|248:282|212:230|139:200|85:258|85:258|81:257|81:257|134:308|124:396|15:432|-49:362|-47:290|5:262|8:264,1,630,4|0,3:2|0:0,0:0:0:0:
189,367,170816,2,0,B|172:290|247:257|247:257|248:251|248:251|312:244|353:192|321:129|321:129|319:173|271:202,1,377.999988464356,4|0,3:2|0:0,0:0:0:0:
242,126,171483,2,0,L|232:81,1,40.4999987640381
243,64,171816,6,0,L|255:124,1,45,2|0,0:0|0:0,0:0:0:0:
302,317,171983,1,2,0:0:0:0:
479,144,172150,6,0,B|473:110|437:81|387:92|387:92|408:113|409:141,1,161.999995056153,4|0,3:2|3:2,0:0:0:0:
490,222,172483,2,0,B|503:227|510:241|510:241|509:224|513:213,1,53.9999983520508,10|0,0:0|0:0,0:0:0:0:
332,148,172650,2,0,B|288:187|320:242|320:242|387:260|378:336,1,215.999993408203,2|0,3:2|3:2,0:0:0:0:
77,371,173150,2,0,L|134:358,1,53.9999983520508,10|0,0:0|0:0,0:0:0:0:
302,317,173316,6,0,B|225:300|225:300|223:295|223:295|143:278,1,161.999995056153,2|0,3:2|0:0,0:0:0:0:
76,250,173650,2,0,P|89:226|110:210,1,53.9999983520508,2|0,3:2|0:0,0:0:0:0:
200,98,173816,2,0,P|227:97|251:107,1,53.9999983520508,10|0,0:0|0:0,0:0:0:0:
378,324,173983,1,0,3:2:0:0:
479,144,174150,1,2,0:0:0:0:
300,234,174316,1,0,3:2:0:0:
300,234,174400,1,0,1:0:0:0:
300,234,174483,1,8,0:0:0:0:
313,193,174566,1,8,0:0:0:0:
346,173,174649,1,8,0:0:0:0:
391,176,174733,1,8,0:0:0:0:
416,196,174816,5,2,3:2:0:0:
378,35,174983,1,2,0:0:0:0:
223,205,175150,1,2,3:2:0:0:
200,98,175316,1,2,0:0:0:0:
62,276,175483,5,2,3:2:0:0:
19,116,175650,1,2,0:0:0:0:
223,205,175816,1,2,3:2:0:0:
200,98,175982,1,2,0:0:0:0:
302,131,176150,5,2,3:2:0:0:
130,173,176316,1,2,0:0:0:0:
303,356,176483,1,2,3:2:0:0:
327,239,176649,1,2,0:0:0:0:
66,321,176816,5,8,3:3:0:0:
114,355,176900,1,8,0:3:0:0:
175,350,176983,1,0,1:0:0:0:
227,311,177066,1,0,1:0:0:0:
238,253,177150,1,8,3:3:0:0:
220,203,177233,1,8,0:3:0:0:
177,173,177316,1,0,1:0:0:0:
130,173,177400,1,0,1:0:0:0:
96,188,177483,5,6,3:2:0:0:
291,38,177650,1,2,0:2:0:0:
291,38,177733,1,0,3:2:0:0:
291,38,177816,1,10,0:0:0:0:
106,95,177983,1,0,3:2:0:0:
387,201,178150,1,2,0:0:0:0:
178,24,178316,1,0,3:2:0:0:
419,119,178483,2,0,L|357:132,1,53.9999983520508,14|0,0:0|0:0,0:0:0:0:
96,188,178650,1,2,0:0:0:0:
315,345,178816,6,0,L|305:301,1,36,0|0,3:2|0:0,0:0:0:0:
383,279,178983,2,0,L|392:322,1,36,0|0,3:2|3:2,0:0:0:0:
129,383,179150,6,2,B|109:338|151:284|204:280|204:280|259:257|316:175|262:96|262:96|262:91|262:91|162:64|129:118|129:118|164:133|176:175,1,566.999982696534,10|0,0:0|0:0,0:1:0:0:
96,188,179817,1,8,0:0:0:0:
163,173,179900,1,8,0:0:0:0:
230,159,179983,1,8,0:0:0:0:
298,145,180067,1,8,0:0:0:0:
367,131,180150,2,0,L|355:186,1,45,4|0,3:2|0:0,0:0:0:0:
405,361,180316,5,8,0:0:0:0:
458,366,180399,1,8,0:0:0:0:
494,325,180482,1,8,0:0:0:0:
481,273,180566,1,8,0:0:0:0:
431,253,180650,2,0,L|376:264,1,45,6|0,3:2|0:0,0:0:0:0:
160,270,180816,5,8,0:0:0:0:
107,275,180899,1,8,0:0:0:0:
71,234,180982,1,8,0:0:0:0:
84,182,181066,1,8,0:0:0:0:
134,162,181150,2,0,L|189:173,1,45,6|0,3:2|0:0,0:0:0:0:
354,34,181316,5,8,0:0:0:0:
354,34,181400,1,8,0:0:0:0:
354,34,181483,2,0,L|299:45,1,45,4|0,3:2|0:0,0:0:0:0:
82,75,181650,5,8,0:0:0:0:
134,85,181733,1,8,0:0:0:0:
187,96,181816,1,8,0:0:0:0:
240,108,181900,1,8,0:0:0:0:
293,120,181983,2,0,P|269:133|261:167,1,45,6|0,3:2|0:0,0:0:0:0:
354,327,182150,5,8,0:0:0:0:
406,305,182233,1,8,0:0:0:0:
414,249,182316,1,8,0:0:0:0:
383,202,182400,1,8,0:0:0:0:
327,196,182483,1,2,3:2:0:0:
284,225,182566,1,8,0:3:0:0:
260,255,182650,1,8,0:3:0:0:
227,263,182733,1,8,0:3:0:0:
204,255,182816,6,0,L|214:304,1,45,6|0,3:2|0:0,0:0:0:0:
41,384,182983,2,0,L|55:314,1,62.9999980773926,0|2,3:2|0:0,0:0:0:0:
12,154,183316,6,0,B|16:194|-12:238|-12:238|24:201|77:199,1,175.499991966248,2|0,3:2|0:0,0:0:0:0:
108,50,183650,2,0,B|69:35|45:-11|45:-11|59:38|40:73,1,175.499991966248,2|0,3:2|0:0,0:0:0:0:
150,185,183983,6,0,P|236:137|375:136,1,202.500007724762,14|0,3:2|0:0,0:0:0:0:
397,77,184316,2,0,P|407:92|414:109,1,36,0|0,3:2|0:0,0:0:0:0:
455,264,184483,2,0,P|472:213|512:178,1,107.999996704102,8|0,0:0|0:0,0:0:0:0:
380,380,184816,5,8,0:3:0:0:
314,336,184928,1,8,0:3:0:0:
318,257,185039,1,8,0:3:0:0:
455,264,185150,5,0,3:2:0:0:
453,344,185261,1,0,3:2:0:0:
380,380,185372,1,0,3:2:0:0:
318,257,185483,6,0,L|375:244,1,36,2|0,3:3|0:0,0:0:0:0:
365,226,185650,2,0,L|307:238,1,36,2|0,0:3|0:0,0:0:0:0:
135,272,185816,2,0,B|180:280|180:280|183:284|183:284|239:296,1,107.999996704102,2|2,3:2|0:3,0:0:0:0:
231,302,186066,1,2,0:3:0:0:
223,308,186150,1,2,3:2:0:0:
66,382,186316,2,0,L|55:334,1,36,2|0,0:3|0:0,0:0:0:0:
33,234,186483,1,2,3:2:0:0:
248,218,186650,2,0,L|200:207,1,36,2|0,0:3|0:0,0:0:0:0:
94,182,186816,6,0,P|145:152|164:90,1,107.999996704102,0|0,3:2|0:0,0:0:0:0:
164,98,187066,1,2,0:3:0:0:
161,87,187150,1,2,3:3:0:0:
384,145,187316,1,2,0:0:0:0:
248,218,187483,5,0,3:2:0:0:
234,205,187566,1,0,1:0:0:0:
226,179,187650,1,0,1:0:0:0:
234,148,187733,1,0,1:0:0:0:
267,120,187816,1,0,3:2:0:0:
312,92,187900,1,8,0:3:0:0:
322,35,187983,1,8,0:3:0:0:
276,0,188066,1,8,0:3:0:0:
221,23,188150,2,0,L|234:87,1,53.9999983520508,6|0,3:2|0:0,0:0:0:0:
209,296,188316,5,8,0:0:0:0:
249,306,188399,1,8,0:0:0:0:
291,296,188482,1,8,0:0:0:0:
322,267,188566,1,8,0:0:0:0:
335,226,188650,2,0,L|348:290,1,53.9999983520508,6|0,3:2|0:0,0:0:0:0:
478,384,188816,5,8,0:0:0:0:
487,344,188899,1,8,0:0:0:0:
495,304,188982,1,8,0:0:0:0:
504,265,189066,1,8,0:0:0:0:
512,225,189150,2,0,L|459:236,1,53.9999983520508,6|0,3:2|0:0,0:0:0:0:
319,127,189316,5,8,0:0:0:0:
319,127,189400,1,8,0:0:0:0:
319,127,189483,2,0,L|372:138,1,53.9999983520508,2|0,3:2|0:0,0:0:0:0:
512,29,189650,2,0,L|459:40,1,53.9999983520508,6|0,3:2|0:0,0:0:0:0:
214,115,189816,5,8,0:0:0:0:
170,139,189900,1,8,0:0:0:0:
121,143,189983,1,8,0:0:0:0:
77,122,190066,1,8,0:0:0:0:
48,77,190150,5,10,3:2:0:0:
97,98,190233,1,8,0:0:0:0:
121,143,190316,1,8,0:0:0:0:
116,201,190400,1,8,0:0:0:0:
73,249,190483,1,8,0:3:0:0:
39,292,190566,1,8,0:3:0:0:
31,343,190649,1,8,0:3:0:0:
64,378,190732,1,8,0:3:0:0:
93,384,190816,6,0,P|222:324|376:303,1,292.499986610413,4|0,3:2|0:0,0:0:0:0:
460,365,191316,2,0,B|358:317|399:200|399:200|466:189|472:114,1,292.499986610413,4|0,3:2|0:0,0:0:0:0:
511,58,191816,6,0,B|488:-2|423:-21|336:9|351:95|351:95|387:102|404:140,1,292.499986610413,4|0,3:2|0:0,0:0:0:0:
467,141,192316,2,0,L|241:180,1,225,4|0,3:2|0:0,0:0:0:0:
162,178,192816,2,0,P|178:128|202:113,1,72,4|0,3:2|0:0,0:0:0:0:
20,27,193150,2,0,P|67:65|86:116,1,107.999996704102,4|0,3:2|0:0,0:0:0:0:
91,326,193483,6,0,B|75:301|36:301|36:301|100:268|144:314|144:314|161:369|210:368,1,269.999991760254,4|0,3:2|0:0,0:0:0:0:
220,294,193983,2,0,P|129:329|27:382,1,202.499993820191,4|0,3:2|0:0,0:0:0:0:
91,326,194483,6,0,B|75:301|36:301|36:301|100:268|144:314|144:314|161:369|210:368,1,269.999991760254,4|0,3:2|0:0,0:0:0:0:
297,346,194983,2,0,B|340:263|265:207|265:207|191:205|181:135,1,269.999991760254,4|0,3:2|0:0,0:0:0:0:
274,55,195483,2,0,P|264:93|255:135,1,72,4|0,3:2|0:0,0:0:0:0:
511,102,195816,2,0,P|499:46|481:-8,1,107.999996704102,4|0,3:2|0:0,0:0:0:0:
342,112,196150,2,0,P|334:139|327:169,1,45,4|0,3:2|0:0,0:0:0:0:
305,295,196316,5,8,0:0:0:0:
335,262,196399,1,8,0:0:0:0:
377,247,196482,1,8,0:0:0:0:
422,250,196566,1,8,0:0:0:0:
460,273,196650,2,0,P|453:298|448:327,1,45,4|0,3:2|0:0,0:0:0:0:
278,384,196816,5,8,0:0:0:0:
248,351,196899,1,8,0:0:0:0:
206,336,196982,1,8,0:0:0:0:
161,339,197066,1,8,0:0:0:0:
123,362,197150,2,0,P|117:332|109:299,1,45,4|0,3:2|0:0,0:0:0:0:
0,214,197316,5,8,0:0:0:0:
9,169,197399,1,8,0:0:0:0:
18,125,197482,1,8,0:0:0:0:
28,81,197566,1,8,0:0:0:0:
37,37,197650,2,0,L|90:48,1,45,4|0,3:2|0:0,0:0:0:0:
189,146,197816,5,8,0:0:0:0:
234,179,197900,1,8,0:0:0:0:
291,177,197983,1,8,0:0:0:0:
339,147,198066,1,8,0:0:0:0:
353,91,198150,5,4,3:2:0:0:
341,86,198233,1,8,0:3:0:0:
329,81,198316,1,8,0:3:0:0:
317,76,198400,1,8,0:3:0:0:
305,71,198483,6,0,L|335:64,1,31.4999990386963,8|8,3:3|0:3,0:0:0:0:
397,1,198650,2,0,L|417:24,1,31.4999990386963,8|8,0:3|0:3,0:0:0:0:
503,45,198816,2,0,L|485:101,1,45,4|0,3:2|0:0,0:0:0:0:
425,237,198983,5,8,0:0:0:0:
415,194,199066,1,8,0:0:0:0:
442,160,199149,1,8,0:0:0:0:
486,161,199233,1,8,0:0:0:0:
512,195,199316,2,0,L|499:252,1,45,4|0,3:2|0:0,0:0:0:0:
472,371,199483,5,8,0:0:0:0:
427,361,199566,1,8,0:0:0:0:
383,352,199649,1,8,0:0:0:0:
339,342,199733,1,8,0:0:0:0:
295,333,199816,2,0,L|242:320,1,45,4|0,3:2|0:0,0:0:0:0:
79,336,199983,5,8,0:0:0:0:
96,375,200066,1,8,0:0:0:0:
139,384,200149,1,8,0:0:0:0:
171,354,200233,1,8,0:0:0:0:
165,311,200316,2,0,L|153:258,1,45,4|0,3:2|0:0,0:0:0:0:
105,180,200483,5,8,0:0:0:0:
101,190,200566,1,8,0:0:0:0:
97,200,200650,1,8,0:0:0:0:
93,210,200733,1,8,0:0:0:0:
90,219,200816,6,0,B|57:239|18:231|18:231|61:257|143:256|194:194|192:195|139:112|233:51|409:74|364:257|279:259|279:259|315:252|324:215,1,630,4|0,3:2|0:0,0:0:0:0:
260,190,201483,6,0,L|293:344,1,135.000005149842,4|0,3:2|0:0,0:0:0:0:
292,337,201733,1,0,3:2:0:0:
296,351,201816,1,8,0:0:0:0:
468,285,201983,2,0,B|472:300|497:323|497:323|435:310|435:310|432:307|432:307|369:293,1,180,2|0,3:2|3:2,0:0:0:0:
171,208,202483,2,0,L|258:189,1,90,10|0,0:0|0:0,0:0:0:0:
498,157,202816,5,0,3:2:0:0:
354,72,202983,1,2,3:2:0:0:
354,72,203066,1,0,3:2:0:0:
354,72,203150,1,8,0:0:0:0:
404,224,203316,1,0,3:2:0:0:
448,79,203483,2,0,P|473:33|507:11,1,90,2|0,0:0|3:2,0:0:0:0:
337,184,203816,2,0,P|312:138|278:116,1,90,10|0,0:0|0:0,0:0:0:0:
36,98,204150,6,0,P|88:99|124:80,1,90,2|0,3:2|0:0,0:0:0:0:
128,72,204400,1,0,3:2:0:0:
131,60,204483,1,8,0:0:0:0:
21,179,204650,2,0,B|0:239|60:265|60:265|113:258|143:302,1,180,2|0,3:2|3:2,0:0:0:0:
0,384,205150,2,0,P|29:359|90:348,1,90,10|0,0:0|0:0,0:0:0:0:
269,384,205483,5,0,3:2:0:0:
222,188,205650,1,2,3:2:0:0:
222,188,205733,1,0,3:2:0:0:
222,188,205816,1,8,0:0:0:0:
160,360,205983,1,0,3:2:0:0:
314,289,206150,2,0,L|223:269,1,90,2|0,0:0|3:2,0:0:0:0:
383,384,206483,1,8,0:0:0:0:
393,340,206566,1,8,0:0:0:0:
426,311,206649,1,8,0:0:0:0:
470,307,206733,1,8,0:0:0:0:
509,328,206816,5,2,3:2:0:0:
447,142,206983,1,2,0:0:0:0:
447,142,207066,1,2,0:2:0:0:
447,142,207150,1,2,3:2:0:0:
314,289,207316,1,2,0:0:0:0:
479,235,207483,1,2,3:2:0:0:
318,96,207650,2,0,L|324:125,1,26.9999991760254,2|0,0:3|0:0,0:0:0:0:
342,213,207816,1,0,3:2:0:0:
187,142,207983,2,0,L|193:112,1,26.9999991760254,2|0,0:3|0:0,0:0:0:0:
211,25,208149,5,2,3:2:0:0:
90,196,208316,1,2,0:0:0:0:
90,196,208400,1,2,0:0:0:0:
90,196,208483,1,2,3:2:0:0:
33,29,208650,1,2,0:0:0:0:
23,252,208816,5,0,3:2:0:0:
58,282,208899,1,0,1:0:0:0:
104,288,208982,1,0,1:0:0:0:
146,267,209066,1,0,1:0:0:0:
170,228,209150,1,0,3:2:0:0:
192,203,209233,1,8,0:3:0:0:
220,194,209317,1,8,0:3:0:0:
238,196,209400,1,8,0:3:0:0:
252,201,209483,6,0,B|146:172|146:172|141:166|141:166|34:136,1,229.500004377365,4|0,3:2|0:0,0:0:0:0:
13,207,209816,6,0,L|24:262,1,45,8|0,3:2|0:0,0:0:0:0:
116,384,209983,2,0,L|171:372,1,45,8|0,3:2|0:0,0:0:0:0:
0,325,210150,2,0,L|47:356,1,45,8|0,3:2|0:0,0:0:0:0:
274,384,210316,2,0,L|305:336,1,45,8|0,3:2|0:0,0:0:0:0:
116,384,210483,2,0,L|171:372,1,45,8|0,3:2|0:0,0:0:0:0:
395,275,210650,2,0,L|383:219,1,45,8|0,3:2|0:0,0:0:0:0:
366,75,210816,5,0,3:2:0:0:
346,48,210900,1,0,1:2:0:0:
306,30,210983,1,0,1:2:0:0:
259,32,211066,1,0,1:2:0:0:
216,64,211150,1,0,3:2:0:0:
196,120,211233,1,0,1:2:0:0:
152,166,211316,1,0,1:2:0:0:
90,179,211400,1,0,1:2:0:0:
29,160,211483,1,0,3:2:0:0:
0,101,211566,1,0,1:2:0:0:
13,37,211650,1,0,1:2:0:0:
68,3,211733,1,0,1:2:0:0:
135,9,211816,2,0,L|143:53,1,45,0|0,3:2|1:0,0:0:0:0:
256,192,211983,5,2,3:3:0:0:
