osu file format v14

[General]
AudioFilename: audio.mp3
AudioLeadIn: 0
PreviewTime: 78983
Countdown: 0
SampleSet: Soft
StackLeniency: 0.4
Mode: 0
LetterboxInBreaks: 0
WidescreenStoryboard: 1

[Editor]
DistanceSpacing: 1.1
BeatDivisor: 4
GridSize: 32
TimelineZoom: 1.5

[Metadata]
Title:Into Gray
TitleUnicode:Into Gray
Artist:yuki
ArtistUnicode:yuki
Creator:gazimal
Version:I miss.
Source:白昼夢の青写真
Tags:eroge momo 緒乃ワサビ case-0 case 0 Laplacian Hakuchuumu no Aojashin The girl who's whos called the world japanese pop rock full version opening op visual novel vn video game [ TNTlealu ] KoldNoodl pnky cyanotype daydream
BeatmapID:3625982
BeatmapSetID:1771240

[Difficulty]
HPDrainRate:5.5
CircleSize:4
OverallDifficulty:9
ApproachRate:9.4
SliderMultiplier:1.8
SliderTickRate:1

[Events]
//Background and Video events
0,0,"a2.jpg",0,0
//Break Periods
//Storyboard Layer 0 (Background)
//Storyboard Layer 1 (Fail)
//Storyboard Layer 2 (Pass)
//Storyboard Layer 3 (Foreground)
//Storyboard Layer 4 (Overlay)
//Storyboard Sound Samples

[TimingPoints]
406,352.941176470588,4,2,1,30,1,0
1817,-250,4,2,1,30,0,0
13111,-250,4,2,1,40,0,0
13817,-142.857142857143,4,2,1,40,0,0
14523,-250.000000000001,4,2,1,40,0,0
15229,-142.857142857143,4,2,1,40,0,0
15935,-250.000000000001,4,2,1,40,0,0
16641,-142.857142857143,4,2,1,40,0,0
17347,-250.000000000001,4,2,1,40,0,0
18053,-142.857142857143,4,2,1,40,0,0
18758,-250.000000000001,4,2,1,40,0,0
19817,-142.857142857143,4,2,1,40,0,0
21582,-250.000000000001,4,2,1,40,0,0
22994,-250.000000000001,4,2,1,40,0,0
24405,-250.000000000001,4,2,10,40,0,0
24758,-333.333333333336,4,2,1,40,0,0
25817,-166.666666666667,4,2,1,40,0,0
27229,-166.666666666667,4,2,9,40,0,0
27405,-333.333333333334,4,2,9,40,0,0
27582,-333.333333333334,4,2,1,40,0,0
28641,-166.666666666667,4,2,1,40,0,0
31464,-166.666666666667,4,2,10,60,0,0
31817,-166.666666666667,4,2,1,40,0,0
34111,-250.000000000001,4,2,1,40,0,0
35700,-250.000000000001,4,2,9,40,0,0
36935,-250.000000000001,4,2,1,40,0,0
37111,-125,4,2,1,40,0,0
37376,-125,4,2,1,5,0,0
37464,-125,4,2,1,40,0,0
37733,-125,4,2,1,5,0,0
37817,333.333333333333,4,2,1,70,1,0
42983,-100,4,2,2,70,0,0
43150,-100,4,2,1,70,0,0
45316,-142.857142857143,4,2,1,70,0,0
46150,-100,4,2,1,70,0,0
46650,-200,4,2,1,70,0,0
46983,-83.3333333333333,4,2,1,70,0,0
47233,-125,4,2,1,5,0,0
47316,-100,4,2,1,70,0,0
47983,-100,4,2,2,70,0,0
48150,-100,4,2,1,70,0,0
48483,-83.3333333333333,4,2,1,60,0,0
48650,-83.3333333333333,4,2,1,50,0,0
48816,-100,4,2,4,50,0,0
49316,-250,4,2,1,50,0,0
49816,-125,4,2,1,50,0,0
50150,-125,4,2,4,50,0,0
50650,-125,4,2,1,50,0,0
50816,-125,4,2,4,50,0,0
51150,-125,4,2,1,50,0,0
51483,-125,4,2,4,50,0,0
51733,-125,4,2,1,50,0,0
52816,-125,4,2,4,50,0,0
53316,-125,4,2,1,50,0,0
53566,-125,4,2,4,50,0,0
53816,-125,4,2,1,50,0,0
54150,-125,4,2,4,50,0,0
54566,-125,4,2,1,50,0,0
55483,-125,4,2,4,50,0,0
55983,-125,4,2,1,50,0,0
56150,-100,4,2,1,50,0,0
56816,-100,4,2,4,50,0,0
57066,-100,4,2,1,50,0,0
58150,-100,4,2,4,50,0,0
58483,-142.857142857143,4,2,1,50,0,0
59150,-83.3333333333333,4,2,1,65,0,0
59400,-125,4,2,1,5,0,0
59483,-111.111111111111,4,2,1,65,0,0
61816,-100,4,2,1,65,0,0
63150,-111.111111111111,4,2,1,65,0,0
63983,-222.222222222222,4,2,1,65,0,0
64816,-111.111111111111,4,2,1,65,0,0
66816,-222.222222222222,4,2,1,65,0,0
67066,-125,4,2,1,5,0,0
67150,-222.222222222222,4,2,1,65,0,0
69483,-222.222222222222,4,2,2,65,0,0
69816,-222.222222222222,4,2,1,65,0,0
70150,-166.666666666667,4,2,1,40,0,0
71150,-1000,4,2,1,45,0,0
72066,-125,4,2,1,5,0,0
72150,-250,4,2,1,45,0,0
72483,-250,4,2,1,70,0,0
72983,-100,4,2,1,70,0,0
73983,-100,4,2,1,70,0,0
74816,-142.857142857143,4,2,1,70,0,0
74983,-142.857142857143,4,2,2,70,0,0
75150,-142.857142857143,4,2,1,70,0,0
77150,-125,4,2,1,70,0,0
77733,-125,4,2,1,5,0,0
77816,-142.857142857143,4,2,1,50,0,0
77900,-142.857142857143,4,2,1,5,0,0
79483,-333.333333333336,4,2,1,50,0,0
79650,-250.000000000001,4,2,1,50,0,0
79732,-250.000000000001,4,2,1,5,0,0
79816,-333.333333333336,4,2,1,50,0,0
79983,-250.000000000001,4,2,1,50,0,0
80065,-250.000000000001,4,2,1,5,0,0
80150,-333.333333333336,4,2,1,50,0,0
80316,-250.000000000001,4,2,1,50,0,0
80399,-250.000000000001,4,2,1,5,0,0
80483,-76.9230769230769,4,2,1,80,0,1
80733,-125,4,2,1,5,0,1
80816,-83.3333333333333,4,2,1,80,0,1
81066,-125,4,2,1,5,0,1
81150,-83.3333333333333,4,2,1,80,0,1
81400,-125,4,2,1,5,0,1
81483,-76.9230769230769,4,2,1,80,0,1
81733,-125,4,2,1,5,0,1
81816,-83.3333333333333,4,2,1,80,0,1
82066,-125,4,2,1,5,0,1
82150,-83.3333333333333,4,2,1,80,0,1
82400,-125,4,2,1,5,0,1
82483,-125,4,2,1,80,0,1
82733,-125,4,2,1,5,0,1
82816,-125,4,2,1,80,0,1
82983,-76.9230769230769,4,2,1,80,0,1
83400,-125,4,2,1,5,0,1
83483,-142.857142857143,4,2,1,80,0,1
83650,-76.9230769230769,4,2,1,80,0,1
83983,-142.857142857143,4,2,1,80,0,1
84316,-76.9230769230769,4,2,1,80,0,1
84566,-125,4,2,1,5,0,1
84650,-100,4,2,1,80,0,1
88066,-100,4,2,2,80,0,1
88233,-100,4,2,1,80,0,1
88483,-76.9230769230769,4,2,1,80,0,1
89316,-100,4,2,1,80,0,1
89650,-76.9230769230769,4,2,1,80,0,1
90150,-100,4,2,1,80,0,1
93650,-100,4,2,2,80,0,1
93816,-100,4,2,1,80,0,1
93983,-142.857142857143,4,2,1,80,0,1
94316,-62.5,4,2,1,80,0,1
94566,-125,4,2,1,5,0,1
94650,-333.333333333333,4,2,1,80,0,1
94900,-125,4,2,1,5,0,1
94983,-58.8235294117647,4,2,1,80,0,1
95233,-125,4,2,1,5,0,1
95316,-125,4,2,1,80,0,1
95483,-66.6666666666667,4,2,1,80,0,1
95816,-66.6666666666667,4,2,2,80,0,1
96150,-66.6666666666667,4,2,1,80,0,1
96483,-142.857142857143,4,2,1,80,0,1
96816,-83.3333333333333,4,2,1,80,0,1
97316,-100,4,2,1,80,0,1
97816,-83.3333333333333,4,2,1,80,0,1
98983,-83.3333333333333,4,2,2,80,0,1
99150,-100,4,2,1,80,0,1
101483,-100,4,2,2,80,0,1
101816,-1000,4,2,1,80,0,0
103150,-1000,4,2,1,60,0,0
103483,-142.857142857143,4,2,4,55,0,0
103816,-142.857142857143,4,2,1,55,0,0
104816,-142.857142857143,4,2,4,55,0,0
105150,-142.857142857143,4,2,1,55,0,0
106150,-142.857142857143,4,2,4,55,0,0
106483,-142.857142857143,4,2,1,55,0,0
107483,-142.857142857143,4,2,4,55,0,0
107733,-250.000000000001,4,2,4,55,0,0
107816,-250.000000000001,4,2,1,55,0,0
108150,-250.000000000001,4,2,4,55,0,0
108483,-250.000000000001,4,2,1,55,0,0
108816,-142.857142857143,4,2,4,55,0,0
109150,-142.857142857143,4,2,1,55,0,0
110150,-142.857142857143,4,2,4,55,0,0
110483,-142.857142857143,4,2,1,55,0,0
110650,-250.000000000001,4,2,1,55,0,0
111483,-250.000000000001,4,2,4,55,0,0
111733,-250.000000000001,4,2,1,55,0,0
112316,-166.666666666667,4,2,1,55,0,0
112816,-166.666666666667,4,2,4,55,0,0
113316,-166.666666666667,4,2,1,55,0,0
113816,-83.3333333333333,4,2,3,60,0,0
114400,-125,4,2,1,5,0,0
114483,-250,4,2,3,60,0,0
114566,-125,4,2,1,5,0,0
114816,-250,4,2,3,60,0,0
115066,-125,4,2,1,5,0,0
115150,-250,4,2,3,60,0,0
115983,-166.666666666667,4,2,3,60,0,0
116483,-83.3333333333333,4,2,3,60,0,0
117066,-125,4,2,1,5,0,0
117150,-250,4,2,3,60,0,0
117233,-125,4,2,1,5,0,0
117483,-250,4,2,3,60,0,0
117733,-125,4,2,1,5,0,0
117816,-250,4,2,3,60,0,0
118566,-125,4,2,1,5,0,0
118816,-250,4,2,3,60,0,0
119066,-125,4,2,1,5,0,0
119150,-83.3333333333333,4,2,3,60,0,0
119733,-125,4,2,1,5,0,0
119816,-250,4,2,3,60,0,0
119900,-125,4,2,1,5,0,0
120150,-250,4,2,3,60,0,0
120400,-125,4,2,1,5,0,0
120483,-250,4,2,3,60,0,0
121400,-125,4,2,1,5,0,0
121650,-250,4,2,3,60,0,0
122483,-100,4,2,3,60,0,0
122733,-125,4,2,1,5,0,0
122816,-250,4,2,3,60,0,0
123066,-125,4,2,1,5,0,0
123150,-83.3333333333333,4,2,3,60,0,0
123733,-125,4,2,1,5,0,0
123816,-250,4,2,3,60,0,0
124150,-250,4,2,1,60,0,0
124483,-100,4,2,1,65,0,0
127066,-125,4,2,1,5,0,0
127150,-83.3333333333333,4,2,1,65,0,0
128483,-100,4,2,1,65,0,0
130233,-125,4,2,1,5,0,0
130316,-100,4,2,1,65,0,0
130566,-125,4,2,1,5,0,0
130650,-100,4,2,1,65,0,0
131233,-125,4,2,1,5,0,0
131316,-100,4,2,1,65,0,0
132150,-250,4,2,1,65,0,0
134816,-250,4,2,2,65,0,0
134983,-250,4,2,1,65,0,0
140400,-125,4,2,1,5,0,0
140483,-100,4,2,1,60,0,0
141400,-125,4,2,1,5,0,0
141483,-100,4,2,1,60,0,0
142400,-125,4,2,1,5,0,0
142483,-100,4,2,1,60,0,0
143316,-142.857142857143,4,2,1,60,0,0
143650,-142.857142857143,4,2,2,60,0,0
143983,-111.111111111111,4,2,2,60,0,0
144150,-111.111111111111,4,2,1,60,0,0
144483,-111.111111111111,4,2,1,65,0,0
144816,-111.111111111111,4,2,1,70,0,0
145150,-111.111111111111,4,2,1,75,0,0
145816,-111.111111111111,4,2,1,80,0,0
146483,-71.4285714285714,4,2,1,80,0,0
147150,-62.5,4,2,1,80,0,0
147483,-100,4,2,1,80,0,0
147816,-83.3333333333333,4,2,1,80,0,0
148483,-66.6666666666667,4,2,1,80,0,0
150817,333.333333333333,4,2,1,80,1,0
150817,-125,4,2,1,80,0,0
151817,-71.4285714285714,4,2,1,80,0,0
152150,-100,4,2,1,80,0,0
153483,-66.6666666666667,4,2,1,80,0,0
153733,-125,4,2,1,5,0,0
153816,-100,4,2,1,80,0,0
153983,-83.3333333333333,4,2,1,80,0,0
154233,-125,4,2,1,5,0,0
154317,-83.3333333333333,4,2,1,80,0,0
154483,-66.6666666666667,4,2,1,80,0,0
155483,-66.6666666666667,4,2,1,80,0,1
155567,-66.6666666666667,4,2,1,80,0,0
155650,-66.6666666666667,4,2,1,80,0,1
155733,-66.6666666666667,4,2,1,80,0,0
155817,-66.6666666666667,4,2,1,80,0,1
155900,-66.6666666666667,4,2,1,80,0,0
155983,-66.6666666666667,4,2,1,80,0,1
156067,-66.6666666666667,4,2,1,80,0,0
156150,-66.6666666666667,4,2,1,80,0,1
156233,-66.6666666666667,4,2,1,80,0,0
157483,-1000,4,2,1,60,0,0
158733,-125,4,2,1,5,0,0
158816,-1000,4,2,1,75,0,0
159483,-200,4,2,2,75,0,0
159817,-200,4,2,1,75,0,0
160983,-200,4,2,2,75,0,0
161150,-200,4,2,1,75,0,0
161483,-125,4,2,1,75,0,0
162816,-100,4,2,1,75,0,0
163483,-125,4,2,1,75,0,0
166816,-76.9230769230769,4,2,1,75,0,0
167233,-125,4,2,1,5,0,0
167316,-76.9230769230769,4,2,1,75,0,0
167733,-125,4,2,1,5,0,0
167816,-200,4,2,1,75,0,0
167900,-125,4,2,1,5,0,0
168483,-200,4,2,1,35,0,0
169483,-100,4,2,1,70,0,0
170816,-83.3333333333333,4,2,1,70,0,0
171400,-125,4,2,1,5,0,0
171483,-333.333333333333,4,2,1,70,0,0
171733,-125,4,2,1,5,0,0
171816,-100,4,2,1,70,0,0
172150,-83.3333333333333,4,2,1,85,0,1
172400,-125,4,2,1,5,0,1
172483,-125,4,2,1,85,0,1
172650,-83.3333333333333,4,2,1,85,0,1
173150,-125,4,2,1,85,0,1
173316,-83.3333333333333,4,2,1,85,0,1
173566,-125,4,2,1,5,0,1
173650,-83.3333333333333,4,2,1,85,0,1
177150,-83.3333333333333,4,2,2,85,0,1
177316,-83.3333333333333,4,2,1,85,0,1
177483,-76.9230769230769,4,2,1,85,0,1
178483,-125,4,2,1,85,0,1
178650,-76.9230769230769,4,2,1,85,0,1
179483,-111.111111111111,4,2,1,85,0,1
180150,-100,4,2,1,85,0,1
182650,-100,4,2,2,85,0,1
182816,-100,4,2,1,85,0,1
182983,-142.857142857143,4,2,1,85,0,1
183316,-62.5,4,2,1,85,0,1
183566,-125,4,2,1,5,0,1
183650,-333.333333333333,4,2,1,85,0,1
183900,-125,4,2,1,5,0,1
183983,-58.8235294117647,4,2,1,85,0,1
184233,-125,4,2,1,5,0,1
184316,-100,4,2,1,85,0,1
184483,-66.6666666666667,4,2,1,85,0,1
184816,-66.6666666666667,4,2,2,85,0,1
185150,-66.6666666666667,4,2,1,85,0,1
185483,-142.857142857143,4,2,1,85,0,1
185816,-83.3333333333333,4,2,1,85,0,1
186316,-125,4,2,1,85,0,1
186816,-83.3333333333333,4,2,1,85,0,1
187983,-83.3333333333333,4,2,2,85,0,1
188150,-100,4,2,1,85,0,1
190816,-83.3333333333333,4,2,1,80,0,0
191233,-83.3333333333333,4,2,1,5,0,0
191316,-83.3333333333333,4,2,1,80,0,0
191733,-83.3333333333333,4,2,1,5,0,0
191816,-83.3333333333333,4,2,1,80,0,0
192233,-83.3333333333333,4,2,1,5,0,0
192316,-100,4,2,1,80,0,0
192733,-83.3333333333333,4,2,1,5,0,0
192816,-125,4,2,1,80,0,0
193150,-83.3333333333333,4,2,1,80,0,0
193900,-83.3333333333333,4,2,1,5,0,0
193983,-90.9090909090909,4,2,1,80,0,0
194400,-83.3333333333333,4,2,1,5,0,0
194483,-83.3333333333333,4,2,1,80,0,0
194900,-83.3333333333333,4,2,1,5,0,0
194983,-83.3333333333333,4,2,1,80,0,0
195400,-83.3333333333333,4,2,1,5,0,0
195483,-125,4,2,1,80,0,0
195816,-83.3333333333333,4,2,1,80,0,0
196150,-100,4,2,1,80,0,0
198483,-142.857142857143,4,2,2,80,0,0
198816,-100,4,2,1,80,0,0
200816,-50,4,2,1,80,0,0
200858,-50,4,2,1,80,0,0
200900,-50,4,2,1,80,0,1
200941,-50,4,2,1,80,0,0
200983,-50,4,2,1,80,0,1
201025,-50,4,2,1,80,0,0
201066,-50,4,2,1,80,0,1
201108,-50,4,2,1,80,0,0
201150,-50,4,2,1,80,0,1
201191,-50,4,2,1,80,0,0
201233,-50,4,2,1,80,0,1
201275,-50,4,2,1,80,0,0
201316,-50,4,2,1,80,0,1
201358,-50,4,2,1,80,0,0
201400,-76.9230769230769,4,2,1,5,0,0
201483,-66.6666666666667,4,2,1,75,0,1
201566,-66.6666666666667,4,2,1,75,0,0
201983,-83.3333333333333,4,2,1,75,0,0
207650,-166.666666666667,4,2,1,75,0,0
209233,-166.666666666667,4,2,2,75,0,0
209483,-66.6666666666667,4,2,1,75,0,0
209733,-66.6666666666667,4,2,1,5,0,0
209816,-66.6666666666667,4,2,1,75,0,0
210483,-125,4,2,1,75,0,0
211150,-125,4,2,1,80,0,0
211483,-125,4,2,1,85,0,0
211816,-100,4,2,1,85,0,0

[Colours]
Combo1 : 23,255,255
Combo2 : 192,192,192

[HitObjects]
10,343,1817,6,0,L|3:379,2,36,2|0|0,0:0|0:0|0:0,0:0:0:0:
28,266,2347,1,2,0:0:0:0:
10,343,3229,6,0,L|3:379,2,36,2|0|0,0:0|0:0|0:0,0:0:0:0:
28,266,3759,1,2,0:0:0:0:
10,343,4641,6,0,L|3:379,2,36,2|0|0,0:0|0:0|0:0,0:0:0:0:
28,266,5171,1,2,0:0:0:0:
10,343,6053,6,0,L|3:379,2,36,2|0|0,0:0|0:0|0:0,0:0:0:0:
28,266,6583,1,2,0:0:0:0:
10,343,7464,6,0,L|3:379,2,36,2|0|0,0:0|0:0|0:0,0:0:0:0:
28,266,7994,1,2,0:0:0:0:
97,307,8876,6,0,L|90:343,2,36,2|0|0,0:0|0:0|0:0,0:0:0:0:
115,230,9406,1,2,0:0:0:0:
184,271,10288,6,0,L|177:307,2,36,2|0|0,0:0|0:0|0:0,0:0:0:0:
202,194,10818,1,2,0:0:0:0:
202,194,11700,5,2,0:0:0:0:
310,190,11876,1,0,0:0:0:0:
258,246,12053,1,0,0:0:0:0:
254,138,12229,1,2,0:0:0:0:
61,309,12935,5,2,0:0:0:0:
61,309,13111,2,0,P|71:326|78:351,2,36,0|0|0,3:2|3:2|0:0,0:0:0:0:
3,363,13641,1,2,3:2:0:0:
99,240,13817,2,0,P|136:283|149:360,1,125.999996154785,0|0,1:0|3:2,0:0:0:0:
3,363,14347,5,2,0:0:0:0:
22,241,14523,2,0,P|19:222|13:201,2,36,2|0|0,0:0|0:0|3:2,0:0:0:0:
22,241,15053,1,2,0:0:0:0:
115,148,15229,2,0,P|63:111|1:112,1,125.999996154785,0|0,1:0|0:0,0:0:0:0:
153,64,15758,5,2,0:0:0:0:
153,64,15935,2,0,P|169:53|197:51,2,36,2|0|0,3:2|0:0|0:0,0:0:0:0:
114,147,16464,1,2,3:2:0:0:
2,111,16641,2,0,P|64:111|115:148,1,125.999996154785,0|0,1:0|3:2,0:0:0:0:
207,172,17170,5,2,0:0:0:0:
207,172,17347,2,0,L|199:135,2,36,2|0|0,0:0|0:0|3:2,0:0:0:0:
227,250,17876,1,2,0:0:0:0:
283,128,18053,2,0,P|333:164|395:164,1,125.999996154785,0|0,1:0|0:0,0:0:0:0:
502,81,18758,6,0,P|490:44|486:9,2,72,2|0|0,3:2|0:0|1:0,0:0:0:0:
512,271,19817,6,0,P|391:297|262:363,1,251.999992309571,2|0,3:2|3:2,0:0:0:0:
372,224,20876,2,0,P|316:243|248:281,1,125.999996154785,2|0,1:2|0:0,0:0:0:0:
169,318,21582,6,0,P|155:277|130:255,2,72,2|0|0,3:2|0:0|0:0,0:0:0:0:
27,364,22641,1,2,0:0:0:0:
98,342,22994,6,0,P|93:323|76:307,2,36,2|0|0,3:2|3:2|0:0,0:0:0:0:
27,364,23523,1,2,3:2:0:0:
98,342,23700,2,0,P|93:323|76:307,1,36,0|0,1:2|3:2,0:0:0:0:
169,318,24053,2,0,P|155:277|130:255,1,72,0|2,1:2|0:0,0:0:0:0:
34,242,24758,6,0,L|67:234,2,26.9999991760254,2|2|2,0:0|0:0|0:0,0:0:0:0:
164,161,25641,5,2,0:0:0:0:
164,161,25817,2,0,L|279:184,1,107.999996704102,2|2,0:0|0:0,0:0:0:0:
175,377,27229,5,2,0:0:0:0:
24,353,27582,2,0,L|30:321,2,26.9999991760254,2|2|2,0:0|0:0|0:0,0:0:0:0:
213,312,28465,5,2,0:0:0:0:
213,312,28641,2,0,P|153:304|109:351,1,107.999996704102,2|2,0:0|0:0,0:0:0:0:
256,192,30053,5,2,0:0:0:0:
192,128,30405,2,0,P|144:96|79:112,2,107.999996704102,2|2|2,0:0|0:0|0:0,0:0:0:0:
256,192,31464,5,2,0:0:0:0:
320,256,31817,2,0,P|367:287|432:271,2,107.999996704102,2|2|2,0:0|0:0|0:0,0:0:0:0:
138,204,32876,6,0,B|122:127|193:89|193:89|267:98|297:168|297:168|265:176|247:203,1,323.999990112305,2|2,0:0|0:0,0:0:0:0:
187,312,34111,2,0,B|166:363|92:358|92:358|54:307|87:259|87:259|101:274|125:277,1,252,2|0,0:0|0:0,0:0:0:0:
320,256,35700,5,2,0:0:0:0:
320,256,36935,5,2,0:0:0:0:
388,355,37111,2,0,P|422:319|482:329,1,108,2|0,0:0|0:0,0:0:0:0:
383,347,37464,2,0,P|417:311|477:321,1,108,2|0,0:0|0:0,0:0:0:0:
310,384,37817,6,0,L|264:374,1,45,6|0,3:2|1:2,0:0:0:0:
139,343,37983,1,0,1:2:0:0:
137,319,38066,1,0,1:2:0:0:
150,300,38149,1,0,3:2:0:0:
172,293,38233,1,0,1:2:0:0:
193,302,38317,5,2,1:2:0:0:
179,275,38400,1,0,1:2:0:0:
157,254,38483,1,0,3:2:0:0:
130,241,38567,1,0,1:2:0:0:
101,237,38650,1,0,1:2:0:0:
71,242,38733,1,0,1:2:0:0:
45,255,38817,2,0,L|54:205,1,45,2|0,3:2|1:2,0:0:0:0:
6,132,38983,2,0,L|53:115,1,45,0|0,1:2|1:2,0:0:0:0:
213,72,39150,5,0,3:2:0:0:
93,37,39317,2,0,P|114:51|130:70,3,45,2|0|0|0,1:2|1:2|3:2|1:2,0:0:0:0:
213,178,39650,1,0,1:2:0:0:
213,178,39733,1,0,1:2:0:0:
213,178,39817,2,0,P|229:159|250:145,3,45,2|0|0|0,3:2|1:2|1:2|1:2,0:0:0:0:
303,78,40150,1,2,3:2:0:0:
312,83,40233,1,0,1:2:0:0:
321,90,40316,1,0,1:2:0:0:
329,97,40400,1,0,1:2:0:0:
336,105,40483,6,0,P|360:97|376:82,1,45,6|0,3:2|1:2,0:0:0:0:
483,21,40650,1,0,1:2:0:0:
478,43,40733,1,0,1:2:0:0:
473,65,40816,1,0,3:2:0:0:
468,87,40900,1,0,1:2:0:0:
439,121,40984,5,2,1:2:0:0:
445,150,41067,1,0,1:2:0:0:
451,179,41150,1,0,3:2:0:0:
458,208,41234,1,0,1:2:0:0:
464,238,41317,1,0,1:2:0:0:
470,267,41400,1,0,1:2:0:0:
483,296,41483,2,0,L|429:284,3,45,2|0|0|0,3:2|1:2|1:2|1:2,0:0:0:0:
436,372,41816,6,0,L|392:362,1,45,4|0,3:2|1:2,0:0:0:0:
262,341,41983,1,2,1:2:0:0:
249,313,42066,1,0,1:2:0:0:
253,284,42149,1,0,3:2:0:0:
272,261,42233,1,0,1:2:0:0:
300,252,42316,1,0,1:2:0:0:
329,258,42399,1,0,1:2:0:0:
350,279,42483,6,0,L|335:208,3,45,2|0|0|0,3:2|1:2|1:2|1:2,0:0:0:0:
313,122,42816,1,8,3:3:0:0:
346,129,42899,1,8,0:3:0:0:
379,136,42982,1,8,0:3:0:0:
412,143,43066,1,8,0:3:0:0:
445,150,43149,5,6,3:2:0:0:
407,31,43316,1,2,3:2:0:0:
280,115,43483,1,8,0:0:0:0:
202,114,43650,5,2,0:0:0:0:
37,149,43817,1,2,3:2:0:0:
75,30,43984,1,2,3:2:0:0:
136,183,44150,2,0,L|116:90,1,90,10|0,0:0|0:0,0:0:0:0:
15,298,44483,6,0,P|35:262|99:256,2,90,2|2|10,3:2|3:2|0:0,0:0:0:0:
105,359,44983,1,2,0:0:0:0:
105,359,45066,1,0,1:0:0:0:
105,359,45150,1,0,3:2:0:0:
210,290,45316,2,0,L|162:279,1,31.4999990386963,2|0,3:2|0:0,0:0:0:0:
270,367,45483,2,0,L|222:377,1,31.4999990386963,10|0,0:0|0:0,0:0:0:0:
330,290,45650,2,0,L|282:279,1,31.4999990386963,2|0,0:0|0:0,0:0:0:0:
390,367,45816,5,6,3:2:0:0:
356,208,45983,1,0,3:2:0:0:
507,267,46150,2,0,L|413:247,1,90,8|2,0:0|3:2,0:0:0:0:
418,248,46400,1,0,1:0:0:0:
418,248,46483,1,0,3:2:0:0:
479,384,46650,6,0,L|469:339,1,45,0|2,3:2|0:0,0:0:0:0:
356,208,46983,6,0,L|393:383,1,161.999995056153,8|0,0:0|0:0,0:0:0:0:
479,384,47316,6,0,L|469:339,1,45,0|0,3:2|0:0,0:0:0:0:
435,147,47483,1,8,0:0:0:0:
453,255,47650,5,0,1:0:0:0:
455,244,47733,1,0,1:0:0:0:
457,233,47816,1,8,0:3:0:0:
356,208,47983,1,8,0:3:0:0:
255,183,48150,1,10,0:0:0:0:
277,296,48316,5,2,0:3:0:0:
279,307,48399,1,2,0:3:0:0:
281,318,48483,2,0,P|236:295|177:307,1,107.999996704102,4|0,3:2|3:2,0:0:0:0:
101,384,48816,1,0,0:0:0:0:
127,251,48982,1,0,0:0:0:0:
131,233,49066,1,0,0:0:0:0:
54,289,49316,2,0,L|60:317,2,18,2|2|0,0:3|0:3|0:0,0:0:0:0:
33,197,49650,1,0,3:2:0:0:
127,251,49816,6,0,L|146:161,1,72,0|0,3:2|3:2,0:0:0:0:
181,304,50150,1,0,0:0:0:0:
184,321,50233,1,0,0:0:0:0:
188,339,50316,1,0,0:0:0:0:
192,356,50400,1,0,0:0:0:0:
273,330,50650,6,0,L|264:287,1,36,2|0,3:2|0:0,0:0:0:0:
341,277,50816,2,0,L|349:313,1,36,2|0,0:0|0:0,0:0:0:0:
425,296,50983,2,0,L|416:253,1,36,2|0,0:0|0:0,0:0:0:0:
474,198,51150,5,0,3:2:0:0:
502,334,51316,1,0,3:2:0:0:
351,329,51483,1,0,0:0:0:0:
348,312,51567,1,0,0:0:0:0:
344,294,51650,1,0,0:0:0:0:
341,277,51733,1,2,0:3:0:0:
407,147,51983,2,0,B|415:133|435:123|435:123|416:134|411:148,1,72,2|0,0:0|0:0,0:0:0:0:
338,260,52316,1,8,0:0:0:0:
261,197,52483,6,0,P|291:165|294:134,1,72,0|0,3:2|3:2,0:0:0:0:
423,34,52816,1,0,0:0:0:0:
440,37,52900,1,0,0:0:0:0:
458,41,52983,1,0,0:0:0:0:
475,44,53066,1,0,0:0:0:0:
294,138,53316,1,0,3:2:0:0:
406,31,53483,1,0,3:2:0:0:
406,31,53566,1,0,0:0:0:0:
257,3,53733,5,0,0:0:0:0:
257,3,53816,2,0,P|290:29|303:70,2,72,6|0|0,3:2|3:2|0:0,0:0:0:0:
214,82,54316,1,2,0:0:0:0:
214,82,54400,1,2,0:0:0:0:
160,146,54566,2,0,P|146:135|138:120,2,36,2|2|0,0:3|0:3|0:0,0:0:0:0:
0,0,54983,1,8,0:0:0:0:
28,211,55150,5,0,3:2:0:0:
143,40,55316,1,0,3:2:0:0:
0,127,55483,1,0,0:0:0:0:
17,130,55567,1,0,0:0:0:0:
35,134,55650,1,0,0:0:0:0:
52,137,55733,1,0,0:0:0:0:
50,237,55983,2,0,P|35:226|27:210,1,36,2|0,3:1|0:0,0:0:0:0:
27,210,56150,2,0,L|5:310,1,90,8|2,0:0|0:0,0:0:0:0:
157,384,56483,5,0,3:2:0:0:
134,271,56650,1,0,3:2:0:0:
0,377,56816,1,0,0:0:0:0:
17,374,56900,1,0,0:0:0:0:
35,370,56983,1,0,0:0:0:0:
52,367,57066,1,2,0:3:0:0:
380,310,57650,1,8,0:0:0:0:
258,230,57816,5,0,3:2:0:0:
238,374,57983,1,0,3:2:0:0:
380,310,58150,1,0,0:0:0:0:
377,293,58234,1,0,0:0:0:0:
373,275,58317,1,0,0:0:0:0:
370,258,58400,1,0,0:0:0:0:
367,241,58483,2,0,L|408:249,1,31.4999990386963,2|0,0:1|0:0,0:0:0:0:
476,325,58650,6,0,L|467:283,1,31.4999990386963,0|0,3:2|1:1,0:0:0:0:
414,174,58816,1,8,3:2:0:0:
420,143,58899,1,8,0:0:0:0:
427,112,58982,1,8,0:0:0:0:
433,81,59066,1,8,0:0:0:0:
439,50,59150,6,0,B|394:24|346:59|346:59|326:98|283:94,1,161.999995056153,4|0,3:2|0:0,0:0:0:0:
222,95,59483,2,0,L|239:15,1,80.9999975280763,2|2,3:2|0:0,0:0:0:0:
135,152,59816,2,0,L|152:231,1,80.9999975280763,2|0,3:2|0:0,0:0:0:0:
261,164,60150,1,10,3:2:0:0:
36,138,60316,6,0,L|71:305,1,161.999995056153,2|2,0:0|0:0,0:0:0:0:
265,168,60816,1,2,3:2:0:0:
265,168,60983,1,2,0:0:0:0:
219,375,61150,1,2,3:2:0:0:
390,289,61316,1,2,0:0:0:0:
242,260,61483,1,10,3:2:0:0:
373,384,61650,1,2,0:0:0:0:
464,235,61816,6,0,B|480:179|441:139|441:139|387:130|377:80,2,180,2|0|0,3:2|3:2|3:2,0:0:0:0:
450,60,62650,1,0,0:0:0:0:
265,168,62816,1,10,3:2:0:0:
303,7,62983,5,0,0:0:0:0:
303,7,63066,1,2,0:3:0:0:
303,7,63150,2,0,P|345:18|385:23,1,80.9999975280763,2|2,3:2|0:0,0:0:0:0:
158,88,63483,2,0,P|200:76|240:72,1,80.9999975280763,2|2,3:2|0:0,0:0:0:0:
52,25,63816,2,0,P|71:35|96:39,1,40.4999987640381,2|0,3:3|0:0,0:0:0:0:
68,116,63983,5,2,0:3:0:0:
68,116,64066,1,2,0:3:0:0:
68,116,64150,2,0,P|48:111|30:102,1,40.4999987640381,2|0,3:3|0:0,0:0:0:0:
37,306,64483,5,6,3:2:0:0:
231,217,64650,1,0,3:2:0:0:
129,177,64816,2,0,L|148:270,1,80.9999975280763,8|0,0:0|0:0,0:0:0:0:
169,384,65150,2,0,L|126:375,2,40.4999987640381,2|2|2,3:3|0:3|3:3,0:0:0:0:
299,294,65483,2,0,L|215:311,1,80.9999975280763,8|2,0:0|0:0,0:0:0:0:
219,310,65733,1,2,0:3:0:0:
219,310,65816,5,0,3:2:0:0:
361,384,65983,1,0,3:2:0:0:
400,249,66150,2,0,B|380:224|355:229|355:229|372:244|376:259,1,80.9999975280763,8|0,0:0|0:0,0:0:0:0:
461,340,66483,2,0,L|412:329,1,40.4999987640381,2|0,3:2|0:0,0:0:0:0:
299,294,66650,2,0,L|250:304,1,40.4999987640381,0|0,3:2|0:0,0:0:0:0:
169,384,66816,6,0,L|107:370,1,60.7499981460572,2|0,3:2|0:0,0:0:0:0:
33,352,67150,5,12,3:2:0:0:
196,258,67316,1,0,3:2:0:0:
31,157,67483,1,8,0:3:0:0:
91,300,67650,1,2,3:3:0:0:
91,300,68149,5,8,3:2:0:0:
31,157,68316,1,0,3:2:0:0:
196,258,68483,1,8,0:3:0:0:
33,352,68649,1,2,3:3:0:0:
33,352,68983,5,8,0:0:0:0:
31,157,69150,5,8,0:3:0:0:
96,200,69261,1,8,0:3:0:0:
170,179,69372,1,8,0:3:0:0:
192,114,69483,5,8,0:3:0:0:
258,90,69594,1,8,0:3:0:0:
310,119,69705,1,8,0:3:0:0:
250,168,69816,5,4,3:2:0:0:
250,168,70150,2,0,L|261:222,1,53.9999983520508,2|0,0:3|0:0,0:0:0:0:
289,354,70483,2,0,P|314:315|383:312,1,107.999996704102,2|2,0:3|0:3,0:0:0:0:
497,380,70983,1,0,0:0:0:0:
497,380,71150,6,0,L|486:331,1,49.5,2|0,0:0|0:0,0:0:0:0:
498,314,72150,2,0,L|506:352,1,36
360,381,72483,5,12,3:2:0:0:
312,158,72650,1,2,3:2:0:0:
488,233,72816,1,2,0:0:0:0:
292,350,72983,2,0,B|245:375|206:345|206:345|172:294|117:311,1,180,2|0,3:2|3:2,0:0:0:0:
81,176,73483,1,10,0:0:0:0:
215,0,73650,1,0,3:2:0:0:
256,276,73816,6,0,L|238:184,1,90,2|0,0:0|3:2,0:0:0:0:
46,361,74150,1,2,0:0:0:0:
42,243,74316,1,8,0:0:0:0:
42,243,74400,1,0,1:0:0:0:
42,243,74483,1,0,3:2:0:0:
131,307,74650,1,0,3:2:0:0:
238,187,74816,2,0,L|245:221,1,31.4999990386963,8|0,0:0|0:0,0:0:0:0:
273,353,74983,2,0,L|280:387,1,31.4999990386963,8|0,0:3|0:0,0:0:0:0:
431,329,75150,6,0,B|442:304|478:295|478:295|434:296|353:271|352:118|477:111|477:111|494:144|489:184|457:201,1,440.999986541748,4|0,3:2|0:0,0:0:0:0:
497,374,76483,2,0,P|440:345|307:333,1,188.999994232178,2|0,0:0|0:0,0:0:0:0:
138,199,77150,2,0,B|114:181|80:186|80:186|141:146|180:194|180:194|180:237|220:260,1,252,2|0,3:2|0:0,0:0:0:0:
256,192,77816,6,0,L|288:185,1,31.4999990386963,2|0,0:3|0:0,0:0:0:0:
481,28,79483,6,0,P|475:51|463:61,1,40.4999987640381,2|0,0:0|0:0,0:0:0:0:
425,62,79816,2,0,P|443:54|462:61,1,40.4999987640381,2|0,0:0|0:0,0:0:0:0:
482,93,80150,2,0,P|467:79|461:60,1,40.4999987640381,2|0,0:0|0:0,0:0:0:0:
324,16,80483,6,0,B|277:-5|243:43|252:43|219:96|173:72,1,175.499991966248,4|0,3:2|0:0,0:0:0:0:
52,8,80816,2,0,P|92:70|133:171,1,161.999995056153,4|0,3:2|0:0,0:0:0:0:
146,297,81150,2,0,P|178:215|224:141,1,161.999995056153,4|0,3:2|0:0,0:0:0:0:
324,16,81483,2,0,B|277:-5|243:43|252:43|219:96|173:72,1,175.499991966248,4|0,3:2|0:0,0:0:0:0:
52,8,81816,2,0,P|92:70|133:171,1,161.999995056153,4|0,3:2|0:0,0:0:0:0:
146,297,82150,2,0,P|178:215|224:141,1,161.999995056153,4|0,3:2|0:0,0:0:0:0:
324,16,82483,2,0,B|311:-11|273:-14|273:-14|308:-7|321:23,1,108,4|0,3:2|0:0,0:0:0:0:
308,96,82816,2,0,P|329:99|361:85,1,36,10|0,3:2|0:0,0:0:0:0:
488,27,82983,1,2,0:0:0:0:
441,185,83150,6,0,B|412:51|412:51|422:77|444:91,1,175.499991966248,4|0,3:2|3:2,0:0:0:0:
512,102,83483,2,0,L|499:159,1,31.4999990386963,8|0,0:0|0:0,0:0:0:0:
503,326,83650,2,0,B|471:380|408:373|363:333|373:278|373:278|401:273|421:249,1,233.999989288331,2|0,3:2|3:2,0:0:0:0:
356,170,84150,2,0,L|369:227,1,31.4999990386963,10|0,0:0|0:0,0:0:0:0:
325,384,84316,6,0,P|244:349|151:357,1,175.499991966248,0|0,3:2|0:0,0:0:0:0:
52,382,84650,2,0,P|73:373|91:342,1,45,2|0,3:2|0:0,0:0:0:0:
34,261,84816,2,0,P|13:270|-5:301,1,45,10|0,0:0|0:0,0:0:0:0:
145,266,84983,1,0,3:2:0:0:
60,87,85150,1,2,0:0:0:0:
243,191,85316,1,0,3:2:0:0:
209,183,85399,1,0,1:0:0:0:
176,176,85482,1,8,0:0:0:0:
143,169,85565,1,8,0:0:0:0:
110,162,85650,2,0,L|168:149,1,45,8|8,0:0|0:0,0:0:0:0:
366,111,85816,5,2,3:2:0:0:
131,54,85983,1,2,0:0:0:0:
277,199,86150,1,2,3:2:0:0:
243,88,86316,1,2,0:0:0:0:
441,25,86483,5,2,3:2:0:0:
385,262,86650,1,2,0:0:0:0:
243,88,86816,1,2,3:2:0:0:
277,199,86982,1,2,0:0:0:0:
366,111,87150,5,2,3:2:0:0:
131,168,87317,1,2,0:0:0:0:
243,310,87483,1,2,3:2:0:0:
277,199,87649,1,2,0:0:0:0:
412,384,87816,5,2,3:2:0:0:
412,384,87900,1,0,1:0:0:0:
412,384,87983,2,0,L|402:340,1,45,8|8,0:3|0:3,0:0:0:0:
512,238,88150,2,0,L|502:282,1,45,8|8,3:3|0:3,0:0:0:0:
291,376,88316,5,0,1:0:0:0:
291,376,88400,1,0,1:0:0:0:
291,376,88483,2,0,B|221:406|177:355|177:355|136:292|61:314,2,233.999989288331,4|10|2,3:2|0:0|0:0,0:0:0:0:
101,384,89316,1,0,3:2:0:0:
243,310,89483,2,0,L|233:266,1,45,14|0,0:0|0:0,0:0:0:0:
203,101,89650,6,0,B|144:54|69:102|78:169|78:169|109:173|136:192,1,233.999989288331,2|0,0:0|3:2,0:0:0:0:
327,298,90150,2,0,P|363:272|413:264,1,90,8|0,3:2|3:2,0:0:0:0:
492,172,90483,2,0,P|468:183|453:200,1,45,2|0,0:0|0:0,0:0:0:0:
408,133,90650,2,0,P|424:117|444:108,1,45,0|0,3:2|0:0,0:0:0:0:
451,25,90816,1,8,0:0:0:0:
417,25,90899,1,8,0:0:0:0:
385,36,90982,1,8,0:0:0:0:
357,55,91065,1,8,0:0:0:0:
337,82,91150,2,0,P|315:95|294:98,1,45,6|0,3:2|0:0,0:0:0:0:
110,90,91316,5,8,0:0:0:0:
110,46,91399,1,8,0:0:0:0:
141,14,91482,1,8,0:0:0:0:
184,13,91565,1,8,0:0:0:0:
217,43,91650,2,0,L|207:89,1,45,6|0,3:2|0:0,0:0:0:0:
180,220,91816,5,8,0:0:0:0:
143,212,91899,1,8,0:0:0:0:
106,204,91982,1,8,0:0:0:0:
70,196,92065,1,8,0:0:0:0:
34,189,92150,2,0,L|44:235,1,45,6|0,3:2|0:0,0:0:0:0:
104,375,92316,5,8,0:0:0:0:
104,375,92400,1,8,0:0:0:0:
104,375,92483,2,0,L|114:329,1,45,4|0,3:2|0:0,0:0:0:0:
274,175,92650,5,8,0:0:0:0:
266,212,92733,1,8,0:0:0:0:
258,249,92816,1,8,0:0:0:0:
250,285,92899,1,8,0:0:0:0:
242,322,92983,2,0,L|288:312,1,45,6|0,3:2|0:0,0:0:0:0:
486,287,93150,5,8,0:0:0:0:
462,355,93233,1,8,0:0:0:0:
426,373,93316,1,8,0:0:0:0:
394,374,93400,1,8,0:0:0:0:
371,363,93483,2,0,L|381:312,1,45,2|8,3:2|0:3,0:0:0:0:
467,180,93650,5,8,0:3:0:0:
470,194,93733,1,8,0:3:0:0:
474,207,93816,1,6,3:2:0:0:
282,138,93983,2,0,L|298:64,1,62.9999980773926,0|2,3:2|0:0,0:0:0:0:
490,56,94316,6,0,B|455:61|455:61|308:-5|308:-5|275:4,1,216,2|0,3:2|0:0,0:0:0:0:
212,0,94650,2,0,L|221:44,1,40.4999987640381,2|0,3:2|0:0,0:0:0:0:
282,138,94983,6,0,B|221:167|171:125|171:125|128:72|72:86,1,229.500004377365,14|0,3:2|0:0,0:0:0:0:
7,44,95316,2,0,P|2:23|-1:2,1,36,0|0,3:2|0:0,0:0:0:0:
95,161,95483,2,0,P|79:228|66:294,1,135.000005149842,8|0,0:0|0:0,0:0:0:0:
250,384,95816,5,8,0:3:0:0:
335,382,95928,1,8,0:3:0:0:
368,304,96039,1,8,0:3:0:0:
450,288,96150,5,0,3:2:0:0:
440,248,96261,1,0,3:2:0:0:
403,228,96372,1,0,3:2:0:0:
368,155,96483,6,0,P|350:164|329:190,1,31.4999990386963,2|0,3:3|0:0,0:0:0:0:
266,147,96650,2,0,P|259:166|263:199,1,31.4999990386963,2|0,0:3|0:0,0:0:0:0:
284,305,96816,2,0,P|246:279|176:277,1,107.999996704102,2|2,3:2|0:3,0:0:0:0:
27,361,97150,1,2,3:2:0:0:
143,211,97316,2,0,P|121:228|110:251,1,45,2|0,0:3|0:0,0:0:0:0:
122,349,97483,1,2,3:2:0:0:
56,186,97650,2,0,P|66:172|90:153,1,45,2|0,0:3|0:0,0:0:0:0:
201,110,97816,6,0,P|145:84|116:28,1,107.999996704102,0|0,3:2|0:0,0:0:0:0:
118,13,98066,1,2,0:3:0:0:
118,13,98150,1,2,3:2:0:0:
56,186,98316,1,2,0:0:0:0:
212,27,98483,5,0,3:2:0:0:
238,32,98566,1,0,1:0:0:0:
264,37,98649,1,0,1:0:0:0:
291,43,98732,1,0,1:0:0:0:
314,82,98816,1,0,3:2:0:0:
353,73,98900,1,8,0:3:0:0:
393,65,98982,1,8,0:3:0:0:
432,56,99065,1,8,0:3:0:0:
472,48,99150,2,0,L|461:96,1,45,6|0,3:2|0:0,0:0:0:0:
385,215,99316,5,8,0:0:0:0:
397,184,99399,1,8,0:0:0:0:
425,165,99482,1,8,0:0:0:0:
458,165,99565,1,8,0:0:0:0:
486,183,99650,2,0,L|475:231,1,45,6|0,3:2|0:0,0:0:0:0:
423,373,99816,5,8,0:0:0:0:
455,380,99899,1,8,0:0:0:0:
482,362,99982,1,8,0:0:0:0:
489,330,100065,1,8,0:0:0:0:
471,302,100150,2,0,L|419:313,1,45,6|0,3:2|0:0,0:0:0:0:
299,384,100316,5,8,0:0:0:0:
299,384,100400,1,8,0:0:0:0:
299,384,100483,2,0,L|247:373,1,45,2|0,3:2|0:0,0:0:0:0:
148,276,100650,2,0,L|200:265,1,45,6|0,3:2|0:0,0:0:0:0:
131,384,100816,5,8,0:0:0:0:
103,378,100899,1,8,0:0:0:0:
77,372,100982,1,8,0:0:0:0:
50,366,101065,1,8,0:0:0:0:
25,358,101149,5,10,3:2:0:0:
74,336,101233,1,8,0:0:0:0:
91,279,101316,1,8,0:0:0:0:
67,222,101400,1,8,0:0:0:0:
37,177,101483,1,8,0:3:0:0:
43,135,101566,1,8,0:3:0:0:
66,114,101650,1,8,0:3:0:0:
95,108,101733,1,8,0:3:0:0:
113,115,101816,6,0,L|100:179,1,63,2|0,3:2|0:0,0:0:0:0:
11,97,103150,5,6,3:2:0:0:
165,52,103316,1,0,3:2:0:0:
0,6,103483,1,0,0:0:0:0:
23,2,103566,1,0,0:0:0:0:
46,7,103649,1,0,0:0:0:0:
66,19,103732,1,0,0:0:0:0:
81,37,103816,1,2,0:0:0:0:
113,115,103983,1,2,0:0:0:0:
113,115,104316,1,2,3:2:0:0:
252,12,104483,5,0,3:2:0:0:
284,192,104650,1,0,3:2:0:0:
317,59,104816,1,0,0:0:0:0:
302,77,104900,1,0,0:0:0:0:
282,89,104983,1,0,0:0:0:0:
259,94,105066,1,0,0:0:0:0:
236,90,105149,1,2,0:0:0:0:
172,39,105316,1,2,0:0:0:0:
172,39,105650,1,2,0:0:0:0:
284,192,105816,5,0,3:2:0:0:
395,11,105983,1,0,3:2:0:0:
467,156,106150,1,0,0:0:0:0:
452,138,106234,1,0,0:0:0:0:
432,126,106317,1,0,0:0:0:0:
412,104,106400,1,0,0:0:0:0:
386,125,106483,1,2,0:0:0:0:
399,206,106650,1,2,0:0:0:0:
399,206,106983,1,2,0:0:0:0:
496,268,107150,5,0,3:2:0:0:
305,337,107316,1,0,3:2:0:0:
411,384,107483,1,2,0:0:0:0:
407,368,107566,1,2,0:0:0:0:
402,351,107649,1,2,0:0:0:0:
398,334,107733,1,0,0:0:0:0:
393,315,107816,2,0,L|387:291,2,18,2|2|2,0:3|0:3|0:3,0:0:0:0:
322,244,108150,1,0,0:0:0:0:
322,244,108233,1,0,0:0:0:0:
467,156,108400,5,0,0:0:0:0:
467,156,108483,1,4,3:2:0:0:
274,94,108650,1,0,3:2:0:0:
389,170,108816,1,0,0:0:0:0:
386,154,108899,1,0,0:0:0:0:
383,139,108982,1,0,0:0:0:0:
380,123,109065,1,0,0:0:0:0:
376,108,109149,1,2,0:0:0:0:
456,37,109316,2,0,B|485:30|509:2|509:2|486:31|483:67,1,125.999996154785,2|2,0:0|0:0,0:0:0:0:
358,7,109816,5,0,3:2:0:0:
186,133,109983,1,0,3:2:0:0:
305,75,110150,1,0,0:0:0:0:
289,72,110233,1,0,0:0:0:0:
274,69,110316,1,0,0:0:0:0:
258,66,110399,1,0,0:0:0:0:
243,62,110483,1,2,0:0:0:0:
149,17,110650,2,0,L|175:11,2,18,2|2|0,0:3|0:3|0:0,0:0:0:0:
186,133,110983,1,2,0:0:0:0:
0,177,111150,5,0,3:2:0:0:
54,6,111316,1,0,3:2:0:0:
109,91,111483,1,0,0:0:0:0:
93,94,111566,1,0,0:0:0:0:
78,97,111649,1,0,0:0:0:0:
63,113,111732,1,2,0:3:0:0:
47,104,111816,1,2,0:0:0:0:
186,133,111983,2,0,L|189:116,2,18,2|2|0,0:3|0:3|0:0,0:0:0:0:
0,177,112316,2,0,L|6:205,1,26.9999991760254,10|0,0:0|0:0,0:0:0:0:
31,337,112483,5,0,3:2:0:0:
172,226,112650,1,0,3:2:0:0:
132,359,112816,1,0,0:0:0:0:
129,343,112899,1,0,0:0:0:0:
126,328,112982,1,0,0:0:0:0:
123,312,113065,1,0,0:0:0:0:
123,312,113316,2,0,L|151:318,1,26.9999991760254,2|0,3:3|0:0,0:0:0:0:
291,380,113483,1,8,0:0:0:0:
340,371,113566,1,8,0:0:0:0:
380,364,113650,1,0,3:2:0:0:
407,360,113733,1,0,3:2:0:0:
423,357,113816,6,0,B|348:295|360:215|405:140|520:144|561:228|529:301|457:292|455:287,1,377.999988464356,0|0,3:2|0:0,0:0:0:0:
462,288,114483,2,0,L|457:267,1,18,8|0,0:0|0:0,0:0:0:0:
400,80,114816,2,0,L|461:66,1,54,0|0,3:2|0:0,0:0:0:0:
476,82,115150,6,0,L|434:90,2,36,2|0|0,0:0|0:0|0:0,0:0:0:0:
506,8,115650,1,2,0:0:0:0:
451,163,115816,1,8,0:0:0:0:
330,41,115983,6,0,P|338:27|353:16,1,26.9999991760254,2|0,0:0|0:0,0:0:0:0:
270,137,116150,2,0,P|278:151|293:162,1,26.9999991760254,2|0,0:0|0:0,0:0:0:0:
194,55,116316,2,0,P|202:41|217:30,1,26.9999991760254,2|0,0:0|0:0,0:0:0:0:
160,156,116483,6,0,B|81:162|22:224|22:224|50:150|35:65|35:65|53:105|86:108,1,377.999988464356,0|0,3:2|0:0,0:0:0:0:
75,106,117150,2,0,L|80:131,1,18,8|0,0:0|0:0,0:0:0:0:
91,264,117483,2,0,P|111:246|148:232,1,54,0|0,3:2|0:0,0:0:0:0:
160,156,117816,2,0,P|186:157|211:164,2,36,2|0|0,0:0|0:0|0:0,0:0:0:0:
285,128,118316,1,2,0:0:0:0:
230,268,118483,2,0,L|224:243,1,18,8|0,0:0|0:0,0:0:0:0:
173,368,118816,2,0,L|159:304,1,54
277,338,119150,6,0,B|309:376|377:370|398:322|391:322|392:283|448:229|534:259|544:355|492:418|400:395|399:327,1,377.999988464356,0|0,3:2|0:0,0:0:0:0:
325,279,119816,2,0,L|329:256,1,18,8|0,0:0|0:0,0:0:0:0:
173,368,120150,2,0,L|159:304,1,54,0|0,3:2|0:0,0:0:0:0:
138,303,120483,6,0,L|146:341,2,36,2|0|0,0:0|0:0|0:0,0:0:0:0:
17,365,120983,1,2,0:0:0:0:
128,209,121150,1,8,0:0:0:0:
63,287,121316,2,0,L|60:270,1,18,2|0,0:1|0:0,0:0:0:0:
71,149,121650,5,0,0:0:0:0:
71,149,121816,2,0,P|78:137|109:132,2,36,2|0|0,3:2|0:0|0:0,0:0:0:0:
128,209,122316,1,2,0:0:0:0:
1,110,122483,2,0,P|51:60|118:51,1,135,8|0,0:0|0:0,0:0:0:0:
187,0,122816,2,0,P|203:27|207:50,1,54,0|0,3:2|0:0,0:0:0:0:
203,125,123150,6,0,B|187:129|170:117|170:117|207:154|270:135|292:99|287:100|293:27|374:7|416:26|416:26|387:49|397:91,1,377.999988464356,2|0,0:0|0:0,0:0:0:0:
470,103,123816,2,0,L|466:85,1,18,10|0,0:0|0:0,0:0:0:0:
452,336,124150,5,2,0:3:0:0:
443,323,124233,1,2,0:3:0:0:
457,328,124316,1,2,0:3:0:0:
443,333,124400,1,2,0:3:0:0:
452,320,124483,6,0,P|399:324|355:345,1,90,6|0,3:2|3:2,0:0:0:0:
244,384,124816,2,0,P|267:336|270:287,1,90,10|0,0:0|0:0,0:0:0:0:
333,146,125150,1,2,3:2:0:0:
452,320,125316,1,0,3:2:0:0:
478,217,125483,2,0,L|431:226,1,45,10|0,0:0|0:0,0:0:0:0:
270,299,125650,6,0,B|183:280|183:280|178:275|178:275|85:255,1,180,2|0,0:0|3:2,0:0:0:0:
19,375,126150,2,0,L|117:354,1,90,10|0,0:0|0:0,0:0:0:0:
325,233,126483,2,0,L|226:212,1,90,2|0,3:2|3:2,0:0:0:0:
24,166,126816,2,0,B|80:151|72:92|72:92|64:115|43:128,1,135,10|0,0:0|0:0,0:0:0:0:
0,68,127150,6,0,B|62:109|129:65|129:65|154:16|210:19,2,215.999993408203,2|8|2,3:2|0:0|3:2,0:0:0:0:
64,8,127983,1,0,3:2:0:0:
205,96,128150,1,8,0:0:0:0:
359,7,128316,1,2,0:0:0:0:
340,172,128483,6,0,L|320:82,1,90,0|0,3:2|3:2,0:0:0:0:
485,0,128816,2,0,L|465:89,1,90,8|0,0:0|0:0,0:0:0:0:
417,266,129150,1,2,3:2:0:0:
243,174,129316,1,0,3:2:0:0:
445,167,129483,1,8,0:0:0:0:
394,373,129650,5,2,0:0:0:0:
394,373,129733,1,0,0:0:0:0:
394,373,129816,1,4,3:2:0:0:
292,249,129983,2,0,B|314:199|368:205|368:205|344:224|344:246,1,135,0|0,3:2|0:0,0:0:0:0:
295,329,130316,2,0,P|237:315|213:245,1,135,8|0,0:0|0:0,0:0:0:0:
243,174,130650,1,8,0:0:0:0:
41,295,130816,1,0,3:2:0:0:
122,84,130983,6,0,B|100:34|46:40|46:40|70:59|70:81,1,135,0|0,3:2|0:0,0:0:0:0:
130,163,131316,2,0,P|154:158|187:129,1,45,8|0,0:0|0:0,0:0:0:0:
188,16,131483,1,0,3:2:0:0:
0,107,131650,2,0,L|10:157,1,45,8|0,0:0|0:0,0:0:0:0:
41,295,131816,1,2,3:2:0:0:
243,174,131983,1,0,3:2:0:0:
155,362,132150,6,0,L|146:321,1,36,10|0,0:0|0:0,0:0:0:0:
340,136,132483,5,10,0:0:0:0:
279,384,132650,1,0,3:2:0:0:
490,256,132816,1,8,3:2:0:0:
243,174,132983,1,2,3:2:0:0:
243,174,133483,5,10,0:0:0:0:
490,256,133650,1,0,3:2:0:0:
279,384,133816,1,8,3:2:0:0:
340,136,133983,1,2,3:2:0:0:
340,136,134316,2,0,L|343:154,1,18,8|0,0:0|0:0,0:0:0:0:
384,359,134483,1,0,3:2:0:0:
263,250,134650,1,8,0:3:0:0:
117,262,134816,1,8,0:3:0:0:
31,334,134983,1,0,1:0:0:0:
20,366,135151,5,10,0:0:0:0:
103,133,135317,1,2,3:2:0:0:
5,355,135484,1,2,0:3:0:0:
88,122,135650,1,2,0:3:0:0:
309,312,136151,5,10,0:0:0:0:
226,79,136317,1,2,3:2:0:0:
324,301,136484,1,2,0:3:0:0:
241,68,136650,1,2,0:3:0:0:
21,271,137816,5,10,0:0:0:0:
256,192,137983,1,2,3:2:0:0:
39,81,138150,1,2,0:3:0:0:
103,328,138316,1,2,0:3:0:0:
491,271,138816,5,10,0:0:0:0:
256,192,138983,1,2,3:2:0:0:
473,81,139150,1,2,0:3:0:0:
409,328,139316,1,2,0:3:0:0:
413,332,139733,5,2,0:3:0:0:
413,332,139816,1,2,0:3:0:0:
293,325,139983,2,0,L|300:358,1,18,2|2,0:3|0:3,0:0:0:0:
316,363,140150,2,0,L|302:301,1,54,2|0,0:3|0:0,0:0:0:0:
229,272,140483,6,0,P|164:337|65:319,1,180,6|0,3:2|3:2,0:0:0:0:
256,192,140983,1,2,0:0:0:0:
256,192,141150,2,0,B|286:183|305:145|305:145|287:184|296:223,1,135,0|0,3:2|0:0,0:0:0:0:
229,272,141483,6,0,P|164:337|65:319,1,180,2|0,3:2|3:2,0:0:0:0:
256,192,141983,1,2,0:0:0:0:
256,192,142150,2,0,B|286:183|305:145|305:145|287:184|296:223,1,135,0|0,3:2|0:0,0:0:0:0:
304,310,142483,2,0,L|401:289,1,90,2|0,3:2|0:0,0:0:0:0:
512,165,142816,2,0,L|414:144,1,90,2|0,3:2|0:0,0:0:0:0:
430,158,143066,1,2,1:3:0:0:
436,169,143150,5,4,3:2:0:0:
392,50,143316,1,8,0:3:0:0:
396,59,143400,1,8,0:3:0:0:
401,67,143483,2,0,L|439:75,1,31.4999990386963,0|0,3:2|0:0,0:0:0:0:
297,102,143650,1,8,0:3:0:0:
301,111,143734,1,8,0:3:0:0:
306,119,143817,2,0,L|344:127,1,31.4999990386963,0|0,3:2|0:0,0:0:0:0:
280,24,143983,2,0,L|232:34,1,40.4999987640381,8|8,3:3|3:3,0:0:0:0:
161,129,144150,2,0,L|128:92,1,40.4999987640381,12|0,3:2|0:0,0:0:0:0:
14,57,144316,5,0,1:0:0:0:
14,57,144400,1,0,1:0:0:0:
14,57,144484,2,0,L|24:18,1,40.4999987640381,12|0,0:0|0:0,0:0:0:0:
40,47,144651,2,0,L|50:8,1,40.4999987640381,10|0,3:2|0:0,0:0:0:0:
152,69,144817,2,0,L|142:30,1,40.4999987640381,10|0,3:2|0:0,0:0:0:0:
134,98,144984,2,0,L|124:59,1,40.4999987640381,10|0,3:2|0:0,0:0:0:0:
13,204,145151,2,0,L|23:165,1,40.4999987640381,10|0,3:2|0:0,0:0:0:0:
153,303,145317,2,0,L|143:264,1,40.4999987640381,10|0,3:2|0:0,0:0:0:0:
0,349,145484,5,8,3:2:0:0:
20,304,145567,1,8,0:0:0:0:
62,277,145650,1,8,0:0:0:0:
112,277,145734,1,8,0:0:0:0:
153,303,145817,6,0,L|143:264,1,40.4999987640381,6|0,3:2|0:0,0:0:0:0:
269,163,145983,1,2,0:0:0:0:
269,163,146066,1,2,3:2:0:0:
269,163,146150,2,0,L|259:202,1,40.4999987640381,10|0,0:0|0:0,0:0:0:0:
224,376,146316,1,0,3:2:0:0:
351,316,146483,2,0,B|317:326|305:358|305:358|302:324|256:302,1,125.999996154785,2|0,0:0|3:2,0:0:0:0:
270,310,146733,1,2,0:0:0:0:
270,310,146816,1,8,0:0:0:0:
444,260,146983,1,2,0:0:0:0:
376,384,147150,6,0,L|341:219,1,144,2|0,3:2|0:0,0:0:0:0:
269,163,147400,1,2,0:0:0:0:
269,163,147483,2,0,L|329:175,1,45,10|0,0:0|0:0,0:0:0:0:
512,208,147650,1,0,3:2:0:0:
432,69,147816,2,0,L|408:179,1,107.999996704102,2|0,0:0|3:2,0:0:0:0:
223,73,148150,1,8,0:0:0:0:
220,31,148233,1,8,0:0:0:0:
249,0,148316,1,8,0:0:0:0:
292,1,148400,1,8,0:0:0:0:
320,32,148483,6,0,B|258:18|258:18|254:16|254:16|186:1,1,135.000005149842,6|0,3:2|0:0,0:0:0:0:
188,2,148733,1,2,3:2:0:0:
188,2,148816,1,8,0:0:0:0:
269,163,148983,1,2,3:2:0:0:
141,77,149150,1,2,0:0:0:0:
103,42,149233,1,2,0:0:0:0:
55,41,149316,1,2,3:2:0:0:
17,60,149400,1,2,0:0:0:0:
0,93,149483,1,10,0:0:0:0:
0,127,149566,1,2,0:0:0:0:
7,146,149650,1,2,0:0:0:0:
20,160,149733,1,2,0:0:0:0:
31,165,149816,6,0,B|71:176|99:147|99:147|116:116|157:115,1,135.000005149842,2|0,3:1|0:0,0:0:0:0:
148,115,150066,1,0,3:2:0:0:
148,115,150150,1,8,0:0:0:0:
255,251,150316,2,0,L|179:234,1,67.5000025749208,2|0,3:2|0:0,0:0:0:0:
0,326,150483,1,8,0:0:0:0:
30,365,150566,1,8,0:0:0:0:
79,371,150649,1,8,0:0:0:0:
118,342,150733,1,8,0:0:0:0:
127,294,150817,2,0,L|118:251,3,36,6|2|2|2,3:2|0:0|0:0|3:2,0:0:0:0:
148,115,151150,5,10,0:0:0:0:
186,80,151233,1,0,0:0:0:0:
241,71,151316,1,2,3:2:0:0:
296,88,151400,1,2,0:0:0:0:
327,132,151483,1,2,0:0:0:0:
356,155,151566,1,2,0:0:0:0:
387,159,151650,1,2,3:2:0:0:
419,150,151733,1,2,0:0:0:0:
436,130,151817,6,0,P|362:187|335:287,1,188.999994232178,14|0,0:0|0:0,0:0:0:0:
417,364,152150,2,0,P|408:341|386:321,1,45,2|0,3:2|0:0,0:0:0:0:
255,251,152316,1,2,0:0:0:0:
209,238,152400,1,2,3:2:0:0:
168,256,152483,1,10,0:0:0:0:
152,287,152566,1,2,0:0:0:0:
134,306,152650,1,2,3:2:0:0:
112,315,152733,1,2,0:0:0:0:
92,315,152816,2,0,L|80:254,1,45,2|0,0:0|0:0,0:0:0:0:
0,210,152983,2,0,L|12:271,1,45,2|0,3:2|0:0,0:0:0:0:
228,327,153150,5,8,0:0:0:0:
218,282,153233,1,8,0:0:0:0:
209,238,153316,1,8,0:0:0:0:
199,194,153400,1,8,0:0:0:0:
190,150,153483,2,0,B|143:200|83:166|83:166|80:168|80:168|59:125|7:126,1,202.500007724762,4|0,3:2|3:2,0:0:0:0:
129,101,153816,6,0,L|141:40,1,45,8|0,0:0|0:0,0:0:0:0:
0,210,153983,2,0,B|16:288|16:288|22:294|22:294|41:380,1,161.999995056153,6|0,3:2|0:0,0:0:0:0:
154,338,154317,2,0,P|136:316|106:317,1,53.9999983520508,8|0,0:0|0:0,0:0:0:0:
258,383,154483,2,0,P|321:378|378:324,1,135.000005149842,8|0,0:0|0:0,0:0:0:0:
215,154,154816,5,0,3:2:0:0:
217,162,154899,1,0,1:0:0:0:
219,171,154982,1,0,1:0:0:0:
221,180,155066,1,0,1:0:0:0:
223,188,155149,1,0,3:2:0:0:
225,197,155232,1,0,1:0:0:0:
227,206,155316,1,0,1:0:0:0:
230,215,155399,1,0,1:0:0:0:
232,223,155483,5,0,3:2:0:0:
217,207,155566,1,0,1:0:0:0:
192,184,155650,1,0,1:0:0:0:
153,179,155733,1,0,1:0:0:0:
102,183,155816,1,0,3:2:0:0:
61,139,155900,1,0,1:0:0:0:
59,76,155983,1,0,1:0:0:0:
121,26,156066,1,0,1:0:0:0:
195,40,156150,1,4,3:2:0:0:
191,46,157483,6,0,L|206:112,1,67.5,2|0,0:0|0:0,0:0:0:0:
256,192,158817,5,4,3:2:0:0:
11,88,158983,1,0,3:2:0:0:
102,330,159150,1,2,0:0:0:0:
206,112,159316,1,0,3:2:0:0:
76,211,159483,2,0,P|78:194|83:177,1,22.5,8|0,0:3|0:0,0:0:0:0:
5,174,159650,2,0,P|3:185|2:197,1,22.5,8|0,0:3|0:0,0:0:0:0:
256,192,159816,5,10,0:0:0:0:
501,88,159983,1,0,3:2:0:0:
410,330,160150,1,2,3:2:0:0:
306,112,160316,1,0,3:2:0:0:
436,211,160483,6,0,P|433:194|428:177,1,22.5,8|0,3:2|0:0,0:0:0:0:
506,174,160650,2,0,P|508:185|510:197,1,22.5,8|0,0:0|0:0,0:0:0:0:
410,330,160816,2,0,P|413:313|418:296,1,22.5,8|0,0:3|0:0,0:0:0:0:
340,293,160983,2,0,P|338:304|336:316,1,22.5,8|0,0:3|0:0,0:0:0:0:
256,192,161150,1,8,0:0:0:0:
306,112,161316,1,0,3:2:0:0:
254,365,161483,6,0,B|211:387|141:359|137:300|145:304|156:252|116:192|12:198|-14:283|-14:283|34:286|58:322,1,432,4|0,3:2|0:0,0:0:0:0:
228,291,162816,2,0,B|237:195|338:163|401:220|392:291|322:297,1,270,4|0,3:2|0:0,0:0:0:0:
90,369,163483,2,0,L|140:129,1,216,4|0,3:2|0:0,0:0:0:0:
37,11,164150,5,6,3:2:0:0:
6,33,164233,1,0,1:2:0:0:
0,70,164316,1,0,1:2:0:0:
18,98,164400,1,0,1:2:0:0:
51,113,164483,1,0,3:2:0:0:
84,104,164566,1,0,1:2:0:0:
105,74,164650,5,2,1:2:0:0:
149,55,164733,1,0,1:2:0:0:
200,64,164816,1,0,3:2:0:0:
237,97,164900,1,0,1:2:0:0:
278,128,164983,1,0,1:2:0:0:
331,130,165067,1,0,1:2:0:0:
372,101,165150,5,2,3:2:0:0:
332,67,165233,1,0,1:2:0:0:
279,67,165316,1,0,1:2:0:0:
237,97,165400,1,0,1:2:0:0:
224,148,165483,6,0,L|232:190,3,36,0|0|2|0,3:2|1:2|1:2|1:2,0:0:0:0:
322,321,165816,2,0,L|330:278,3,36,0|0|0|0,3:2|1:2|1:2|1:2,0:0:0:0:
507,334,166150,5,2,3:2:0:0:
468,375,166233,1,0,1:2:0:0:
411,384,166316,1,0,1:2:0:0:
355,370,166400,1,0,1:2:0:0:
322,321,166483,1,2,3:2:0:0:
289,272,166566,1,0,1:2:0:0:
233,258,166650,1,0,1:2:0:0:
176,267,166733,1,0,1:2:0:0:
139,309,166816,6,0,B|233:240|211:153|122:108|61:182|93:230,1,292.499986610413,6|0,3:2|0:0,0:0:0:0:
45,301,167316,2,0,P|137:253|348:236,1,292.499986610413,6|0,3:2|0:0,0:0:0:0:
322,231,167816,2,0,L|316:201,1,22.5,6|0,3:2|0:0,0:0:0:0:
332,94,169483,6,0,B|294:103|261:58|261:58|264:102|300:154|373:184|427:126|427:126|431:127|431:127|378:76|388:-12|497:-48|561:22|559:94|507:122|504:120,1,630,4|0,3:2|0:0,0:0:0:0:
323,17,170816,2,0,B|339:93|264:126|264:126|263:132|263:132|199:139|158:191|190:254|190:254|193:211|240:181,1,377.999988464356,4|0,3:2|0:0,0:0:0:0:
270,258,171483,2,0,L|280:303,1,40.4999987640381
269,320,171816,6,0,L|257:260,1,45,2|0,0:0|0:0,0:0:0:0:
210,67,171983,1,2,0:0:0:0:
61,230,172150,6,0,B|16:231|-12:195|7:148|7:148|17:177|45:185,1,161.999995056153,4|0,3:2|3:2,0:0:0:0:
80,120,172483,2,0,L|127:130,1,36,10|0,0:0|0:0,0:0:0:0:
217,198,172650,2,0,B|320:175|320:175|323:168|323:168|436:144,1,215.999993408203,2|0,3:2|3:2,0:0:0:0:
449,262,173150,2,0,L|440:220,1,36,10|0,0:0|0:0,0:0:0:0:
431,66,173316,6,0,B|475:51|493:14|493:14|476:52|488:111,1,161.999995056153,2|0,3:2|0:0,0:0:0:0:
423,146,173650,2,0,P|389:137|369:115,1,53.9999983520508,2|0,3:2|0:0,0:0:0:0:
257,45,173816,2,0,P|223:54|203:76,1,53.9999983520508,10|0,0:0|0:0,0:0:0:0:
140,215,173983,1,0,3:2:0:0:
70,15,174150,1,2,0:0:0:0:
20,180,174316,1,0,3:2:0:0:
9,169,174400,1,0,1:0:0:0:
0,159,174483,1,8,0:0:0:0:
39,150,174566,1,8,0:0:0:0:
79,141,174649,1,8,0:0:0:0:
118,133,174733,1,8,0:0:0:0:
158,124,174816,5,2,3:2:0:0:
116,311,174983,1,2,0:0:0:0:
323,242,175150,1,2,3:2:0:0:
244,201,175316,1,2,0:0:0:0:
451,132,175483,5,2,3:2:0:0:
409,319,175650,1,2,0:2:0:0:
244,201,175817,1,2,3:2:0:0:
323,242,175983,1,2,0:0:0:0:
147,236,176150,5,2,3:2:0:0:
348,162,176316,1,2,0:0:0:0:
297,331,176483,1,2,3:2:0:0:
244,201,176650,1,2,0:0:0:0:
461,330,176816,1,8,3:3:0:0:
461,330,176900,1,8,0:3:0:0:
461,330,176983,2,0,L|407:318,1,53.9999983520508,0|0,1:0|1:0,0:0:0:0:
244,201,177150,2,0,L|189:217,1,53.9999983520508,8|8,3:3|0:3,0:0:0:0:
53,252,177316,5,0,1:0:0:0:
53,252,177400,1,0,1:0:0:0:
53,252,177483,2,0,B|6:206|40:138|40:138|40:134|40:134|113:107|118:43,2,233.999989288331,6|10|2,3:2|0:0|0:0,0:0:0:0:
31,46,178316,1,0,3:2:0:0:
107,189,178483,2,0,L|141:181,1,36,14|0,0:0|0:0,0:0:0:0:
289,67,178650,6,0,B|295:-4|213:-27|163:6|163:6|195:32|191:75,1,233.999989288331,2|0,0:0|3:2,0:0:0:0:
298,164,179150,2,0,P|346:127|412:127,1,116.999994644165,10|0,0:0|3:2,0:0:0:0:
437,302,179483,2,0,P|414:292|408:273,1,40.4999987640381,2|0,0:0|0:0,0:0:0:0:
472,194,179650,2,0,P|495:204|501:223,1,40.4999987640381,0|0,3:2|0:0,0:0:0:0:
444,383,179816,1,8,0:0:0:0:
403,380,179899,1,8,0:0:0:0:
368,362,179982,1,8,0:0:0:0:
343,330,180066,1,8,0:0:0:0:
333,291,180150,2,0,L|287:300,1,45,4|0,3:2|0:0,0:0:0:0:
186,384,180316,5,8,0:0:0:0:
146,375,180399,1,8,0:0:0:0:
106,367,180482,1,8,0:0:0:0:
67,358,180566,1,8,0:0:0:0:
28,350,180650,2,0,P|50:336|62:314,1,45,6|0,3:2|0:0,0:0:0:0:
88,164,180816,5,8,0:0:0:0:
49,144,180899,1,8,0:0:0:0:
10,162,180982,1,8,0:0:0:0:
0,204,181066,1,8,0:0:0:0:
28,238,181150,2,0,L|85:225,1,45,6|0,3:2|0:0,0:0:0:0:
188,252,181316,5,8,0:0:0:0:
188,252,181400,1,8,0:0:0:0:
188,252,181483,2,0,L|205:196,1,45,4|0,3:2|0:0,0:0:0:0:
245,26,181650,5,8,0:0:0:0:
211,33,181733,1,8,0:0:0:0:
178,40,181816,1,8,0:0:0:0:
145,47,181900,1,8,0:0:0:0:
112,54,181983,2,0,L|168:66,1,45,6|0,3:2|0:0,0:0:0:0:
279,162,182150,5,8,0:0:0:0:
339,195,182233,1,8,0:0:0:0:
387,192,182316,1,8,0:0:0:0:
426,174,182400,1,8,0:0:0:0:
446,146,182483,1,2,3:2:0:0:
460,127,182566,1,8,0:3:0:0:
478,122,182650,1,8,0:3:0:0:
493,123,182733,1,8,0:3:0:0:
504,131,182816,6,0,L|493:81,1,45,6|0,3:2|0:0,0:0:0:0:
370,0,182983,2,0,L|356:64,1,62.9999980773926,0|2,3:2|0:0,0:0:0:0:
306,293,183316,2,0,B|287:265|233:275|233:275|278:242|339:262|354:321,1,216,2|0,3:2|0:0,0:0:0:0:
402,367,183650,2,0,P|421:380|443:377,1,40.4999987640381,2|0,3:2|0:0,0:0:0:0:
454,272,183983,6,0,B|384:242|337:313|341:317|304:373|241:357,1,229.500004377365,14|0,3:2|0:0,0:0:0:0:
175,340,184316,2,0,L|184:386,1,45,0|0,3:2|0:0,0:0:0:0:
42,312,184483,2,0,L|72:169,1,135.000005149842,8|0,0:0|0:0,0:0:0:0:
25,27,184816,5,8,0:3:0:0:
71,88,184928,1,8,0:3:0:0:
148,74,185039,1,8,0:3:0:0:
225,94,185150,5,0,3:2:0:0:
227,39,185261,1,0,3:2:0:0:
182,4,185372,1,0,3:2:0:0:
172,157,185483,6,0,P|188:169|211:176,1,31.4999990386963,2|0,3:3|0:0,0:0:0:0:
231,252,185650,2,0,P|250:243|267:227,1,31.4999990386963,2|0,0:3|0:0,0:0:0:0:
380,190,185816,2,0,P|336:151|265:162,1,107.999996704102,2|2,3:2|0:3,0:0:0:0:
293,348,186150,1,2,3:2:0:0:
486,227,186316,2,0,L|494:185,1,36,2|0,0:3|0:0,0:0:0:0:
510,87,186483,1,2,3:2:0:0:
380,190,186650,2,0,L|388:231,1,36,2|0,0:3|0:0,0:0:0:0:
415,361,186816,6,0,B|429:326|475:331|475:331|448:344|443:368,1,107.999996704102,0|2,3:2|0:3,0:0:0:0:
448,353,187066,1,2,0:3:0:0:
448,353,187150,1,2,3:2:0:0:
493,191,187316,1,2,0:0:0:0:
293,348,187483,5,0,3:2:0:0:
249,354,187566,1,0,1:0:0:0:
211,340,187650,1,0,1:0:0:0:
188,308,187733,1,0,1:0:0:0:
176,268,187816,1,0,3:2:0:0:
139,240,187900,1,8,0:3:0:0:
92,232,187983,1,8,0:3:0:0:
51,257,188066,1,8,0:3:0:0:
34,301,188150,2,0,L|79:291,1,45,6|0,3:2|0:0,0:0:0:0:
262,270,188316,5,8,0:0:0:0:
254,236,188399,1,8,0:0:0:0:
247,203,188482,1,8,0:0:0:0:
240,170,188566,1,8,0:0:0:0:
233,137,188650,2,0,P|220:154|194:160,1,45,6|0,3:2|0:0,0:0:0:0:
25,97,188816,5,8,0:0:0:0:
24,53,188899,1,8,0:0:0:0:
52,19,188982,1,8,0:0:0:0:
95,13,189066,1,8,0:0:0:0:
132,37,189150,2,0,L|121:86,1,45,6|0,3:2|0:0,0:0:0:0:
41,213,189316,5,8,0:0:0:0:
41,213,189400,1,8,0:0:0:0:
41,213,189483,2,0,L|52:262,1,45,2|0,3:2|0:0,0:0:0:0:
124,378,189650,2,0,L|135:329,1,45,6|0,3:2|0:0,0:0:0:0:
232,223,189816,5,8,0:0:0:0:
266,231,189900,1,8,0:0:0:0:
296,257,189983,1,8,0:0:0:0:
313,290,190066,1,8,0:0:0:0:
318,327,190150,5,10,3:2:0:0:
350,282,190233,1,8,0:0:0:0:
389,260,190316,1,8,0:0:0:0:
437,262,190400,1,8,0:0:0:0:
477,258,190483,1,8,0:3:0:0:
504,217,190566,1,8,0:3:0:0:
492,168,190650,1,8,0:3:0:0:
451,152,190733,1,8,0:3:0:0:
416,158,190816,6,0,B|380:174|376:213|376:213|336:149|399:66|489:91,1,269.999991760254,4|0,3:2|0:0,0:0:0:0:
451,223,191316,2,0,P|347:197|152:209,1,269.999991760254,4|0,3:2|0:0,0:0:0:0:
2,202,191816,6,0,B|-25:156|-2:77|110:73|140:136|140:137|140:137|108:153|110:200,1,269.999991760254,4|0,3:2|0:0,0:0:0:0:
162,284,192316,2,0,B|143:337|71:337|40:279|73:231|73:231|98:245|131:239,1,225,4|0,3:2|0:0,0:0:0:0:
185,201,192816,2,0,P|229:224|243:249,1,72,4|0,3:2|0:0,0:0:0:0:
296,373,193150,2,0,P|320:325|371:304,1,107.999996704102,4|0,3:2|0:0,0:0:0:0:
509,158,193483,6,0,B|507:101|487:50|413:32|358:66|341:141|412:161|410:160,1,269.999991760254,4|0,3:2|0:0,0:0:0:0:
453,242,193983,2,0,L|506:-1,1,247.500007553101,4|0,3:2|0:0,0:0:0:0:
410,160,194483,6,0,B|412:161|341:141|358:66|413:32|487:50|507:101|509:158,1,269.999991760254,4|0,3:2|0:0,0:0:0:0:
504,307,194983,2,0,B|477:331|421:341|380:286|380:286|369:244|322:207|266:234,1,269.999991760254,4|0,3:2|0:0,0:0:0:0:
270,366,195483,2,0,P|283:331|306:293,1,72,4|0,3:2|0:0,0:0:0:0:
53,220,195816,2,0,P|93:259|111:310,1,107.999996704102,4|0,3:2|0:0,0:0:0:0:
143,185,196150,2,0,P|129:169|106:155,1,45,4|0,3:2|0:0,0:0:0:0:
0,47,196316,5,8,0:0:0:0:
35,39,196399,1,8,0:0:0:0:
70,32,196482,1,8,0:0:0:0:
105,24,196566,1,8,0:0:0:0:
140,17,196650,2,0,L|129:66,1,45,4|0,3:2|0:0,0:0:0:0:
143,185,196816,5,8,0:0:0:0:
186,191,196899,1,8,0:0:0:0:
223,166,196982,1,8,0:0:0:0:
234,124,197066,1,8,0:0:0:0:
213,84,197150,2,0,L|258:93,1,45,4|0,3:2|0:0,0:0:0:0:
454,114,197316,5,8,0:0:0:0:
455,69,197399,1,8,0:0:0:0:
428,35,197482,1,8,0:0:0:0:
385,26,197566,1,8,0:0:0:0:
347,47,197650,2,0,L|357:95,1,45,4|0,3:2|0:0,0:0:0:0:
471,206,197816,5,8,0:0:0:0:
463,239,197899,1,8,0:0:0:0:
456,272,197982,1,8,0:0:0:0:
449,305,198066,1,8,0:0:0:0:
442,338,198150,2,0,L|386:326,3,45,4|8|8|8,3:2|0:3|0:3|0:3,0:0:0:0:
349,249,198483,6,0,L|310:291,1,31.4999990386963,8|8,3:3|0:3,0:0:0:0:
236,292,198650,2,0,L|253:346,1,31.4999990386963,8|8,0:3|0:3,0:0:0:0:
175,384,198816,6,0,L|157:329,1,45,4|0,3:2|0:0,0:0:0:0:
119,212,198983,5,8,0:0:0:0:
85,190,199066,1,8,0:0:0:0:
41,197,199149,1,8,0:0:0:0:
10,224,199233,1,8,0:0:0:0:
0,267,199316,2,0,P|26:276|47:300,1,45,4|0,3:2|0:0,0:0:0:0:
175,384,199483,5,8,0:0:0:0:
161,341,199566,1,8,0:0:0:0:
147,298,199650,1,8,0:0:0:0:
133,255,199732,1,8,0:0:0:0:
119,212,199816,2,0,L|180:224,1,45,4|0,3:2|0:0,0:0:0:0:
314,325,199983,5,8,0:0:0:0:
357,315,200066,1,8,0:0:0:0:
401,306,200149,1,8,0:0:0:0:
445,296,200233,1,8,0:0:0:0:
489,287,200316,2,0,L|477:235,1,45,4|0,3:2|0:0,0:0:0:0:
385,100,200483,5,8,0:0:0:0:
378,126,200566,1,8,0:0:0:0:
386,152,200650,1,8,0:0:0:0:
408,168,200733,1,8,0:0:0:0:
429,168,200816,6,0,B|461:147|500:155|500:155|457:129|375:130|324:192|326:191|379:274|285:335|109:312|154:129|239:127|239:127|206:135|194:172,1,630,4|0,3:2|0:0,0:0:0:0:
259,196,201483,2,0,L|226:42,1,135.000005149842,4|0,3:2|0:0,0:0:0:0:
230,63,201733,1,0,3:2:0:0:
230,63,201816,1,8,0:0:0:0:
50,9,201983,2,0,B|67:78|152:68|152:68|154:17|196:-1,1,215.999993408203,2|0,3:2|3:2,0:0:0:0:
381,22,202483,2,0,L|276:0,1,107.999996704102,10|0,0:0|0:0,0:0:0:0:
316,150,202816,5,0,3:2:0:0:
489,26,202983,1,2,3:2:0:0:
489,26,203066,1,0,3:2:0:0:
489,26,203150,1,8,0:0:0:0:
436,220,203316,1,0,3:2:0:0:
286,79,203483,2,0,B|257:81|232:65|232:65|249:91|243:124,1,107.999996704102,2|0,0:0|3:2,0:0:0:0:
436,220,203816,2,0,B|448:193|475:180|475:180|444:181|418:160,1,107.999996704102,10|0,0:0|0:0,0:0:0:0:
161,119,204150,6,0,L|185:236,1,107.999996704102,2|0,3:2|0:0,0:0:0:0:
193,256,204400,1,0,3:2:0:0:
193,256,204483,1,8,0:0:0:0:
375,273,204650,2,0,B|319:238|268:282|268:282|244:339|186:335,1,215.999993408203,2|0,3:2|3:2,0:0:0:0:
487,359,205150,2,0,L|511:242,1,107.999996704102,10|0,0:0|0:0,0:0:0:0:
304,151,205483,5,0,3:2:0:0:
342,376,205650,1,2,3:2:0:0:
342,376,205733,1,0,3:2:0:0:
342,376,205816,1,8,0:0:0:0:
476,180,205983,1,0,3:2:0:0:
269,295,206150,2,0,L|385:270,1,107.999996704102,2|0,0:0|3:2,0:0:0:0:
186,384,206483,1,8,0:0:0:0:
164,349,206566,1,8,0:0:0:0:
131,326,206649,1,8,0:0:0:0:
92,317,206733,1,8,0:0:0:0:
52,324,206816,5,2,3:2:0:0:
246,204,206983,1,2,0:0:0:0:
246,204,207066,1,0,0:0:0:0:
246,204,207150,1,2,3:2:0:0:
15,174,207316,1,2,0:0:0:0:
177,261,207483,1,2,3:2:0:0:
54,241,207650,2,0,P|73:227|86:204,1,26.9999991760254,2|0,0:3|0:0,0:0:0:0:
136,150,207816,1,0,3:2:0:0:
65,54,207983,2,0,P|84:68|97:91,1,26.9999991760254,2|0,0:3|0:0,0:0:0:0:
158,148,208149,5,2,3:2:0:0:
276,18,208316,1,2,0:0:0:0:
276,18,208400,1,2,0:0:0:0:
276,18,208483,1,2,3:2:0:0:
327,236,208650,1,2,0:0:0:0:
495,97,208816,5,0,3:2:0:0:
478,55,208900,1,0,1:0:0:0:
434,34,208983,1,0,1:0:0:0:
386,40,209066,1,0,1:0:0:0:
353,71,209150,1,0,3:2:0:0:
350,108,209233,1,8,0:3:0:0:
358,132,209316,1,8,0:3:0:0:
369,146,209400,1,8,0:3:0:0:
380,154,209483,6,0,B|435:147|475:112|475:112|436:147|434:206,1,202.500007724762,4|0,3:2|0:0,0:0:0:0:
448,282,209816,1,8,3:2:0:0:
262,359,209983,1,8,3:2:0:0:
231,273,210150,1,8,3:2:0:0:
468,374,210316,1,8,3:2:0:0:
371,250,210483,2,0,L|315:261,1,36,8|0,3:2|0:0,0:0:0:0:
147,291,210650,2,0,L|136:235,1,36,8|0,3:2|0:0,0:0:0:0:
146,75,210816,5,0,3:2:0:0:
166,48,210900,1,0,1:2:0:0:
206,30,210983,1,0,1:2:0:0:
253,32,211066,1,0,1:2:0:0:
296,64,211150,1,0,3:2:0:0:
316,120,211233,1,0,1:2:0:0:
360,166,211316,1,0,1:2:0:0:
422,179,211400,1,0,1:2:0:0:
483,160,211483,1,0,3:2:0:0:
512,101,211566,1,0,1:2:0:0:
499,37,211650,1,0,1:2:0:0:
444,3,211733,1,0,1:2:0:0:
377,9,211816,2,0,L|369:53,1,45,0|0,3:2|0:0,0:0:0:0:
256,192,211983,5,2,3:3:0:0:
