osu file format v14

[General]
AudioFilename: audio.mp3
AudioLeadIn: 0
PreviewTime: 80467
Countdown: 0
SampleSet: Soft
StackLeniency: 0.7
Mode: 2
LetterboxInBreaks: 0
EpilepsyWarning: 1
WidescreenStoryboard: 1

[Editor]
DistanceSpacing: 0.7
BeatDivisor: 4
GridSize: 8
TimelineZoom: 2.1

[Metadata]
Title:Into Gray (Short Ver.)
TitleUnicode:Into Gray (Short Ver.)
Artist:yuki
ArtistUnicode:yuki
Creator:-Luminate
Version:Salad
Source:白昼夢の青写真
Tags:緒乃ワサビ Laplacian Hakuchuumu no Aojashin The girl who's whos called the world video game visual novel vn eroge japanese case0 case-0 op opening
BeatmapID:3733096
BeatmapSetID:1818488

[Difficulty]
HPDrainRate:3
CircleSize:3
OverallDifficulty:7
ApproachRate:7
SliderMultiplier:1.7
SliderTickRate:1

[Events]
//Background and Video events
0,0,"bg.jpg",0,0
Video,901,"video.mp4"
//Break Periods
//Storyboard Layer 0 (Background)
//Storyboard Layer 1 (Fail)
//Storyboard Layer 2 (Pass)
//Storyboard Layer 3 (Foreground)
//Storyboard Layer 4 (Overlay)
//Storyboard Sound Samples

[TimingPoints]
2830,352.941176470588,4,2,3,30,1,0
35124,-333.333333333333,4,2,3,30,0,0
35477,-133.333333333333,4,2,3,10,0,0
37947,-100,4,2,1,50,0,0
38801,333.333333333333,4,2,1,75,1,0
49800,-100,4,2,2,55,0,0
60134,-100,4,2,1,70,0,0
71134,-100,4,2,1,55,0,0
73467,-100,4,2,1,75,0,0
76467,-100,4,2,1,55,0,0
77467,-100,4,2,1,65,0,0
78800,-100,4,2,3,65,0,0
80467,-100,4,2,1,50,0,0
81467,-100,4,2,4,85,0,0
84134,-100,4,2,4,80,0,0
92134,-100,4,2,4,85,0,1
97467,-100,4,2,1,80,0,0
100134,-100,4,2,4,80,0,0
102800,-100,4,2,4,75,0,0
107800,-100,4,2,1,75,0,0
108134,-100,4,2,4,75,0,0
110134,-100,4,2,1,75,0,0

[Colours]
Combo1 : 164,164,255
Combo2 : 200,200,200
Combo3 : 91,91,255

[HitObjects]
120,312,2653,5,0,0:0:0:0:
200,312,2830,2,0,L|208:120,1,170,0|0,0:0|0:0,0:0:0:0:
128,136,3359,1,2,0:0:0:0:
320,296,4065,5,0,0:0:0:0:
240,304,4242,2,0,L|232:120,1,170,0|0,0:0|0:0,0:0:0:0:
312,136,4771,1,2,0:0:0:0:
456,288,5477,5,0,0:0:0:0:
376,296,5653,2,0,L|368:104,1,170,0|0,0:0|0:0,0:0:0:0:
288,120,6182,1,2,0:0:0:0:
104,288,6888,5,0,0:0:0:0:
192,288,7064,2,0,L|208:88,1,170,0|0,0:0|0:0,0:0:0:0:
288,120,7593,1,2,0:0:0:0:
432,328,8300,5,0,0:0:0:0:
352,304,8477,2,0,L|504:176,1,170,0|0,0:0|0:0,0:0:0:0:
408,192,9006,1,2,0:0:0:0:
248,192,9712,5,0,0:0:0:0:
328,192,9889,2,0,L|168:72,1,170,0|0,0:0|0:0,0:0:0:0:
264,88,10418,1,2,0:0:0:0:
80,320,11124,5,0,0:0:0:0:
160,296,11300,2,0,L|176:96,1,170,0|0,0:0|0:0,0:0:0:0:
256,136,11829,1,2,0:0:0:0:
360,320,12535,5,0,0:0:0:0:
280,320,12711,2,0,L|264:144,1,170,0|0,0:0|0:0,0:0:0:0:
192,152,13240,1,2,0:0:0:0:
408,104,13947,5,0,0:0:0:0:
320,104,14124,2,0,P|248:144|240:248,1,170,2|0,0:0|0:0,0:0:0:0:
384,224,14829,1,8,0:0:0:0:
232,344,15359,1,0,0:0:0:0:
320,312,15535,6,0,L|176:184,1,170,2|0,0:0|0:0,0:0:0:0:
16,192,16241,1,8,0:0:0:0:
184,168,16771,1,0,0:0:0:0:
104,160,16947,6,0,L|96:336,1,170,2|0,0:0|0:0,0:0:0:0:
264,320,17653,1,8,0:0:0:0:
160,320,18182,1,0,0:0:0:0:
248,304,18359,6,0,L|232:104,1,170,2|0,0:0|0:0,0:0:0:0:
392,144,19065,1,8,0:0:0:0:
392,144,19418,1,2,0:0:0:0:
144,136,19771,6,0,P|96:208|144:272,1,170,2|0,0:0|0:0,0:0:0:0:
240,336,20477,2,0,L|248:152,1,170,8|0,0:0|0:0,0:0:0:0:
168,152,21006,6,0,L|160:64,1,85,2|0,0:0|0:0,0:0:0:0:
288,48,21535,1,0,0:0:0:0:
160,48,21888,2,0,P|112:112|184:176,1,170,8|0,0:0|0:0,0:0:0:0:
432,296,22594,6,0,L|296:176,2,170,2|0|8,0:0|0:0|0:0,0:0:0:0:
312,336,23653,1,2,0:0:0:0:
40,328,24006,6,0,L|32:128,1,170,0|0,0:0|0:0,0:0:0:0:
184,232,24712,2,0,L|192:48,1,170,8|8,0:0|0:0,0:0:0:0:
32,56,25418,5,4,0:0:0:0:
168,328,25771,1,0,0:0:0:0:
216,264,25947,1,0,0:0:0:0:
168,216,26124,1,2,0:0:0:0:
168,216,26653,1,0,0:0:0:0:
80,224,26829,6,0,L|72:48,1,170,2|0,0:0|0:0,0:0:0:0:
288,64,28241,5,4,0:0:0:0:
152,320,28594,1,0,0:0:0:0:
160,240,28771,1,0,0:0:0:0:
224,160,28947,1,2,0:0:0:0:
224,160,29477,1,0,0:0:0:0:
304,240,29653,6,0,L|312:48,1,170,2|0,0:0|0:0,0:0:0:0:
464,336,31065,5,4,0:0:0:0:
280,288,31418,1,2,0:0:0:0:
352,192,31771,1,0,0:0:0:0:
432,96,32124,1,2,0:0:0:0:
160,80,32477,5,4,0:0:0:0:
288,328,32829,1,2,0:0:0:0:
216,232,33182,1,0,0:0:0:0:
136,136,33535,1,2,0:0:0:0:
464,360,33888,6,0,P|432:136|248:40,1,425,6|0,0:0|0:0,0:0:0:0:
256,192,35124,12,4,36712,0:0:0:0:
280,304,37947,5,2,0:0:0:0:
376,296,38124,2,0,L|384:112,1,170,2|2,0:0|0:0,0:0:0:0:
104,112,38801,6,0,P|64:208|120:256,1,170,12|8,3:2|3:2,0:0:0:0:
184,248,39301,1,10,3:1:0:0:
99,248,39467,2,0,L|99:40,1,170,8|10,3:2|3:1,0:0:0:0:
264,344,39967,6,0,P|368:280|368:208,1,170,0|10,3:2|3:1,0:0:0:0:
280,232,40467,2,0,L|272:120,1,85,8|0,3:2|3:2,0:0:0:0:
374,242,40801,2,0,L|384:72,1,170,10|10,3:1|3:2,0:0:0:0:
104,48,41467,6,0,P|61:117|99:188,1,170,14|8,3:2|3:2,0:0:0:0:
176,192,41967,2,0,P|218:261|180:332,1,170,10|0,3:1|3:2,0:0:0:0:
104,336,42467,1,10,3:1:0:0:
376,320,42800,5,8,3:2:0:0:
296,288,42967,2,0,L|280:104,1,170,10|0,3:1|3:2,0:0:0:0:
448,112,43467,1,10,3:2:0:0:
472,192,43634,1,8,3:1:0:0:
456,280,43800,1,8,3:3:0:0:
376,320,43967,1,4,3:3:0:0:
200,328,44134,5,14,0:0:0:0:
168,264,44300,1,8,0:0:0:0:
208,208,44467,1,8,0:1:0:0:
280,184,44634,1,2,0:0:0:0:
304,112,44800,1,8,0:0:0:0:
280,32,44967,1,8,0:0:0:0:
208,16,45134,1,10,0:1:0:0:
472,336,45467,5,10,0:0:0:0:
416,272,45634,1,8,0:0:0:0:
416,184,45800,1,8,0:1:0:0:
480,120,45967,1,10,0:0:0:0:
336,328,46300,1,8,0:0:0:0:
384,256,46467,1,8,0:1:0:0:
336,192,46634,1,8,0:0:0:0:
176,200,46800,5,14,0:0:0:0:
272,136,47134,1,14,0:1:0:0:
104,336,47467,1,8,0:0:0:0:
56,248,47634,1,8,0:0:0:0:
104,160,47800,1,8,0:1:0:0:
272,160,47967,6,0,P|320:224|248:296,1,170,8|2,0:1|0:0,0:0:0:0:
200,296,48467,1,8,0:1:0:0:
368,344,48800,1,10,0:0:0:0:
432,280,48967,1,8,0:0:0:0:
376,208,49134,1,10,0:1:0:0:
136,192,49467,5,4,0:0:0:0:
256,80,49800,2,0,L|264:192,1,85,8|2,0:1|0:0,0:0:0:0:
408,232,50467,1,0,0:0:0:0:
464,272,50634,1,10,0:0:0:0:
464,328,50800,5,8,0:0:0:0:
336,336,51134,2,0,L|328:232,1,85,8|8,0:1|0:1,0:0:0:0:
200,312,51634,1,10,0:0:0:0:
144,240,51800,1,0,0:0:0:0:
208,176,51967,1,2,0:0:0:0:
360,176,52134,5,8,0:0:0:0:
256,160,52467,2,0,L|248:40,1,85,8|8,0:1|0:1,0:0:0:0:
376,312,52967,2,0,P|408:216|352:176,1,170,2|0,0:0|3:0,0:0:0:0:
288,176,53467,5,8,0:0:0:0:
416,64,53800,2,0,L|424:184,1,85,8|8,0:1|0:1,0:0:0:0:
272,176,54300,1,8,0:0:0:0:
216,176,54467,1,4,0:3:0:0:
488,328,54800,6,0,L|496:152,1,170,14|8,0:0|0:1,0:0:0:0:
416,160,55300,1,8,0:1:0:0:
224,328,55967,1,0,3:0:0:0:
304,304,56134,6,0,L|296:120,1,170,8|8,0:0|0:1,0:0:0:0:
224,120,56634,1,8,0:1:0:0:
376,72,56967,1,2,0:0:0:0:
392,144,57134,1,0,3:0:0:0:
112,320,57467,5,8,0:0:0:0:
48,272,57634,1,8,0:0:0:0:
56,184,57800,1,8,0:1:0:0:
120,144,57967,1,8,0:1:0:0:
344,328,58634,1,0,3:0:0:0:
264,320,58800,6,0,L|256:144,1,170,8|8,0:0|0:1,0:0:0:0:
184,144,59300,1,8,0:1:0:0:
368,160,59634,1,8,0:0:0:0:
440,144,59800,2,0,L|448:40,1,85,8|8,3:0|3:0,0:0:0:0:
288,304,60134,6,0,L|160:176,2,170,14|10|10,0:0|0:0|0:0,0:0:0:0:
104,224,61134,2,0,L|96:328,1,85,8|0,0:1|0:0,0:0:0:0:
368,352,61634,5,2,0:0:0:0:
432,288,61800,1,8,0:0:0:0:
432,216,61967,1,2,0:0:0:0:
368,176,62134,1,10,0:0:0:0:
232,176,62467,1,8,0:1:0:0:
232,176,62634,1,2,0:0:0:0:
392,168,62800,6,0,P|416:64|356:25,1,170,10|8,0:0|0:0,0:0:0:0:
261,277,63467,2,0,L|413:149,1,170,10|8,0:0|0:1,0:0:0:0:
320,168,63967,1,0,0:0:0:0:
160,168,64134,6,0,P|120:224|176:312,1,170,10|8,0:0|0:0,0:0:0:0:
256,312,64800,1,10,0:0:0:0:
104,352,65134,1,8,0:1:0:0:
384,336,65467,6,0,L|480:288,2,85,14|8|8,0:0|0:0|0:1,0:0:0:0:
240,184,66134,1,10,0:0:0:0:
296,152,66300,1,8,0:0:0:0:
360,128,66467,1,8,0:1:0:0:
80,88,66800,6,0,L|8:40,2,85,10|8|8,0:0|0:0|0:1,0:0:0:0:
176,344,67467,2,0,L|16:240,1,170,10|8,0:0|0:1,0:0:0:0:
344,240,68134,5,14,0:1:0:0:
416,216,68300,1,8,0:3:0:0:
448,152,68467,1,4,0:3:0:0:
448,72,68634,1,8,0:1:0:0:
48,240,69134,5,14,0:1:0:0:
16,152,69300,1,8,0:3:0:0:
48,64,69467,1,4,0:3:0:0:
120,40,69634,1,8,0:1:0:0:
264,336,69967,1,8,0:1:0:0:
176,328,70134,2,0,L|168:136,1,170,8|4,0:3|0:3,0:0:0:0:
448,152,70800,5,12,0:0:0:0:
320,152,71134,1,2,0:0:0:0:
320,152,71300,1,2,0:0:0:0:
400,264,71467,2,0,P|464:136|376:80,1,255,2|0,0:0|0:0,0:0:0:0:
320,80,72134,5,2,0:0:0:0:
448,64,72467,1,0,0:0:0:0:
448,64,73134,1,2,0:0:0:0:
384,80,73300,1,2,0:0:0:0:
208,136,73467,5,14,0:1:0:0:
344,208,73800,1,8,0:1:0:0:
120,344,74467,1,8,0:1:0:0:
184,312,74634,1,8,0:0:0:0:
352,240,74800,5,10,0:0:0:0:
200,168,75134,1,10,0:0:0:0:
352,240,75467,2,0,L|360:64,1,170,8|8,0:1|0:1,0:0:0:0:
80,64,76134,5,14,0:0:0:0:
208,304,76467,1,2,0:0:0:0:
208,304,76634,1,2,0:0:0:0:
136,296,76800,2,0,P|88:200|184:96,1,255,2|0,0:0|0:0,0:0:0:0:
328,208,77467,6,0,P|408:160|416:80,1,170,2|0,0:0|0:0,0:0:0:0:
272,328,78134,2,0,P|192:280|184:200,1,170,2|0,0:0|0:0,0:0:0:0:
464,208,78800,5,6,0:0:0:0:
336,328,80467,2,0,L|488:192,2,170,2|0|2,0:0|0:0|0:0,0:0:0:0:
48,328,81467,6,0,P|48:216|104:184,1,170,14|8,0:0|0:0,0:0:0:0:
160,192,81967,2,0,P|168:112|104:56,1,170,2|0,0:0|0:0,0:0:0:0:
48,56,82467,1,10,0:0:0:0:
344,272,82800,5,10,0:0:0:0:
408,240,82967,1,0,0:0:0:0:
344,208,83134,1,8,0:0:0:0:
280,168,83300,1,2,0:0:0:0:
344,136,83467,1,8,0:0:0:0:
472,344,83800,2,0,L|480:240,1,85,12|2,0:3|0:0,0:0:0:0:
304,256,84134,6,0,P|224:208|216:120,1,170,14|8,0:0|0:1,0:0:0:0:
288,40,84634,2,0,P|336:112|264:168,1,170,10|8,0:0|0:0,0:0:0:0:
112,208,85134,1,8,0:1:0:0:
48,288,85300,1,2,0:0:0:0:
128,352,85467,6,0,P|232:280|224:216,1,170,8|8,0:0|0:1,0:0:0:0:
160,248,85967,1,8,0:0:0:0:
233,248,86134,2,0,L|80:128,1,170,10|8,0:0|0:1,0:0:0:0:
400,72,86800,6,0,P|448:144|392:200,1,170,10|8,0:0|0:0,0:0:0:0:
320,200,87300,1,2,0:0:0:0:
408,360,87467,2,0,L|400:168,1,170,10|10,0:0|0:0,0:0:0:0:
320,136,87967,1,2,0:0:0:0:
136,96,88134,6,0,P|96:144|150:233,1,170,10|0,0:0|0:0,0:0:0:0:
216,240,88634,2,0,L|80:368,1,170,2|0,0:0|0:0,0:0:0:0:
48,304,89134,1,10,0:0:0:0:
88,240,89300,1,10,0:1:0:0:
256,232,89467,6,0,L|272:40,1,170,14|8,0:0|0:1,0:0:0:0:
136,56,90134,1,10,0:0:0:0:
408,32,90467,5,14,0:1:0:0:
440,80,90634,1,2,0:0:0:0:
408,120,90800,1,8,0:0:0:0:
128,344,91134,2,0,L|248:192,2,170,10|10|8,0:1|0:0|0:1,0:0:0:0:
200,344,91967,1,8,0:1:0:0:
352,344,92134,5,14,0:0:0:0:
424,320,92300,2,0,L|432:200,1,85,8|8,0:1|0:1,0:0:0:0:
280,216,92634,2,0,P|232:136|288:88,1,170,14|8,0:0|0:1,0:0:0:0:
352,88,93134,1,14,0:0:0:0:
80,336,93467,5,14,0:0:0:0:
152,336,93634,2,0,P|224:256|200:168,1,170,8|14,0:1|0:0,0:0:0:0:
64,176,94134,2,0,P|24:88|80:48,1,170,8|8,0:1|0:3,0:0:0:0:
136,48,94634,1,4,0:3:0:0:
296,176,94800,5,14,0:0:0:0:
344,248,94967,1,8,0:0:0:0:
296,320,95134,1,8,0:1:0:0:
224,320,95300,2,0,L|80:184,1,170,10|10,0:0|0:0,0:0:0:0:
368,144,95967,6,0,P|400:200|344:288,1,170,14|8,0:0|0:0,0:0:0:0:
280,288,96467,1,14,0:0:0:0:
400,272,96800,1,8,0:3:0:0:
404,215,96911,1,8,0:3:0:0:
409,159,97022,1,8,0:3:0:0:
413,102,97133,1,4,0:3:0:0:
136,328,97467,6,0,L|128:144,1,170,10|10,0:0|0:0,0:0:0:0:
256,264,98134,2,0,B|264:56,1,170,10|10,0:0|0:0,0:0:0:0:
88,144,98634,6,0,P|56:56|128:8,1,170,2|0,0:0|0:0,0:0:0:0:
184,8,99134,1,10,0:0:0:0:
328,192,99467,2,0,L|184:56,1,170,10|8,0:0|0:1,0:0:0:0:
272,72,99967,1,8,3:1:0:0:
424,312,100134,6,0,L|488:232,2,85,14|8|8,0:0|0:1|0:1,0:0:0:0:
272,336,100634,1,14,0:0:0:0:
200,328,100800,2,0,P|192:200|224:184,1,170,8|14,0:1|0:0,0:0:0:0:
272,192,101300,1,8,0:1:0:0:
112,168,101467,6,0,P|32:120|16:40,2,170,14|8|4,0:1|0:3|0:3,0:0:0:0:
256,312,102467,2,0,L|264:208,1,85,8|8,0:1|0:1,0:0:0:0:
96,320,102800,6,0,P|64:232|128:184,1,170,14|8,0:0|0:1,0:0:0:0:
176,184,103300,1,2,0:0:0:0:
47,120,103634,1,8,0:0:0:0:
40,64,103800,1,10,0:1:0:0:
312,336,104134,5,8,0:0:0:0:
248,280,104300,2,0,L|265:103,1,170,2|8,0:0|0:0,0:0:0:0:
344,160,104800,2,0,P|448:88|448:24,1,170,10|8,0:0|0:1,0:0:0:0:
176,40,105467,5,10,0:0:0:0:
288,208,105800,1,8,0:1:0:0:
288,208,105967,2,0,L|160:80,1,170,2|8,0:0|0:0,0:0:0:0:
96,88,106467,1,8,0:1:0:0:
256,288,106800,5,10,0:0:0:0:
88,296,107134,2,0,L|16:240,2,85,8|8|10,0:1|0:0|0:0,0:0:0:0:
184,296,107800,1,8,3:1:0:0:
440,304,108134,5,10,0:0:0:0:
472,248,108300,1,0,0:0:0:0:
448,176,108467,1,8,0:0:0:0:
384,136,108634,1,2,0:0:0:0:
352,72,108800,1,8,0:0:0:0:
384,24,108967,1,0,0:0:0:0:
448,24,109134,1,10,0:0:0:0:
176,320,109467,5,10,0:0:0:0:
112,272,109634,1,0,0:0:0:0:
120,192,109800,1,8,0:0:0:0:
184,160,109967,1,2,0:0:0:0:
344,304,110300,1,8,3:1:0:0:
408,256,110467,1,4,3:3:0:0:
344,192,110634,1,4,3:3:0:0:
176,184,110800,6,0,L|32:56,2,170,12|8|8,0:0|0:0|0:0,0:0:0:0:
432,312,111800,6,0,L|504:256,2,85,10|8|8,0:0|0:0|0:0,0:0:0:0:
352,304,112300,2,0,P|304:272|304:152,1,170,10|8,0:0|0:1,0:0:0:0:
456,80,112800,2,0,L|464:184,1,85,10|8,3:1|3:1,0:0:0:0:
392,168,113134,1,10,3:1:0:0:
216,160,113300,5,2,0:0:0:0:
