osu file format v14

[General]
AudioFilename: audio.mp3
AudioLeadIn: 0
PreviewTime: 168390
Countdown: 0
SampleSet: Soft
StackLeniency: 0.6
Mode: 0
LetterboxInBreaks: 0
EpilepsyWarning: 1
WidescreenStoryboard: 1

[Editor]
DistanceSpacing: 1.2
BeatDivisor: 4
GridSize: 32
TimelineZoom: 2.699999

[Metadata]
Title:Into Gray
TitleUnicode:Into Gray
Artist:yuki
ArtistUnicode:yuki
Creator:Bellicose
Version:Promise.
Source:白昼夢の青写真
Tags:eroge momo 緒乃ワサビ case-0 case 0 Laplacian Hakuchuumu no Aojashin The girl who's whos called the world japanese pop rock full version opening op visual novel vn video game lasse kalibe dored koiyuki minakami mtbbsben
BeatmapID:2840085
BeatmapSetID:1373789

[Difficulty]
HPDrainRate:6
CircleSize:4.2
OverallDifficulty:9
ApproachRate:9.4
SliderMultiplier:2
SliderTickRate:1

[Events]
//Background and Video events
0,0,"bg2.png",0,0
//Break Periods
//Storyboard Layer 0 (Background)
Sprite,Background,Centre,"bg2.png",320,240
//Storyboard Layer 1 (Fail)
//Storyboard Layer 2 (Pass)
//Storyboard Layer 3 (Foreground)
Sprite,Foreground,Centre,"Dream\Other\Bellicose.png",320,240 M,0,10112,10288,500,150,508,150 F,0,10112,10465,0,1 S,0,10112,13112,0.45 M,0,12935,13112,508,150,516,150 F,0,12935,13112,1,0
//Storyboard Layer 4 (Overlay)
//Storyboard Sound Samples

[TimingPoints]
1818,352.941176470588,4,2,1,30,1,0
12406,-142.857142857143,4,2,2,15,0,0
13112,-142.857142857143,4,2,2,30,0,0
24406,-166.666666666667,4,2,80,20,0,0
24759,-166.666666666667,4,2,1,30,0,0
34112,-200,4,2,1,30,0,0
35700,-200,4,2,99,5,0,0
36935,-142.857142857143,4,2,1,30,0,0
37112,-142.857142857143,4,2,1,50,0,0
37818,333.333333333333,4,2,1,50,1,0
37818,-142.857142857143,4,2,1,70,0,0
37984,-90.9090909090909,4,2,1,70,0,0
39818,-83.3333333333333,4,2,1,70,0,0
40068,-83.3333333333333,4,2,1,5,0,0
40151,-83.3333333333333,4,2,1,70,0,0
40401,-83.3333333333333,4,2,1,5,0,0
40484,-90.9090909090909,4,2,1,70,0,0
45817,-83.3333333333333,4,2,1,70,0,0
45901,-83.3333333333333,4,2,1,5,0,0
45984,-83.3333333333333,4,2,1,70,0,0
46067,-83.3333333333333,4,2,1,5,0,0
46151,-83.3333333333333,4,2,1,70,0,0
47234,-83.3333333333333,4,2,1,5,0,0
47317,-83.3333333333333,4,2,1,70,0,0
48484,-111.111111111111,4,2,1,60,0,0
48817,-111.111111111111,4,2,3,50,0,0
49317,-111.111111111111,4,2,2,50,0,0
49651,-111.111111111111,4,2,3,50,0,0
50817,-100,4,2,3,50,0,0
50984,-90.9090909090909,4,2,3,50,0,0
51151,-111.111111111111,4,2,3,50,0,0
52317,-111.111111111111,4,2,1,50,0,0
52484,-111.111111111111,4,2,3,50,0,0
53817,-111.111111111111,4,2,1,50,0,0
53984,-111.111111111111,4,2,3,50,0,0
54484,-125,4,2,1,50,0,0
55151,-111.111111111111,4,2,3,50,0,0
55984,-83.3333333333333,4,2,1,50,0,0
56151,-111.111111111111,4,2,1,50,0,0
56317,-111.111111111111,4,2,3,50,0,0
57651,-111.111111111111,4,2,1,50,0,0
58151,-111.111111111111,4,2,3,50,0,0
58651,-111.111111111111,4,2,1,50,0,0
59151,-111.111111111111,4,2,1,60,0,0
59484,-100,4,2,4,60,0,0
64484,-100,4,2,1,60,0,0
64651,-100,4,2,4,60,0,0
66817,-250,4,2,4,60,0,0
67067,-250,4,2,4,5,0,0
67151,-100,4,2,1,70,0,0
69817,-166.666666666667,4,2,1,60,0,0
70151,-166.666666666667,4,2,1,50,0,0
72484,-100,4,2,1,60,0,0
75151,-166.666666666667,4,2,1,50,0,0
76484,-125,4,2,1,60,0,0
77151,-100,4,2,1,70,0,0
77651,-100,4,2,2,60,0,0
77817,-166.666666666667,4,2,1,50,0,0
79484,-200,4,2,1,50,0,0
80484,-90.9090909090909,4,2,1,75,0,1
81734,-90.9090909090909,4,2,1,5,0,1
81817,-90.9090909090909,4,2,1,75,0,1
82484,-111.111111111111,4,2,1,75,0,1
82817,-90.9090909090909,4,2,1,75,0,1
82901,-90.9090909090909,4,2,1,5,0,1
82984,-90.9090909090909,4,2,1,75,0,1
83067,-90.9090909090909,4,2,1,5,0,1
83151,-83.3333333333333,4,2,1,75,0,1
83651,-90.9090909090909,4,2,1,75,0,1
84234,-90.9090909090909,4,2,1,5,0,1
84317,-90.9090909090909,4,2,1,75,0,1
85151,-90.9090909090909,4,2,4,75,0,1
85317,-90.9090909090909,4,2,1,75,0,1
85817,-90.9090909090909,4,2,1,70,0,0
85984,-90.9090909090909,4,2,4,70,0,0
86151,-90.9090909090909,4,2,1,70,0,0
86317,-90.9090909090909,4,2,4,70,0,0
86484,-90.9090909090909,4,2,1,70,0,0
86651,-90.9090909090909,4,2,4,70,0,0
86817,-90.9090909090909,4,2,1,70,0,0
86984,-90.9090909090909,4,2,4,70,0,0
87151,-90.9090909090909,4,2,1,70,0,0
87234,-90.9090909090909,4,2,2,70,0,0
87484,-90.9090909090909,4,2,1,70,0,0
88317,-90.9090909090909,4,2,2,70,0,0
88484,-83.3333333333333,4,2,1,75,0,0
89151,-83.3333333333333,4,2,4,75,0,0
89317,-83.3333333333333,4,2,1,75,0,0
89817,-90.9090909090909,4,2,1,75,0,0
90484,-90.9090909090909,4,2,4,75,0,0
90651,-90.9090909090909,4,2,1,75,0,0
91151,-90.9090909090909,4,2,1,80,0,1
91317,-83.3333333333333,4,2,1,80,0,1
93984,-166.666666666666,4,2,1,80,0,1
94317,-76.9230769230769,4,2,1,80,0,1
94651,-71.4285714285714,4,2,1,80,0,1
94984,-62.5,4,2,1,85,0,1
95317,-83.3333333333333,4,2,1,80,0,1
96484,-100,4,2,1,75,0,0
96651,-100,4,2,4,75,0,0
96817,-100,4,2,3,75,0,0
96984,-100,4,2,1,75,0,0
97651,-100,4,2,4,75,0,0
97817,-100,4,2,1,75,0,0
98151,-100,4,2,3,75,0,0
98317,-100,4,2,1,75,0,0
99817,-100,4,2,1,77,0,0
100317,-100,4,2,1,79,0,0
100817,-100,4,2,1,82,0,0
101151,-100,4,2,1,84,0,0
101484,-100,4,2,1,86,0,0
101817,-400,4,2,1,70,0,0
103151,-125,4,2,1,50,0,0
103317,-125,4,2,3,50,0,0
108484,-125,4,2,1,50,0,0
108651,-125,4,2,3,50,0,0
112317,-125,4,2,1,50,0,0
112484,-125,4,2,3,50,0,0
113484,-111.111111111111,4,2,1,50,0,0
113817,-76.9230769230769,4,2,5,60,0,0
114817,-333.333333333333,4,2,5,60,0,0
115067,-333.333333333333,4,2,5,5,0,0
115151,-76.9230769230769,4,2,5,60,0,0
115817,-111.111111111111,4,2,5,60,0,0
116484,-76.9230769230769,4,2,5,60,0,0
117484,-333.333333333333,4,2,5,60,0,0
117734,-333.333333333333,4,2,5,5,0,0
117817,-76.9230769230769,4,2,5,60,0,0
118817,-333.333333333333,4,2,5,60,0,0
119067,-333.333333333333,4,2,5,5,0,0
119151,-76.9230769230769,4,2,5,60,0,0
120151,-333.333333333333,4,2,5,60,0,0
120401,-333.333333333333,4,2,5,5,0,0
120484,-76.9230769230769,4,2,5,60,0,0
121317,-142.857142857143,4,2,5,60,0,0
121817,-76.9230769230769,4,2,5,60,0,0
122817,-333.333333333333,4,2,5,60,0,0
123067,-333.333333333333,4,2,5,5,0,0
123151,-66.6666666666667,4,2,5,60,0,0
123817,-66.6666666666667,4,2,5,70,0,0
124151,-100,4,2,1,60,0,0
126984,-100,4,2,4,60,0,0
127151,-100,4,2,1,60,0,0
129651,-100,4,2,4,60,0,0
129817,-100,4,2,1,60,0,0
130734,-100,4,2,1,5,0,0
130817,-100,4,2,1,60,0,0
130901,-100,4,2,1,5,0,0
130984,-100,4,2,1,60,0,0
131234,-100,4,2,1,5,0,0
131317,-100,4,2,1,60,0,0
132151,-200,4,2,1,60,0,0
132317,-200,4,2,4,60,0,0
132484,-100,4,2,1,70,0,0
132651,-100,4,2,4,70,0,0
132817,-100,4,2,1,70,0,0
132984,-100,4,2,4,70,0,0
133484,-100,4,2,1,70,0,0
133651,-100,4,2,4,70,0,0
133817,-100,4,2,1,70,0,0
133984,-100,4,2,4,70,0,0
134317,-100,4,2,1,70,0,0
135484,-100,4,2,2,70,0,0
135651,-100,4,2,4,70,0,0
136151,-100,4,2,1,70,0,0
136484,-100,4,2,2,70,0,0
136651,-100,4,2,4,70,0,0
137817,-100,4,2,1,70,0,0
138151,-100,4,2,2,70,0,0
138317,-100,4,2,4,70,0,0
138817,-100,4,2,1,70,0,0
139151,-100,4,2,2,70,0,0
139317,-100,4,2,4,70,0,0
139734,-100,4,2,2,60,0,0
139817,-100,4,2,4,60,0,0
140151,-200,4,2,4,60,0,0
140484,-100,4,2,1,60,0,0
144151,-83.3333333333333,4,2,1,50,0,0
144484,-83.3333333333333,4,2,1,65,0,0
145151,-83.3333333333333,4,2,1,70,0,0
145484,-83.3333333333333,4,2,1,75,0,0
145817,-83.3333333333333,4,2,1,75,0,1
146151,-83.3333333333333,4,2,4,75,0,1
146317,-83.3333333333333,4,2,1,75,0,1
146484,-83.3333333333333,4,2,4,75,0,1
147151,-83.3333333333333,4,2,3,75,0,1
147317,-83.3333333333333,4,2,4,75,0,1
148484,-83.3333333333333,4,2,1,75,0,1
148651,-83.3333333333333,4,2,4,75,0,1
150817,333.333333333333,4,2,4,75,1,1
150817,-83.3333333333333,4,2,1,75,0,1
150983,-83.3333333333333,4,2,4,75,0,1
151817,-83.3333333333333,4,2,1,75,0,1
152483,-83.3333333333333,4,2,4,75,0,1
153483,-83.3333333333333,4,2,1,75,0,1
153650,-83.3333333333333,4,2,4,75,0,1
153983,-83.3333333333333,4,2,1,75,0,1
154733,-83.3333333333333,4,2,1,5,0,1
154817,-83.3333333333333,4,2,1,70,0,1
155483,-83.3333333333333,4,2,1,75,0,1
155817,-83.3333333333333,4,2,1,80,0,1
156150,-83.3333333333333,4,2,1,75,0,0
156483,-166.666666666667,4,2,1,50,0,0
158817,-100,4,2,1,60,0,0
161483,-166.666666666667,4,2,1,50,0,0
162817,-125,4,2,1,60,0,0
163483,-100,4,2,1,70,0,0
164150,-90.9090909090909,4,2,1,70,0,0
166150,-90.9090909090909,4,2,1,75,0,0
166483,-90.9090909090909,4,2,1,80,0,0
166816,-100,4,2,1,80,0,0
167233,-100,4,2,1,5,0,0
167316,-100,4,2,1,80,0,0
167733,-100,4,2,1,5,0,0
167816,-76.9230769230769,4,2,1,80,0,0
168150,-76.9230769230769,4,2,1,10,0,0
168483,-200,4,2,1,50,0,0
169483,-100,4,2,1,75,0,0
170733,-100,4,2,1,5,0,0
170816,-100,4,2,1,75,0,0
171400,-100,4,2,1,5,0,0
171483,-200.000000000001,4,2,1,75,0,0
172066,-200.000000000001,4,2,1,5,0,0
172150,-83.3333333333333,4,2,1,75,0,1
172650,-90.9090909090909,4,2,1,75,0,1
173233,-90.9090909090909,4,2,1,5,0,1
173316,-90.9090909090909,4,2,1,75,0,1
174150,-90.9090909090909,4,2,4,75,0,1
174316,-90.9090909090909,4,2,1,75,0,1
174816,-90.9090909090909,4,2,1,70,0,0
175150,-90.9090909090909,4,2,3,70,0,0
175316,-90.9090909090909,4,2,1,70,0,0
175650,-90.9090909090909,4,2,4,70,0,0
176150,-90.9090909090909,4,2,1,70,0,0
176483,-90.9090909090909,4,2,3,70,0,0
176650,-90.9090909090909,4,2,1,70,0,0
177316,-90.9090909090909,4,2,2,70,0,0
177483,-83.3333333333333,4,2,1,75,0,0
178150,-83.3333333333333,4,2,4,75,0,0
178316,-83.3333333333333,4,2,1,75,0,0
178816,-90.9090909090909,4,2,1,75,0,0
179483,-90.9090909090909,4,2,4,75,0,0
179650,-90.9090909090909,4,2,1,75,0,0
180150,-90.9090909090909,4,2,1,80,0,1
180316,-83.3333333333333,4,2,1,80,0,1
182983,-166.666666666667,4,2,1,80,0,1
183316,-71.4285714285714,4,2,1,80,0,1
183566,-71.4285714285714,4,2,1,5,0,1
183650,-66.6666666666667,4,2,1,80,0,1
183900,-66.6666666666667,4,2,1,5,0,1
183983,-58.8235294117647,4,2,1,85,0,1
184316,-83.3333333333333,4,2,1,80,0,1
185483,-100,4,2,1,75,0,0
185650,-100,4,2,4,75,0,0
185816,-100,4,2,3,75,0,0
186316,-100,4,2,4,75,0,0
187150,-100,4,2,3,75,0,0
187483,-100,4,2,1,75,0,0
188816,-100,4,2,1,77,0,0
189316,-100,4,2,1,79,0,0
189816,-100,4,2,1,82,0,0
190150,-100,4,2,1,84,0,0
190483,-100,4,2,1,86,0,0
190816,-100,4,2,1,88,0,1
191233,-100,4,2,1,5,0,1
191316,-100,4,2,1,88,0,1
191733,-100,4,2,1,5,0,1
191816,-100,4,2,1,88,0,1
192233,-100,4,2,1,5,0,1
192316,-100,4,2,1,88,0,1
192733,-100,4,2,1,5,0,1
192816,-90.9090909090909,4,2,1,88,0,1
193066,-90.9090909090909,4,2,1,5,0,1
193150,-90.9090909090909,4,2,1,88,0,1
193400,-90.9090909090909,4,2,1,5,0,1
193483,-100,4,2,1,88,0,1
193900,-90.9090909090909,4,2,1,5,0,1
193983,-100,4,2,1,88,0,1
194400,-90.9090909090909,4,2,1,5,0,1
194483,-100,4,2,1,88,0,1
194900,-90.9090909090909,4,2,1,5,0,1
194983,-100,4,2,1,88,0,1
195400,-90.9090909090909,4,2,1,5,0,1
195483,-90.9090909090909,4,2,1,88,0,1
195733,-90.9090909090909,4,2,1,5,0,1
195816,-90.9090909090909,4,2,1,88,0,1
196066,-90.9090909090909,4,2,1,5,0,1
196150,-90.9090909090909,4,2,1,75,0,1
200816,-166.666666666667,4,2,1,75,0,1
201400,-166.666666666667,4,2,1,5,0,1
201483,-83.3333333333334,4,2,1,75,0,0
201816,-83.3333333333334,4,2,4,75,0,0
202816,-83.3333333333334,4,2,3,75,0,0
202983,-83.3333333333334,4,2,4,75,0,0
204066,-83.3333333333334,4,2,4,5,0,0
204150,-83.3333333333334,4,2,3,75,0,0
204483,-83.3333333333334,4,2,4,75,0,0
205483,-83.3333333333334,4,2,3,75,0,0
205650,-83.3333333333334,4,2,4,75,0,0
206816,-83.3333333333334,4,2,4,70,0,0
207150,-83.3333333333334,4,2,3,70,0,0
207316,-83.3333333333334,4,2,4,70,0,0
208483,-83.3333333333334,4,2,3,70,0,0
208816,-83.3333333333334,4,2,1,70,0,0
209483,-76.9230769230769,4,2,1,70,0,0
209733,-76.9230769230769,4,2,1,5,0,0
209816,-76.9230769230769,4,2,1,70,0,0
210483,-83.3333333333333,4,2,1,70,0,0
210816,-83.3333333333333,4,2,1,75,0,0
211483,-83.3333333333333,4,2,1,80,0,0
212150,-83.3333333333333,4,2,1,20,0,0

[Colours]
Combo1 : 124,234,239
Combo2 : 219,180,254
Combo3 : 153,210,249
Combo4 : 168,170,247

[HitObjects]
93,340,1817,5,0,0:0:0:0:
76,256,1994,1,0,0:0:0:0:
158,237,2170,1,0,0:0:0:0:
175,320,2347,1,2,0:0:0:0:
175,320,3229,5,0,0:0:0:0:
184,235,3406,1,0,0:0:0:0:
192,150,3582,1,0,0:0:0:0:
201,65,3759,1,2,0:0:0:0:
201,65,4641,5,0,0:0:0:0:
264,121,4817,1,0,0:0:0:0:
346,100,4994,1,0,0:0:0:0:
370,18,5170,1,2,0:0:0:0:
370,18,6053,5,0,0:0:0:0:
346,100,6229,1,0,0:0:0:0:
401,164,6406,1,0,0:0:0:0:
485,149,6582,1,2,0:0:0:0:
485,149,7465,5,0,0:0:0:0:
401,164,7641,1,0,0:0:0:0:
371,243,7817,1,0,0:0:0:0:
287,258,7993,1,2,0:0:0:0:
287,258,8876,5,0,0:0:0:0:
317,179,9053,1,0,0:0:0:0:
371,243,9229,1,0,0:0:0:0:
341,322,9406,1,2,0:0:0:0:
341,322,10288,5,0,0:0:0:0:
256,336,10465,1,0,0:0:0:0:
172,352,10641,1,0,0:0:0:0:
87,366,10818,1,2,0:0:0:0:
87,366,11700,5,0,0:0:0:0:
20,313,11876,1,0,0:0:0:0:
32,228,12053,1,0,0:0:0:0:
107,188,12229,1,2,0:0:0:0:
171,244,12406,2,0,L|212:237,4,23.3333326212565,0|0|0|0|0,3:0|3:0|3:0|3:0|3:0,0:0:0:0:
277,309,12759,6,0,L|265:213,1,69.9999978637696,0|0,3:0|3:0,0:0:0:0:
365,148,13112,5,2,1:2:0:0:
365,148,13288,2,0,L|221:126,1,139.999995727539,0|0,1:0|1:0,0:0:0:0:
125,161,13817,2,0,P|178:131|186:45,1,139.999995727539,8|0,0:0|1:0,0:0:0:0:
123,4,14347,1,2,0:0:0:0:
123,4,14523,2,0,L|261:25,2,139.999995727539,2|0|8,1:2|1:0|0:0,0:0:0:0:
2,225,15759,1,2,0:0:0:0:
36,148,15935,5,2,1:2:0:0:
36,148,16112,2,0,P|76:179|63:276,1,139.999995727539,0|0,1:0|1:0,0:0:0:0:
17,350,16641,2,0,L|155:328,1,139.999995727539,8|0,0:0|1:0,0:0:0:0:
246,373,17170,1,2,0:0:0:0:
246,373,17347,2,0,P|206:342|219:245,2,139.999995727539,2|0|8,1:2|1:0|0:0,0:0:0:0:
439,168,18406,2,0,L|460:306,1,139.999995727539,2|2,0:0|1:2,0:0:0:0:
379,356,18935,6,0,B|300:333|321:394|242:371,1,139.999995727539,0|0,1:0|1:0,0:0:0:0:
162,336,19465,1,10,0:0:0:0:
356,247,19817,1,2,1:2:0:0:
356,247,19994,2,0,L|217:268,1,139.999995727539,2|0,0:0|0:0,0:0:0:0:
162,336,20523,2,0,L|183:197,2,139.999995727539,2|10|2,1:2|0:0|0:0,0:0:0:0:
18,76,21582,5,2,1:2:0:0:
18,76,21759,2,0,L|115:58,1,69.9999978637696,0|2,1:0|0:0,0:0:0:0:
168,22,22112,2,0,P|122:53|124:144,1,139.999995727539,8|0,0:0|1:0,0:0:0:0:
200,100,22641,2,0,L|339:75,1,139.999995727539,2|0,0:0|1:0,0:0:0:0:
410,117,23170,5,0,1:0:0:0:
477,66,23347,1,0,0:0:0:0:
404,24,23523,1,2,1:2:0:0:
337,75,23700,2,0,L|324:143,1,69.9999978637696,8|0,0:0|1:0,0:0:0:0:
477,66,24053,2,0,L|489:134,1,69.9999978637696,8|0,0:0|0:0,0:0:0:0:
419,249,24406,5,2,0:0:0:0:
419,249,24759,5,0,0:0:0:0:
414,220,24936,1,0,0:0:0:0:
408,191,25112,1,2,0:0:0:0:
222,367,25641,1,2,0:0:0:0:
222,367,25817,2,0,L|363:341,1,119.999996337891,2|0,0:0|0:0,0:0:0:0:
112,76,27229,5,2,0:0:0:0:
112,76,27582,5,0,0:0:0:0:
106,105,27758,1,0,0:0:0:0:
101,134,27935,1,2,0:0:0:0:
326,10,28465,1,2,0:0:0:0:
326,10,28641,2,0,P|303:51|214:46,1,119.999996337891,2|2,0:0|0:0,0:0:0:0:
196,358,30053,5,2,0:0:0:0:
196,358,30406,6,0,B|149:322|149:322|90:350,2,119.999996337891,2|2|2,0:0|0:0|0:0,0:0:0:0:
324,250,31465,5,2,0:0:0:0:
324,250,31817,6,0,P|379:231|426:284,2,119.999996337891,2|2|2,0:0|0:0|0:0,0:0:0:0:
113,82,32876,6,0,B|251:40|187:166|329:144|414:113|340:-32|267:37,1,359.999989013672,2|0,0:0|0:0,0:0:0:0:
151,164,34112,6,0,P|191:123|61:158,1,450,2|4,0:0|0:0,0:0:0:0:
321,343,36935,5,2,0:0:0:0:
321,343,37112,2,0,L|166:373,1,139.999995727539,2|0,0:0|0:0,0:0:0:0:
89,71,37817,5,6,1:2:0:0:
20,224,37984,1,0,3:0:0:0:
47,227,38068,1,0,3:0:0:0:
73,221,38151,1,0,1:0:0:0:
97,208,38234,1,0,3:0:0:0:
112,185,38318,1,2,3:2:0:0:
123,160,38401,1,0,3:0:0:0:
143,141,38484,1,0,1:0:0:0:
169,131,38568,1,0,3:0:0:0:
196,128,38651,1,0,3:0:0:0:
220,137,38734,1,0,3:0:0:0:
239,157,38818,6,0,L|224:228,1,55.0000016784668,2|0,1:2|3:0,0:0:0:0:
138,312,38984,2,0,L|191:300,1,55.0000016784668,2|0,3:2|3:0,0:0:0:0:
348,338,39151,5,0,1:0:0:0:
354,305,39234,1,0,3:0:0:0:
361,272,39318,1,2,3:2:0:0:
367,239,39401,1,0,3:0:0:0:
374,207,39484,1,0,1:0:0:0:
510,307,39651,5,0,3:0:0:0:
510,307,39734,1,0,3:0:0:0:
510,307,39818,2,0,P|423:292|347:338,1,179.999994506836,2|0,1:2|0:0,0:0:0:0:
253,384,40151,6,0,L|285:190,1,179.999994506836,2|0,1:2|0:0,0:0:0:0:
240,132,40484,5,6,1:2:0:0:
354,13,40651,1,0,3:0:0:0:
345,35,40734,1,0,3:0:0:0:
348,62,40817,1,0,1:0:0:0:
358,88,40901,1,0,3:0:0:0:
377,108,40984,1,2,3:2:0:0:
402,118,41067,1,0,3:0:0:0:
425,134,41151,1,0,1:0:0:0:
437,157,41234,1,0,3:0:0:0:
444,184,41317,1,0,3:0:0:0:
441,211,41401,1,0,3:0:0:0:
426,234,41484,2,0,L|361:223,3,55.0000016784668,2|0|0|0,1:2|3:0|3:0|3:0,0:0:0:0:
266,176,41817,5,0,1:0:0:0:
267,196,41900,1,0,3:0:0:0:
268,217,41984,1,2,3:2:0:0:
270,237,42067,1,0,3:0:0:0:
271,258,42150,1,0,1:0:0:0:
273,278,42233,1,0,3:0:0:0:
274,299,42317,1,0,3:2:0:0:
275,320,42401,1,0,3:0:0:0:
277,340,42483,5,0,1:0:0:0:
247,307,42567,1,0,3:0:0:0:
203,298,42651,1,0,3:0:0:0:
162,314,42734,1,0,3:0:0:0:
139,351,42817,1,0,1:0:0:0:
104,378,42901,1,8,0:3:0:0:
60,380,42984,1,4,0:3:0:0:
18,366,43067,1,4,0:3:0:0:
0,325,43151,6,0,L|20:202,1,110.000003356934,6|0,1:2|1:0,0:0:0:0:
188,127,43484,1,10,0:0:0:0:
105,247,43651,1,2,0:0:0:0:
135,52,43817,1,2,1:2:0:0:
331,81,43984,1,2,1:2:0:0:
301,276,44150,1,8,0:0:0:0:
301,276,44484,5,2,1:2:0:0:
227,99,44651,1,0,1:2:0:0:
105,247,44817,1,8,0:0:0:0:
423,128,44984,1,2,0:0:0:0:
512,233,45151,5,0,1:0:0:0:
320,152,45317,1,2,1:2:0:0:
195,357,45484,5,10,0:0:0:0:
336,301,45650,1,2,0:0:0:0:
455,376,45817,6,0,L|375:357,1,59.9999981689454,6|0,1:0|0:0,0:0:0:0:
220,216,45984,2,0,L|278:229,1,59.9999981689454,0|0,1:0|0:0,0:0:0:0:
312,381,46151,6,0,B|296:275|386:328|363:195,1,179.999994506836,12|0,0:0|0:0,0:0:0:0:
320,152,46484,5,0,1:0:0:0:
161,253,46651,2,0,L|293:227,1,119.999996337891,0|2,1:0|0:2,0:0:0:0:
460,30,46984,6,0,P|440:94|325:107,1,179.999994506836,8|0,0:0|0:0,0:0:0:0:
279,66,47317,1,2,1:2:0:0:
466,243,47484,1,8,0:0:0:0:
365,19,47651,1,8,0:0:0:0:
365,19,47734,1,8,0:0:0:0:
365,19,47817,1,8,1:3:0:0:
132,119,47984,1,4,1:3:0:0:
232,343,48151,1,2,1:2:0:0:
232,343,48484,6,0,B|204:335|178:320|178:320|126:330|57:377,1,179.999994506836,4|10,1:2|0:0,0:0:0:0:
2,211,48984,2,0,B|82:242|82:242|109:230|143:222,1,134.999995880127,2|0,3:2|0:0,0:0:0:0:
144,233,49317,2,0,L|156:170,2,44.999998626709,2|0|2,3:2|3:0|3:2,0:0:0:0:
244,134,49651,1,0,1:0:0:0:
244,134,49817,6,0,L|265:253,1,89.9999972534181,2|0,1:2|1:0,0:0:0:0:
329,358,50151,5,10,0:0:0:0:
302,353,50234,1,0,3:0:0:0:
275,349,50317,1,0,3:0:0:0:
249,343,50401,2,0,L|363:320,1,89.9999972534181,10|0,0:0|0:0,0:0:0:0:
409,364,50651,6,2,L|425:306,1,44.999998626709,2|0,1:2|0:0,0:1:0:0:
512,277,50817,6,2,L|469:235,1,50,10|0,0:0|3:0,0:1:0:0:
427,134,50984,6,2,L|364:152,1,55.0000016784668,2|8,3:2|0:0,0:1:0:0:
259,222,51151,5,0,1:0:0:0:
259,222,51317,2,0,L|274:133,1,89.9999972534181,0|10,1:0|0:0,0:0:0:0:
280,159,51567,1,0,3:0:0:0:
286,185,51651,1,2,3:2:0:0:
292,211,51734,1,12,0:0:0:0:
298,237,51984,6,0,B|196:233|250:303|120:287,1,179.999994506836,2|8,0:0|0:0,0:0:0:0:
16,166,52484,6,0,P|55:188|79:239,1,89.9999972534181,2|0,1:2|1:0,0:0:0:0:
37,383,52817,5,10,0:0:0:0:
32,356,52901,1,0,3:0:0:0:
36,329,52984,1,0,3:0:0:0:
51,306,53067,1,10,0:0:0:0:
278,376,53317,5,4,1:2:0:0:
261,254,53484,1,8,1:2:0:0:
261,254,53567,1,0,3:0:0:0:
456,226,53734,1,8,0:0:0:0:
456,226,53817,1,4,1:2:0:0:
477,350,53984,1,0,1:0:0:0:
386,381,54151,6,0,L|372:305,1,44.999998626709,8|0,0:0|3:0,0:0:0:0:
357,219,54317,2,0,L|343:143,1,44.999998626709,0|8,3:0|0:0,0:0:0:0:
212,81,54484,6,0,B|368:110|269:8|459:40,1,240,0|8,0:0|0:0,0:0:0:0:
512,142,55151,6,0,L|407:126,1,89.9999972534181,2|0,1:2|1:0,0:0:0:0:
278,231,55484,5,8,0:0:0:0:
304,226,55567,1,0,3:0:0:0:
331,222,55651,1,0,3:0:0:0:
357,219,55734,1,8,0:0:0:0:
383,217,55984,6,2,B|378:244|378:244|376:249|376:249|368:295,1,59.9999981689454,2|0,1:3|0:0,0:1:0:0:
301,124,56151,2,0,L|318:35,1,89.9999972534181,8|2,0:0|3:2,0:0:0:0:
323,18,56401,1,8,0:0:0:0:
327,0,56484,6,0,L|238:16,1,89.9999972534181,0|0,1:0|1:0,0:0:0:0:
86,136,56817,5,8,0:0:0:0:
60,139,56900,1,0,3:0:0:0:
33,143,56984,1,0,3:0:0:0:
7,148,57067,1,12,0:0:0:0:
161,77,57651,5,8,0:0:0:0:
1,230,57817,2,0,B|21:189|21:189|1:131,1,89.9999972534181,0|0,1:0|1:0,0:0:0:0:
175,166,58151,5,8,0:0:0:0:
178,192,58234,1,0,3:0:0:0:
182,219,58318,1,0,3:0:0:0:
187,245,58401,1,8,0:0:0:0:
191,271,58484,2,2,L|139:263,1,44.999998626709,2|0,0:0|0:0,0:1:0:0:
0,335,58651,5,0,1:0:0:0:
34,314,58734,1,0,3:0:0:0:
73,313,58817,1,0,1:0:0:0:
107,334,58901,1,0,3:0:0:0:
127,367,58984,1,0,3:0:0:0:
162,384,59067,1,0,3:0:0:0:
203,377,59151,1,4,1:2:0:0:
417,154,59484,6,0,L|318:138,1,100,2|0,1:2|3:0,0:0:0:0:
180,284,59817,2,0,B|206:242|206:242|191:193,1,100,2|0,1:2|3:0,0:0:0:0:
309,367,60151,1,10,1:2:0:0:
471,274,60317,1,2,3:2:0:0:
471,274,60401,1,0,3:0:0:0:
471,274,60484,2,0,P|412:315|370:296,1,100,0|2,1:0|3:2,0:0:0:0:
318,138,60817,5,2,1:2:0:0:
397,148,60984,1,2,3:2:0:0:
476,160,61151,1,2,1:2:0:0:
449,84,61317,1,0,3:0:0:0:
349,212,61484,1,8,1:2:0:0:
256,9,61651,1,2,3:2:0:0:
256,9,61734,1,0,3:0:0:0:
256,9,61817,6,0,B|141:-4|191:76|67:53,1,200,2|0,1:2|1:0,0:0:0:0:
235,141,62317,1,0,3:0:0:0:
50,260,62484,1,0,1:0:0:0:
137,151,62651,1,0,3:0:0:0:
137,151,62734,1,0,3:0:0:0:
137,151,62817,1,10,1:2:0:0:
273,306,62984,1,2,3:2:0:0:
137,384,63151,6,0,L|159:269,1,100,2|0,1:2|3:0,0:0:0:0:
295,217,63484,1,0,1:0:0:0:
427,384,63651,1,0,3:0:0:0:
427,384,63734,1,0,3:0:0:0:
427,384,63817,2,0,B|414:334|414:334|442:291,1,100,0|0,1:0|3:0,0:0:0:0:
447,307,64067,1,0,3:0:0:0:
454,319,64151,2,0,L|336:294,1,100,2|0,1:2|3:0,0:0:0:0:
123,120,64484,5,6,1:2:0:0:
255,165,64651,1,0,1:0:0:0:
146,258,64817,1,8,0:0:0:0:
230,27,64983,1,0,3:0:0:0:
230,27,65067,1,0,3:0:0:0:
230,27,65151,5,2,1:2:0:0:
364,75,65317,1,0,1:0:0:0:
279,308,65483,1,8,0:0:0:0:
255,165,65651,1,2,3:2:0:0:
255,165,65734,1,0,3:0:0:0:
255,165,65817,5,0,1:2:0:0:
389,216,65984,1,0,1:0:0:0:
146,258,66151,2,0,B|120:199|169:159|169:159|223:167|248:112,1,200,8|2,0:0|0:0,0:0:0:0:
135,4,66651,1,0,1:0:0:0:
20,186,66817,6,0,L|10:114,1,60,10|0,3:2|0:0,0:0:0:0:
1,46,67151,5,14,1:0:0:0:
221,15,67318,1,0,1:0:0:0:
252,235,67485,1,8,1:3:0:0:
31,266,67651,1,4,1:3:0:0:
501,164,68151,5,12,1:0:0:0:
280,133,68318,1,0,1:0:0:0:
250,353,68485,1,8,1:3:0:0:
470,384,68651,1,4,1:3:0:0:
378,257,68984,5,8,1:2:0:0:
388,177,69151,5,8,1:3:0:0:
451,226,69262,5,8,1:3:0:0:
440,305,69373,5,8,1:3:0:0:
366,335,69484,5,4,1:3:0:0:
303,286,69595,5,4,1:3:0:0:
315,208,69706,5,4,1:3:0:0:
378,257,69817,5,4,1:2:0:0:
179,370,70151,6,0,L|169:287,1,59.9999981689454,2|2,0:0|0:0,0:0:0:0:
206,229,70484,2,0,P|172:276|43:288,1,179.999994506836,2|0,0:0|0:0,0:0:0:0:
3,235,71151,1,2,0:0:0:0:
3,235,71484,2,0,L|18:362,1,119.999996337891,2|0,0:0|0:0,0:0:0:0:
216,60,72151,1,2,0:0:0:0:
216,60,72317,1,2,0:0:0:0:
153,4,72484,5,14,1:2:0:0:
280,112,72651,1,0,1:0:0:0:
139,81,72817,1,2,0:0:0:0:
295,30,72984,2,0,B|322:144|213:96|260:230,1,200,2|0,1:2|1:0,0:0:0:0:
414,364,73484,6,0,P|437:311|417:261,1,100,10|0,0:0|1:2,0:0:0:0:
343,182,73817,1,2,0:0:0:0:
217,354,73984,1,2,1:2:0:0:
295,30,74317,1,8,0:0:0:0:
319,106,74484,1,0,1:0:0:0:
242,89,74651,1,0,1:0:0:0:
48,213,74817,5,8,0:0:0:0:
265,165,74984,1,8,0:3:0:0:
116,0,75151,1,4,1:2:0:0:
142,118,75484,5,2,0:0:0:0:
138,100,75651,1,2,0:0:0:0:
134,82,75817,1,2,0:0:0:0:
70,339,76317,1,2,0:0:0:0:
70,339,76484,6,0,B|125:321|125:321|182:329|220:384,1,160,2|2,0:0|0:0,0:0:0:0:
447,192,77151,6,0,B|396:200|351:160|351:160|294:180|313:243,1,200,2|2,0:0|0:0,0:0:0:0:
361,384,77651,5,0,3:0:0:0:
361,384,77734,1,0,3:0:0:0:
361,384,77817,2,0,P|391:355|385:268,1,119.999996337891,2|0,0:0|0:0,0:0:0:0:
11,180,79484,6,0,L|120:157,2,100,2|2|2,0:0|0:0|0:0,0:0:0:0:
292,57,80484,6,0,B|281:-6|200:-20|163:34|163:34|188:38|216:73,1,220.000006713867,6|2,1:2|1:2,0:0:0:0:
388,193,80984,2,0,P|414:143|394:78,1,110.000003356934,2|0,0:0|1:0,0:0:0:0:
199,169,81317,1,2,0:0:0:0:
199,169,81484,2,0,B|175:260|253:224|213:335,1,165.000005035401,2|0,1:2|0:0,0:0:0:0:
147,368,81817,6,0,B|185:356|215:336|215:336|297:331|360:398,1,220.000006713867,2|0,1:2|1:0,0:0:0:0:
495,279,82317,1,2,0:0:0:0:
404,169,82484,2,0,L|291:193,1,89.9999972534181,2|2,1:2|0:0,0:0:0:0:
185,58,82817,6,0,L|197:-12,1,55.0000016784668,2|0,1:2|0:0,0:0:0:0:
325,133,82984,2,0,L|313:203,1,55.0000016784668,2|0,0:0|0:0,0:0:0:0:
67,83,83151,6,0,L|187:57,1,119.999996337891,4|0,1:2|0:0,0:0:0:0:
266,57,83401,1,0,1:0:0:0:
271,27,83484,1,10,0:0:0:0:
140,206,83651,2,0,B|273:186|213:293|343:270,1,220.000006713867,2|0,1:2|1:0,0:0:0:0:
481,384,84151,2,0,L|490:329,1,55.0000016784668,10|0,0:0|0:0,0:0:0:0:
336,271,84317,6,0,B|203:251|263:358|133:335,1,220.000006713867,2|0,1:2|1:0,0:0:0:0:
315,187,84817,1,8,0:0:0:0:
387,352,84984,1,0,1:0:0:0:
161,220,85151,1,2,3:2:0:0:
403,92,85317,2,0,L|394:147,1,55.0000016784668,0|0,1:0|1:0,0:0:0:0:
460,213,85484,1,10,0:2:0:0:
494,188,85567,1,8,0:0:0:0:
509,148,85651,1,8,0:0:0:0:
505,105,85734,1,8,0:0:0:0:
484,65,85817,5,2,1:2:0:0:
339,42,85984,1,0,3:0:0:0:
315,187,86151,1,2,1:2:0:0:
403,92,86317,1,2,3:2:0:0:
433,288,86484,1,2,1:2:0:0:
237,321,86651,1,0,3:0:0:0:
207,125,86818,1,0,1:0:0:0:
315,187,86984,1,2,3:2:0:0:
129,259,87151,1,2,1:2:0:0:
129,259,87234,1,2,0:2:0:0:
251,20,87484,5,2,1:2:0:0:
314,103,87651,2,0,L|197:126,1,110.000003356934,2|0,0:0|1:0,0:0:0:0:
154,63,87901,1,0,3:0:0:0:
154,63,87984,2,0,L|172:-31,1,55.0000016784668,2|0,3:2|1:0,0:0:0:0:
19,116,88151,2,0,L|8:170,1,55.0000016784668,2|4,1:2|0:3,0:0:0:0:
129,259,88317,2,0,L|183:248,1,55.0000016784668,6|4,0:3|0:3,0:0:0:0:
301,204,88484,6,0,B|291:249|291:249|303:273|303:273|289:332,1,119.999996337891,6|0,1:2|0:0,0:0:0:0:
203,358,88734,1,0,1:0:0:0:
210,329,88817,1,10,0:0:0:0:
378,239,88984,1,0,1:0:0:0:
204,151,89151,5,2,3:2:0:0:
375,354,89317,1,0,1:0:0:0:
423,134,89484,5,14,0:1:0:0:
182,248,89651,1,2,1:2:0:0:
292,318,89817,1,4,0:3:0:0:
250,14,90067,5,0,1:0:0:0:
250,14,90151,2,0,L|133:37,1,110.000003356934,10|0,0:0|1:0,0:0:0:0:
0,189,90484,1,2,3:2:0:0:
57,63,90651,1,0,1:0:0:0:
182,248,90817,1,10,3:2:0:0:
138,256,90901,1,8,0:0:0:0:
95,265,90984,1,8,0:0:0:0:
52,274,91067,1,8,0:0:0:0:
9,285,91151,1,6,1:2:0:0:
119,123,91317,6,0,L|100:223,1,59.9999981689454,0|0,3:0|3:0,0:0:0:0:
199,341,91484,2,0,L|210:282,1,59.9999981689454,0|0,3:0|3:0,0:0:0:0:
338,195,91651,1,6,1:0:0:0:
428,371,91817,5,0,3:0:0:0:
472,352,91901,1,0,3:0:0:0:
499,312,91984,1,0,3:0:0:0:
496,264,92067,1,0,3:0:0:0:
467,225,92151,1,6,1:0:0:0:
311,311,92317,5,0,3:0:0:0:
358,301,92401,1,0,3:0:0:0:
404,292,92484,1,4,1:2:0:0:
495,131,92650,5,0,3:0:0:0:
447,120,92734,1,0,3:0:0:0:
399,111,92817,1,0,3:0:0:0:
352,99,92900,1,0,3:0:0:0:
304,90,92984,1,4,1:0:0:0:
115,174,93151,5,0,3:0:0:0:
86,135,93235,1,0,3:0:0:0:
83,87,93318,1,0,3:0:0:0:
110,47,93401,1,0,3:0:0:0:
154,28,93484,2,0,L|165:87,1,59.9999981689454,8|8,0:3|0:3,0:0:0:0:
274,183,93651,2,0,L|285:242,1,59.9999981689454,4|4,0:3|0:3,0:0:0:0:
215,369,93817,1,2,1:2:0:0:
87,264,93984,6,0,L|5:283,1,59.9999981689454,0|2,1:0|0:0,0:0:0:0:
215,369,94317,6,0,B|338:384|267:305|396:324,1,194.999991073609,2|0,1:2|0:0,0:0:0:0:
285,242,94651,6,0,B|246:178|303:127|303:127|360:132|381:78,1,209.999993591309,2|0,1:2|0:0,0:1:0:0:
512,189,94984,6,0,P|371:141|182:120,1,320,14|0,1:2|1:0,0:0:0:0:
360,0,95484,6,0,B|393:23|393:23|409:69|357:109,1,119.999996337891,8|0,0:0|0:0,0:0:0:0:
95,202,95817,5,8,1:3:0:0:
48,139,95929,5,8,1:3:0:0:
79,68,96040,5,8,1:3:0:0:
155,59,96151,5,4,1:3:0:0:
202,121,96262,5,4,1:3:0:0:
172,191,96373,5,4,1:3:0:0:
125,130,96484,5,0,1:0:0:0:
35,311,96651,1,0,3:0:0:0:
35,311,96734,1,0,3:0:0:0:
35,311,96817,2,0,L|18:212,1,100,4|0,1:2|0:0,0:0:0:0:
155,59,97151,2,0,B|137:109|168:141|168:141|187:148|187:148|223:188|190:259,1,200,2|0,1:2|1:0,0:0:0:0:
63,16,97651,1,0,3:0:0:0:
63,16,97734,1,0,3:0:0:0:
63,16,97817,6,0,B|106:26|149:47|149:47|216:40|261:-22,1,200,2|4,1:2|1:2,0:0:0:0:
169,159,98317,1,2,0:0:0:0:
358,65,98484,5,0,1:0:0:0:
368,87,98567,1,0,3:0:0:0:
369,112,98651,1,0,3:0:0:0:
362,135,98734,1,0,1:0:0:0:
347,154,98817,1,0,1:2:0:0:
326,168,98901,1,4,0:3:0:0:
311,188,98984,1,4,0:3:0:0:
307,212,99067,1,4,0:3:0:0:
313,236,99151,1,6,1:0:0:0:
433,331,99317,5,0,3:0:0:0:
458,314,99401,1,0,3:0:0:0:
476,290,99484,1,0,3:0:0:0:
478,260,99567,1,0,3:0:0:0:
469,231,99651,1,6,1:2:0:0:
287,101,99817,5,0,3:0:0:0:
252,107,99901,1,0,3:0:0:0:
217,113,99984,1,0,3:0:0:0:
182,118,100067,1,0,3:0:0:0:
147,124,100151,1,6,1:0:0:0:
56,320,100317,5,0,3:0:0:0:
95,326,100401,1,0,3:0:0:0:
134,333,100484,1,2,3:2:0:0:
173,339,100567,1,0,3:0:0:0:
212,346,100651,1,4,1:2:0:0:
387,257,100817,5,0,3:0:0:0:
351,285,100901,1,0,3:0:0:0:
306,277,100984,1,0,3:0:0:0:
287,236,101067,1,0,3:0:0:0:
309,196,101151,1,6,1:0:0:0:
357,186,101234,1,0,3:0:0:0:
377,140,101318,1,0,3:0:0:0:
357,94,101401,1,0,3:0:0:0:
308,83,101484,1,2,1:2:0:0:
263,115,101567,1,0,3:0:0:0:
208,105,101651,1,2,3:2:0:0:
185,54,101734,1,0,3:0:0:0:
208,4,101817,6,0,B|241:102|143:60|177:172,1,175,2|2,0:0|0:0,0:0:0:0:
277,264,103151,6,0,P|299:214|282:175,1,80,4|0,1:2|1:0,0:0:0:0:
155,278,103484,5,8,0:0:0:0:
131,282,103567,1,0,3:0:0:0:
107,286,103651,1,0,3:0:0:0:
83,291,103734,1,8,0:0:0:0:
83,291,104151,5,4,0:2:0:0:
92,212,104317,1,0,1:0:0:0:
10,319,104484,5,0,1:0:0:0:
21,242,104651,1,0,1:0:0:0:
76,371,104817,5,8,0:0:0:0:
100,366,104900,1,0,3:0:0:0:
124,362,104984,1,0,3:0:0:0:
148,358,105067,1,8,0:0:0:0:
503,183,105817,5,0,1:0:0:0:
430,165,105984,1,0,1:0:0:0:
344,258,106151,5,8,0:0:0:0:
348,282,106234,1,0,3:0:0:0:
352,306,106318,1,0,3:0:0:0:
357,330,106401,1,12,0:0:0:0:
470,25,107151,6,0,L|488:124,1,80,0|0,1:0|1:0,0:0:0:0:
350,145,107484,5,8,0:0:0:0:
326,140,107567,1,0,3:0:0:0:
302,136,107651,1,0,3:0:0:0:
278,132,107734,1,8,0:0:0:0:
384,36,107984,5,4,1:2:0:0:
415,197,108151,5,8,0:0:0:0:
415,197,108234,1,0,3:0:0:0:
371,353,108401,5,8,0:0:0:0:
371,353,108484,1,4,1:2:0:0:
391,275,108651,1,0,1:0:0:0:
265,384,108817,5,8,0:0:0:0:
261,360,108900,1,0,3:0:0:0:
257,336,108984,1,0,3:0:0:0:
252,312,109067,1,8,0:0:0:0:
27,124,109817,6,0,L|126:106,1,80,0|0,1:0|1:0,0:0:0:0:
244,26,110151,5,8,0:0:0:0:
220,21,110234,1,0,3:0:0:0:
196,17,110318,1,0,3:0:0:0:
172,13,110401,1,8,0:0:0:0:
333,282,111151,5,0,1:0:0:0:
320,206,111317,1,0,1:0:0:0:
185,244,111484,5,8,0:0:0:0:
209,248,111567,1,0,3:0:0:0:
233,252,111651,1,0,3:0:0:0:
257,257,111734,1,12,0:0:0:0:
0,339,112317,5,8,0:0:0:0:
74,362,112484,1,0,1:0:0:0:
61,286,112650,1,0,1:0:0:0:
152,382,112817,5,8,0:0:0:0:
148,358,112900,1,0,3:0:0:0:
144,334,112984,1,0,3:0:0:0:
139,310,113067,1,8,0:0:0:0:
110,133,113317,5,4,1:2:0:0:
165,224,113484,1,8,0:0:0:0:
125,218,113567,1,8,0:0:0:0:
86,212,113650,1,8,1:3:0:0:
46,205,113733,1,4,1:3:0:0:
6,198,113817,6,2,B|208:300|141:85|257:257|358:80|312:304|524:194,1,519.99997619629,0|8,1:0|0:0,0:1:0:0:
396,9,114817,6,0,L|386:64,1,44.999998626709,0|0,1:0|0:0,0:0:0:0:
305,50,115151,6,0,B|300:149|384:190|462:80|485:280|431:363|322:356|259:212|358:143|436:127,1,519.99997619629,2|8,0:0|0:0,0:0:0:0:
511,273,115984,5,2,0:0:0:0:
486,347,116151,1,2,0:0:0:0:
413,375,116317,1,2,0:0:0:0:
235,353,116484,6,2,B|294:336|330:213|171:162|125:229|95:304|140:383|233:367|233:367|357:344,1,519.99997619629,0|8,1:0|0:0,0:1:0:0:
512,132,117484,6,0,L|457:142,1,44.999998626709,0|0,1:0|0:0,0:0:0:0:
425,218,117817,6,0,B|377:217|354:272|354:272|373:108|269:237|230:79|265:-23|379:-31|444:56|385:101,1,519.99997619629,2|8,0:0|0:0,0:0:0:0:
168,266,118817,6,0,L|213:257,1,44.999998626709,4|0,0:3|0:0,0:0:0:0:
244,164,119151,6,2,B|142:186|142:186|129:175|129:175|32:195|32:195|1:290|1:290|63:368|63:368|173:345,1,519.99997619629,0|8,1:0|0:0,0:1:0:0:
178,90,120151,6,0,L|169:45,1,44.999998626709,0|0,1:0|0:0,0:0:0:0:
195,169,120484,6,0,B|253:156|253:156|305:145|332:61|272:1|217:12|217:12|125:33|125:33|92:78|92:78|1:102|1:102,1,519.99997619629,2|8,0:0|0:0,0:0:0:0:
2,101,121317,6,0,L|26:4,1,69.9999978637696,2|0,0:3|0:0,0:0:0:0:
76,345,121817,6,0,B|12:294|-20:189|106:68|239:133|287:215|266:327|131:337|130:240,1,519.99997619629,0|8,1:0|0:0,0:0:0:0:
351,178,122817,6,0,L|396:169,1,44.999998626709,0|0,1:0|0:0,0:0:0:0:
512,135,123151,6,2,B|483:64|370:62|335:172|395:233|456:227|456:227|532:222|582:322|502:402|420:376|397:320,1,600.000022888184,2|10,0:0|0:0,0:0:0:0:
396,319,124151,5,2,0:0:0:0:
372,325,124234,1,2,0:0:0:0:
302,315,124317,5,2,0:0:0:0:
278,321,124400,1,2,0:0:0:0:
241,384,124484,6,0,B|216:268|305:310|269:188,1,200,6|10,1:2|0:0,0:0:0:0:
122,22,124984,1,0,1:0:0:0:
122,22,125067,1,0,1:0:0:0:
122,22,125151,6,0,L|220:6,1,100,2|0,1:2|1:0,0:0:0:0:
164,148,125484,1,10,0:0:0:0:
321,32,125651,1,2,0:0:0:0:
504,162,125817,5,0,1:0:0:0:
425,147,125984,1,0,1:0:0:0:
481,296,126151,1,8,0:0:0:0:
402,281,126317,1,2,0:0:0:0:
452,222,126484,1,2,1:2:0:0:
78,365,126817,1,10,0:0:0:0:
157,350,126984,1,0,3:0:0:0:
89,189,127151,6,0,L|105:288,1,100,2|0,1:2|1:0,0:0:0:0:
0,285,127484,2,0,B|126:299|46:207|221:239,1,200,8|2,0:0|1:2,0:0:0:0:
345,116,127984,1,0,1:0:0:0:
289,58,128151,1,8,0:0:0:0:
316,197,128317,1,2,0:0:0:0:
428,31,128484,6,0,L|226:-1,2,200,0|8|2,1:0|0:0|1:2,0:0:0:0:
455,170,129317,1,0,1:0:0:0:
345,116,129484,1,8,0:0:0:0:
167,268,129651,1,2,3:2:0:0:
167,268,129734,1,0,3:0:0:0:
167,268,129817,6,0,B|190:219|190:219|160:164,1,100,4|0,1:2|1:0,0:0:0:0:
349,373,130151,1,2,0:0:0:0:
349,373,130317,2,0,L|372:232,1,100,8|0,0:0|0:0,0:0:0:0:
504,161,130651,6,0,L|409:177,1,50,10|0,0:0|0:0,0:0:0:0:
381,104,130817,2,0,L|389:54,1,50,0|0,1:0|0:0,0:0:0:0:
469,16,130984,1,0,1:0:0:0:
454,169,131151,6,0,L|445:218,1,50,2|0,1:2|0:0,0:0:0:0:
365,274,131317,2,0,L|263:292,1,100,8|0,0:0|0:0,0:0:0:0:
44,134,131651,2,0,L|146:116,1,100,10|2,0:0|1:2,0:0:0:0:
247,44,131984,1,0,1:0:0:0:
221,215,132151,6,0,L|229:165,1,50,10|0,0:0|3:0,0:0:0:0:
433,25,132484,5,10,1:0:0:0:
469,243,132651,1,2,1:3:0:0:
408,4,132817,1,8,1:3:0:0:
451,265,132984,1,6,1:3:0:0:
123,359,133484,5,10,1:0:0:0:
341,323,133651,1,2,1:3:0:0:
102,384,133817,1,8,1:3:0:0:
363,341,133984,1,6,1:3:0:0:
69,195,134317,5,10,0:0:0:0:
136,240,134484,1,8,1:3:0:0:
284,215,134651,1,8,1:3:0:0:
325,149,134817,1,4,1:3:0:0:
447,165,134984,1,4,1:3:0:0:
485,64,135151,5,14,1:2:0:0:
309,39,135318,1,0,1:0:0:0:
284,215,135485,1,0,3:0:0:0:
461,240,135651,1,2,3:2:0:0:
259,121,136151,5,10,1:0:0:0:
401,15,136317,1,0,1:0:0:0:
509,156,136484,1,0,3:0:0:0:
366,264,136651,1,2,3:2:0:0:
25,182,137817,5,10,1:0:0:0:
201,157,137984,1,0,1:0:0:0:
226,333,138151,1,0,3:0:0:0:
49,358,138317,1,2,3:2:0:0:
251,239,138817,5,10,1:0:0:0:
109,133,138984,1,0,1:0:0:0:
1,274,139150,1,0,3:0:0:0:
144,382,139317,1,2,3:2:0:0:
128,257,139734,5,0,3:0:0:0:
128,257,139817,1,0,3:0:0:0:
183,198,139984,1,0,3:0:0:0:
251,239,140151,2,0,L|346:254,1,75,0|0,3:0|0:0,0:0:0:0:
394,198,140484,6,0,B|411:268|413:329|413:329|387:351|357:387,1,200,6|0,1:2|1:0,0:0:0:0:
179,338,140984,2,0,B|162:268|160:207|160:207|186:185|216:149,1,200,2|0,0:0|0:0,0:0:0:0:
291,284,141484,2,0,L|389:299,1,100,2|0,1:2|0:0,0:0:0:0:
498,199,141817,5,0,1:0:0:0:
498,199,141984,2,0,B|449:75|548:126|502:4,1,200,2|0,0:0|0:0,0:0:0:0:
365,113,142484,2,0,L|350:211,1,100,2|0,1:2|0:0,0:0:0:0:
223,90,142817,2,0,P|215:41|244:2,1,100,2|0,1:2|0:0,0:0:0:0:
317,14,143067,1,0,1:0:0:0:
312,33,143151,1,4,1:2:0:0:
170,162,143317,5,8,0:3:0:0:
150,165,143401,1,8,0:3:0:0:
130,169,143484,1,8,1:3:0:0:
0,287,143651,5,4,0:3:0:0:
26,283,143735,1,4,0:3:0:0:
52,278,143818,1,4,1:3:0:0:
252,365,143984,5,0,1:0:0:0:
215,370,144068,1,0,1:0:0:0:
178,378,144151,2,0,L|195:258,1,119.999996337891,6|0,1:2|3:0,0:0:0:0:
372,130,144484,5,2,1:2:0:0:
494,232,144651,1,0,3:0:0:0:
451,31,144817,1,0,1:0:0:0:
266,99,144984,1,0,3:0:0:0:
309,300,145150,1,8,1:3:0:0:
349,52,145317,1,4,1:3:0:0:
101,12,145484,1,8,0:0:0:0:
48,25,145567,1,8,0:0:0:0:
14,68,145651,1,8,0:0:0:0:
14,121,145734,1,8,0:0:0:0:
44,165,145817,6,0,B|93:154|93:154|110:136|110:136|160:127,1,119.999996337891,6|0,1:2|0:0,0:0:0:0:
241,90,146067,1,0,1:0:0:0:
245,59,146151,1,8,3:2:0:0:
465,231,146317,1,2,1:2:0:0:
472,240,146401,1,2,0:2:0:0:
478,249,146484,2,0,L|486:189,1,59.9999981689454,2|0,3:2|0:0,0:0:0:0:
275,221,146651,2,0,L|266:283,1,59.9999981689454,2|0,1:2|0:0,0:0:0:0:
391,377,146817,2,0,B|423:261|333:307|393:157,1,179.999994506836,10|0,3:2|0:0,0:0:0:0:
428,115,147151,6,0,P|438:38|409:1,1,119.999996337891,6|0,1:2|0:0,0:0:0:0:
324,0,147401,1,0,1:0:0:0:
298,20,147484,2,0,P|287:96|317:134,1,119.999996337891,8|0,3:2|1:0,0:0:0:0:
472,242,147817,1,2,3:2:0:0:
364,68,147984,1,2,1:2:0:0:
192,274,148151,1,10,3:2:0:0:
144,281,148234,1,8,0:0:0:0:
97,290,148317,1,8,0:0:0:0:
50,298,148401,1,8,0:0:0:0:
3,307,148484,6,0,L|23:182,1,119.999996337891,6|0,1:2|0:0,0:0:0:0:
110,108,148734,1,0,1:0:0:0:
105,138,148817,2,0,L|230:118,1,119.999996337891,8|0,3:2|1:0,0:0:0:0:
159,21,149151,5,2,3:2:0:0:
330,148,149317,1,0,1:2:0:0:
114,274,149484,1,10,3:2:0:0:
231,126,149651,1,2,0:0:0:0:
231,126,149734,1,2,0:0:0:0:
231,126,149817,6,0,B|220:166|220:166|236:193|236:193|225:238,1,119.999996337891,2|0,1:2|0:0,0:0:0:0:
290,309,150067,1,0,1:0:0:0:
320,304,150151,1,8,3:2:0:0:
440,183,150317,2,2,L|381:194,1,59.9999981689454,2|0,1:2|0:0,0:1:0:0:
212,365,150484,1,8,3:2:0:0:
192,322,150567,1,8,0:0:0:0:
194,274,150651,1,8,0:0:0:0:
224,238,150734,1,8,0:0:0:0:
270,229,150817,5,4,1:2:0:0:
402,353,150983,1,2,0:0:0:0:
408,363,151067,1,2,1:2:0:0:
413,373,151150,2,0,L|424:314,1,59.9999981689454,10|2,3:2|0:0,0:0:0:0:
505,138,151317,2,0,L|383:164,1,119.999996337891,2|0,1:2|3:0,0:0:0:0:
278,41,151650,1,0,1:0:0:0:
52,227,151817,2,0,B|85:210|108:200|108:200|136:152|151:76|65:16,1,239.999992675781,12|0,1:0|1:0,0:0:0:0:
33,120,152317,5,2,0:0:0:0:
29,131,152400,1,2,1:0:0:0:
25,142,152483,2,0,L|142:116,1,119.999996337891,10|0,3:2|1:0,0:0:0:0:
338,8,152817,2,0,B|295:22|295:22|267:55|281:129,1,119.999996337891,2|0,3:2|1:0,0:0:0:0:
502,234,153150,1,8,3:2:0:0:
480,191,153233,1,8,0:0:0:0:
440,163,153317,1,8,0:0:0:0:
392,162,153400,1,8,0:0:0:0:
350,186,153483,6,0,L|324:308,1,119.999996337891,6|0,1:2|0:0,0:0:0:0:
406,351,153733,1,0,1:0:0:0:
414,321,153817,1,8,0:0:0:0:
201,384,153983,2,0,B|151:370|151:303|151:303|199:278|198:219,1,179.999994506836,6|0,1:0|0:0,0:0:0:0:
98,213,154317,2,0,L|18:229,1,59.9999981689454,8|0,0:0|0:0,0:0:0:0:
166,28,154483,2,0,B|278:-5|231:91|352:45,1,179.999994506836,8|0,1:0|0:0,0:0:0:0:
388,127,154817,5,10,1:2:0:0:
402,115,154900,1,2,3:2:0:0:
413,102,154983,1,2,3:2:0:0:
422,86,155067,1,2,3:2:0:0:
427,69,155150,1,2,1:2:0:0:
428,51,155233,1,2,3:2:0:0:
426,33,155317,1,2,3:2:0:0:
421,16,155400,1,2,3:2:0:0:
412,0,155483,5,2,1:2:0:0:
383,31,155567,1,2,3:2:0:0:
383,78,155650,1,2,3:2:0:0:
414,121,155733,1,2,3:2:0:0:
470,143,155817,1,2,1:2:0:0:
505,198,155900,1,2,3:2:0:0:
485,266,155983,1,2,3:2:0:0:
413,298,156067,1,2,3:2:0:0:
342,252,156150,5,4,1:2:0:0:
342,252,156483,6,0,L|334:311,1,59.9999981689454,2|2,0:0|0:0,0:0:0:0:
416,375,156817,2,0,P|449:314|420:210,1,179.999994506836,2|0,0:0|0:0,0:0:0:0:
343,135,157483,1,2,0:0:0:0:
343,135,157817,2,0,L|477:113,1,119.999996337891,2|0,0:0|0:0,0:0:0:0:
102,268,158483,1,2,0:0:0:0:
102,268,158650,1,2,0:0:0:0:
254,300,158817,6,0,B|140:284|188:376|66:353,1,200,14|2,1:2|0:0,0:0:0:0:
34,79,159317,5,8,1:3:0:0:
133,96,159483,1,4,1:3:0:0:
231,115,159650,1,0,1:0:0:0:
102,268,159817,5,8,0:0:0:0:
68,172,159984,1,0,1:2:0:0:
34,79,160150,1,0,1:2:0:0:
231,115,160317,5,4,1:3:0:0:
166,190,160483,1,8,1:3:0:0:
102,268,160650,1,8,0:0:0:0:
133,96,160817,5,0,1:0:0:0:
200,286,160983,1,0,1:0:0:0:
390,219,161150,1,8,0:0:0:0:
323,29,161317,1,4,1:3:0:0:
263,156,161483,6,0,B|309:142|309:142|337:156|337:156|385:140,1,119.999996337891,4|0,1:2|0:0,0:0:0:0:
471,199,161983,1,2,0:0:0:0:
471,199,162150,6,0,B|454:155|451:131|451:131|470:93|470:93|465:63|446:22,1,179.999994506836,2|0,0:0|0:0,0:0:0:0:
316,10,162817,6,0,B|222:-3|263:70|167:54,1,160,6|2,1:0|0:0,0:0:0:0:
0,219,163483,6,0,B|55:179|105:215|105:215|115:273|188:272,1,200,2|2,0:0|0:0,0:0:0:0:
393,362,164150,5,6,1:2:0:0:
313,232,164317,1,0,3:0:0:0:
281,241,164400,1,0,3:0:0:0:
255,261,164483,1,0,1:0:0:0:
239,290,164567,1,0,3:0:0:0:
234,322,164650,1,2,3:2:0:0:
239,353,164733,1,0,3:0:0:0:
254,382,164817,5,0,1:0:0:0:
279,346,164900,1,0,3:0:0:0:
277,302,164983,1,0,3:0:0:0:
255,261,165067,1,0,3:0:0:0:
215,241,165150,1,2,1:2:0:0:
191,204,165233,1,0,3:0:0:0:
189,160,165316,1,0,3:0:0:0:
214,123,165400,1,0,3:0:0:0:
256,111,165483,5,0,1:0:0:0:
304,122,165566,1,0,3:0:0:0:
333,162,165650,1,2,3:2:0:0:
354,206,165733,1,0,3:0:0:0:
398,227,165816,1,0,1:0:0:0:
447,227,165900,1,0,3:0:0:0:
487,198,165983,1,0,3:0:0:0:
498,149,166066,1,0,3:0:0:0:
483,101,166150,5,2,1:2:0:0:
440,66,166233,1,0,3:0:0:0:
385,66,166316,1,0,3:0:0:0:
341,100,166400,1,0,3:0:0:0:
333,162,166483,1,2,1:2:0:0:
280,190,166566,1,0,3:0:0:0:
221,171,166650,1,0,3:0:0:0:
201,113,166733,1,0,3:0:0:0:
233,62,166816,6,0,B|207:7|142:-10|76:45|76:45|120:64|125:116,1,250,6|0,1:2|0:0,0:0:0:0:
41,257,167316,6,0,P|135:215|290:189,1,250,6|0,1:2|0:0,0:0:0:0:
389,356,167816,6,0,P|493:306|463:185,1,259.999988098145,6|0,1:2|0:0,0:0:0:0:
463,185,168483,6,0,L|483:87,2,100,2|2|2,0:0|0:0|0:0,0:0:0:0:
198,141,169483,6,0,B|170:139|83:48|173:-73|318:-53|362:20|365:125|290:178|217:164|217:164|129:146|98:206|83:283|148:318|188:318,1,750,6|0,1:0|0:0,0:0:0:0:
178,317,170816,6,0,B|199:321|255:320|276:282|257:265|257:212|388:212|403:245|430:319|375:382|312:353,1,350,6|0,1:0|0:0,0:0:0:0:
336,358,171483,6,0,P|289:337|364:284,1,175
478,209,172150,6,0,B|489:163|489:163|475:136|475:136|484:91,1,119.999996337891,6|0,1:2|0:0,0:0:0:0:
402,36,172400,1,0,1:0:0:0:
396,65,172483,1,10,0:0:0:0:
244,207,172650,2,0,B|182:241|105:252|105:252|74:228|13:206,1,220.000006713867,2|0,1:2|1:0,0:0:0:0:
160,384,173150,2,0,L|171:330,1,55.0000016784668,10|0,0:0|0:0,0:0:0:0:
168,114,173316,6,0,B|90:78|36:149|36:149|58:191|32:233,1,220.000006713867,2|0,1:2|1:0,0:0:0:0:
302,331,173816,1,8,0:0:0:0:
165,200,173983,1,0,1:0:0:0:
43,374,174150,1,2,3:2:0:0:
219,263,174316,1,0,1:0:0:0:
248,229,174400,1,0,1:0:0:0:
252,185,174483,1,10,0:0:0:0:
233,145,174566,1,8,0:0:0:0:
204,111,174650,1,8,0:0:0:0:
200,67,174733,1,8,0:0:0:0:
219,27,174816,5,2,1:2:0:0:
343,147,174983,1,2,0:0:0:0:
495,91,175150,1,6,1:2:0:0:
343,147,175316,1,2,0:0:0:0:
412,19,175483,1,2,1:2:0:0:
449,246,175650,1,0,3:2:0:0:
286,84,175816,1,2,1:2:0:0:
512,119,175983,1,0,3:2:0:0:
308,224,176150,1,2,1:2:0:0:
308,224,176233,6,0,L|325:343,1,110.000003356934,2|0,0:0|0:0,0:0:0:0:
249,384,176483,2,0,L|130:367,1,110.000003356934,6|2,1:2|0:0,0:0:0:0:
2,238,176816,1,0,1:0:0:0:
37,212,176900,1,0,3:0:0:0:
81,213,176983,1,2,3:2:0:0:
117,237,177066,1,0,1:0:0:0:
137,275,177149,1,2,1:2:0:0:
177,293,177232,1,4,0:3:0:0:
219,283,177316,2,0,L|240:184,1,55.0000016784668,6|4,0:3|0:3,0:0:0:0:
365,113,177483,6,0,B|320:103|320:103|296:115|296:115|237:101,1,119.999996337891,6|0,1:2|0:0,0:0:0:0:
181,37,177733,1,0,1:0:0:0:
188,8,177816,1,10,0:0:0:0:
332,192,177983,1,0,1:0:0:0:
158,161,178150,5,2,3:2:0:0:
348,21,178316,1,0,1:0:0:0:
478,187,178483,5,14,0:1:0:0:
264,79,178650,1,2,0:0:0:0:
470,162,178816,1,4,0:3:0:0:
268,376,179066,5,0,1:0:0:0:
268,376,179149,2,0,L|288:245,1,110.000003356934,10|0,0:0|1:0,0:0:0:0:
397,334,179483,1,2,3:2:0:0:
299,180,179650,1,0,1:0:0:0:
124,336,179816,1,10,0:0:0:0:
162,314,179900,1,8,0:0:0:0:
184,276,179983,1,8,0:0:0:0:
180,232,180066,1,8,0:0:0:0:
156,194,180150,1,6,1:2:0:0:
15,261,180316,5,0,3:0:0:0:
25,213,180400,1,0,3:0:0:0:
34,166,180483,1,0,3:0:0:0:
44,119,180566,1,0,3:0:0:0:
55,72,180650,1,6,1:0:0:0:
242,16,180816,5,0,3:0:0:0:
253,63,180900,1,0,3:0:0:0:
263,110,180983,1,0,3:0:0:0:
272,157,181066,1,0,3:0:0:0:
282,205,181150,1,6,1:0:0:0:
214,372,181316,5,0,3:0:0:0:
166,381,181400,1,0,3:0:0:0:
129,350,181483,1,6,1:2:0:0:
0,210,181650,5,0,3:0:0:0:
47,199,181734,1,0,3:0:0:0:
94,189,181817,1,0,3:0:0:0:
141,180,181900,1,0,3:0:0:0:
189,170,181984,1,6,1:0:0:0:
401,321,182150,5,0,3:0:0:0:
444,301,182233,1,0,3:0:0:0:
471,261,182316,1,0,3:0:0:0:
462,213,182400,1,0,3:0:0:0:
427,179,182483,1,8,0:3:0:0:
360,151,182566,1,8,0:3:0:0:
334,83,182650,1,4,0:3:0:0:
364,18,182733,1,4,0:3:0:0:
433,0,182816,5,2,1:2:0:0:
491,101,182983,6,0,L|432:87,1,59.9999981689454,0|2,1:0|0:0,0:0:0:0:
196,1,183316,6,0,B|262:35|240:101|240:101|164:131|216:229,1,209.999993591309,2|0,1:2|0:0,0:0:0:0:
289,251,183650,6,0,P|201:211|44:194,1,225.000008583069,2|0,1:2|0:0,0:0:0:0:
0,380,183983,6,0,B|50:399|106:364|106:364|98:200|210:312|194:136,1,340.000006484985,14|0,1:2|1:0,0:0:0:0:
80,15,184483,6,0,P|33:54|37:108,1,119.999996337891,8|0,0:0|0:0,0:0:0:0:
289,258,184816,5,8,1:3:0:0:
366,236,184928,5,8,1:3:0:0:
386,158,185039,5,8,1:3:0:0:
329,101,185150,5,4,1:3:0:0:
310,178,185261,5,4,1:3:0:0:
366,236,185372,5,4,1:3:0:0:
443,217,185483,5,0,1:0:0:0:
242,122,185650,1,0,3:0:0:0:
242,122,185733,1,0,3:0:0:0:
242,122,185816,2,0,L|261:-1,1,100,4|0,1:2|0:0,0:0:0:0:
161,174,186150,5,2,1:2:0:0:
329,101,186316,1,0,3:0:0:0:
257,23,186483,5,2,1:2:0:0:
314,220,186650,1,0,3:0:0:0:
314,220,186733,1,0,3:0:0:0:
314,220,186816,6,0,B|205:202|256:292|112:265,1,200,2|4,1:2|1:2,0:0:0:0:
250,135,187316,1,2,0:0:0:0:
208,297,187483,5,0,1:0:0:0:
218,275,187566,1,0,3:0:0:0:
219,250,187650,1,0,3:0:0:0:
212,227,187733,1,0,1:0:0:0:
197,208,187816,1,0,1:0:0:0:
176,194,187900,1,4,0:3:0:0:
161,174,187983,1,4,0:3:0:0:
157,150,188066,1,4,0:3:0:0:
163,126,188150,1,6,1:0:0:0:
290,2,188316,5,0,3:0:0:0:
315,19,188400,1,0,3:0:0:0:
333,43,188483,1,0,3:0:0:0:
335,73,188566,1,0,3:0:0:0:
326,102,188650,1,6,1:2:0:0:
357,311,188816,5,0,3:0:0:0:
392,317,188900,1,0,3:0:0:0:
427,323,188983,1,0,3:0:0:0:
462,328,189066,1,0,3:0:0:0:
497,334,189150,1,6,1:0:0:0:
310,212,189316,5,0,3:0:0:0:
275,218,189400,1,0,3:0:0:0:
240,224,189483,1,2,3:2:0:0:
205,229,189566,1,0,3:0:0:0:
170,235,189650,1,4,1:2:0:0:
28,359,189816,5,0,3:0:0:0:
0,323,189900,1,0,3:0:0:0:
8,278,189983,1,0,3:0:0:0:
49,259,190066,1,0,3:0:0:0:
89,281,190150,1,6,1:0:0:0:
99,329,190233,1,0,3:0:0:0:
145,349,190317,1,0,3:0:0:0:
191,329,190400,1,0,3:0:0:0:
202,280,190483,1,2,1:2:0:0:
170,235,190566,1,0,3:0:0:0:
180,180,190650,1,2,3:2:0:0:
231,157,190733,1,0,3:0:0:0:
281,180,190816,6,0,P|411:148|532:148,1,250,6|0,1:2|0:0,0:0:0:0:
423,27,191316,6,0,B|359:149|508:118|421:285,1,250,6|0,1:2|0:0,0:0:0:0:
350,384,191816,6,0,B|261:358|280:269|280:269|347:245|329:158,1,250,6|0,1:2|0:0,0:0:0:0:
296,42,192316,6,0,B|249:23|215:4|215:4|135:11|53:69,1,250,6|0,1:2|0:0,0:0:0:0:
0,247,192816,6,0,B|92:212|67:290|174:251,1,165.000005035401,6|0,1:2|0:0,0:0:0:0:
274,184,193150,6,0,P|320:110|281:29,1,165.000005035401,6|0,1:2|0:0,0:0:0:0:
140,139,193483,6,0,P|113:245|89:414,1,250,6|0,1:2|0:0,0:0:0:0:
0,247,193983,6,0,B|168:213|79:345|279:291,1,250,6|0,1:2|0:0,0:0:0:0:
368,382,194483,6,0,P|446:342|410:169,1,250,6|0,1:2|0:0,0:0:0:0:
379,29,194983,6,0,B|361:92|296:91|296:91|236:150|281:228,1,250,6|0,1:2|0:0,0:0:0:0:
443,195,195483,6,0,B|486:234|486:234|490:310|418:346,1,165.000005035401,6|0,1:2|0:0,0:0:0:0:
265,384,195816,6,0,P|182:357|70:352,1,165.000005035401,6|0,1:2|0:0,0:0:0:0:
24,379,196150,5,6,1:2:0:0:
108,198,196316,5,0,3:0:0:0:
83,233,196400,1,0,3:0:0:0:
41,220,196483,1,0,3:0:0:0:
41,176,196566,1,0,3:0:0:0:
83,162,196650,1,6,1:0:0:0:
220,289,196816,5,0,3:0:0:0:
214,244,196900,1,0,3:0:0:0:
208,200,196983,1,0,3:0:0:0:
201,156,197066,1,0,3:0:0:0:
195,111,197150,1,6,1:2:0:0:
331,0,197316,5,0,3:0:0:0:
348,40,197400,1,0,3:0:0:0:
383,65,197483,1,0,3:0:0:0:
426,66,197566,1,0,3:0:0:0:
462,41,197650,1,6,1:0:0:0:
511,194,197816,5,0,3:0:0:0:
466,188,197900,1,0,3:0:0:0:
422,181,197983,1,0,3:0:0:0:
378,175,198066,1,0,3:0:0:0:
333,169,198150,1,6,1:2:0:0:
285,333,198316,5,8,0:3:0:0:
314,349,198400,1,8,0:3:0:0:
346,347,198483,1,4,0:3:0:0:
371,326,198566,1,4,0:3:0:0:
389,297,198650,1,4,0:3:0:0:
421,290,198733,1,4,0:3:0:0:
451,303,198816,1,6,1:2:0:0:
215,383,198983,5,0,3:0:0:0:
189,340,199066,1,0,3:0:0:0:
193,290,199150,1,0,3:0:0:0:
227,254,199233,1,0,3:0:0:0:
276,250,199316,1,6,1:0:0:0:
379,60,199483,5,0,3:0:0:0:
329,66,199567,1,0,3:0:0:0:
280,74,199650,1,0,3:0:0:0:
231,80,199733,1,0,3:0:0:0:
181,89,199817,1,6,1:2:0:0:
22,239,199983,5,0,3:0:0:0:
31,189,200067,1,0,3:0:0:0:
37,140,200150,1,0,3:0:0:0:
45,91,200233,1,0,3:0:0:0:
51,41,200317,1,6,1:0:0:0:
199,285,200483,5,0,3:0:0:0:
268,262,200566,1,0,3:0:0:0:
268,191,200650,1,0,3:0:0:0:
199,169,200733,1,0,3:0:0:0:
157,227,200816,2,2,B|204:198|243:204|243:204|266:224|266:224|315:241|360:211,1,209.999993591309,2|0,1:2|0:0,0:1:0:0:
450,280,201483,6,0,L|433:161,1,119.999996337891,4|0,1:2|0:0,0:0:0:0:
503,100,201733,1,0,1:0:0:0:
507,129,201816,1,8,3:2:0:0:
367,8,201983,2,0,B|316:43|316:43|246:28,1,119.999996337891,2|0,1:2|3:0,0:0:0:0:
91,174,202316,1,0,1:0:0:0:
157,0,202483,2,0,B|120:111|242:85|181:243,1,239.999992675781,10|4,3:2|1:2,0:0:0:0:
58,379,202983,5,2,1:2:0:0:
58,379,203066,1,0,1:0:0:0:
58,379,203150,2,0,P|111:341|185:360,1,119.999996337891,8|0,3:2|1:0,0:0:0:0:
370,384,203483,2,0,L|353:265,1,119.999996337891,2|0,3:2|1:0,0:0:0:0:
187,226,203816,2,0,B|162:123|254:170|219:54,1,179.999994506836,10|0,3:2|0:0,0:0:0:0:
149,2,204150,6,0,P|99:38|101:99,1,119.999996337891,6|0,1:2|0:0,0:0:0:0:
15,146,204400,1,0,1:0:0:0:
19,117,204483,1,8,3:2:0:0:
198,252,204650,2,0,L|79:269,1,119.999996337891,2|0,1:2|3:0,0:0:0:0:
234,149,204983,1,0,1:0:0:0:
331,383,205150,2,0,P|402:323|374:166,1,239.999992675781,10|4,3:2|1:2,0:0:0:0:
254,17,205650,5,2,1:2:0:0:
254,17,205733,1,0,1:0:0:0:
254,17,205816,2,0,L|373:0,1,119.999996337891,8|0,3:2|1:0,0:0:0:0:
508,161,206150,2,0,B|481:120|481:120|488:85|524:44,1,119.999996337891,0|0,3:0|1:0,0:0:0:0:
288,146,206483,1,8,3:2:0:0:
283,188,206567,1,8,0:0:0:0:
278,229,206650,1,8,0:0:0:0:
272,270,206733,1,8,0:0:0:0:
268,314,206817,5,2,1:2:0:0:
357,366,206983,1,2,0:0:0:0:
458,339,207150,1,6,1:2:0:0:
510,250,207317,1,2,0:0:0:0:
484,149,207483,1,2,1:2:0:0:
394,97,207650,1,2,3:2:0:0:
293,122,207817,1,0,1:0:0:0:
293,122,207983,1,0,3:0:0:0:
241,213,208150,5,2,1:2:0:0:
135,291,208317,1,2,0:0:0:0:
14,237,208483,1,4,1:2:0:0:
0,105,208650,1,2,0:0:0:0:
106,28,208817,1,0,1:0:0:0:
110,69,208900,1,0,3:0:0:0:
114,110,208983,1,0,3:0:0:0:
118,152,209067,1,0,1:0:0:0:
122,193,209150,1,0,1:0:0:0:
126,234,209233,1,4,3:0:0:0:
131,275,209317,1,4,3:0:0:0:
137,316,209400,1,4,3:0:0:0:
142,357,209483,38,1,P|26:339|13:263,1,195,6|0,1:2|0:0,0:0:0:0:
14,237,209817,5,0,3:0:0:0:
233,331,209983,1,2,3:2:0:0:
327,112,210150,1,0,3:0:0:0:
108,18,210317,1,0,3:0:0:0:
14,237,210483,2,1,L|41:75,1,119.999996337891,2|0,1:2|3:0,0:0:0:0:
233,331,210817,5,4,1:0:0:0:
194,226,210983,1,2,3:2:0:0:
236,202,211067,1,0,3:0:0:0:
283,205,211150,1,0,1:0:0:0:
318,237,211233,1,0,3:0:0:0:
327,284,211317,1,0,3:0:0:0:
358,319,211400,1,0,3:0:0:0:
404,328,211483,1,2,1:2:0:0:
456,312,211567,1,0,3:0:0:0:
483,265,211650,1,0,3:0:0:0:
475,211,211733,1,0,3:0:0:0:
436,172,211817,2,1,L|448:100,1,60,2|0,1:2|3:0,0:0:0:0:
306,0,211983,6,1,B|299:46|299:46|313:67|313:67|303:133,1,120,4|0,3:1|0:0,0:0:0:0:
