osu file format v14

[General]
AudioFilename: audio.mp3
AudioLeadIn: 0
PreviewTime: 168390
Countdown: 0
SampleSet: Soft
StackLeniency: 0.7
Mode: 0
LetterboxInBreaks: 0
EpilepsyWarning: 1
WidescreenStoryboard: 1

[Editor]
DistanceSpacing: 0.9
BeatDivisor: 4
GridSize: 32
TimelineZoom: 2.699999

[Metadata]
Title:Into Gray
TitleUnicode:Into Gray
Artist:yuki
ArtistUnicode:yuki
Creator:Bellicose
Version:Normal.
Source:白昼夢の青写真
Tags:eroge momo 緒乃ワサビ case-0 case 0 Laplacian Hakuchuumu no Aojashin The girl who's whos called the world japanese pop rock full version opening op visual novel vn video game lasse kalibe dored koiyuki minakami mtbbsben
BeatmapID:2845702
BeatmapSetID:1373789

[Difficulty]
HPDrainRate:3
CircleSize:3.2
OverallDifficulty:4
ApproachRate:5.5
SliderMultiplier:1.1
SliderTickRate:1

[Events]
//Background and Video events
0,0,"bg2.png",0,0
//Break Periods
2,24606,35700
2,103350,112617
//Storyboard Layer 0 (Background)
Sprite,Background,Centre,"bg2.png",320,240
//Storyboard Layer 1 (Fail)
//Storyboard Layer 2 (Pass)
//Storyboard Layer 3 (Foreground)
Sprite,Foreground,Centre,"Dream\Other\Bellicose.png",320,240 M,0,10112,10288,500,150,508,150 F,0,10112,10465,0,1 S,0,10112,13112,0.45 M,0,12935,13112,508,150,516,150 F,0,12935,13112,1,0
//Storyboard Layer 4 (Overlay)
//Storyboard Sound Samples

[TimingPoints]
1818,352.941176470588,4,2,1,30,1,0
1818,-111.111111111111,4,2,1,30,0,0
12406,-111.111111111111,4,2,2,15,0,0
13112,-111.111111111111,4,2,2,35,0,0
24406,-111.111111111111,4,2,80,20,0,0
24759,-111.111111111111,4,2,1,30,0,0
34112,-111.111111111111,4,2,1,30,0,0
35700,-111.111111111111,4,2,99,5,0,0
36935,-111.111111111111,4,2,1,30,0,0
37112,-111.111111111111,4,2,1,50,0,0
37818,333.333333333333,4,2,1,50,1,0
37818,-100,4,2,1,70,0,0
37984,-100,4,2,1,70,0,0
39818,-100,4,2,1,70,0,0
40068,-100,4,2,1,5,0,0
40151,-100,4,2,1,70,0,0
40401,-100,4,2,1,5,0,0
40484,-100,4,2,1,70,0,0
45817,-100,4,2,1,70,0,0
45901,-100,4,2,1,5,0,0
45984,-100,4,2,1,70,0,0
46067,-100,4,2,1,5,0,0
46151,-100,4,2,1,70,0,0
47234,-100,4,2,1,5,0,0
47317,-100,4,2,1,70,0,0
48484,-111.111111111111,4,2,1,60,0,0
48817,-111.111111111111,4,2,3,50,0,0
49317,-111.111111111111,4,2,2,50,0,0
49651,-111.111111111111,4,2,3,50,0,0
50817,-111.111111111111,4,2,3,50,0,0
50984,-111.111111111111,4,2,3,50,0,0
51151,-111.111111111111,4,2,3,50,0,0
52317,-111.111111111111,4,2,1,50,0,0
52484,-111.111111111111,4,2,3,50,0,0
53817,-111.111111111111,4,2,1,50,0,0
53984,-111.111111111111,4,2,3,50,0,0
54484,-111.111111111111,4,2,1,50,0,0
55151,-111.111111111111,4,2,3,50,0,0
55984,-111.111111111111,4,2,1,50,0,0
56151,-111.111111111111,4,2,1,50,0,0
56317,-111.111111111111,4,2,3,50,0,0
57651,-111.111111111111,4,2,1,50,0,0
58151,-111.111111111111,4,2,3,50,0,0
58651,-111.111111111111,4,2,1,50,0,0
59151,-100,4,2,1,60,0,0
59484,-100,4,2,4,60,0,0
64484,-100,4,2,1,60,0,0
64651,-100,4,2,4,60,0,0
66817,-100,4,2,4,60,0,0
67067,-100,4,2,4,5,0,0
67151,-100,4,2,1,70,0,0
69817,-100,4,2,1,60,0,0
70151,-111.111111111111,4,2,1,50,0,0
72484,-100,4,2,1,60,0,0
75151,-111.111111111111,4,2,1,50,0,0
76484,-111.111111111111,4,2,1,60,0,0
77151,-111.111111111111,4,2,1,70,0,0
77651,-111.111111111111,4,2,2,60,0,0
77817,-111.111111111111,4,2,1,50,0,0
79484,-111.111111111111,4,2,1,50,0,0
80484,-95.2380952380952,4,2,1,75,0,1
81734,-95.2380952380952,4,2,1,5,0,1
81817,-95.2380952380952,4,2,1,75,0,1
82484,-95.2380952380952,4,2,1,75,0,1
82817,-95.2380952380952,4,2,1,75,0,1
82901,-95.2380952380952,4,2,1,5,0,1
82984,-95.2380952380952,4,2,1,75,0,1
83067,-95.2380952380952,4,2,1,5,0,1
83151,-95.2380952380952,4,2,1,75,0,1
83651,-95.2380952380952,4,2,1,75,0,1
84234,-95.2380952380952,4,2,1,5,0,1
84317,-95.2380952380952,4,2,1,75,0,1
85151,-95.2380952380952,4,2,4,75,0,1
85317,-95.2380952380952,4,2,1,75,0,1
85817,-95.2380952380952,4,2,1,70,0,0
85984,-95.2380952380952,4,2,4,70,0,0
86151,-95.2380952380952,4,2,1,70,0,0
86317,-95.2380952380952,4,2,4,70,0,0
86484,-95.2380952380952,4,2,1,70,0,0
86651,-95.2380952380952,4,2,4,70,0,0
86817,-95.2380952380952,4,2,1,70,0,0
86984,-95.2380952380952,4,2,4,70,0,0
87151,-95.2380952380952,4,2,1,70,0,0
87234,-95.2380952380952,4,2,2,70,0,0
87484,-95.2380952380952,4,2,1,70,0,0
88317,-95.2380952380952,4,2,2,70,0,0
88484,-95.2380952380952,4,2,1,75,0,0
89151,-95.2380952380952,4,2,4,75,0,0
89317,-95.2380952380952,4,2,1,75,0,0
89817,-95.2380952380952,4,2,1,75,0,0
90484,-95.2380952380952,4,2,4,75,0,0
90651,-95.2380952380952,4,2,1,75,0,0
91151,-95.2380952380952,4,2,1,80,0,1
91317,-95.2380952380952,4,2,1,80,0,1
93984,-95.2380952380952,4,2,1,80,0,1
94317,-95.2380952380952,4,2,1,80,0,1
94651,-95.2380952380952,4,2,1,80,0,1
94984,-95.2380952380952,4,2,1,85,0,1
95317,-95.2380952380952,4,2,1,80,0,1
96484,-95.2380952380952,4,2,1,75,0,0
96651,-95.2380952380952,4,2,4,75,0,0
96817,-95.2380952380952,4,2,3,75,0,0
96984,-95.2380952380952,4,2,1,75,0,0
97651,-95.2380952380952,4,2,4,75,0,0
97817,-95.2380952380952,4,2,1,75,0,0
98151,-95.2380952380952,4,2,3,75,0,0
98317,-95.2380952380952,4,2,1,75,0,0
99817,-95.2380952380952,4,2,1,77,0,0
100317,-95.2380952380952,4,2,1,79,0,0
100817,-95.2380952380952,4,2,1,82,0,0
101151,-95.2380952380952,4,2,1,84,0,0
101484,-95.2380952380952,4,2,1,86,0,0
101817,-100,4,2,1,70,0,0
103151,-100,4,2,1,50,0,0
103317,-100,4,2,3,50,0,0
108484,-100,4,2,1,50,0,0
108651,-100,4,2,3,50,0,0
112317,-100,4,2,1,50,0,0
112484,-100,4,2,3,50,0,0
113484,-100,4,2,1,50,0,0
113817,-105.263157894737,4,2,5,60,0,0
114817,-105.263157894737,4,2,5,60,0,0
115067,-105.263157894737,4,2,5,5,0,0
115151,-105.263157894737,4,2,5,60,0,0
115817,-105.263157894737,4,2,5,60,0,0
116484,-105.263157894737,4,2,5,60,0,0
117484,-105.263157894737,4,2,5,60,0,0
117734,-105.263157894737,4,2,5,5,0,0
117817,-105.263157894737,4,2,5,60,0,0
118817,-105.263157894737,4,2,5,60,0,0
119067,-105.263157894737,4,2,5,5,0,0
119151,-105.263157894737,4,2,5,60,0,0
120151,-105.263157894737,4,2,5,60,0,0
120401,-105.263157894737,4,2,5,5,0,0
120484,-105.263157894737,4,2,5,60,0,0
121317,-105.263157894737,4,2,5,60,0,0
121817,-105.263157894737,4,2,5,60,0,0
122817,-105.263157894737,4,2,5,60,0,0
123067,-105.263157894737,4,2,5,5,0,0
123151,-105.263157894737,4,2,5,60,0,0
123817,-100,4,2,5,70,0,0
124151,-100,4,2,1,60,0,0
126984,-100,4,2,4,60,0,0
127151,-100,4,2,1,60,0,0
129651,-100,4,2,4,60,0,0
129817,-100,4,2,1,60,0,0
130734,-100,4,2,1,5,0,0
130817,-100,4,2,1,60,0,0
130901,-100,4,2,1,5,0,0
130984,-100,4,2,1,60,0,0
131234,-100,4,2,1,5,0,0
131317,-100,4,2,1,60,0,0
132151,-100,4,2,1,60,0,0
132317,-100,4,2,4,60,0,0
132484,-100,4,2,1,70,0,0
132651,-100,4,2,4,70,0,0
132817,-100,4,2,1,70,0,0
132984,-100,4,2,4,70,0,0
133484,-100,4,2,1,70,0,0
133651,-100,4,2,4,70,0,0
133817,-100,4,2,1,70,0,0
133984,-100,4,2,4,70,0,0
134317,-100,4,2,1,70,0,0
135484,-100,4,2,2,70,0,0
135651,-100,4,2,4,70,0,0
136151,-100,4,2,1,70,0,0
136484,-100,4,2,2,70,0,0
136651,-100,4,2,4,70,0,0
137817,-100,4,2,1,70,0,0
138151,-100,4,2,2,70,0,0
138317,-100,4,2,4,70,0,0
138817,-100,4,2,1,70,0,0
139151,-100,4,2,2,70,0,0
139317,-100,4,2,4,70,0,0
139734,-100,4,2,2,60,0,0
139817,-100,4,2,4,60,0,0
140151,-100,4,2,4,60,0,0
140484,-100,4,2,1,60,0,0
144151,-100,4,2,1,50,0,0
144484,-100,4,2,1,65,0,0
145151,-100,4,2,1,70,0,0
145484,-100,4,2,1,75,0,0
145817,-95.2380952380952,4,2,1,75,0,1
146151,-95.2380952380952,4,2,4,75,0,1
146317,-95.2380952380952,4,2,1,75,0,1
146484,-95.2380952380952,4,2,4,75,0,1
147151,-95.2380952380952,4,2,3,75,0,1
147317,-95.2380952380952,4,2,4,75,0,1
148484,-95.2380952380952,4,2,1,75,0,1
148651,-95.2380952380952,4,2,4,75,0,1
150817,333.333333333333,4,2,4,75,1,1
150817,-95.2380952380952,4,2,1,75,0,1
150983,-95.2380952380952,4,2,4,75,0,1
151817,-95.2380952380952,4,2,1,75,0,1
152483,-95.2380952380952,4,2,4,75,0,1
153483,-95.2380952380952,4,2,1,75,0,1
153983,-95.2380952380952,4,2,1,75,0,1
154733,-95.2380952380952,4,2,1,5,0,1
154817,-95.2380952380952,4,2,1,70,0,1
155483,-95.2380952380952,4,2,1,75,0,1
155817,-95.2380952380952,4,2,1,80,0,1
156150,-100,4,2,1,75,0,0
156483,-100,4,2,1,50,0,0
158817,-100,4,2,1,60,0,0
161483,-111.111111111111,4,2,1,50,0,0
162817,-111.111111111111,4,2,1,60,0,0
163483,-111.111111111111,4,2,1,70,0,0
164150,-100,4,2,1,70,0,0
166150,-100,4,2,1,75,0,0
166483,-100,4,2,1,80,0,0
166816,-100,4,2,1,80,0,0
167233,-100,4,2,1,5,0,0
167316,-100,4,2,1,80,0,0
167733,-100,4,2,1,5,0,0
167816,-100,4,2,1,80,0,0
168150,-100,4,2,1,10,0,0
168483,-111.111111111111,4,2,1,50,0,0
169483,-100,4,2,1,75,0,0
170733,-100,4,2,1,5,0,0
170816,-100,4,2,1,75,0,0
171400,-100,4,2,1,5,0,0
171483,-100,4,2,1,75,0,0
172066,-100,4,2,1,5,0,0
172150,-95.2380952380952,4,2,1,75,0,1
172650,-95.2380952380952,4,2,1,75,0,1
173233,-95.2380952380952,4,2,1,5,0,1
173316,-95.2380952380952,4,2,1,75,0,1
174150,-95.2380952380952,4,2,4,75,0,1
174316,-95.2380952380952,4,2,1,75,0,1
174816,-95.2380952380952,4,2,1,70,0,0
175150,-95.2380952380952,4,2,3,70,0,0
175316,-95.2380952380952,4,2,1,70,0,0
175650,-95.2380952380952,4,2,4,70,0,0
176150,-95.2380952380952,4,2,1,70,0,0
176483,-95.2380952380952,4,2,3,70,0,0
176650,-95.2380952380952,4,2,1,70,0,0
177316,-95.2380952380952,4,2,2,70,0,0
177483,-95.2380952380952,4,2,1,75,0,0
178150,-95.2380952380952,4,2,4,75,0,0
178316,-95.2380952380952,4,2,1,75,0,0
178816,-95.2380952380952,4,2,1,75,0,0
179483,-95.2380952380952,4,2,4,75,0,0
179650,-95.2380952380952,4,2,1,75,0,0
180150,-95.2380952380952,4,2,1,80,0,1
180316,-95.2380952380952,4,2,1,80,0,1
182983,-95.2380952380952,4,2,1,80,0,1
183316,-95.2380952380952,4,2,1,80,0,1
183566,-95.2380952380952,4,2,1,5,0,1
183650,-95.2380952380952,4,2,1,80,0,1
183900,-95.2380952380952,4,2,1,5,0,1
183983,-95.2380952380952,4,2,1,85,0,1
184316,-95.2380952380952,4,2,1,80,0,1
185483,-95.2380952380952,4,2,1,75,0,0
185650,-95.2380952380952,4,2,4,75,0,0
185816,-95.2380952380952,4,2,3,75,0,0
186316,-95.2380952380952,4,2,4,75,0,0
187150,-95.2380952380952,4,2,3,75,0,0
187483,-95.2380952380952,4,2,1,75,0,0
188816,-95.2380952380952,4,2,1,77,0,0
189316,-95.2380952380952,4,2,1,79,0,0
189816,-95.2380952380952,4,2,1,82,0,0
190150,-95.2380952380952,4,2,1,84,0,0
190483,-95.2380952380952,4,2,1,86,0,0
190816,-95.2380952380952,4,2,1,88,0,1
191233,-95.2380952380952,4,2,1,5,0,1
191316,-95.2380952380952,4,2,1,88,0,1
191733,-95.2380952380952,4,2,1,5,0,1
191816,-95.2380952380952,4,2,1,88,0,1
192233,-95.2380952380952,4,2,1,5,0,1
192316,-95.2380952380952,4,2,1,88,0,1
192733,-95.2380952380952,4,2,1,5,0,1
192816,-95.2380952380952,4,2,1,88,0,1
193066,-95.2380952380952,4,2,1,5,0,1
193150,-95.2380952380952,4,2,1,88,0,1
193400,-95.2380952380952,4,2,1,5,0,1
193483,-95.2380952380952,4,2,1,88,0,1
193900,-95.2380952380952,4,2,1,5,0,1
193983,-95.2380952380952,4,2,1,88,0,1
194400,-95.2380952380952,4,2,1,5,0,1
194483,-95.2380952380952,4,2,1,88,0,1
194900,-95.2380952380952,4,2,1,5,0,1
194983,-95.2380952380952,4,2,1,88,0,1
195400,-95.2380952380952,4,2,1,5,0,1
195483,-95.2380952380952,4,2,1,88,0,1
195733,-95.2380952380952,4,2,1,5,0,1
195816,-95.2380952380952,4,2,1,88,0,1
196066,-95.2380952380952,4,2,1,5,0,1
196150,-95.2380952380952,4,2,1,75,0,1
200816,-95.2380952380952,4,2,1,75,0,1
201400,-95.2380952380952,4,2,1,5,0,1
201483,-95.2380952380952,4,2,1,75,0,0
201816,-95.2380952380952,4,2,4,75,0,0
202816,-95.2380952380952,4,2,3,75,0,0
202983,-95.2380952380952,4,2,4,75,0,0
204066,-95.2380952380952,4,2,4,5,0,0
204150,-95.2380952380952,4,2,3,75,0,0
204483,-95.2380952380952,4,2,4,75,0,0
205483,-95.2380952380952,4,2,3,75,0,0
205650,-95.2380952380952,4,2,4,75,0,0
206816,-100,4,2,4,70,0,0
207150,-100,4,2,3,70,0,0
207316,-100,4,2,4,70,0,0
208483,-100,4,2,3,70,0,0
208816,-100,4,2,1,70,0,0
209483,-100,4,2,1,70,0,0
209733,-100,4,2,1,5,0,0
209816,-100,4,2,1,70,0,0
210483,-100,4,2,1,70,0,0
210816,-100,4,2,1,75,0,0
211483,-100,4,2,1,80,0,0
212150,-100,4,2,1,20,0,0

[Colours]
Combo1 : 124,234,239
Combo2 : 219,180,254
Combo3 : 153,210,249
Combo4 : 168,170,247

[HitObjects]
81,240,1818,6,0,L|97:129,1,98.9999969787599,0|0,0:0|0:0,0:0:0:0:
81,99,2347,1,2,0:0:0:0:
284,8,3229,2,0,P|319:48|302:110,1,98.9999969787599,0|0,0:0|0:0,0:0:0:0:
295,131,3759,1,2,0:0:0:0:
226,342,4641,2,0,L|345:321,1,98.9999969787599,0|0,0:0|0:0,0:0:0:0:
363,344,5170,1,2,0:0:0:0:
492,162,6053,2,0,L|394:179,1,98.9999969787599,0|0,0:0|0:0,0:0:0:0:
357,154,6582,1,2,0:0:0:0:
156,55,7465,6,0,P|125:94|139:159,1,98.9999969787599,0|0,0:0|0:0,0:0:0:0:
152,177,7994,1,2,0:0:0:0:
312,331,8876,2,0,B|338:286|338:286|314:230,1,98.9999969787599,0|0,0:0|0:0,0:0:0:0:
299,202,9406,1,2,0:0:0:0:
165,379,10288,2,0,L|54:364,1,98.9999969787599,0|0,0:0|0:0,0:0:0:0:
23,378,10817,1,2,0:0:0:0:
9,155,11700,2,0,L|120:170,1,98.9999969787599,0|0,0:0|0:0,0:0:0:0:
151,156,12229,1,2,0:0:0:0:
302,59,12935,5,2,3:2:0:0:
302,59,13112,2,0,L|282:218,1,148.49999546814,2|0,1:2|1:0,0:0:0:0:
285,250,13817,2,0,P|352:233|393:249,1,98.9999969787599,8|0,0:0|1:0,0:0:0:0:
415,266,14347,1,2,0:0:0:0:
415,266,14523,2,0,L|402:374,2,98.9999969787599,2|0|8,1:2|1:0|0:0,0:0:0:0:
507,169,15759,1,2,0:0:0:0:
507,169,15935,6,0,P|461:129|375:137,1,148.49999546814,2|0,1:2|1:0,0:0:0:0:
349,170,16641,2,0,L|238:150,1,98.9999969787599,8|0,0:0|1:0,0:0:0:0:
211,133,17170,1,2,0:0:0:0:
211,133,17347,2,0,L|236:16,2,98.9999969787599,2|0|8,1:2|1:0|0:0,0:0:0:0:
129,170,18406,1,2,0:0:0:0:
52,215,18759,6,0,L|31:311,2,98.9999969787599,2|2|10,1:2|0:0|0:0,0:0:0:0:
18,132,19817,1,2,1:2:0:0:
18,132,19994,2,0,P|9:64|80:23,1,148.49999546814,2|2,0:0|1:2,0:0:0:0:
142,73,20876,1,10,0:0:0:0:
224,40,21229,1,2,0:0:0:0:
299,86,21582,6,0,L|283:189,1,98.9999969787599,2|2,1:2|0:0,0:0:0:0:
198,209,22288,2,0,L|214:312,1,98.9999969787599,2|2,0:0|0:0,0:0:0:0:
301,341,22994,1,0,1:0:0:0:
301,341,23170,2,0,B|345:314|345:314|408:331,1,98.9999969787599,0|2,1:0|1:2,0:0:0:0:
435,331,23700,2,0,L|425:384,2,49.4999984893799,8|0|8,0:0|1:0|0:0,0:0:0:0:
452,243,24406,1,2,0:0:0:0:
398,35,36935,5,2,0:0:0:0:
398,35,37112,2,0,P|436:65|433:131,1,98.9999969787599,2|0,0:0|0:0,0:0:0:0:
425,216,37818,6,0,L|292:193,1,110,6|0,1:2|1:0,0:0:0:0:
274,222,38318,2,0,L|297:355,1,110,2|0,3:2|3:0,0:0:0:0:
266,372,38818,1,2,1:2:0:0:
266,372,38984,1,2,3:2:0:0:
167,382,39318,2,0,P|131:346|66:352,1,110,2|0,3:2|3:0,0:0:0:0:
31,370,39818,1,2,1:2:0:0:
0,275,40151,1,2,1:2:0:0:
52,191,40484,6,0,L|178:210,1,110,6|0,1:2|1:0,0:0:0:0:
208,222,40984,2,0,B|233:169|233:169|214:110,1,110,2|0,3:2|3:0,0:0:0:0:
171,100,41484,2,0,P|163:38|209:0,1,110,2|0,1:2|1:0,0:0:0:0:
242,1,41984,2,0,L|361:20,1,110,2|0,3:2|3:2,0:0:0:0:
396,38,42484,1,0,1:0:0:0:
327,109,42817,2,0,L|339:187,1,55,0|4,1:0|0:3,0:0:0:0:
342,212,43151,6,0,B|391:182|391:182|450:202,2,110,6|10|2,1:2|0:0|1:2,0:0:0:0:
351,265,43984,1,2,1:2:0:0:
351,265,44151,1,8,0:0:0:0:
252,275,44484,2,0,L|230:396,2,110,2|8|0,1:2|0:0|1:0,0:0:0:0:
227,238,45317,1,2,1:2:0:0:
227,238,45484,1,10,0:0:0:0:
227,139,45817,6,0,L|166:148,1,55,6|0,1:0|1:0,0:0:0:0:
123,137,46151,2,0,P|140:65|113:23,1,110,12|0,0:0|1:0,0:0:0:0:
81,11,46651,1,0,1:0:0:0:
11,81,46984,2,0,L|26:208,1,110,8|2,0:0|1:2,0:0:0:0:
10,237,47484,1,8,0:0:0:0:
50,327,47817,2,0,L|113:313,1,55,8|4,1:3|1:3,0:0:0:0:
147,338,48151,1,2,1:2:0:0:
231,365,48484,6,0,P|282:375|331:340,1,98.9999969787599,4|10,1:2|0:0,0:0:0:0:
348,317,48984,1,2,3:2:0:0:
336,228,49317,2,0,L|224:211,1,98.9999969787599,2|0,3:2|1:0,0:0:0:0:
198,233,49817,1,2,1:2:0:0:
130,174,50151,1,10,0:0:0:0:
130,174,50317,2,0,L|153:63,1,98.9999969787599,2|2,3:2|1:2,0:0:0:0:
168,36,50817,2,0,L|224:47,1,49.4999984893799,10|2,0:0|3:2,0:0:0:0:
256,25,51151,6,0,P|297:66|350:55,1,98.9999969787599,0|10,1:0|0:0,0:0:0:0:
377,49,51651,1,2,3:2:0:0:
465,56,51984,2,0,L|447:165,1,98.9999969787599,2|8,0:0|0:0,0:0:0:0:
434,195,52484,2,0,P|472:256|461:297,1,98.9999969787599,2|10,1:2|0:0,0:0:0:0:
448,319,52984,1,2,3:2:0:0:
377,372,53317,2,0,L|271:357,1,98.9999969787599,4|0,1:2|0:0,0:0:0:0:
239,379,53817,6,0,B|192:159|342:259|275:46,1,346.49998942566,4|8,1:2|0:0,0:0:0:0:
250,14,55151,2,0,P|196:10|157:55,1,98.9999969787599,2|8,1:2|0:0,0:0:0:0:
163,82,55651,1,0,3:0:0:0:
86,127,55984,2,0,L|23:118,1,49.4999984893799,2|8,1:3|0:0,0:0:0:0:
5,203,56484,6,0,L|122:221,1,98.9999969787599,0|8,1:0|0:0,0:0:0:0:
145,204,56984,1,2,3:2:0:0:
303,118,57651,1,8,0:0:0:0:
303,118,57817,2,0,L|285:235,1,98.9999969787599,0|8,1:0|0:0,0:0:0:0:
310,254,58317,1,2,3:2:0:0:
319,342,58651,2,0,B|242:330|268:387|166:365,1,148.49999546814,0|4,1:0|1:2,0:0:0:0:
78,364,59484,5,2,1:2:0:0:
7,294,59817,2,0,P|48:244|42:187,1,110,2|10,1:2|1:2,0:0:0:0:
25,156,60317,2,0,L|141:176,1,110,2|2,3:2|3:2,0:0:0:0:
177,152,60817,1,2,1:2:0:0:
226,238,61151,2,0,B|279:217|279:217|347:245,1,110,2|8,1:2|1:2,0:0:0:0:
377,222,61651,1,2,3:2:0:0:
377,222,61817,6,0,L|361:330,2,110,2|0|0,1:2|1:0|1:0,0:0:0:0:
470,187,62817,2,0,L|462:115,1,55,10|2,1:2|3:2,0:0:0:0:
428,96,63151,2,0,P|454:45|441:-6,2,110,2|0|0,1:2|1:0|1:0,0:0:0:0:
348,37,64151,1,2,1:2:0:0:
264,90,64484,6,0,L|134:109,1,110,6|8,1:2|0:0,0:0:0:0:
60,75,65151,2,0,B|26:118|26:118|42:175,1,110,2|8,1:2|0:0,0:0:0:0:
87,188,65651,2,0,L|64:315,1,110,2|0,3:2|1:0,0:0:0:0:
73,345,66151,1,8,0:0:0:0:
168,372,66484,2,0,P|205:311|189:265,1,110,2|10,0:0|3:2,0:0:0:0:
204,178,67151,6,0,L|284:192,1,55,14|0,1:0|1:0,0:0:0:0:
310,202,67484,1,8,1:3:0:0:
310,202,67651,1,4,1:3:0:0:
437,125,68151,2,0,L|423:45,1,55,12|0,1:0|1:0,0:0:0:0:
421,26,68484,1,8,1:3:0:0:
421,26,68651,1,4,1:3:0:0:
328,7,68984,1,8,1:2:0:0:
328,7,69151,2,0,P|275:44|287:99,1,110,8|4,1:3|1:3,0:0:0:0:
327,168,69817,6,0,L|196:193,1,110,4|2,1:2|0:0,0:0:0:0:
133,163,70484,2,0,B|103:239|172:236|136:320,1,148.49999546814,2|0,0:0|0:0,0:0:0:0:
136,350,71151,1,2,0:0:0:0:
219,381,71484,1,2,0:0:0:0:
332,243,72151,2,0,L|322:172,1,49.4999984893799,2|2,0:0|0:0,0:0:0:0:
315,145,72484,5,14,1:2:0:0:
376,67,72817,2,0,P|432:59|469:117,1,110,2|0,0:0|0:0,0:0:0:0:
456,193,73484,2,0,L|519:183,2,55,10|0|2,0:0|1:2|0:0,0:0:0:0:
372,247,74151,2,0,B|340:286|340:286|354:349,1,110,2|0,0:0|1:0,0:0:0:0:
316,377,74651,1,0,1:0:0:0:
316,377,74817,2,0,L|251:365,1,55,8|8,0:0|0:3,0:0:0:0:
217,375,75151,6,0,L|193:264,1,98.9999969787599,4|2,1:2|0:0,0:0:0:0:
117,236,75817,2,0,P|169:188|254:207,1,148.49999546814,2|2,0:0|0:0,0:0:0:0:
288,214,76484,2,0,L|308:101,1,98.9999969787599,2|2,0:0|0:0,0:0:0:0:
252,44,77151,1,2,0:0:0:0:
173,85,77484,1,2,0:0:0:0:
96,39,77817,2,0,L|-15:59,1,98.9999969787599,2|0,0:0|0:0,0:0:0:0:
104,266,79484,6,0,P|55:262|9:308,2,98.9999969787599,2|2|2,0:0|0:0|0:0,0:0:0:0:
190,324,80484,6,0,L|208:185,1,115.49999647522,6|2,1:2|1:2,0:0:0:0:
172,168,80984,2,0,P|162:108|208:59,1,115.49999647522,2|2,0:0|0:0,0:0:0:0:
238,41,81484,1,2,1:2:0:0:
327,93,81817,2,0,L|452:79,2,115.49999647522,2|0|2,1:2|1:0|1:2,0:0:0:0:
289,189,82817,2,0,L|300:256,1,57.7499982376099,2|2,1:2|0:0,0:0:0:0:
311,296,83151,5,4,1:2:0:0:
391,361,83484,1,10,0:0:0:0:
391,361,83651,2,0,P|427:321|490:324,1,115.49999647522,2|0,1:2|1:0,0:0:0:0:
506,276,84151,1,10,0:0:0:0:
506,276,84317,2,0,L|486:154,1,115.49999647522,2|0,1:2|1:0,0:0:0:0:
478,110,84817,1,8,0:0:0:0:
440,12,85151,2,0,B|390:41|390:41|329:26,1,115.49999647522,2|10,3:2|0:2,0:0:0:0:
277,114,85817,6,0,L|258:239,1,115.49999647522,2|2,1:2|1:2,0:0:0:0:
285,279,86317,1,2,3:2:0:0:
285,279,86484,2,0,L|157:254,1,115.49999647522,2|0,1:2|1:0,0:0:0:0:
121,270,86984,1,2,3:2:0:0:
121,270,87151,1,2,1:2:0:0:
45,198,87484,1,2,1:2:0:0:
45,198,87651,1,2,0:0:0:0:
120,126,87984,2,0,L|132:53,2,57.7499982376099,2|2|6,3:2|1:2|0:3,0:0:0:0:
160,158,88484,6,0,P|226:132|229:85,1,115.49999647522,6|10,1:2|0:0,0:0:0:0:
292,10,89151,1,2,3:2:0:0:
395,44,89484,1,14,0:1:0:0:
395,44,89651,2,0,L|467:56,1,57.7499982376099,2|4,1:2|0:3,0:0:0:0:
507,141,90151,1,10,0:0:0:0:
431,211,90484,1,2,3:2:0:0:
339,162,90817,2,0,L|326:229,1,57.7499982376099,10|8,3:2|0:0,0:0:0:0:
311,268,91151,6,0,P|356:307|342:366,1,115.49999647522,6|0,1:2|3:0,0:0:0:0:
300,377,91651,2,0,L|179:354,1,115.49999647522,6|0,1:0|3:0,0:0:0:0:
138,375,92151,1,6,1:0:0:0:
54,313,92484,2,0,L|78:177,1,115.49999647522,4|0,1:2|3:0,0:0:0:0:
83,148,92984,2,0,B|131:184|131:184|194:162,1,115.49999647522,4|0,1:0|3:0,0:0:0:0:
234,155,93484,1,8,0:3:0:0:
337,155,93817,6,0,L|321:37,1,115.49999647522,2|2,1:2|0:0,0:0:0:0:
295,0,94317,1,2,1:2:0:0:
192,17,94651,1,2,1:2:0:0:
89,34,94984,2,0,P|45:80|61:145,1,115.49999647522,14|0,1:2|1:0,0:0:0:0:
78,171,95484,1,8,0:0:0:0:
40,267,95817,2,0,L|181:288,1,115.49999647522,8|4,1:3|1:3,0:0:0:0:
238,345,96484,6,0,B|265:292|265:292|247:233,1,115.49999647522,0|4,1:0|1:2,0:0:0:0:
213,140,97151,1,2,1:2:0:0:
284,65,97484,2,0,L|363:78,1,57.7499982376099,0|0,1:0|3:0,0:0:0:0:
392,77,97817,2,0,L|411:216,1,115.49999647522,2|4,1:2|1:2,0:0:0:0:
448,231,98317,1,2,0:0:0:0:
448,231,98484,2,0,P|474:288|439:353,1,115.49999647522,0|0,1:0|1:2,0:0:0:0:
364,380,99151,6,0,L|246:362,1,115.49999647522,6|0,1:0|3:0,0:0:0:0:
197,363,99651,2,0,P|189:289|226:253,1,115.49999647522,6|0,1:2|3:0,0:0:0:0:
263,249,100151,2,0,L|283:122,1,115.49999647522,6|2,1:0|3:2,0:0:0:0:
301,87,100651,2,0,B|257:76|257:76|231:84|231:84|184:71,1,115.49999647522,4|0,1:2|3:0,0:0:0:0:
139,59,101151,1,6,1:0:0:0:
47,108,101484,2,0,L|59:186,1,57.7499982376099,2|2,1:2|3:2,0:0:0:0:
46,213,101817,6,0,B|286:299|205:121|473:211,1,440,2|4,0:0|1:2,0:0:0:0:
135,28,113817,6,0,B|71:127|200:101|113:240,1,208.999994419098,0|8,1:0|0:0,0:0:0:0:
82,307,114817,1,0,1:0:0:0:
141,380,115151,2,0,P|234:331|352:350,1,208.999994419098,2|8,0:0|0:0,0:0:0:0:
472,214,116484,2,0,B|402:200|402:200|353:232|353:232|262:215,1,208.999994419098,0|8,1:0|0:0,0:0:0:0:
219,141,117484,1,0,1:0:0:0:
248,51,117817,2,0,P|343:9|429:79,1,208.999994419098,2|8,0:0|0:0,0:0:0:0:
467,146,118817,1,4,0:3:0:0:
456,239,119151,6,0,B|399:218|339:239|339:239|322:287|264:300,1,208.999994419098,0|8,1:0|0:0,0:0:0:0:
198,350,120151,1,0,1:0:0:0:
110,316,120484,2,0,L|144:97,1,208.999994419098,2|8,0:0|0:0,0:0:0:0:
128,64,121317,1,2,0:3:0:0:
258,9,121817,2,0,B|327:39|327:39|365:112|298:175,1,208.999994419098,0|8,1:0|0:0,0:0:0:0:
232,215,122817,1,0,1:0:0:0:
140,192,123151,2,0,P|58:227|73:338,1,208.999994419098,2|10,0:0|0:0,0:0:0:0:
155,377,124151,1,2,0:0:0:0:
244,335,124484,6,0,L|261:209,2,110,6|10|2,1:2|0:0|1:2,0:0:0:0:
155,377,125484,1,10,0:0:0:0:
155,377,125651,2,0,P|108:348|41:363,1,110,2|0,0:0|1:0,0:0:0:0:
6,349,126151,2,0,L|33:222,1,110,8|2,0:0|1:2,0:0:0:0:
100,173,126817,1,10,0:0:0:0:
182,228,127151,6,0,B|234:244|234:244|293:213,1,110,2|8,1:2|0:0,0:0:0:0:
361,157,127817,2,0,P|380:97|353:54,1,110,2|8,1:2|0:0,0:0:0:0:
320,27,128317,1,2,0:0:0:0:
320,27,128484,2,0,L|193:51,1,110,0|8,1:0|0:0,0:0:0:0:
116,21,129151,2,0,L|87:138,1,110,2|8,1:2|0:0,0:0:0:0:
46,147,129651,1,2,3:2:0:0:
46,147,129817,6,0,P|13:188|22:252,1,110,4|2,1:2|0:0,0:0:0:0:
40,286,130317,1,8,0:0:0:0:
135,252,130651,1,10,0:0:0:0:
135,252,130817,2,0,L|146:374,1,110,0|2,1:0|1:2,0:0:0:0:
194,365,131317,2,0,L|322:337,1,110,8|10,0:0|0:0,0:0:0:0:
347,360,131817,1,2,1:2:0:0:
400,276,132151,1,10,0:0:0:0:
327,208,132484,6,0,L|341:137,1,55,10|2,1:0|1:3,0:0:0:0:
348,105,132817,1,8,1:3:0:0:
348,105,132984,1,6,1:3:0:0:
466,15,133484,2,0,L|476:68,1,55,10|2,1:0|1:3,0:0:0:0:
487,118,133817,1,8,1:3:0:0:
487,118,133984,1,6,1:3:0:0:
498,216,134317,1,10,0:0:0:0:
498,216,134484,2,0,P|452:261|407:251,1,110,8|4,1:3|1:3,0:0:0:0:
316,225,135151,6,0,L|302:295,2,55,14|0|0,1:2|1:0|3:0,0:0:0:0:
296,179,135651,1,2,3:2:0:0:
249,38,136151,2,0,L|323:22,2,55,10|0|0,1:0|1:0|3:0,0:0:0:0:
202,22,136651,1,2,3:2:0:0:
75,182,137817,6,0,L|18:196,2,55,10|0|0,1:0|1:0|3:0,0:0:0:0:
110,147,138317,1,2,3:2:0:0:
189,272,138817,2,0,L|176:350,2,55,10|0|0,1:0|1:0|3:0,0:0:0:0:
218,232,139317,1,2,3:2:0:0:
310,348,139817,2,0,P|369:374|420:345,1,110,0|0,3:0|3:0,0:0:0:0:
497,315,140484,6,0,L|479:187,1,110,6|0,1:2|1:0,0:0:0:0:
507,163,140984,1,2,0:0:0:0:
437,31,141484,2,0,B|380:17|380:17|328:52,1,110,2|0,1:2|1:0,0:0:0:0:
305,83,141984,2,0,L|326:217,1,110,2|0,0:0|0:0,0:0:0:0:
348,233,142484,1,2,1:2:0:0:
295,316,142817,1,2,1:2:0:0:
206,270,143151,6,0,P|153:263|94:303,1,110,4|8,1:2|1:3,0:0:0:0:
69,323,143651,2,0,L|4:314,1,55,4|4,0:3|1:3,0:0:0:0:
5,216,144151,1,6,1:2:0:0:
85,157,144484,2,0,L|105:38,1,110,2|0,1:2|1:0,0:0:0:0:
194,10,145151,2,0,B|241:42|241:42|314:28,1,110,8|8,1:3|0:0,0:0:0:0:
341,21,145651,1,8,0:0:0:0:
341,21,145817,6,0,L|326:147,1,115.49999647522,6|8,1:2|3:2,0:0:0:0:
362,173,146317,1,2,1:2:0:0:
362,173,146484,2,0,P|393:232|364:287,1,115.49999647522,2|10,3:2|3:2,0:0:0:0:
313,356,147151,2,0,L|180:335,1,115.49999647522,6|8,1:2|3:2,0:0:0:0:
150,356,147651,1,0,1:0:0:0:
150,356,147817,2,0,B|122:302|122:302|157:239,1,115.49999647522,2|10,3:2|3:2,0:0:0:0:
184,216,148317,1,8,0:0:0:0:
184,216,148484,6,0,L|316:235,1,115.49999647522,6|8,1:2|3:2,0:0:0:0:
378,299,149151,2,0,L|364:376,2,57.7499982376099,2|0|10,3:2|1:2|3:2,0:0:0:0:
477,269,149817,2,0,B|469:225|469:225|482:202|482:202|471:146,1,115.49999647522,2|8,1:2|3:2,0:0:0:0:
490,109,150317,1,2,1:2:0:0:
490,109,150484,2,0,L|408:92,1,57.7499982376099,8|8,3:2|0:0,0:0:0:0:
404,54,150817,5,4,1:2:0:0:
311,96,151150,1,10,3:2:0:0:
311,96,151317,2,0,P|267:61|202:78,1,115.49999647522,2|0,1:2|1:0,0:0:0:0:
168,99,151817,1,12,1:0:0:0:
236,176,152150,2,0,L|217:300,1,115.49999647522,0|10,1:0|3:2,0:0:0:0:
207,343,152650,1,0,1:0:0:0:
207,343,152817,2,0,B|145:328|155:365|88:357,1,115.49999647522,2|8,3:2|3:2,0:0:0:0:
42,358,153317,1,8,0:0:0:0:
42,358,153483,6,0,L|62:240,1,115.49999647522,6|8,1:2|0:0,0:0:0:0:
97,206,153983,1,6,1:0:0:0:
52,111,154317,1,8,0:0:0:0:
52,111,154483,1,8,1:0:0:0:
115,28,154817,2,0,P|180:7|227:49,1,115.49999647522,10|2,1:2|1:2,0:0:0:0:
253,74,155317,1,2,3:2:0:0:
253,74,155483,1,2,1:2:0:0:
355,57,155817,2,0,L|341:135,1,57.7499982376099,2|2,1:2|3:2,0:0:0:0:
335,162,156150,5,4,1:2:0:0:
380,358,158817,5,14,1:2:0:0:
472,323,159150,2,0,P|505:262|480:206,1,110,2|4,0:0|1:3,0:0:0:0:
471,182,159650,1,0,1:0:0:0:
471,182,159817,2,0,L|394:200,2,55,10|2|2,0:0|1:2|1:2,0:0:0:0:
476,83,160483,2,0,L|353:109,1,110,8|0,1:3|1:0,0:0:0:0:
322,87,160983,1,0,1:0:0:0:
322,87,161150,2,0,L|311:162,1,55,8|4,0:0|1:3,0:0:0:0:
308,185,161483,6,0,P|256:174|207:209,1,98.9999969787599,4|0,1:2|0:0,0:0:0:0:
192,280,162150,2,0,B|96:272|145:332|44:315,1,148.49999546814,2|0,0:0|0:0,0:0:0:0:
15,294,162817,1,6,1:0:0:0:
63,219,163150,1,2,0:0:0:0:
25,138,163483,2,0,L|138:118,1,98.9999969787599,2|2,0:0|0:0,0:0:0:0:
193,50,164150,6,0,P|245:69|254:134,1,110,6|0,1:2|1:0,0:0:0:0:
235,161,164650,2,0,L|217:276,1,110,2|0,3:2|3:0,0:0:0:0:
210,318,165150,1,2,1:2:0:0:
296,366,165483,1,0,1:0:0:0:
296,366,165650,2,0,L|409:352,1,110,2|0,3:2|3:0,0:0:0:0:
453,364,166150,1,2,1:2:0:0:
502,278,166483,1,2,1:2:0:0:
455,190,166816,5,6,1:2:0:0:
308,213,167316,1,6,1:2:0:0:
287,65,167816,2,0,B|328:53|328:53|348:67|348:67|401:52,1,110,6|0,1:2|0:0,0:0:0:0:
468,97,168483,2,0,L|486:-11,2,98.9999969787599,2|2|2,0:0|0:0|0:0,0:0:0:0:
475,195,169483,6,0,B|275:169|371:300|146:250,1,330,6|0,1:0|0:0,0:0:0:0:
71,291,170816,2,0,P|10:228|63:113,1,220,6|0,1:0|0:0,0:0:0:0:
237,18,172150,6,0,L|222:138,1,115.49999647522,6|10,1:2|0:0,0:0:0:0:
218,184,172650,2,0,B|275:162|275:162|334:193,1,115.49999647522,2|0,1:2|1:0,0:0:0:0:
364,219,173150,1,10,0:0:0:0:
364,219,173316,2,0,L|348:345,1,115.49999647522,2|0,1:2|1:0,0:0:0:0:
315,372,173816,1,8,0:0:0:0:
210,375,174150,2,0,P|172:346|99:353,1,115.49999647522,2|10,3:2|0:0,0:0:0:0:
5,371,174816,6,0,L|22:240,1,115.49999647522,2|6,1:2|1:2,0:0:0:0:
31,208,175316,1,2,0:0:0:0:
31,208,175483,2,0,P|92:233|142:203,1,115.49999647522,2|2,1:2|1:2,0:0:0:0:
180,188,175983,1,0,3:2:0:0:
180,188,176150,1,2,1:2:0:0:
159,91,176483,1,6,1:2:0:0:
159,91,176650,1,2,0:0:0:0:
259,65,176983,2,0,L|247:-1,2,57.7499982376099,2|2|6,3:2|1:2|0:3,0:0:0:0:
306,86,177483,6,0,B|274:136|274:136|289:201,1,115.49999647522,6|10,1:2|0:0,0:0:0:0:
388,170,178150,1,2,3:2:0:0:
494,154,178483,1,14,0:1:0:0:
494,154,178650,2,0,L|486:230,1,57.7499982376099,2|4,0:0|0:3,0:0:0:0:
459,311,179150,1,10,0:0:0:0:
361,276,179483,1,2,3:2:0:0:
289,351,179816,2,0,L|208:365,1,57.7499982376099,10|8,0:0|0:0,0:0:0:0:
180,371,180150,6,0,P|158:312|195:260,1,115.49999647522,6|0,1:2|3:0,0:0:0:0:
230,252,180650,2,0,L|249:120,1,115.49999647522,6|0,1:0|3:0,0:0:0:0:
284,102,181150,1,6,1:0:0:0:
213,25,181483,2,0,L|75:50,1,115.49999647522,6|0,1:2|3:0,0:0:0:0:
47,45,181983,2,0,B|75:92|75:92|54:155,1,115.49999647522,6|0,1:0|3:0,0:0:0:0:
38,198,182483,1,8,0:3:0:0:
10,298,182816,6,0,P|71:317|119:275,1,115.49999647522,2|2,1:2|0:0,0:0:0:0:
152,259,183316,1,2,1:2:0:0:
253,283,183650,1,2,1:2:0:0:
354,306,183983,2,0,B|423:314|399:271|477:277,1,115.49999647522,14|0,1:2|1:0,0:0:0:0:
502,243,184483,1,8,0:0:0:0:
496,139,184816,2,0,L|368:116,1,115.49999647522,8|4,1:3|1:3,0:0:0:0:
314,39,185483,6,0,P|278:78|286:152,1,115.49999647522,0|4,1:0|1:2,0:0:0:0:
350,212,186150,1,2,1:2:0:0:
305,305,186483,2,0,L|231:293,1,57.7499982376099,2|0,1:2|3:0,0:0:0:0:
198,278,186816,2,0,B|214:333|214:333|185:386,1,115.49999647522,2|4,1:2|1:2,0:0:0:0:
138,384,187316,1,2,0:0:0:0:
138,384,187483,2,0,L|19:368,1,115.49999647522,0|0,1:0|1:0,0:0:0:0:
2,266,188150,6,0,L|23:137,1,115.49999647522,6|0,1:0|3:0,0:0:0:0:
46,107,188650,2,0,P|108:95|147:142,1,115.49999647522,6|0,1:2|3:0,0:0:0:0:
145,179,189150,2,0,B|188:170|188:170|212:182|212:182|267:170,1,115.49999647522,6|2,1:0|3:2,0:0:0:0:
304,189,189650,2,0,B|332:134|332:134|311:82,1,115.49999647522,4|0,1:2|3:0,0:0:0:0:
289,36,190150,1,6,1:0:0:0:
190,3,190483,2,0,L|106:17,1,57.7499982376099,2|2,1:2|3:2,0:0:0:0:
82,23,190816,5,6,1:2:0:0:
5,158,191316,1,6,1:2:0:0:
116,266,191816,1,6,1:2:0:0:
256,199,192316,1,6,1:2:0:0:
247,43,192816,2,0,L|376:27,1,115.49999647522,6|6,1:2|1:2,0:0:0:0:
465,39,193483,5,6,1:2:0:0:
512,190,193983,1,6,1:2:0:0:
356,155,194483,1,6,1:2:0:0:
404,303,194983,1,6,1:2:0:0:
252,264,195483,2,0,P|183:269|146:316,1,115.49999647522,6|6,1:2|1:2,0:0:0:0:
64,355,196150,6,0,L|44:225,1,115.49999647522,6|0,1:2|3:0,0:0:0:0:
30,191,196650,2,0,B|89:198|89:198|145:159,1,115.49999647522,6|0,1:0|3:0,0:0:0:0:
184,150,197150,2,0,P|150:95|178:38,1,115.49999647522,6|0,1:2|3:0,0:0:0:0:
208,22,197650,2,0,L|333:40,1,115.49999647522,6|0,1:0|3:0,0:0:0:0:
371,21,198150,1,6,1:2:0:0:
432,104,198483,1,4,0:3:0:0:
489,191,198816,6,0,P|451:236|375:225,1,115.49999647522,6|0,1:2|3:0,0:0:0:0:
347,225,199316,2,0,L|329:356,1,115.49999647522,6|0,1:0|3:0,0:0:0:0:
293,375,199816,2,0,B|233:372|263:337|182:331,1,115.49999647522,6|0,1:2|3:0,0:0:0:0:
142,354,200316,2,0,P|118:287|156:239,1,115.49999647522,6|0,1:0|3:0,0:0:0:0:
180,223,200816,1,2,1:2:0:0:
258,30,201483,6,0,L|135:46,1,115.49999647522,4|8,1:2|3:2,0:0:0:0:
101,14,201983,2,0,L|72:139,1,115.49999647522,2|0,1:2|1:0,0:0:0:0:
27,148,202483,2,0,P|41:206|8:259,1,115.49999647522,10|4,3:2|1:2,0:0:0:0:
3,303,202983,2,0,L|135:327,1,115.49999647522,2|0,1:2|1:0,0:0:0:0:
157,355,203483,1,2,3:2:0:0:
248,305,203816,1,10,3:2:0:0:
337,358,204150,6,0,L|355:236,1,115.49999647522,6|8,1:2|3:2,0:0:0:0:
337,194,204650,2,0,B|282:212|282:212|227:179,1,115.49999647522,2|0,1:2|1:0,0:0:0:0:
209,135,205150,2,0,B|219:90|219:90|242:73|242:73|253:20,1,115.49999647522,10|4,3:2|1:2,0:0:0:0:
298,12,205650,2,0,L|423:33,1,115.49999647522,2|0,1:2|1:0,0:0:0:0:
462,41,206150,1,0,3:0:0:0:
500,137,206483,2,0,L|486:208,1,57.7499982376099,8|8,3:2|0:0,0:0:0:0:
458,233,206816,6,0,P|496:286|483:335,2,110,2|6|2,1:2|1:2|1:2,0:0:0:0:
412,233,207650,1,2,3:2:0:0:
412,233,207816,1,0,1:0:0:0:
350,310,208150,2,0,L|240:294,1,110,2|4,1:2|1:2,0:0:0:0:
195,314,208650,1,2,0:0:0:0:
195,314,208816,2,0,L|216:192,1,110,0|0,1:0|1:0,0:0:0:0:
243,167,209316,1,4,3:0:0:0:
243,167,209483,5,6,1:2:0:0:
218,20,209983,2,0,B|173:48|173:48|98:36,1,110,2|0,3:2|3:0,0:0:0:0:
67,31,210483,2,1,P|17:67|26:133,1,110,2|4,1:2|1:0,0:0:0:0:
58,134,210983,2,0,L|30:252,1,110,2|0,3:2|3:0,0:0:0:0:
46,288,211483,1,2,1:2:0:0:
123,349,211816,1,2,1:2:0:0:
123,349,211983,2,1,L|197:336,1,55,4|0,3:1|0:0,0:0:0:0:
