osu file format v14

[General]
AudioFilename: audio.mp3
AudioLeadIn: 0
PreviewTime: 168390
Countdown: 0
SampleSet: Soft
StackLeniency: 0.2
Mode: 0
LetterboxInBreaks: 0
EpilepsyWarning: 1
WidescreenStoryboard: 1

[Editor]
DistanceSpacing: 3.6
BeatDivisor: 4
GridSize: 32
TimelineZoom: 2.3

[Metadata]
Title:Into Gray
TitleUnicode:Into Gray
Artist:yuki
ArtistUnicode:yuki
Creator:Bellicose
Version:Koiyuki's Expert.
Source:白昼夢の青写真
Tags:eroge momo 緒乃ワサビ case-0 case 0 Laplacian Hakuchuumu no Aojashin The girl who's whos called the world japanese pop rock full version opening op visual novel vn video game lasse kalibe dored koiyuki minakami mtbbsben
BeatmapID:2904679
BeatmapSetID:1373789

[Difficulty]
HPDrainRate:6
CircleSize:4
OverallDifficulty:8.5
ApproachRate:9.3
SliderMultiplier:1.6
SliderTickRate:1

[Events]
//Background and Video events
0,0,"bg2.png",0,0
//Break Periods
//Storyboard Layer 0 (Background)
Sprite,Background,Centre,"bg2.png",320,240
//Storyboard Layer 1 (Fail)
//Storyboard Layer 2 (Pass)
//Storyboard Layer 3 (Foreground)
Sprite,Foreground,Centre,"Dream\Other\Koiyuki.png",320,240 M,0,10112,10288,500,150,508,150 F,0,10112,10465,0,1 S,0,10112,13112,0.45 M,0,12935,13112,508,150,516,150 F,0,12935,13112,1,0
//Storyboard Layer 4 (Overlay)
//Storyboard Sound Samples

[TimingPoints]
1818,352.941176470588,4,2,1,30,1,0
7465,-200,4,2,1,30,0,0
12406,-200,4,2,2,15,0,0
13112,-133.333333333333,4,2,2,30,0,0
24406,-100,4,2,80,20,0,0
24759,-200,4,2,1,30,0,0
25817,-133.333333333333,4,2,1,30,0,0
27229,-200,4,2,1,30,0,0
28641,-133.333333333333,4,2,1,30,0,0
30053,-200,4,2,1,30,0,0
32876,-133.333333333333,4,2,1,30,0,0
34112,-200,4,2,1,30,0,0
35700,-100,4,2,99,5,0,0
37818,333.333333333333,4,2,1,50,1,0
37984,-100,4,2,1,70,0,0
48484,-133.333333333333,4,2,1,60,0,0
48817,-133.333333333333,4,2,3,50,0,0
49317,-133.333333333333,4,2,2,50,0,0
49651,-133.333333333333,4,2,3,50,0,0
52317,-133.333333333333,4,2,1,50,0,0
52484,-133.333333333333,4,2,3,50,0,0
53817,-133.333333333333,4,2,1,50,0,0
53984,-133.333333333333,4,2,3,50,0,0
54484,-133.333333333333,4,2,2,50,0,0
54984,-133.333333333333,4,2,1,50,0,0
55151,-133.333333333333,4,2,3,50,0,0
55984,-133.333333333333,4,2,1,50,0,0
56317,-133.333333333333,4,2,3,50,0,0
57651,-133.333333333333,4,2,1,50,0,0
58151,-133.333333333333,4,2,3,50,0,0
58651,-100,4,2,1,50,0,0
59151,-100,4,2,1,60,0,0
59484,-100,4,2,4,60,0,0
64484,-100,4,2,1,60,0,0
64651,-100,4,2,4,60,0,0
66817,-100,4,2,4,60,0,0
67151,-100,4,2,1,70,0,0
69817,-100,4,2,1,60,0,0
70151,-100,4,2,1,50,0,0
72151,-133.333333333333,4,2,1,50,0,0
72484,-83.3333333333333,4,2,1,60,0,0
73484,-100,4,2,1,60,0,0
75151,-100,4,2,1,50,0,0
76484,-100,4,2,1,60,0,0
77151,-200,4,2,1,70,0,0
77651,-100,4,2,2,60,0,0
77817,-100,4,2,1,50,0,0
79484,-200,4,2,1,50,0,0
80484,-100,4,2,1,75,0,1
85151,-100,4,2,4,75,0,1
85317,-100,4,2,1,75,0,1
85817,-100,4,2,1,70,0,1
85984,-100,4,2,4,70,0,1
86151,-100,4,2,1,70,0,1
86317,-100,4,2,4,70,0,1
86484,-100,4,2,1,70,0,1
86651,-100,4,2,4,70,0,1
86817,-100,4,2,1,70,0,1
86984,-100,4,2,4,70,0,1
87151,-100,4,2,1,70,0,1
87484,-100,4,2,1,70,0,1
88317,-100,4,2,2,70,0,1
88484,-100,4,2,1,75,0,1
89151,-100,4,2,4,75,0,1
89317,-100,4,2,1,75,0,1
90484,-100,4,2,4,75,0,1
90651,-100,4,2,1,75,0,1
91151,-100,4,2,1,80,0,1
94317,-83.3333333333333,4,2,1,80,0,1
94651,-66.6666666666667,4,2,1,80,0,1
94984,-55.5555555555556,4,2,1,80,0,1
95484,-100,4,2,1,80,0,1
96484,-100,4,2,1,75,0,1
96651,-100,4,2,4,75,0,1
96817,-100,4,2,3,75,0,1
96984,-100,4,2,1,75,0,1
97651,-100,4,2,4,75,0,1
97817,-100,4,2,1,75,0,1
98151,-100,4,2,3,75,0,1
98317,-100,4,2,1,75,0,1
101817,-200,4,2,1,75,0,0
103151,-100,4,2,1,50,0,0
103317,-100,4,2,3,50,0,0
108484,-100,4,2,1,50,0,0
108651,-100,4,2,3,50,0,0
112317,-100,4,2,1,50,0,0
112484,-100,4,2,3,50,0,0
113484,-100,4,2,1,50,0,0
113817,-100,4,2,5,60,0,0
116484,-83.3333333333333,4,2,5,60,0,0
117484,-100,4,2,5,60,0,0
117817,-83.3333333333333,4,2,5,60,0,0
118484,-100,4,2,5,60,0,0
120484,-83.3333333333333,4,2,5,60,0,0
121317,-100,4,2,5,60,0,0
121817,-83.3333333333333,4,2,5,60,0,0
122817,-100,4,2,5,60,0,0
123151,-50,4,2,5,60,0,0
123817,-100,4,2,5,70,0,0
124151,-100,4,2,1,60,0,0
126984,-100,4,2,4,60,0,0
127151,-100,4,2,1,60,0,0
129651,-100,4,2,4,60,0,0
129817,-100,4,2,1,60,0,0
132317,-100,4,2,4,60,0,0
132484,-100,4,2,1,70,0,0
132651,-100,4,2,4,70,0,0
132817,-100,4,2,1,70,0,0
132984,-100,4,2,4,70,0,0
133484,-100,4,2,1,70,0,0
133651,-100,4,2,4,70,0,0
133817,-100,4,2,1,70,0,0
133984,-100,4,2,4,70,0,0
134317,-100,4,2,1,70,0,0
135484,-100,4,2,2,70,0,0
135651,-100,4,2,4,70,0,0
136151,-100,4,2,1,70,0,0
136484,-100,4,2,2,70,0,0
136651,-100,4,2,4,70,0,0
137817,-100,4,2,1,70,0,0
138151,-100,4,2,2,70,0,0
138317,-100,4,2,4,70,0,0
138817,-100,4,2,1,70,0,0
139151,-100,4,2,2,70,0,0
139317,-100,4,2,4,70,0,0
139734,-100,4,2,2,60,0,0
139817,-100,4,2,4,60,0,0
140151,-133.333333333333,4,2,4,60,0,0
140484,-100,4,2,1,60,0,0
144151,-100,4,2,1,50,0,0
144484,-100,4,2,1,65,0,0
145151,-100,4,2,1,70,0,0
145484,-100,4,2,1,75,0,0
145817,-100,4,2,1,75,0,1
145901,-100,4,2,1,75,0,0
146151,-100,4,2,4,75,0,0
146317,-100,4,2,1,75,0,0
146484,-100,4,2,4,75,0,0
147151,-100,4,2,3,75,0,0
147317,-100,4,2,4,75,0,0
148484,-100,4,2,1,75,0,0
148651,-100,4,2,4,75,0,0
150817,333.333333333333,4,2,4,75,1,0
150817,-100,4,2,1,75,0,0
150983,-100,4,2,4,75,0,0
151817,-100,4,2,1,75,0,0
152483,-100,4,2,4,75,0,0
153483,-100,4,2,1,75,0,0
153650,-100,4,2,4,75,0,0
153983,-100,4,2,1,75,0,0
156483,-100,4,2,1,50,0,0
158483,-133.333333333333,4,2,1,50,0,0
158817,-100,4,2,1,60,0,0
161483,-100,4,2,1,50,0,0
162817,-133.333333333333,4,2,1,60,0,0
163483,-133.333333333333,4,2,1,70,0,0
164150,-100,4,2,1,70,0,0
166150,-100,4,2,1,75,0,0
166483,-100,4,2,1,80,0,0
166816,-83.3333333333333,4,2,1,80,0,0
167816,-45.4545454545455,4,2,1,80,0,0
168150,-100,4,2,1,10,0,0
169483,-100,4,2,1,75,0,1
169566,-100,4,2,1,75,0,0
172150,-100,4,2,1,75,0,1
174150,-100,4,2,4,75,0,1
174316,-100,4,2,1,75,0,1
174816,-100,4,2,1,70,0,1
175150,-100,4,2,3,70,0,1
175316,-100,4,2,1,70,0,1
175650,-100,4,2,4,70,0,1
176150,-100,4,2,1,70,0,1
176483,-100,4,2,3,70,0,1
176650,-100,4,2,1,70,0,1
177316,-100,4,2,2,70,0,1
177483,-100,4,2,1,75,0,1
178150,-100,4,2,4,75,0,1
178316,-100,4,2,1,75,0,1
179483,-100,4,2,4,75,0,1
179650,-100,4,2,1,75,0,1
180150,-100,4,2,1,80,0,1
183316,-83.3333333333333,4,2,1,80,0,1
183650,-66.6666666666667,4,2,1,80,0,1
183983,-55.5555555555556,4,2,1,80,0,1
184816,-100,4,2,1,80,0,1
185483,-100,4,2,1,75,0,1
185650,-100,4,2,4,75,0,1
185816,-100,4,2,3,75,0,1
186316,-100,4,2,4,75,0,1
187150,-100,4,2,3,75,0,1
187483,-100,4,2,1,75,0,1
190816,-83.3333333333333,4,2,1,88,0,0
196150,-100,4,2,1,88,0,0
200816,-133.333333333333,4,2,1,88,0,0
201400,-133.333333333333,4,2,1,5,0,0
201483,-100,4,2,1,75,0,0
201816,-100,4,2,4,75,0,0
202816,-100,4,2,3,75,0,0
202983,-100,4,2,4,75,0,0
204150,-100,4,2,3,75,0,0
204483,-100,4,2,4,75,0,0
205483,-100,4,2,3,75,0,0
205650,-100,4,2,4,75,0,0
207150,-100,4,2,3,70,0,0
207316,-100,4,2,4,70,0,0
208483,-100,4,2,3,70,0,0
208816,-100,4,2,1,70,0,0
209483,-66.6666666666667,4,2,1,70,0,0
209816,-100,4,2,1,70,0,0
210816,-100,4,2,1,75,0,0
211483,-100,4,2,1,80,0,0
212150,-100,4,2,1,20,0,0

[Colours]
Combo1 : 124,234,239
Combo2 : 219,180,254
Combo3 : 153,210,249
Combo4 : 168,170,247

[HitObjects]
40,252,1817,5,0,0:0:0:0:
43,271,1994,1,0,0:0:0:0:
46,290,2170,1,0,0:0:0:0:
9,361,2347,1,2,0:0:0:0:
402,89,3229,5,0,0:0:0:0:
480,106,3406,1,0,0:0:0:0:
497,28,3582,1,0,0:0:0:0:
419,11,3759,1,2,0:0:0:0:
116,110,4641,5,0,0:0:0:0:
170,120,4817,1,0,0:0:0:0:
98,58,4994,1,0,0:0:0:0:
79,152,5170,1,2,0:0:0:0:
358,320,6053,5,0,0:0:0:0:
464,302,6229,1,0,0:0:0:0:
338,307,6406,1,0,0:0:0:0:
480,284,6582,1,2,0:0:0:0:
90,18,7465,6,0,P|95:38|98:58,1,40,0|0,0:0|0:0,0:0:0:0:
21,81,7817,2,0,P|16:61|13:41,1,40,0|2,0:0|0:0,0:0:0:0:
182,296,8876,6,0,L|176:344,1,40,0|0,0:0|0:0,0:0:0:0:
258,318,9229,2,0,L|254:358,1,40,0|2,0:0|0:0,0:0:0:0:
494,148,10288,6,0,P|475:146|455:143,1,40,0|0,0:0|0:0,0:0:0:0:
392,93,10641,2,0,P|382:72|372:44,1,40,0|2,0:0|0:0,0:0:0:0:
97,212,11700,6,0,L|57:215,1,40,0|0,0:0|0:0,0:0:0:0:
170,244,12053,2,0,L|174:283,1,40,0|2,0:0|0:0,0:0:0:0:
162,164,12406,1,0,3:0:0:0:
382,350,12935,5,0,3:0:0:0:
382,350,13112,2,0,P|436:336|516:330,1,120.000004577637,2|0,1:2|0:0,0:0:0:0:
512,235,13641,1,0,1:0:0:0:
512,235,13817,2,0,P|453:249|394:255,1,120.000004577637,8|0,0:0|1:0,0:0:0:0:
319,293,14347,1,2,0:0:0:0:
499,329,14523,6,0,P|440:335|382:350,1,120.000004577637,2|0,1:2|1:0,0:0:0:0:
319,293,15053,2,0,P|282:286|246:283,1,60.0000022888184,0|8,0:0|0:0,0:0:0:0:
130,34,15759,5,2,0:0:0:0:
130,34,15935,2,0,P|76:48|-4:54,1,120.000004577637,2|0,1:2|0:0,0:0:0:0:
0,149,16465,1,0,1:0:0:0:
0,149,16641,2,0,P|58:135|117:129,1,120.000004577637,8|0,0:0|1:0,0:0:0:0:
193,91,17170,1,2,0:0:0:0:
103,241,17347,6,0,P|94:182|118:128,1,120.000004577637,2|0,1:2|1:0,0:0:0:0:
193,91,17876,2,0,P|191:61|188:28,1,60.0000022888184,0|8,0:0|0:0,0:0:0:0:
361,197,18406,2,0,P|363:167|366:134,1,60.0000022888184,2|0,0:0|0:0,0:0:0:0:
394,58,18759,6,0,P|453:44|512:38,2,120.000004577637,2|2|10,1:2|0:0|0:0,0:0:0:0:
496,222,19817,1,2,1:2:0:0:
496,222,19994,6,0,P|503:277|507:344,1,120.000004577637,2|0,0:0|0:0,0:0:0:0:
417,268,20523,2,0,P|421:298|423:328,1,60.0000022888184,2|0,1:2|0:0,0:0:0:0:
354,375,20876,2,0,P|295:361|236:355,1,120.000004577637,10|2,0:0|0:0,0:0:0:0:
86,237,21582,6,0,P|40:244|17:247,2,60.0000022888184,2|0|2,1:2|1:0|0:0,0:0:0:0:
146,177,22112,2,0,P|152:115|158:44,1,120.000004577637,8|0,0:0|1:0,0:0:0:0:
67,137,22641,2,0,P|71:99|74:57,1,60.0000022888184,2|0,0:0|0:0,0:0:0:0:
238,5,22994,5,0,1:0:0:0:
252,32,23170,1,0,1:0:0:0:
325,74,23347,1,0,0:0:0:0:
429,46,23523,1,2,1:2:0:0:
365,148,23700,6,0,P|361:177|358:207,1,60.0000022888184,8|0,0:0|1:0,0:0:0:0:
500,128,24053,2,0,P|504:99|507:69,1,60.0000022888184,8|0,0:0|0:0,0:0:0:0:
286,242,24406,5,2,0:0:0:0:
352,288,24759,5,0,0:0:0:0:
360,306,24935,1,0,0:0:0:0:
362,325,25112,1,2,0:0:0:0:
356,344,25641,1,2,0:0:0:0:
474,326,25817,6,0,P|414:332|356:344,1,120.000004577637,2|0,0:0|0:0,0:0:0:0:
117,315,27229,5,2,0:0:0:0:
51,269,27582,5,0,0:0:0:0:
43,251,27758,1,0,0:0:0:0:
41,232,27935,1,2,0:0:0:0:
47,213,28464,1,2,0:0:0:0:
64,94,28641,6,0,P|58:153|46:212,1,120.000004577637,2|2,0:0|0:0,0:0:0:0:
209,32,30053,5,2,0:0:0:0:
209,32,30406,2,0,P|165:28|120:20,2,80,2|2|2,0:0|0:0|0:0,0:0:0:0:
330,73,31465,5,2,0:0:0:0:
330,73,31817,2,0,P|374:69|419:61,2,80,2|2|2,0:0|0:0|0:0,0:0:0:0:
254,99,32876,6,0,B|217:148|219:195|244:235|298:240|304:305|273:321|207:315|190:280|205:234|279:198,1,360.000013732911,2|0,0:0|0:0,0:0:0:0:
344,242,34112,6,0,P|231:373|140:257,1,360,2|4,0:0|0:0,0:0:0:0:
124,252,37818,6,0,P|86:242|59:237,1,40,6|0,1:2|0:0,0:0:0:0:
23,186,37985,1,0,3:0:0:0:
10,156,38068,1,0,3:0:0:0:
13,125,38151,1,0,1:0:0:0:
31,99,38235,1,0,3:0:0:0:
60,86,38318,1,2,3:2:0:0:
92,88,38401,1,0,3:0:0:0:
118,106,38485,6,0,L|111:149,1,40,0|0,1:0|3:0,0:0:0:0:
204,86,38652,2,0,L|198:126,1,40,0|0,3:0|3:0,0:0:0:0:
251,312,38819,2,0,P|309:302|381:296,1,120,2|0,1:2|0:0,0:0:0:0:
475,222,39152,5,0,1:0:0:0:
444,230,39235,1,0,3:0:0:0:
412,227,39318,1,2,3:2:0:0:
383,214,39402,1,0,3:0:0:0:
360,192,39485,1,0,1:0:0:0:
447,327,39652,1,0,3:0:0:0:
346,163,39819,6,0,P|340:123|336:83,1,80,2|0,1:2|0:0,0:0:0:0:
474,0,40152,2,0,P|481:56|486:101,1,80,2|0,1:2|0:0,0:0:0:0:
261,208,40485,5,6,1:2:0:0:
336,83,40652,1,0,3:0:0:0:
327,52,40735,1,0,3:0:0:0:
307,27,40818,1,0,1:0:0:0:
279,11,40902,1,0,3:0:0:0:
248,7,40985,1,2,3:2:0:0:
217,15,41068,1,0,3:0:0:0:
192,34,41152,6,0,L|198:74,1,40,0|0,1:0|3:0,0:0:0:0:
102,20,41319,2,0,L|108:60,1,40,0|0,3:0|3:0,0:0:0:0:
261,208,41485,2,0,L|214:218,3,40,2|0|0|0,1:2|3:0|3:0|3:0,0:0:0:0:
148,171,41818,5,0,1:0:0:0:
116,162,41901,1,0,3:0:0:0:
84,165,41984,1,2,3:2:0:0:
55,177,42068,1,0,3:0:0:0:
32,200,42151,1,0,1:0:0:0:
108,60,42318,1,0,3:2:0:0:
19,230,42485,6,0,P|14:269|9:309,1,80,0|0,1:0|3:0,0:0:0:0:
160,363,42817,1,0,1:0:0:0:
196,346,42901,1,8,0:3:0:0:
235,337,42984,1,4,0:3:0:0:
274,334,43067,1,4,0:3:0:0:
314,337,43151,5,6,1:2:0:0:
436,372,43317,1,0,1:0:0:0:
471,250,43484,1,10,0:0:0:0:
314,337,43651,5,2,0:0:0:0:
349,215,43818,1,2,1:2:0:0:
471,250,43984,1,2,1:2:0:0:
436,372,44151,1,8,0:0:0:0:
314,74,44484,5,2,1:2:0:0:
186,88,44651,1,0,1:2:0:0:
325,53,44817,1,8,0:0:0:0:
172,69,44984,1,2,0:0:0:0:
245,174,45151,5,0,1:0:0:0:
158,50,45317,1,2,1:2:0:0:
100,236,45484,5,10,0:0:0:0:
144,31,45651,1,2,0:0:0:0:
229,192,45817,5,6,1:0:0:0:
40,161,45984,1,0,1:0:0:0:
269,276,46151,5,12,0:0:0:0:
336,32,46317,1,2,0:0:0:0:
213,210,46484,5,0,1:0:0:0:
422,156,46651,1,0,1:0:0:0:
317,371,46817,1,2,0:2:0:0:
100,236,46984,6,0,P|90:176|84:116,1,120,8|0,0:0|0:0,0:0:0:0:
139,52,47317,1,2,1:2:0:0:
11,196,47484,2,0,P|16:244|22:299,1,80,8|8,0:0|0:0,0:0:0:0:
0,356,47734,1,8,0:0:0:0:
0,356,47817,5,8,1:3:0:0:
269,276,47984,1,4,1:3:0:0:
85,117,48151,1,2,1:2:0:0:
139,52,48484,6,0,P|200:46|269:36,1,120.000004577637,4|10,1:2|0:0,0:0:0:0:
329,81,48984,2,0,P|383:88|429:102,1,90.0000034332277,2|0,3:2|0:0,0:0:0:0:
451,122,49317,2,0,L|447:79,2,30.0000011444092,2|0|2,3:2|3:0|3:2,0:0:0:0:
489,21,49651,1,0,1:0:0:0:
390,184,49817,6,0,P|395:214|398:244,1,60.0000022888184,2|0,1:2|1:0,0:0:0:0:
312,364,50151,1,10,0:0:0:0:
312,364,50234,1,0,3:0:0:0:
312,364,50317,1,0,3:0:0:0:
312,364,50401,2,0,P|305:314|304:289,1,60.0000022888184,10|0,0:0|0:0,0:0:0:0:
447,328,50651,5,2,1:2:0:0:
447,328,50817,1,10,0:0:0:0:
447,328,50984,1,2,3:2:0:0:
284,225,51151,6,0,P|252:222|207:218,1,60.0000022888184,0|0,1:0|1:0,0:0:0:0:
111,305,51484,1,10,0:0:0:0:
111,305,51567,1,0,3:0:0:0:
111,305,51651,1,2,3:2:0:0:
110,305,51734,2,0,P|65:309|20:316,1,90.0000034332277,12|2,0:0|0:0,0:0:0:0:
21,316,52317,1,8,0:0:0:0:
153,176,52484,6,0,P|157:146|160:116,1,60.0000022888184,2|0,1:2|1:0,0:0:0:0:
39,38,52817,1,10,0:0:0:0:
36,43,52901,1,0,3:0:0:0:
34,48,52984,1,0,3:0:0:0:
32,53,53067,2,0,P|27:82|24:112,1,60.0000022888184,10|0,0:0|0:0,0:0:0:0:
120,3,53317,5,4,1:2:0:0:
63,187,53484,2,0,P|108:180|153:176,1,90.0000034332277,8|8,1:2|0:0,0:0:0:0:
233,205,53817,5,4,1:2:0:0:
206,45,53984,1,0,1:0:0:0:
366,18,54151,1,8,0:0:0:0:
393,178,54317,1,0,3:0:0:0:
389,202,54401,1,8,0:0:0:0:
477,164,54567,5,0,3:0:0:0:
473,188,54651,2,0,B|500:152|500:152|488:58,1,120.000004577637,0|8,3:0|0:0,0:0:0:0:
425,25,55151,6,0,L|365:17,1,60.0000022888184,2|0,1:2|1:0,0:0:0:0:
286,63,55484,1,8,0:0:0:0:
288,80,55567,1,0,3:0:0:0:
290,98,55650,1,0,3:0:0:0:
293,116,55734,1,8,0:0:0:0:
497,264,55984,6,2,L|494:293,1,30.0000011444092,2|0,1:3|0:0,0:1:0:0:
389,202,56151,2,0,L|448:194,1,60.0000022888184,8|2,0:0|3:2,0:0:0:0:
331,348,56484,6,0,L|271:355,1,60.0000022888184,0|0,1:0|1:0,0:0:0:0:
207,301,56817,1,8,0:0:0:0:
189,298,56900,1,0,3:0:0:0:
171,296,56983,1,0,3:0:0:0:
153,294,57067,1,12,0:0:0:0:
75,326,57651,5,8,0:0:0:0:
153,294,57817,2,0,L|148:232,1,60.0000022888184,0|0,1:0|1:0,0:0:0:0:
12,184,58151,1,8,0:0:0:0:
14,166,58235,1,0,3:0:0:0:
16,148,58318,1,0,3:0:0:0:
19,130,58401,1,8,0:0:0:0:
49,101,58484,6,2,L|45:71,1,30.0000011444092,2|0,0:0|0:0,0:1:0:0:
126,136,58651,1,0,1:0:0:0:
161,153,58734,1,0,3:0:0:0:
199,143,58817,1,0,1:0:0:0:
225,112,58901,1,0,3:0:0:0:
252,83,58984,1,0,3:0:0:0:
291,75,59067,1,0,3:0:0:0:
326,92,59151,6,0,P|333:131|337:171,1,80,4|0,1:2|0:0,0:0:0:0:
476,89,59484,2,0,P|470:55|465:1,1,80,2|0,1:2|3:0,0:0:0:0:
420,222,59817,2,0,P|346:210|246:204,1,160,2|10,1:2|1:2,0:0:0:0:
157,55,60317,1,2,3:2:0:0:
157,55,60401,1,0,3:0:0:0:
157,55,60484,5,0,1:0:0:0:
138,141,60651,1,2,3:2:0:0:
52,122,60817,1,2,1:2:0:0:
71,36,60984,1,2,3:2:0:0:
249,124,61151,6,0,P|257:164|261:204,1,80,2|0,1:2|3:0,0:0:0:0:
310,276,61484,1,8,1:2:0:0:
196,362,61651,1,2,3:2:0:0:
196,362,61734,1,0,3:0:0:0:
195,362,61817,6,0,P|156:354|117:349,1,80,2|0,1:2|3:0,0:0:0:0:
14,225,62151,2,0,P|53:232|92:237,1,80,0|0,1:0|3:0,0:0:0:0:
269,314,62484,2,0,P|328:305|437:298,1,160,0|10,1:0|1:2,0:0:0:0:
387,119,62984,1,2,3:2:0:0:
387,119,63067,1,0,3:0:0:0:
387,119,63151,5,2,1:2:0:0:
492,186,63318,1,0,3:0:0:0:
473,100,63484,1,0,1:0:0:0:
406,205,63651,1,0,3:0:0:0:
368,33,63817,5,0,1:0:0:0:
292,80,63984,1,0,3:0:0:0:
292,80,64067,1,0,3:0:0:0:
292,80,64151,2,0,P|236:70|190:65,1,80,2|0,1:2|3:0,0:0:0:0:
33,135,64484,5,6,1:2:0:0:
196,50,64651,1,0,1:0:0:0:
190,231,64817,1,8,0:0:0:0:
138,143,64984,1,0,3:0:0:0:
138,143,65067,1,0,3:0:0:0:
138,143,65151,5,2,1:2:0:0:
4,311,65317,1,0,1:0:0:0:
219,343,65484,1,8,0:0:0:0:
119,278,65651,1,2,3:2:0:0:
119,278,65734,1,0,3:0:0:0:
119,278,65817,5,0,1:2:0:0:
332,240,65984,1,0,1:0:0:0:
103,306,66151,1,8,0:0:0:0:
358,260,66317,1,8,0:3:0:0:
219,343,66484,6,0,P|212:308|205:257,1,80,2|0,0:0|1:0,0:0:0:0:
456,213,66817,2,0,P|463:252|469:291,1,80,10|0,3:2|0:0,0:0:0:0:
404,141,67151,5,14,1:0:0:0:
361,376,67317,1,0,1:0:0:0:
433,127,67484,1,8,1:3:0:0:
390,362,67650,1,4,1:3:0:0:
60,71,68151,5,12,1:0:0:0:
103,306,68317,1,0,1:0:0:0:
31,57,68484,1,8,1:3:0:0:
74,292,68650,1,4,1:3:0:0:
456,213,68984,5,8,1:2:0:0:
404,141,69151,5,8,1:3:0:0:
347,125,69262,1,8,1:3:0:0:
290,142,69373,1,8,1:3:0:0:
249,184,69484,1,4,1:3:0:0:
192,200,69595,1,4,1:3:0:0:
135,183,69706,1,4,1:3:0:0:
90,106,69817,5,4,1:2:0:0:
94,74,70484,5,2,0:0:0:0:
110,46,71151,5,2,0:0:0:0:
135,27,71817,5,0,0:0:0:0:
23,72,72151,2,0,P|17:42|13:12,1,60.0000022888184,2|2,0:0|0:0,0:0:0:0:
220,136,72484,6,0,P|138:122|41:189,1,191.999994140625,14|2,1:2|0:0,0:0:0:0:
203,327,72984,2,0,P|209:231|220:136,1,191.999994140625,0|0,1:2|1:0,0:0:0:0:
119,354,73484,5,10,0:0:0:0:
291,331,73651,1,2,1:2:0:0:
98,330,73817,5,2,0:0:0:0:
304,302,73984,2,0,P|352:307|400:318,1,80,0|2,1:2|0:0,0:0:0:0:
188,218,74317,5,8,0:0:0:0:
220,136,74484,1,0,1:0:0:0:
275,206,74651,1,0,1:0:0:0:
172,236,74817,5,8,0:0:0:0:
250,33,74984,1,8,0:3:0:0:
386,202,75151,1,4,1:2:0:0:
405,217,75817,5,2,0:0:0:0:
429,222,76484,5,2,0:0:0:0:
452,213,77151,6,0,P|474:180|479:138,1,80,2|2,0:0|0:0,0:0:0:0:
453,35,77734,1,0,3:0:0:0:
437,53,77817,6,0,P|441:133|452:212,1,160,2|0,0:0|0:0,0:0:0:0:
397,285,79484,6,0,P|448:294|483:304,2,80,2|2|2,0:0|0:0|0:0,0:0:0:0:
315,250,80484,6,0,P|236:248|159:268,1,160,6|2,1:2|1:2,0:0:0:0:
59,373,80984,1,2,0:0:0:0:
168,188,81151,2,0,P|163:228|158:268,1,80,0|2,1:0|0:0,0:0:0:0:
43,355,81484,2,0,P|50:295|55:230,1,120,2|0,1:2|0:0,0:0:0:0:
10,159,81817,6,0,P|50:152|99:139,1,80,2|0,1:2|0:0,0:0:0:0:
166,20,82151,2,0,P|243:34|334:40,1,160,0|0,1:0|1:2,0:0:0:0:
407,9,82651,1,2,0:0:0:0:
278,209,82817,2,0,P|273:169|268:129,1,80,2|2,1:2|0:0,0:0:0:0:
361,157,83067,1,2,0:0:0:0:
379,174,83151,6,0,P|384:214|389:254,1,80,4|0,1:2|0:0,0:0:0:0:
337,326,83401,1,0,1:0:0:0:
337,326,83484,1,10,0:0:0:0:
507,192,83651,6,0,P|499:112|493:32,1,160,2|0,1:2|1:0,0:0:0:0:
493,32,84151,1,10,0:0:0:0:
183,107,84317,6,0,P|191:187|197:266,1,160,2|0,1:2|1:0,0:0:0:0:
244,369,84817,1,8,0:0:0:0:
86,309,84984,1,0,1:0:0:0:
278,209,85151,5,2,3:2:0:0:
65,321,85317,1,0,1:0:0:0:
183,107,85484,5,10,0:2:0:0:
183,107,85567,1,8,0:0:0:0:
183,107,85651,1,8,0:0:0:0:
183,107,85734,1,8,0:0:0:0:
183,107,85817,5,2,1:2:0:0:
168,194,85984,1,0,3:0:0:0:
81,179,86151,1,2,1:2:0:0:
96,92,86317,1,2,3:2:0:0:
349,137,86484,5,2,1:2:0:0:
421,35,86651,1,0,3:0:0:0:
334,50,86817,1,0,1:0:0:0:
436,122,86984,1,2,3:2:0:0:
305,343,87151,5,2,1:2:0:0:
322,257,87317,1,2,0:0:0:0:
322,257,87401,1,2,0:0:0:0:
322,257,87484,1,2,1:2:0:0:
388,316,87651,1,2,0:0:0:0:
239,284,87817,5,0,1:0:0:0:
202,268,87901,1,0,3:0:0:0:
163,275,87984,1,2,3:2:0:0:
134,301,88067,1,0,1:0:0:0:
125,340,88151,1,2,1:2:0:0:
96,366,88234,1,4,0:3:0:0:
57,373,88317,1,6,0:3:0:0:
20,358,88400,1,4,0:3:0:0:
0,322,88484,6,0,P|6:264|15:170,1,120,6|0,1:2|1:0,0:0:0:0:
53,126,88817,1,10,0:0:0:0:
172,171,88984,1,0,1:0:0:0:
47,46,89151,6,0,P|48:86|53:126,1,80,2|0,3:2|1:0,0:0:0:0:
260,205,89484,2,0,P|259:165|254:125,1,80,14|2,0:1|1:2,0:0:0:0:
11,202,89817,6,0,P|6:262|0:321,1,120,4|0,0:3|1:0,0:0:0:0:
75,368,90151,2,0,P|114:359|154:355,1,80,10|0,0:0|1:0,0:0:0:0:
324,265,90484,1,2,3:2:0:0:
172,171,90651,1,0,1:0:0:0:
239,288,90817,5,10,3:2:0:0:
238,296,90901,1,8,0:0:0:0:
237,303,90984,1,8,0:0:0:0:
236,310,91067,1,8,0:0:0:0:
235,318,91151,1,6,1:2:0:0:
409,242,91317,5,0,3:0:0:0:
406,224,91401,1,0,3:0:0:0:
404,209,91484,1,0,3:0:0:0:
402,193,91567,1,0,3:0:0:0:
400,175,91651,1,6,1:0:0:0:
185,72,91817,5,0,3:0:0:0:
182,98,91901,1,0,3:0:0:0:
179,122,91984,1,0,3:0:0:0:
177,146,92067,1,0,3:0:0:0:
172,171,92151,1,6,1:0:0:0:
324,265,92317,6,0,L|328:304,1,40,0|0,3:0|3:0,0:0:0:0:
383,374,92484,1,4,1:2:0:0:
498,264,92651,5,0,3:0:0:0:
494,232,92735,1,0,3:0:0:0:
489,201,92818,1,0,3:0:0:0:
485,170,92901,1,0,3:0:0:0:
482,138,92985,1,4,1:0:0:0:
318,44,93151,5,0,3:0:0:0:
295,76,93234,1,0,3:0:0:0:
260,94,93317,1,0,3:0:0:0:
220,96,93400,1,0,3:0:0:0:
184,81,93484,1,8,0:3:0:0:
160,49,93567,1,8,0:3:0:0:
125,30,93650,1,4,0:3:0:0:
85,28,93733,1,4,0:3:0:0:
48,44,93817,6,0,P|38:61|32:80,1,40,2|0,1:2|0:0,0:0:0:0:
73,159,93984,2,0,P|82:199|89:267,1,80,0|2,1:0|0:0,0:0:0:0:
69,278,94234,1,2,0:0:0:0:
69,278,94317,6,0,P|134:239|216:259,1,143.999995605469,2|0,1:2|0:0,0:0:0:0:
248,318,94651,6,0,P|300:359|420:346,1,180.000006866455,2|0,1:2|0:0,0:0:0:0:
472,297,94984,6,0,B|491:148|491:148|412:188|412:188|405:236,1,287.999991210938,14|0,1:2|1:0,0:0:0:0:
405,236,95484,1,8,0:0:0:0:
405,236,95651,1,0,1:0:0:0:
491,148,95817,5,8,1:3:0:0:
504,118,95929,1,8,1:3:0:0:
500,86,96040,1,8,1:3:0:0:
416,72,96151,5,4,1:3:0:0:
403,102,96263,1,4,1:3:0:0:
407,134,96374,1,4,1:3:0:0:
453,112,96484,5,0,1:0:0:0:
343,18,96651,1,0,3:0:0:0:
343,18,96734,1,0,3:0:0:0:
342,18,96817,2,0,P|304:28|264:32,1,80,4|0,1:2|0:0,0:0:0:0:
183,85,97151,2,0,P|123:74|11:65,1,160,2|0,1:2|1:0,0:0:0:0:
103,240,97651,1,0,3:0:0:0:
273,111,97817,6,0,P|270:71|265:32,1,80,2|0,1:2|0:0,0:0:0:0:
183,85,98067,1,0,0:0:0:0:
170,105,98151,2,0,P|173:145|178:184,1,80,4|2,1:2|0:0,0:0:0:0:
302,333,98484,2,0,L|351:325,1,40,0|0,1:0|3:0,0:0:0:0:
425,355,98651,2,0,L|474:347,1,40,0|0,3:0|1:0,0:0:0:0:
503,272,98817,5,0,1:2:0:0:
478,251,98900,1,4,0:3:0:0:
448,241,98983,1,4,0:3:0:0:
416,244,99066,1,4,0:3:0:0:
387,257,99150,1,6,1:0:0:0:
294,170,99317,5,0,3:0:0:0:
269,190,99400,1,0,3:0:0:0:
239,200,99483,1,0,3:0:0:0:
207,197,99566,1,0,3:0:0:0:
178,184,99650,1,6,1:2:0:0:
19,105,99817,6,0,L|25:53,1,40,0|0,3:0|3:0,0:0:0:0:
104,87,99984,2,0,L|110:35,1,40,0|0,3:0|3:0,0:0:0:0:
189,69,100151,1,6,1:0:0:0:
103,240,100317,5,0,3:0:0:0:
105,272,100401,1,0,3:0:0:0:
108,303,100484,1,2,3:2:0:0:
111,334,100567,1,0,3:0:0:0:
114,366,100651,1,4,1:2:0:0:
383,187,100817,6,0,L|379:147,1,40,0|0,3:0|3:0,0:0:0:0:
294,170,100984,2,0,L|290:130,1,40,0|0,3:0|3:0,0:0:0:0:
239,239,101151,5,6,1:0:0:0:
260,273,101234,1,0,3:0:0:0:
292,297,101318,1,0,3:0:0:0:
329,311,101401,1,0,3:0:0:0:
369,311,101484,1,2,1:2:0:0:
407,299,101568,1,0,3:0:0:0:
439,275,101651,1,2,3:2:0:0:
461,242,101734,1,0,3:0:0:0:
472,204,101817,6,0,P|419:322|292:297,1,280,2|2,0:0|0:0,0:0:0:0:
379,147,103151,6,0,P|381:106|386:42,1,80,4|0,1:2|1:0,0:0:0:0:
456,17,103484,1,8,0:0:0:0:
459,24,103567,1,0,3:0:0:0:
462,31,103651,1,0,3:0:0:0:
465,38,103734,1,8,0:0:0:0:
249,100,104317,1,0,1:0:0:0:
249,100,104484,6,0,P|195:92|164:88,1,80,0|0,1:0|1:0,0:0:0:0:
93,46,104817,1,8,0:0:0:0:
85,47,104901,1,0,3:0:0:0:
77,48,104984,1,0,3:0:0:0:
69,49,105067,1,8,0:0:0:0:
3,262,105651,1,2,0:0:0:0:
88,242,105817,5,0,1:0:0:0:
28,178,105984,1,0,1:0:0:0:
63,326,106151,1,8,0:0:0:0:
62,333,106234,1,0,3:0:0:0:
61,340,106317,1,0,3:0:0:0:
60,348,106401,1,12,0:0:0:0:
277,286,106984,1,2,0:0:0:0:
364,298,107151,5,0,1:0:0:0:
450,310,107317,1,0,1:0:0:0:
504,242,107484,1,8,0:0:0:0:
502,234,107567,1,0,3:0:0:0:
500,226,107651,1,0,3:0:0:0:
498,218,107734,1,8,0:0:0:0:
419,178,107984,5,4,1:2:0:0:
477,112,108151,5,8,0:0:0:0:
477,112,108234,2,0,P|489:71|482:19,1,80,0|8,3:0|0:0,0:0:0:0:
345,129,108484,6,0,P|334:167|336:206,1,80,4|0,1:2|1:0,0:0:0:0:
396,272,108817,1,8,0:0:0:0:
398,280,108900,1,0,3:0:0:0:
400,288,108984,1,0,3:0:0:0:
402,296,109067,1,8,0:0:0:0:
190,362,109651,1,2,0:0:0:0:
190,362,109817,6,0,P|151:350|112:349,1,80,0|0,1:0|1:0,0:0:0:0:
24,342,110151,1,8,0:0:0:0:
26,334,110234,1,0,3:0:0:0:
28,326,110318,1,0,3:0:0:0:
30,318,110401,1,8,0:0:0:0:
142,123,110984,1,2,0:0:0:0:
127,36,111151,5,0,1:0:0:0:
59,91,111317,1,0,1:0:0:0:
209,66,111484,1,8,0:0:0:0:
216,67,111567,1,0,3:0:0:0:
223,68,111651,1,0,3:0:0:0:
230,69,111734,1,12,0:0:0:0:
449,116,112317,1,8,0:0:0:0:
440,203,112484,5,0,1:0:0:0:
368,151,112651,1,0,1:0:0:0:
359,238,112817,1,8,0:0:0:0:
360,245,112901,1,0,3:0:0:0:
361,252,112984,1,0,3:0:0:0:
362,259,113067,1,8,0:0:0:0:
374,346,113317,5,4,1:2:0:0:
292,313,113484,5,8,0:0:0:0:
271,301,113567,1,8,0:0:0:0:
246,300,113651,1,8,1:3:0:0:
223,306,113734,1,4,1:3:0:0:
205,322,113817,6,2,P|145:354|45:184,1,320,0|8,1:0|0:0,0:1:0:0:
165,80,114817,2,0,B|175:40|175:40|152:0,1,80,0|0,1:0|0:0,0:0:0:0:
82,54,115151,6,0,B|230:36|230:36|275:53|275:53|413:36,1,320,2|8,0:0|0:0,0:0:0:0:
510,171,115984,1,2,0:0:0:0:
424,148,116151,1,2,0:0:0:0:
362,211,116317,1,2,0:0:0:0:
486,85,116484,6,2,B|457:184|457:184|505:359|505:359|472:320|415:306,1,383.99998828125,0|8,1:0|0:0,0:1:0:0:
286,225,117484,2,0,B|321:209|321:209|362:211,1,80,0|0,1:0|0:0,0:0:0:0:
215,289,117817,6,0,B|129:257|44:266|44:266|2:206|2:206|56:157|56:157|92:174|117:170,1,383.99998828125,2|8,0:0|0:0,0:0:0:0:
151,358,118817,2,0,P|110:348|71:347,1,80,4|0,0:3|0:0,0:0:0:0:
45,263,119151,6,2,B|34:145|17:37|17:37|57:73|116:89,1,320,0|8,1:0|0:0,0:1:0:0:
347,24,120151,2,0,P|395:21|441:13,1,80,0|0,1:0|0:0,0:0:0:0:
511,80,120484,6,0,B|427:104|273:106|273:106|210:150|200:226,1,383.99998828125,2|8,0:0|0:0,0:0:0:0:
201,226,121317,2,0,P|198:187|191:147,1,80,2|0,0:3|0:0,0:0:0:0:
511,80,121817,6,0,P|407:41|396:250,1,383.99998828125,0|8,1:0|0:0,0:0:0:0:
501,159,122817,2,0,P|504:119|511:80,1,80,0|0,1:0|0:0,0:0:0:0:
377,242,123151,6,2,B|275:185|299:42|401:9|472:32|511:80|511:80|476:349,1,640,2|10,0:0|0:0,0:0:0:0:
201,226,124151,5,2,0:0:0:0:
207,269,124234,1,2,0:0:0:0:
180,241,124317,5,2,0:0:0:0:
183,264,124401,1,2,0:0:0:0:
160,256,124484,6,0,P|82:241|2:237,1,160,6|10,1:2|0:0,0:0:0:0:
141,153,124984,1,0,1:0:0:0:
141,153,125067,1,0,1:0:0:0:
141,153,125151,2,0,P|148:99|150:64,1,80,2|0,1:2|1:0,0:0:0:0:
32,21,125484,2,0,P|25:75|23:110,1,80,10|2,0:0|0:0,0:0:0:0:
166,351,125817,5,0,1:0:0:0:
235,294,125984,1,0,1:0:0:0:
235,294,126067,1,0,1:0:0:0:
235,294,126151,2,0,P|293:287|336:285,1,80,8|2,0:0|0:0,0:0:0:0:
474,211,126484,1,2,1:2:0:0:
495,295,126651,1,0,1:0:0:0:
293,201,126817,1,10,0:0:0:0:
394,248,126984,1,0,3:0:0:0:
394,248,127067,1,0,3:0:0:0:
394,248,127151,6,0,P|389:202|386:152,1,80,2|0,1:2|1:0,0:0:0:0:
489,6,127484,2,0,P|494:52|497:102,1,80,8|0,0:0|0:0,0:0:0:0:
285,41,127817,1,2,1:2:0:0:
273,153,127984,1,0,1:0:0:0:
304,26,128151,1,8,0:0:0:0:
188,80,128317,1,2,0:0:0:0:
63,48,128484,6,0,P|71:113|78:213,1,160,0|8,1:0|0:0,0:0:0:0:
95,225,129151,1,2,1:2:0:0:
85,312,129317,1,0,1:0:0:0:
229,185,129484,5,8,0:0:0:0:
246,344,129651,1,2,3:2:0:0:
246,344,129734,1,0,3:0:0:0:
246,344,129817,5,4,1:2:0:0:
186,270,129984,1,0,1:0:0:0:
340,313,130151,5,2,0:0:0:0:
472,224,130317,2,0,P|478:185|482:145,1,80,8|0,0:0|0:0,0:0:0:0:
337,289,130651,5,10,0:0:0:0:
500,354,130817,1,0,1:0:0:0:
500,354,130984,1,0,1:0:0:0:
334,265,131151,5,2,1:2:0:0:
456,65,131317,2,0,P|467:144|471:223,1,160,8|10,0:0|0:0,0:0:0:0:
380,18,131817,5,2,1:2:0:0:
380,18,131984,1,0,1:0:0:0:
322,88,132151,1,10,0:0:0:0:
237,62,132317,1,0,3:0:0:0:
340,174,132484,5,10,1:0:0:0:
125,196,132651,1,2,1:3:0:0:
355,192,132817,1,8,1:3:0:0:
113,217,132984,1,6,1:3:0:0:
22,40,133484,5,10,1:0:0:0:
237,62,133651,1,2,1:3:0:0:
10,19,133817,1,8,1:3:0:0:
252,44,133984,1,6,1:3:0:0:
191,291,134317,5,10,0:0:0:0:
203,269,134484,1,8,1:3:0:0:
274,218,134651,1,8,1:3:0:0:
385,227,134817,1,4,1:3:0:0:
457,333,134984,1,4,1:3:0:0:
477,110,135151,5,14,1:2:0:0:
437,346,135317,1,0,1:0:0:0:
497,97,135484,1,0,3:0:0:0:
457,333,135650,1,2,3:2:0:0:
42,53,136151,5,10,1:0:0:0:
82,289,136317,1,0,1:0:0:0:
22,40,136484,1,0,3:0:0:0:
62,276,136650,1,2,3:2:0:0:
477,110,137817,5,10,1:0:0:0:
437,346,137984,1,0,1:0:0:0:
201,306,138151,1,0,3:0:0:0:
241,70,138317,1,2,3:2:0:0:
512,238,138817,5,10,1:0:0:0:
309,381,138983,1,0,1:0:0:0:
166,178,139151,1,0,3:0:0:0:
369,35,139317,1,2,3:2:0:0:
422,275,139734,5,0,3:0:0:0:
420,282,139817,1,0,3:0:0:0:
338,249,139984,1,0,3:0:0:0:
272,308,140151,2,0,P|236:318|199:325,1,60.0000022888184,0|0,3:0|0:0,0:0:0:0:
130,292,140484,6,0,B|102:242|102:242|100:190|132:129,1,160,6|0,1:2|1:0,0:0:0:0:
14,26,140984,2,0,B|42:76|42:76|44:128|12:189,1,160,2|0,0:0|0:0,0:0:0:0:
182,74,141484,2,0,P|229:64|266:61,1,80,2|0,1:2|0:0,0:0:0:0:
335,14,141817,5,0,1:0:0:0:
494,29,141984,2,0,P|414:24|335:14,1,160,2|0,0:0|0:0,0:0:0:0:
296,169,142484,2,0,P|304:227|307:259,1,80,2|0,1:2|0:0,0:0:0:0:
440,301,142817,2,0,P|432:243|429:211,1,80,2|0,1:2|0:0,0:0:0:0:
439,199,143067,1,0,1:0:0:0:
458,185,143151,5,4,1:2:0:0:
356,347,143317,1,8,0:3:0:0:
332,342,143401,1,8,0:3:0:0:
308,337,143484,5,8,1:3:0:0:
188,294,143651,1,4,0:3:0:0:
164,298,143734,1,4,0:3:0:0:
140,303,143817,5,4,1:3:0:0:
18,350,143984,2,0,L|24:299,1,40,0|0,1:0|1:0,0:0:0:0:
243,222,144151,5,6,1:2:0:0:
75,178,144317,2,0,L|81:127,1,40,0|0,3:0|3:0,0:0:0:0:
3,224,144484,5,2,1:2:0:0:
149,68,144651,1,0,3:0:0:0:
87,198,144817,5,0,1:0:0:0:
327,196,144984,1,0,3:0:0:0:
171,172,145151,5,8,1:3:0:0:
356,347,145317,1,4,1:3:0:0:
504,99,145484,5,8,0:0:0:0:
482,65,145567,1,8,0:0:0:0:
447,47,145650,1,8,0:0:0:0:
408,48,145734,1,8,0:0:0:0:
374,68,145817,6,0,P|332:79|281:83,1,80,6|0,1:2|0:0,0:0:0:0:
216,40,146067,1,0,1:0:0:0:
221,16,146151,1,8,3:2:0:0:
327,196,146317,1,2,1:2:0:0:
200,126,146484,6,0,L|207:170,1,40,2|0,3:2|0:0,0:0:0:0:
124,202,146651,2,0,L|117:158,1,40,2|0,1:2|0:0,0:0:0:0:
14,68,146817,2,0,L|32:186,1,120,10|0,3:2|0:0,0:0:0:0:
65,269,147151,6,0,P|48:305|46:344,1,80,6|0,1:2|0:0,0:0:0:0:
128,379,147401,1,0,1:0:0:0:
147,365,147484,2,0,P|163:328|165:289,1,80,8|0,3:2|1:0,0:0:0:0:
32,186,147817,5,2,3:2:0:0:
200,126,147984,1,2,1:2:0:0:
303,316,148151,1,10,3:2:0:0:
342,310,148234,1,8,0:0:0:0:
381,304,148317,1,8,0:0:0:0:
421,299,148401,1,8,0:0:0:0:
460,313,148484,6,0,B|447:252|447:252|467:174,1,120,6|0,1:2|1:0,0:0:0:0:
506,120,148817,2,0,B|516:80|516:80|506:38,1,80,8|0,3:2|1:0,0:0:0:0:
351,0,149151,2,0,B|341:40|341:40|351:82,1,80,2|0,3:2|1:2,0:0:0:0:
441,210,149484,1,10,3:2:0:0:
507,42,149651,1,2,0:0:0:0:
355,226,149817,5,2,1:2:0:0:
268,131,149984,1,2,0:0:0:0:
268,131,150067,1,2,1:2:0:0:
268,131,150151,2,0,P|228:137|188:143,1,80,10|2,3:2|1:2,0:0:0:0:
0,278,150484,5,8,3:2:0:0:
36,293,150567,1,8,0:0:0:0:
75,288,150650,1,8,0:0:0:0:
108,266,150734,1,8,0:0:0:0:
125,230,150817,6,0,L|116:184,3,40,4|2|2|2,1:2|0:0|0:0|1:2,0:0:0:0:
51,128,151150,2,0,L|59:82,3,40,10|2|2|2,3:2|0:0|1:2|0:0,0:0:0:0:
121,27,151483,1,2,3:2:0:0:
160,29,151567,1,2,0:0:0:0:
200,33,151650,1,2,1:2:0:0:
240,37,151734,1,2,0:0:0:0:
280,42,151817,2,0,P|339:32|450:18,1,160,12|0,1:0|1:0,0:0:0:0:
511,144,152317,5,2,0:0:0:0:
471,137,152400,1,2,1:0:0:0:
436,156,152483,2,0,P|433:175|431:195,3,40,10|2|0|0,3:2|0:0|1:0|0:0,0:0:0:0:
481,270,152817,2,0,P|487:325|489:357,1,80,2|0,3:2|1:0,0:0:0:0:
300,315,153150,5,8,3:2:0:0:
294,275,153233,1,8,0:0:0:0:
290,235,153316,1,8,0:0:0:0:
287,195,153400,1,8,0:0:0:0:
284,155,153483,6,0,P|286:115|291:75,1,80,6|0,1:2|0:0,0:0:0:0:
370,34,153733,1,0,1:0:0:0:
375,58,153817,1,8,0:0:0:0:
200,117,153983,2,0,P|141:107|82:99,1,120,6|0,1:0|0:0,0:0:0:0:
46,120,154317,2,0,L|42:81,1,40,8|0,0:0|0:0,0:0:0:0:
143,4,154483,2,0,P|182:9|221:16,1,80,8|0,1:0|0:0,0:0:0:0:
436,156,154817,5,10,1:2:0:0:
437,163,154900,1,2,3:2:0:0:
438,170,154983,1,2,3:2:0:0:
439,177,155067,1,2,3:2:0:0:
440,184,155150,1,2,1:2:0:0:
441,191,155233,1,2,3:2:0:0:
442,198,155317,1,2,3:2:0:0:
443,205,155400,1,2,3:2:0:0:
474,240,155483,5,2,1:2:0:0:
428,226,155566,1,2,3:2:0:0:
381,235,155649,1,2,3:2:0:0:
340,262,155733,1,2,3:2:0:0:
317,304,155817,1,2,1:2:0:0:
281,335,155900,1,2,3:2:0:0:
234,341,155983,1,2,3:2:0:0:
191,320,156067,1,2,3:2:0:0:
168,279,156150,5,4,1:2:0:0:
189,268,156817,5,2,0:0:0:0:
211,276,157483,5,2,0:0:0:0:
223,296,158150,5,0,0:0:0:0:
91,352,158483,2,0,P|44:345|14:343,1,60.0000022888184,2|2,0:0|0:0,0:0:0:0:
208,136,158817,6,0,P|213:216|223:296,1,160,14|2,1:2|0:0,0:0:0:0:
107,185,159317,1,8,1:3:0:0:
107,185,159483,2,0,P|103:143|98:103,1,80,4|0,1:3|1:0,0:0:0:0:
273,16,159817,2,0,P|325:23|385:27,1,80,8|0,0:0|1:2,0:0:0:0:
501,147,160150,5,0,1:2:0:0:
414,164,160317,1,4,1:3:0:0:
441,81,160483,1,8,1:3:0:0:
472,230,160650,1,8,0:0:0:0:
456,62,160817,5,0,1:0:0:0:
396,277,160983,1,0,1:0:0:0:
352,25,161150,1,8,0:0:0:0:
501,147,161317,1,4,1:3:0:0:
322,215,161483,5,4,1:2:0:0:
306,202,162150,5,2,0:0:0:0:
285,200,162817,6,0,P|228:215|168:221,1,120.000004577637,6|2,1:0|0:0,0:0:0:0:
21,343,163483,6,0,P|78:327|138:321,1,120.000004577637,2|2,0:0|0:0,0:0:0:0:
217,111,164150,5,6,1:2:0:0:
285,200,164317,1,0,3:0:0:0:
282,223,164400,1,0,3:0:0:0:
279,246,164483,1,0,1:0:0:0:
276,270,164567,1,0,3:0:0:0:
274,293,164650,1,2,3:2:0:0:
272,316,164733,1,0,3:0:0:0:
269,340,164817,5,0,1:0:0:0:
290,306,164900,1,0,3:0:0:0:
325,286,164983,1,0,3:0:0:0:
364,283,165067,1,0,3:0:0:0:
401,297,165150,1,2,1:2:0:0:
438,310,165233,1,0,3:0:0:0:
476,297,165316,1,0,3:0:0:0:
498,265,165400,1,0,3:0:0:0:
495,226,165483,6,0,P|491:204|488:183,3,40,0|0|2|0,1:0|3:0|3:2|3:0,0:0:0:0:
416,139,165816,2,0,P|420:116|423:95,3,40,0|0|0|0,1:0|3:0|3:0|3:0,0:0:0:0:
470,22,166150,5,2,1:2:0:0:
423,10,166233,1,0,3:0:0:0:
377,23,166316,1,0,3:0:0:0:
344,58,166400,1,0,3:0:0:0:
334,104,166483,1,2,1:2:0:0:
310,145,166566,1,0,3:0:0:0:
268,169,166649,1,0,3:0:0:0:
220,167,166733,1,0,3:0:0:0:
180,142,166816,6,0,B|136:112|136:112|65:113|0:153,1,191.999994140625,6|0,1:2|0:0,0:0:0:0:
332,242,167316,6,0,B|376:272|376:272|447:271|512:231,1,191.999994140625,6|0,1:2|0:0,0:0:0:0:
256,32,167816,6,0,B|312:96|316:164|196:220|200:308|256:352,1,352.000010742188,6|0,1:2|0:0,0:0:0:0:
256,328,169483,5,6,1:0:0:0:
256,304,170816,5,6,1:0:0:0:
333,259,172150,6,0,P|384:246|428:243,1,80,6|0,1:2|0:0,0:0:0:0:
496,269,172400,1,0,1:0:0:0:
488,291,172483,1,10,0:0:0:0:
345,163,172650,2,0,P|268:181|188:191,1,160,2|0,1:2|1:0,0:0:0:0:
188,191,173150,1,10,0:0:0:0:
21,326,173316,6,0,P|27:243|30:158,1,160,2|0,1:2|1:0,0:0:0:0:
188,18,173816,1,8,0:0:0:0:
48,149,173983,1,0,1:0:0:0:
218,101,174150,5,2,3:2:0:0:
18,66,174316,1,0,1:0:0:0:
141,268,174483,5,10,0:0:0:0:
141,268,174566,1,8,0:0:0:0:
141,268,174650,1,8,0:0:0:0:
141,268,174733,1,8,0:0:0:0:
141,268,174816,5,2,1:2:0:0:
127,355,174983,1,2,0:0:0:0:
227,251,175150,1,6,1:2:0:0:
213,338,175317,1,2,0:0:0:0:
408,174,175483,5,2,1:2:0:0:
508,278,175650,1,0,3:2:0:0:
494,191,175816,1,2,1:2:0:0:
422,261,175983,1,0,3:2:0:0:
218,101,176150,5,2,1:2:0:0:
200,13,176316,1,2,0:0:0:0:
200,13,176400,1,2,0:0:0:0:
200,13,176483,1,6,1:2:0:0:
134,72,176650,1,2,0:0:0:0:
287,44,176816,5,0,1:0:0:0:
304,79,176900,1,0,3:0:0:0:
340,95,176983,1,2,3:2:0:0:
378,87,177067,1,0,1:0:0:0:
403,56,177150,1,2,1:2:0:0:
421,22,177232,1,4,0:3:0:0:
459,13,177316,1,6,0:3:0:0:
495,30,177399,1,4,0:3:0:0:
512,65,177483,6,0,P|506:123|497:217,1,120,6|0,1:2|1:0,0:0:0:0:
459,261,177816,1,10,0:0:0:0:
340,216,177983,1,0,1:0:0:0:
465,341,178150,6,0,P|464:301|459:261,1,80,2|0,3:2|1:0,0:0:0:0:
252,182,178483,2,0,P|253:222|258:262,1,80,14|2,0:1|0:0,0:0:0:0:
500,184,178816,6,0,P|505:124|512:65,1,120,4|0,0:3|1:0,0:0:0:0:
436,19,179150,2,0,P|430:65|424:112,1,80,10|0,0:0|1:0,0:0:0:0:
340,216,179483,1,2,3:2:0:0:
169,127,179650,1,0,1:0:0:0:
269,344,179816,5,10,0:0:0:0:
285,342,179900,1,8,0:0:0:0:
301,340,179983,1,8,0:0:0:0:
317,338,180066,1,8,0:0:0:0:
333,336,180150,1,6,1:2:0:0:
124,283,180316,5,0,3:0:0:0:
100,280,180400,1,0,3:0:0:0:
76,277,180483,1,0,3:0:0:0:
52,274,180566,1,0,3:0:0:0:
27,271,180650,1,6,1:0:0:0:
169,127,180816,5,0,3:0:0:0:
201,131,180900,1,0,3:0:0:0:
233,135,180983,1,0,3:0:0:0:
265,139,181066,1,0,3:0:0:0:
297,143,181150,1,6,1:0:0:0:
459,261,181316,5,0,3:0:0:0:
425,282,181400,1,0,3:0:0:0:
385,275,181483,1,6,1:2:0:0:
478,23,181650,5,0,3:0:0:0:
481,62,181733,1,0,3:0:0:0:
484,101,181816,1,0,3:0:0:0:
488,141,181900,1,0,3:0:0:0:
491,180,181983,1,6,1:0:0:0:
269,344,182150,5,0,3:0:0:0:
254,299,182233,1,0,3:0:0:0:
215,272,182316,1,0,3:0:0:0:
168,273,182400,1,0,3:0:0:0:
131,302,182483,1,8,0:3:0:0:
92,329,182567,1,8,0:3:0:0:
46,323,182650,1,4,0:3:0:0:
15,287,182734,1,4,0:3:0:0:
16,240,182816,6,0,L|64:229,1,40,2|0,1:2|0:0,0:0:0:0:
104,157,182983,2,0,P|147:164|200:171,1,80,0|2,1:0|0:0,0:0:0:0:
222,188,183233,1,2,0:0:0:0:
222,188,183316,6,0,P|292:171|363:163,1,143.999995605469,2|0,1:2|0:0,0:0:0:0:
486,283,183650,6,0,B|446:239|446:239|441:174|465:121,1,180.000006866455,2|0,1:2|0:0,0:0:0:0:
510,39,183983,6,0,B|411:24|411:24|333:52|333:52|219:35,1,287.999991210938,14|0,1:2|1:0,0:0:0:0:
229,36,184483,1,8,0:0:0:0:
229,36,184650,1,0,1:0:0:0:
54,116,184816,5,8,1:3:0:0:
26,82,184928,1,8,1:3:0:0:
35,40,185039,1,8,1:3:0:0:
118,21,185150,5,4,1:3:0:0:
146,55,185262,1,4,1:3:0:0:
137,97,185373,1,4,1:3:0:0:
85,70,185483,5,0,1:0:0:0:
11,197,185650,1,0,3:0:0:0:
11,197,185733,1,0,3:0:0:0:
11,197,185816,2,0,P|16:238|20:278,1,80,4|0,1:2|0:0,0:0:0:0:
62,355,186150,2,0,P|130:334|230:329,1,160,2|2,1:2|1:2,0:0:0:0:
106,213,186650,1,0,3:0:0:0:
311,276,186816,6,0,P|306:315|302:355,1,80,2|0,1:2|0:0,0:0:0:0:
235,230,187066,1,0,0:0:0:0:
215,244,187150,2,0,P|210:204|206:164,1,80,4|2,1:2|0:0,0:0:0:0:
343,29,187483,2,0,P|339:60|336:91,1,40,0|0,1:0|3:0,0:0:0:0:
429,8,187650,2,0,P|426:27|424:47,1,40,0|0,3:0|1:0,0:0:0:0:
473,120,187816,5,0,1:0:0:0:
490,146,187900,1,4,0:3:0:0:
500,177,187983,1,4,0:3:0:0:
503,208,188067,1,4,0:3:0:0:
498,240,188150,1,6,1:0:0:0:
302,355,188316,5,0,3:0:0:0:
305,323,188399,1,0,3:0:0:0:
308,291,188482,1,0,3:0:0:0:
311,259,188566,1,0,3:0:0:0:
315,227,188649,1,6,1:2:0:0:
213,65,188816,6,0,P|217:84|220:104,1,40,0|0,3:0|3:0,0:0:0:0:
125,45,188983,2,0,P|129:63|133:86,1,40,0|0,3:0|3:0,0:0:0:0:
36,24,189150,1,6,1:0:0:0:
162,226,189316,5,0,3:0:0:0:
132,198,189399,1,0,3:0:0:0:
95,186,189482,1,2,3:2:0:0:
55,190,189566,1,0,3:0:0:0:
21,209,189649,1,4,1:2:0:0:
302,355,189816,5,0,3:0:0:0:
341,349,189900,1,0,3:0:0:0:
380,344,189983,1,0,3:0:0:0:
419,339,190066,1,0,3:0:0:0:
463,359,190150,5,6,1:0:0:0:
434,331,190233,1,0,3:0:0:0:
418,294,190316,1,0,3:0:0:0:
415,255,190400,1,0,3:0:0:0:
428,217,190483,1,2,1:2:0:0:
453,186,190566,1,0,3:0:0:0:
489,155,190650,1,2,3:2:0:0:
503,110,190733,1,0,3:0:0:0:
493,64,190816,6,0,B|477:38|446:20|446:20|359:19|298:73,1,191.999994140625,6|0,1:2|0:0,0:0:0:0:
224,192,191316,6,0,P|141:181|28:173,1,191.999994140625,6|0,1:2|0:0,0:0:0:0:
212,9,191816,6,0,B|243:70|243:70|221:214,1,191.999994140625,6|0,1:2|0:0,0:0:0:0:
45,356,192316,6,0,B|14:295|14:295|36:151,1,191.999994140625,6|0,1:2|0:0,0:0:0:0:
319,130,192816,6,0,P|310:194|307:227,1,95.9999970703126,6|0,1:2|0:0,0:0:0:0:
111,277,193150,2,0,P|120:213|123:180,1,95.9999970703126,6|0,1:2|0:0,0:0:0:0:
290,367,193483,6,0,P|384:348|479:338,1,191.999994140625,6|0,1:2|0:0,0:0:0:0:
272,234,193983,6,0,P|181:216|111:276,1,191.999994140625,6|0,1:2|0:0,0:0:0:0:
393,326,194483,6,0,P|399:227|412:116,1,191.999994140625,6|0,1:2|0:0,0:0:0:0:
127,85,194983,6,0,P|121:184|108:295,1,191.999994140625,6|0,1:2|0:0,0:0:0:0:
348,66,195483,6,0,P|402:52|452:50,1,95.9999970703126,6|0,1:2|0:0,0:0:0:0:
468,203,195816,2,0,P|414:217|364:219,1,95.9999970703126,6|0,1:2|0:0,0:0:0:0:
295,180,196150,5,6,1:2:0:0:
179,332,196317,5,0,3:0:0:0:
200,321,196400,1,0,3:0:0:0:
223,313,196483,1,0,3:0:0:0:
246,308,196567,1,0,3:0:0:0:
270,304,196650,1,6,1:0:0:0:
127,85,196817,5,0,3:0:0:0:
105,95,196900,1,0,3:0:0:0:
82,103,196983,1,0,3:0:0:0:
59,108,197067,1,0,3:0:0:0:
35,112,197150,1,6,1:2:0:0:
87,361,197316,5,0,3:0:0:0:
89,328,197400,1,0,3:0:0:0:
91,296,197483,1,0,3:0:0:0:
93,264,197566,1,0,3:0:0:0:
96,231,197650,1,6,1:0:0:0:
246,25,197816,6,0,L|248:64,1,40,0|0,3:0|3:0,0:0:0:0:
336,78,197983,2,0,L|333:38,1,40,0|0,3:0|3:0,0:0:0:0:
202,144,198150,1,6,1:2:0:0:
423,91,198316,5,8,0:3:0:0:
422,83,198400,1,8,0:3:0:0:
421,75,198483,1,4,0:3:0:0:
421,67,198567,1,4,0:3:0:0:
420,59,198650,1,4,0:3:0:0:
420,51,198733,1,4,0:3:0:0:
419,43,198817,1,6,1:2:0:0:
512,236,198983,5,0,3:0:0:0:
482,209,199066,1,0,3:0:0:0:
445,195,199149,1,0,3:0:0:0:
405,197,199233,1,0,3:0:0:0:
369,214,199316,1,6,1:0:0:0:
248,64,199483,5,0,3:0:0:0:
218,91,199566,1,0,3:0:0:0:
181,105,199649,1,0,3:0:0:0:
141,103,199733,1,0,3:0:0:0:
105,86,199816,1,6,1:2:0:0:
4,249,199983,6,0,P|23:244|42:240,1,40,0|0,3:0|3:0,0:0:0:0:
120,275,200150,2,0,P|137:284|153:295,1,40,0|0,3:0|3:0,0:0:0:0:
187,373,200316,1,6,1:0:0:0:
369,214,200483,5,0,3:0:0:0:
366,166,200566,1,0,3:0:0:0:
363,117,200650,1,0,3:0:0:0:
361,69,200733,1,0,3:0:0:0:
359,21,200816,6,2,B|379:94|379:94|345:138|345:138|369:214,1,210.000008010865,2|0,1:2|0:0,0:1:0:0:
356,302,201483,6,0,P|407:291|465:288,1,80,4|0,1:2|0:0,0:0:0:0:
512,331,201733,1,0,1:0:0:0:
502,353,201816,1,8,3:2:0:0:
275,345,201983,2,0,P|269:305|265:265,1,80,2|0,1:2|3:0,0:0:0:0:
481,127,202316,1,0,1:0:0:0:
481,127,202483,2,0,P|476:166|471:206,1,80,10|0,3:2|0:0,0:0:0:0:
356,302,202816,5,4,1:2:0:0:
303,117,202983,1,2,1:2:0:0:
303,117,203066,1,0,1:0:0:0:
303,117,203150,2,0,P|308:78|313:38,1,80,8|0,3:2|1:0,0:0:0:0:
481,127,203483,2,0,P|476:166|471:206,1,80,2|0,3:2|1:0,0:0:0:0:
265,265,203816,2,0,P|205:257|145:253,1,120,10|0,3:2|0:0,0:0:0:0:
89,184,204150,6,0,P|83:144|79:104,1,80,6|0,1:2|0:0,0:0:0:0:
119,26,204400,1,0,1:0:0:0:
97,13,204483,1,8,3:2:0:0:
0,177,204650,2,0,P|5:216|9:256,1,80,2|0,1:2|3:0,0:0:0:0:
255,344,204983,1,0,1:0:0:0:
255,344,205150,2,0,P|259:304|264:264,1,80,10|0,3:2|0:0,0:0:0:0:
89,184,205483,5,4,1:2:0:0:
218,106,205650,1,2,1:2:0:0:
218,106,205733,1,0,1:0:0:0:
218,106,205816,2,0,P|214:66|208:26,1,80,8|0,3:2|1:0,0:0:0:0:
0,176,206150,2,0,P|5:216|9:256,1,80,0|0,3:0|1:0,0:0:0:0:
132,317,206483,1,8,3:2:0:0:
154,283,206566,1,8,0:0:0:0:
187,262,206649,1,8,0:0:0:0:
226,255,206733,1,8,0:0:0:0:
264,264,206816,5,2,1:2:0:0:
359,348,206983,1,2,0:0:0:0:
470,285,207150,1,6,1:2:0:0:
444,159,207316,1,2,0:0:0:0:
357,368,207483,5,2,1:2:0:0:
486,297,207650,1,2,3:2:0:0:
463,152,207816,1,0,1:0:0:0:
317,130,207983,1,0,3:0:0:0:
383,258,208150,5,2,1:2:0:0:
355,43,208316,1,2,0:0:0:0:
401,242,208483,1,4,1:2:0:0:
377,53,208650,1,2,0:0:0:0:
223,166,208816,5,0,1:0:0:0:
203,131,208900,1,0,3:0:0:0:
169,111,208983,1,0,3:0:0:0:
130,110,209067,1,0,1:0:0:0:
95,128,209150,1,0,1:0:0:0:
55,125,209233,1,4,3:0:0:0:
24,101,209317,1,4,3:0:0:0:
8,66,209400,1,4,3:0:0:0:
12,26,209483,6,0,P|38:113|41:202,1,180.000006866455,6|0,1:2|0:0,0:0:0:0:
14,286,209816,1,0,3:0:0:0:
223,166,209983,1,2,3:2:0:0:
130,335,210150,5,0,3:0:0:0:
245,73,210316,1,0,3:0:0:0:
415,306,210483,1,2,1:2:0:0:
415,306,210650,1,0,3:0:0:0:
201,259,210816,5,4,1:0:0:0:
334,346,210983,1,2,3:2:0:0:
325,308,211066,1,0,3:0:0:0:
333,269,211149,1,0,1:0:0:0:
357,237,211233,1,0,3:0:0:0:
392,219,211316,1,0,3:0:0:0:
432,218,211399,1,0,3:0:0:0:
471,191,211483,5,2,1:2:0:0:
492,149,211566,1,0,3:0:0:0:
489,102,211650,1,0,3:0:0:0:
464,62,211733,1,0,3:0:0:0:
422,39,211816,2,0,L|359:51,1,40,2|0,1:2|3:0,0:0:0:0:
293,85,211983,6,0,P|299:41|303:-10,1,80,4|0,3:1|0:0,0:0:0:0:
