osu file format v14

[General]
AudioFilename: audio.mp3
AudioLeadIn: 0
PreviewTime: 168390
Countdown: 0
SampleSet: Soft
StackLeniency: 0.6
Mode: 0
LetterboxInBreaks: 0
EpilepsyWarning: 1
WidescreenStoryboard: 1

[Editor]
Bookmarks: 114474,173306
DistanceSpacing: 0.1
BeatDivisor: 4
GridSize: 4
TimelineZoom: 2.699999

[Metadata]
Title:Into Gray
TitleUnicode:Into Gray
Artist:yuki
ArtistUnicode:yuki
Creator:Bellicose
Version:Kalibe's Insane.
Source:白昼夢の青写真
Tags:eroge momo 緒乃ワサビ case-0 case 0 Laplacian Hakuchuumu no Aojashin The girl who's whos called the world japanese pop rock full version opening op visual novel vn video game lasse kalibe dored koiyuki minakami mtbbsben
BeatmapID:2848150
BeatmapSetID:1373789

[Difficulty]
HPDrainRate:5.5
CircleSize:4
OverallDifficulty:8
ApproachRate:9
SliderMultiplier:1.7
SliderTickRate:1

[Events]
//Background and Video events
0,0,"bg2.png",0,0
//Break Periods
2,70017,71551
2,156350,158217
//Storyboard Layer 0 (Background)
Sprite,Background,Centre,"bg2.png",320,240
//Storyboard Layer 1 (Fail)
//Storyboard Layer 2 (Pass)
//Storyboard Layer 3 (Foreground)
Sprite,Foreground,Centre,"Dream\Other\Kalibe.png",320,240 M,0,10112,10288,500,150,508,150 F,0,10112,10465,0,1 S,0,10112,13112,0.45 M,0,12935,13112,508,150,516,150 F,0,12935,13112,1,0
//Storyboard Layer 4 (Overlay)
//Storyboard Sound Samples

[TimingPoints]
1818,352.941176470588,4,2,0,30,1,0
12406,-142.857142857143,4,2,0,15,0,0
13112,-142.857142857143,4,2,0,35,0,0
24406,-166.666666666667,4,2,0,20,0,0
24759,-166.666666666667,4,2,0,30,0,0
32876,-166.666666666667,4,2,1,30,0,0
34112,-200,4,2,1,30,0,0
35523,-200,4,2,0,5,0,0
35700,-200,4,2,0,15,0,0
36935,-142.857142857143,4,2,0,30,0,0
37112,-142.857142857143,4,2,0,50,0,0
37376,-142.857142857143,4,2,0,5,0,0
37465,-142.857142857143,4,2,0,50,0,0
37729,-142.857142857143,4,2,0,5,0,0
37818,333.333333333333,4,2,0,50,1,0
37818,-142.857142857143,4,2,0,70,0,0
37984,-90.9090909090909,4,2,0,70,0,0
39818,-83.3333333333333,4,2,0,70,0,0
40068,-83.3333333333333,4,2,0,5,0,0
40151,-83.3333333333333,4,2,0,70,0,0
40401,-83.3333333333333,4,2,0,5,0,0
40484,-90.9090909090909,4,2,0,70,0,0
45817,-83.3333333333333,4,2,0,70,0,0
45901,-83.3333333333333,4,2,0,5,0,0
45984,-83.3333333333333,4,2,0,70,0,0
46067,-83.3333333333333,4,2,0,5,0,0
46151,-90.9090909090909,4,2,0,70,0,0
47234,-83.3333333333333,4,2,0,5,0,0
47317,-83.3333333333333,4,2,0,70,0,0
47817,-222.222222222221,4,2,0,70,0,0
48484,-111.111111111111,4,2,0,60,0,0
48817,-111.111111111111,4,2,0,50,0,0
49317,-111.111111111111,4,2,0,50,0,0
49651,-111.111111111111,4,2,0,50,0,0
50817,-100,4,2,0,50,0,0
50984,-90.9090909090909,4,2,0,50,0,0
51151,-111.111111111111,4,2,0,50,0,0
52317,-111.111111111111,4,2,0,50,0,0
52484,-111.111111111111,4,2,0,50,0,0
53817,-111.111111111111,4,2,0,50,0,0
53984,-111.111111111111,4,2,0,50,0,0
54484,-125,4,2,0,50,0,0
55151,-111.111111111111,4,2,0,50,0,0
55984,-83.3333333333333,4,2,0,50,0,0
56151,-111.111111111111,4,2,0,50,0,0
56317,-111.111111111111,4,2,0,50,0,0
57651,-111.111111111111,4,2,0,50,0,0
58151,-111.111111111111,4,2,0,50,0,0
58651,-111.111111111111,4,2,0,50,0,0
59151,-111.111111111111,4,2,0,60,0,0
59484,-100,4,2,0,60,0,0
64484,-100,4,2,0,60,0,0
64651,-100,4,2,0,60,0,0
66817,-181.818181818181,4,2,0,60,0,0
67067,-250,4,2,0,5,0,0
67151,-100,4,2,0,70,0,0
69817,-166.666666666667,4,2,0,60,0,0
70151,-166.666666666667,4,2,0,50,0,0
72484,-100,4,2,0,60,0,0
75151,-166.666666666667,4,2,0,50,0,0
76484,-125,4,2,0,60,0,0
77151,-100,4,2,0,70,0,0
77651,-100,4,2,0,60,0,0
77817,-166.666666666667,4,2,0,50,0,0
79484,-200,4,2,0,50,0,0
80484,-90.9090909090909,4,2,0,75,0,1
81734,-90.9090909090909,4,2,0,5,0,1
81817,-90.9090909090909,4,2,0,75,0,1
82484,-111.111111111111,4,2,0,75,0,1
82817,-90.9090909090909,4,2,0,75,0,1
82901,-90.9090909090909,4,2,0,5,0,1
82984,-90.9090909090909,4,2,0,75,0,1
83067,-90.9090909090909,4,2,0,5,0,1
83151,-83.3333333333333,4,2,0,75,0,1
83651,-90.9090909090909,4,2,0,75,0,1
84234,-90.9090909090909,4,2,0,5,0,1
84317,-90.9090909090909,4,2,0,75,0,1
85151,-90.9090909090909,4,2,0,75,0,1
85317,-90.9090909090909,4,2,0,75,0,1
85817,-90.9090909090909,4,2,0,70,0,0
85984,-90.9090909090909,4,2,0,70,0,0
86151,-90.9090909090909,4,2,0,70,0,0
86317,-90.9090909090909,4,2,0,70,0,0
86484,-90.9090909090909,4,2,0,70,0,0
86651,-90.9090909090909,4,2,0,70,0,0
86817,-90.9090909090909,4,2,0,70,0,0
86984,-90.9090909090909,4,2,0,70,0,0
87151,-90.9090909090909,4,2,0,70,0,0
87234,-90.9090909090909,4,2,0,70,0,0
87484,-90.9090909090909,4,2,0,70,0,0
88151,-125,4,2,0,70,0,0
88317,-125,4,2,0,70,0,0
88484,-83.3333333333333,4,2,0,75,0,0
89151,-83.3333333333333,4,2,0,75,0,0
89317,-83.3333333333333,4,2,0,75,0,0
89817,-90.9090909090909,4,2,0,75,0,0
90484,-90.9090909090909,4,2,0,75,0,0
90651,-90.9090909090909,4,2,0,75,0,0
91151,-90.9090909090909,4,2,0,80,0,1
91317,-83.3333333333333,4,2,0,80,0,1
93651,-133.333333333333,4,2,0,80,0,1
93817,-83.3333333333333,4,2,0,80,0,1
93984,-166.666666666666,4,2,0,80,0,1
94317,-76.9230769230769,4,2,0,80,0,1
94651,-71.4285714285714,4,2,0,80,0,1
94984,-100,4,2,0,85,0,1
95317,-83.3333333333333,4,2,0,80,0,1
96484,-100,4,2,0,75,0,0
96651,-100,4,2,0,75,0,0
96817,-100,4,2,0,75,0,0
96984,-100,4,2,0,75,0,0
97651,-100,4,2,0,75,0,0
97817,-100,4,2,0,75,0,0
98151,-100,4,2,0,75,0,0
98317,-100,4,2,0,75,0,0
99817,-100,4,2,0,77,0,0
100317,-100,4,2,0,79,0,0
100817,-100,4,2,0,82,0,0
101151,-100,4,2,0,84,0,0
101484,-100,4,2,0,86,0,0
101817,-400,4,2,0,70,0,0
103151,-125,4,2,0,50,0,0
103317,-125,4,2,0,50,0,0
108484,-125,4,2,0,50,0,0
108651,-125,4,2,0,50,0,0
112317,-125,4,2,0,50,0,0
112484,-125,4,2,0,50,0,0
113484,-111.111111111111,4,2,0,50,0,0
113817,-76.9230769230769,4,2,0,60,0,0
114817,-333.333333333333,4,2,0,60,0,0
115067,-333.333333333333,4,2,0,5,0,0
115151,-76.9230769230769,4,2,0,60,0,0
115817,-111.111111111111,4,2,0,60,0,0
116484,-76.9230769230769,4,2,0,60,0,0
117484,-333.333333333333,4,2,0,60,0,0
117734,-333.333333333333,4,2,0,5,0,0
117817,-76.9230769230769,4,2,0,60,0,0
118817,-333.333333333333,4,2,0,60,0,0
119067,-333.333333333333,4,2,0,5,0,0
119151,-76.9230769230769,4,2,0,60,0,0
120151,-333.333333333333,4,2,0,60,0,0
120401,-333.333333333333,4,2,0,5,0,0
120484,-76.9230769230769,4,2,0,60,0,0
121317,-142.857142857143,4,2,0,60,0,0
121817,-76.9230769230769,4,2,0,60,0,0
122817,-333.333333333333,4,2,0,60,0,0
123067,-333.333333333333,4,2,0,5,0,0
123151,-66.6666666666667,4,2,0,60,0,0
123817,-66.6666666666667,4,2,0,70,0,0
124151,-100,4,2,0,60,0,0
126984,-100,4,2,0,60,0,0
127151,-100,4,2,0,60,0,0
129651,-100,4,2,0,60,0,0
129817,-100,4,2,0,60,0,0
130734,-100,4,2,0,5,0,0
130817,-100,4,2,0,60,0,0
130901,-100,4,2,0,5,0,0
130984,-100,4,2,0,60,0,0
131234,-100,4,2,0,5,0,0
131317,-100,4,2,0,60,0,0
132151,-200,4,2,0,60,0,0
132317,-200,4,2,0,60,0,0
132484,-100,4,2,0,70,0,0
132651,-100,4,2,0,70,0,0
132817,-100,4,2,0,70,0,0
132984,-100,4,2,0,70,0,0
133484,-100,4,2,0,70,0,0
133651,-100,4,2,0,70,0,0
133817,-100,4,2,0,70,0,0
133984,-100,4,2,0,70,0,0
134317,-100,4,2,0,70,0,0
135484,-100,4,2,0,70,0,0
135651,-100,4,2,0,70,0,0
136151,-100,4,2,0,70,0,0
136484,-100,4,2,0,70,0,0
136651,-100,4,2,0,70,0,0
137817,-100,4,2,0,70,0,0
138151,-100,4,2,0,70,0,0
138317,-100,4,2,0,70,0,0
138817,-100,4,2,0,70,0,0
139151,-100,4,2,0,70,0,0
139317,-100,4,2,0,70,0,0
139734,-100,4,2,0,60,0,0
139817,-100,4,2,0,60,0,0
140151,-200,4,2,0,60,0,0
140484,-100,4,2,0,60,0,0
144151,-83.3333333333333,4,2,0,50,0,0
144484,-83.3333333333333,4,2,0,65,0,0
145151,-83.3333333333333,4,2,0,70,0,0
145484,-83.3333333333333,4,2,0,75,0,0
145817,-83.3333333333333,4,2,0,75,0,1
146151,-83.3333333333333,4,2,0,75,0,1
146317,-83.3333333333333,4,2,0,75,0,1
146484,-83.3333333333333,4,2,0,75,0,1
147151,-83.3333333333333,4,2,0,75,0,1
147317,-83.3333333333333,4,2,0,75,0,1
150817,333.333333333333,4,2,0,75,1,1
150817,-83.3333333333333,4,2,0,75,0,1
151817,-83.3333333333333,4,2,0,75,0,1
152483,-83.3333333333333,4,2,0,75,0,1
153983,-83.3333333333333,4,2,0,75,0,1
154733,-83.3333333333333,4,2,0,5,0,1
154817,-83.3333333333333,4,2,0,70,0,1
155483,-83.3333333333333,4,2,0,75,0,1
155817,-83.3333333333333,4,2,0,80,0,1
156150,-83.3333333333333,4,2,0,75,0,0
156483,-166.666666666667,4,2,0,50,0,0
158817,-100,4,2,0,60,0,0
161483,-166.666666666667,4,2,0,50,0,0
162817,-125,4,2,0,60,0,0
163483,-100,4,2,0,70,0,0
164150,-90.9090909090909,4,2,0,70,0,0
166150,-90.9090909090909,4,2,0,75,0,0
166483,-90.9090909090909,4,2,0,80,0,0
166816,-100,4,2,0,80,0,0
167233,-100,4,2,0,5,0,0
167316,-100,4,2,0,80,0,0
167733,-100,4,2,0,5,0,0
167816,-76.9230769230769,4,2,0,80,0,0
168150,-76.9230769230769,4,2,0,10,0,0
168483,-200,4,2,0,50,0,0
169483,-100,4,2,0,75,0,0
170733,-100,4,2,0,5,0,0
170816,-100,4,2,0,75,0,0
171400,-100,4,2,0,5,0,0
171483,-200.000000000001,4,2,0,75,0,0
172066,-200.000000000001,4,2,0,5,0,0
172150,-83.3333333333333,4,2,0,75,0,1
172650,-90.9090909090909,4,2,0,75,0,1
173233,-90.9090909090909,4,2,0,5,0,1
173316,-90.9090909090909,4,2,0,75,0,1
174150,-90.9090909090909,4,2,0,75,0,1
174316,-90.9090909090909,4,2,0,75,0,1
174816,-90.9090909090909,4,2,0,70,0,0
175150,-90.9090909090909,4,2,0,70,0,0
175316,-90.9090909090909,4,2,0,70,0,0
175650,-90.9090909090909,4,2,0,70,0,0
176150,-90.9090909090909,4,2,0,70,0,0
176483,-90.9090909090909,4,2,0,70,0,0
176650,-90.9090909090909,4,2,0,70,0,0
177316,-90.9090909090909,4,2,0,70,0,0
177483,-83.3333333333333,4,2,0,75,0,0
178150,-83.3333333333333,4,2,0,75,0,0
178316,-83.3333333333333,4,2,0,75,0,0
178816,-90.9090909090909,4,2,0,75,0,0
179483,-90.9090909090909,4,2,0,75,0,0
179650,-90.9090909090909,4,2,0,75,0,0
180150,-90.9090909090909,4,2,0,80,0,1
180316,-83.3333333333333,4,2,0,80,0,1
182983,-166.666666666667,4,2,0,80,0,1
183316,-71.4285714285714,4,2,0,80,0,1
183566,-71.4285714285714,4,2,0,5,0,1
183650,-66.6666666666667,4,2,0,80,0,1
183900,-66.6666666666667,4,2,0,5,0,1
183983,-71.4285714285714,4,2,0,85,0,1
184316,-83.3333333333333,4,2,0,80,0,1
185483,-100,4,2,0,75,0,0
185650,-100,4,2,0,75,0,0
185816,-100,4,2,0,75,0,0
186316,-100,4,2,0,75,0,0
187150,-100,4,2,0,75,0,0
187483,-100,4,2,0,75,0,0
188816,-100,4,2,0,77,0,0
189316,-100,4,2,0,79,0,0
189816,-100,4,2,0,82,0,0
190150,-100,4,2,0,84,0,0
190483,-100,4,2,0,86,0,0
190816,-100,4,2,0,88,0,1
191233,-100,4,2,0,5,0,1
191316,-100,4,2,0,88,0,1
191733,-100,4,2,0,5,0,1
191816,-100,4,2,0,88,0,1
192233,-100,4,2,0,5,0,1
192316,-100,4,2,0,88,0,1
192733,-100,4,2,0,5,0,1
192816,-90.9090909090909,4,2,0,88,0,1
193066,-90.9090909090909,4,2,0,5,0,1
193150,-90.9090909090909,4,2,0,88,0,1
193400,-90.9090909090909,4,2,0,5,0,1
193483,-100,4,2,0,88,0,1
193900,-90.9090909090909,4,2,0,5,0,1
193983,-100,4,2,0,88,0,1
194400,-90.9090909090909,4,2,0,5,0,1
194483,-100,4,2,0,88,0,1
194900,-90.9090909090909,4,2,0,5,0,1
194983,-100,4,2,0,88,0,1
195400,-90.9090909090909,4,2,0,5,0,1
195483,-90.9090909090909,4,2,0,88,0,1
195733,-90.9090909090909,4,2,0,5,0,1
195816,-90.9090909090909,4,2,0,88,0,1
196066,-90.9090909090909,4,2,0,5,0,1
196150,-90.9090909090909,4,2,0,75,0,1
200816,-166.666666666667,4,2,0,75,0,1
201400,-166.666666666667,4,2,0,5,0,1
201483,-83.3333333333334,4,2,0,75,0,0
201816,-83.3333333333334,4,2,0,75,0,0
202816,-83.3333333333334,4,2,0,75,0,0
202983,-83.3333333333334,4,2,0,75,0,0
204066,-83.3333333333334,4,2,0,5,0,0
204150,-83.3333333333334,4,2,0,75,0,0
204483,-83.3333333333334,4,2,0,75,0,0
205483,-83.3333333333334,4,2,0,75,0,0
205650,-83.3333333333334,4,2,0,75,0,0
206816,-83.3333333333334,4,2,0,70,0,0
207150,-83.3333333333334,4,2,0,70,0,0
207316,-83.3333333333334,4,2,0,70,0,0
208483,-83.3333333333334,4,2,0,70,0,0
208816,-83.3333333333334,4,2,0,70,0,0
209483,-76.9230769230769,4,2,0,70,0,0
209733,-76.9230769230769,4,2,0,5,0,0
209816,-76.9230769230769,4,2,0,70,0,0
210483,-83.3333333333333,4,2,0,70,0,0
210816,-83.3333333333333,4,2,0,75,0,0
211483,-83.3333333333333,4,2,0,80,0,0
212150,-83.3333333333333,4,2,0,20,0,0

[Colours]
Combo1 : 124,234,239
Combo2 : 219,180,254
Combo3 : 153,210,249
Combo4 : 168,170,247

[HitObjects]
62,53,1817,5,0,1:0:0:0:
140,64,1994,1,0,0:0:0:0:
209,57,2170,1,0,0:0:0:0:
279,71,2347,1,2,0:0:0:0:
470,227,3229,5,2,0:1:0:0:
405,198,3406,1,0,0:0:0:0:
339,192,3582,1,0,0:0:0:0:
267,223,3759,1,2,0:0:0:0:
68,311,4641,5,2,0:1:0:0:
117,261,4817,1,0,0:0:0:0:
58,219,4994,1,0,0:0:0:0:
3,275,5170,1,2,0:0:0:0:
263,361,6053,5,2,0:1:0:0:
306,324,6229,1,0,0:0:0:0:
379,309,6406,1,0,0:0:0:0:
451,333,6582,1,2,0:0:0:0:
431,166,7465,5,2,0:1:0:0:
415,94,7641,1,0,0:0:0:0:
397,23,7817,1,0,0:0:0:0:
498,71,7994,1,2,0:0:0:0:
249,56,8876,5,2,0:1:0:0:
172,40,9053,1,0,0:0:0:0:
186,116,9229,1,0,0:0:0:0:
66,171,9406,1,2,0:0:0:0:
102,307,10288,5,2,0:1:0:0:
207,238,10465,1,0,0:0:0:0:
281,229,10641,1,0,0:0:0:0:
324,246,10817,1,2,0:0:0:0:
500,116,11700,5,2,0:1:0:0:
381,72,11876,1,0,0:0:0:0:
312,38,12053,1,0,0:0:0:0:
288,0,12229,1,2,0:0:0:0:
298,0,12406,6,0,P|170:57|103:28,1,208.249993644715,0|0,1:0|0:0,0:0:0:0:
130,122,13112,5,0,1:0:0:0:
37,73,13288,2,0,P|89:74|132:138,1,118.999996368408,2|0,1:2|1:0,0:0:0:0:
209,287,13817,5,8,1:0:0:0:
209,287,14170,1,0,1:0:0:0:
300,317,14347,6,0,L|378:330,1,59.4999981842042
426,296,14700,1,2,0:0:0:0:
277,244,14876,2,0,L|394:225,1,118.999996368408,0|8,1:0|1:0,0:0:0:0:
420,253,15759,6,0,L|412:203,1,29.7499990921021,2|0,0:1|0:0,0:0:0:0:
363,107,15935,5,0,1:0:0:0:
363,107,16288,1,2,0:0:0:0:
387,38,16465,1,0,1:0:0:0:
300,3,16641,2,0,P|286:29|289:123,1,118.999996368408,8|0,1:0|1:0,0:0:0:0:
191,217,17170,1,0,0:0:0:0:
258,257,17347,6,0,P|276:229|193:129,1,178.499994552612,2|2,1:2|0:0,0:0:0:0:
101,175,18053,1,8,1:0:0:0:
133,101,18406,2,0,P|102:129|102:177,1,89.2499972763062,2|0,0:0|0:0,0:0:0:0:
139,257,18759,6,0,L|124:329,1,59.4999981842042,0|0,1:0|1:0,1:0:0:0:
126,315,19112,1,0,0:0:0:0:
232,239,19288,1,2,1:2:0:0:
245,357,19465,6,0,L|230:227,1,118.999996368408,8|0,1:0|1:0,0:0:0:0:
308,260,19994,2,0,B|364:277|364:277|346:345,1,118.999996368408,0|2,0:0|0:0,0:0:0:0:
442,202,20523,2,0,L|457:284,1,59.4999981842042,0|0,1:0|0:0,0:0:0:0:
452,260,20876,1,8,1:0:0:0:
325,57,21582,5,0,1:0:0:0:
325,57,21759,1,0,1:0:0:0:
430,195,22112,2,0,P|426:148|444:77,1,118.999996368408,8|0,1:0|1:0,0:0:0:0:
443,78,22641,2,0,L|314:55,1,118.999996368408,0|2,0:0|1:2,0:0:0:0:
257,111,23170,5,0,1:0:0:0:
224,95,23347,1,0,2:0:0:0:
179,31,23523,5,0,1:0:0:0:
258,10,23700,1,8,1:0:0:0:
151,70,23876,5,0,1:0:0:0:
55,46,24053,1,8,1:0:0:0:
0,256,24406,6,0,B|-17:287|-17:287|62:268,1,101.999996887207,2|0,0:0|0:0,0:0:0:0:
93,338,24935,1,2,0:0:0:0:
96,341,25112,1,2,0:0:0:0:
291,284,25641,1,2,0:0:0:0:
294,288,25817,2,0,B|256:301|256:301|330:316,1,101.999996887207
499,181,27229,5,2,0:0:0:0:
370,121,27582,1,0,0:0:0:0:
373,124,27759,1,0,0:0:0:0:
430,75,27935,2,0,P|339:44|280:65,1,152.999995330811,2|0,0:0|0:0,0:0:0:0:
221,127,28641,5,2,0:0:0:0:
112,153,28994,1,2,0:0:0:0:
28,165,30053,5,2,0:0:0:0:
173,113,30406,2,0,P|210:138|184:198,1,101.999996887207
199,188,31112,1,0,0:0:0:0:
361,343,31465,5,2,0:0:0:0:
223,273,31817,2,0,P|214:226|270:194,1,101.999996887207
251,193,32523,1,0,0:0:0:0:
223,273,32876,6,0,B|157:347|40:359|-16:237|50:198|113:236|97:285,1,305.999990661621,2|2,0:0|0:0,0:0:0:0:
171,333,34112,6,0,B|213:325|255:365|255:365|202:278|254:226|305:219|348:256|347:308|309:316,1,340
259,374,35700,1,2,0:0:0:0:
402,255,37112,6,0,P|441:273|502:280,1,89.2499972763062,0|0,1:0|0:0,0:0:0:0:
486,280,37465,2,0,P|442:287|399:314,1,89.2499972763062,0|0,1:0|0:0,0:0:0:0:
309,379,37818,6,0,L|303:319,1,59.4999981842042,6|0,1:2|0:0,0:0:0:0:
281,297,38068,1,0,1:0:0:0:
258,298,38151,1,0,1:0:0:0:
236,290,38234,1,0,1:0:0:0:
191,304,38318,1,2,1:2:0:0:
138,196,38484,6,0,B|222:180|200:231|290:213,1,140.25000428009,4|0,1:2|0:0,0:0:0:0:
366,180,38818,1,8,1:0:0:0:
254,127,38984,6,0,B|261:68|283:19|283:19|276:19|276:19|248:48|205:64,1,187.000005706787,2|0,1:2|1:0,0:0:0:0:
98,123,39484,1,8,1:0:0:0:
4,76,39651,1,0,1:0:0:0:
7,98,39734,1,0,1:0:0:0:
11,120,39818,1,2,0:0:0:0:
70,204,39984,1,0,1:0:0:0:
178,148,40151,2,0,P|212:197|162:161,1,152.999995330811,8|0,1:0|0:0,0:0:0:0:
224,162,40484,6,0,L|330:172,1,93.5000028533936,6|0,1:2|0:0,0:0:0:0:
383,136,40734,1,0,1:0:0:0:
401,141,40818,1,0,1:0:0:0:
232,9,40984,2,0,P|272:86|352:48,1,187.000005706787,8|0,1:0|1:0,0:0:0:0:
325,236,41484,5,8,1:0:0:0:
407,137,41651,2,0,P|369:109|312:117,1,93.5000028533936,0|2,0:0|1:2,0:0:0:0:
183,182,41984,6,0,L|121:201,2,46.7500014266968,0|0|0,1:0|1:0|1:0,1:0:0:0:
336,314,42317,1,8,1:0:0:0:
254,146,42484,6,0,B|225:184|225:184|245:225,1,93.5000028533936,2|0,1:3|1:0,0:0:0:0:
70,354,42817,1,0,3:0:0:0:
106,311,42901,1,0,3:0:0:0:
151,294,42984,1,0,3:0:0:0:
195,299,43067,1,0,3:0:0:0:
215,318,43151,5,4,1:2:0:0:
329,373,43317,1,0,1:0:0:0:
414,260,43484,1,12,1:0:0:0:
483,352,43651,6,0,B|423:335|423:335|455:373,1,93.5000028533936,2|0,0:0|1:0,0:0:0:0:
313,287,43984,1,0,0:0:0:0:
493,241,44151,6,0,P|449:231|410:271,1,93.5000028533936,8|0,1:0|0:0,0:0:0:0:
247,355,44484,5,6,1:2:0:0:
225,263,44651,1,0,1:0:0:0:
75,231,44817,5,8,1:0:0:0:
162,318,44984,2,0,P|136:318|109:305,2,46.7500014266968,0|0|0,1:0|1:0|1:0,1:0:0:0:
47,383,45317,1,2,1:2:0:0:
163,147,45484,6,0,P|154:178|156:243,1,93.5000028533936,10|0,1:0|0:0,0:0:0:0:
360,368,45817,6,0,P|375:351|362:321,1,50.9999984436036,4|0,1:0|0:0,0:0:0:0:
357,318,45984,2,0,P|335:331|338:365,1,50.9999984436036,2|0,1:2|0:0,0:0:0:0:
452,296,46151,5,8,1:0:0:0:
347,239,46317,1,0,1:0:0:0:
319,241,46401,1,0,1:0:0:0:
299,255,46484,1,0,3:0:0:0:
242,328,46651,6,0,P|133:345|96:279,1,187.000005706787,2|8,0:3|1:0,0:0:0:0:
97,291,47151,2,0,P|97:269|124:248,1,46.7500014266968,2|0,0:1|0:0,0:0:0:0:
12,138,47317,6,0,L|112:159,1,101.999996887207,2|8,1:2|1:0,0:0:0:0:
227,323,47651,1,0,1:0:0:0:
229,327,47734,1,0,1:0:0:0:
230,331,47817,1,2,3:0:0:0:
129,371,47984,6,0,L|81:381,1,38.2499988327027,0|0,3:0|3:0,3:0:0:0:
448,205,48484,5,6,0:0:0:0:
301,35,48817,2,0,L|388:52,1,76.4999976654053,0|0,1:0|0:0,0:0:0:0:
399,66,49067,2,2,L|407:123,1,38.2499988327027,2|2,0:3|0:3,0:3:0:0:
320,178,49317,1,2,0:0:0:0:
320,178,49401,2,0,L|307:292,1,114.749996498108,0|0,1:0|3:0,0:0:0:0:
406,347,49817,5,0,3:0:0:0:
321,377,49984,1,0,3:0:0:0:
234,303,50151,1,0,1:0:0:0:
113,345,50317,1,2,0:3:0:0:
113,345,50401,2,0,L|-3:365,1,114.749996498108,0|4,1:0|1:0,0:0:0:0:
0,364,50817,6,0,B|10:347|10:347|7:310,1,42.5,2|0,0:1|0:0,0:0:0:0:
40,256,50984,2,0,B|52:235|52:235|44:196,1,46.7500014266968,2|0,0:1|0:0,0:0:0:0:
32,177,51151,5,0,3:0:0:0:
120,152,51317,1,0,3:0:0:0:
207,164,51484,1,0,1:0:0:0:
300,126,51651,1,2,0:0:0:0:
291,115,51734,1,2,0:3:0:0:
476,49,52317,6,0,L|485:115,1,38.2499988327027,8|0,1:0|1:0,0:0:0:0:
476,49,52484,6,0,P|440:62|376:58,1,76.4999976654053,0|0,1:0|1:0,1:0:0:0:
298,14,52817,1,0,0:3:0:0:
260,4,52901,1,2,0:3:0:0:
219,11,52984,1,2,0:2:0:0:
196,3,53067,1,2,0:3:0:0:
10,51,53317,5,4,3:2:0:0:
10,51,53484,2,0,B|64:65|64:65|-6:98,1,114.749996498108,2|2,1:0|0:1,0:0:0:0:
106,141,53817,6,0,L|267:160,1,152.999995330811,6|0,1:2|1:0,0:0:0:0:
361,246,54317,1,2,0:3:0:0:
361,246,54401,2,0,L|455:230,1,76.4999976654053,0|2,1:0|0:0,0:0:0:0:
490,289,54651,2,0,P|494:341|462:294,1,136,2|8,0:0|1:0,0:0:0:0:
361,246,55151,5,0,3:0:0:0:
334,360,55317,1,0,3:0:0:0:
270,266,55484,5,2,1:0:0:0:
270,266,55567,1,2,0:0:0:0:
270,266,55651,2,2,L|276:322,1,38.2499988327027,2|2,0:3|0:3,0:3:0:0:
0,218,55984,5,2,1:0:0:0:
0,218,56151,2,0,B|14:253|53:250|53:250|34:225|25:193,1,114.749996498108,8|0,1:0|1:0,0:0:0:0:
2,127,56484,5,0,3:0:0:0:
107,175,56651,1,0,3:0:0:0:
190,89,56817,2,0,L|177:31,1,38.2499988327027,0|2,1:0|0:0,0:0:0:0:
111,33,56984,1,2,0:3:0:0:
95,40,57067,1,2,0:3:0:0:
244,334,57651,1,8,1:0:0:0:
252,158,57817,6,0,L|240:242,1,76.4999976654053,0|0,1:0|1:0,1:0:0:0:
242,234,58151,2,2,L|195:253,2,38.2499988327027,2|2|2,1:2|1:2|1:2,1:2:0:0:
341,172,58484,1,2,0:3:0:0:
451,254,58651,5,0,3:0:0:0:
451,254,58734,1,0,3:0:0:0:
429,231,58817,1,0,1:0:0:0:
380,240,58901,1,0,1:0:0:0:
356,286,58984,1,0,1:0:0:0:
382,324,59067,1,0,1:0:0:0:
425,331,59151,6,0,B|356:304|356:304|272:366,1,152.999995330811,6|4,1:2|3:0,0:0:0:0:
209,311,59651,1,2,0:0:0:0:
302,236,59817,2,0,L|162:216,1,127.5,0|0,1:0|0:0,0:0:0:0:
175,217,60151,1,8,1:0:0:0:
78,127,60317,6,0,B|58:147|58:147|71:214,1,85,4|2,0:0|1:0,0:0:0:0:
0,341,60651,1,0,1:0:0:0:
132,307,60817,5,8,1:0:0:0:
223,380,60984,1,0,0:0:0:0:
304,285,61151,2,0,P|364:299|364:234,1,127.5,2|0,1:2|0:0,0:0:0:0:
305,210,61484,2,0,P|277:237|295:294,1,85,8|0,1:0|0:0,0:0:0:0:
197,376,61817,6,0,P|182:298|97:295,1,170,6|0,1:0|1:0,0:0:0:0:
0,192,62317,1,2,1:2:0:0:
123,260,62484,2,0,P|162:234|139:149,1,127.5,2|0,1:0|0:0,0:0:0:0:
154,160,62817,1,8,1:0:0:0:
306,96,62984,1,2,0:0:0:0:
306,96,63067,1,2,0:0:0:0:
306,96,63151,1,0,3:0:0:0:
201,92,63317,5,2,0:3:0:0:
271,254,63484,2,0,B|280:211|280:211|246:241,1,85,0|2,1:0|0:1,0:0:0:0:
387,161,63817,2,0,P|456:177|481:92,1,170,2|0,1:2|1:0,0:0:0:0:
484,97,64317,2,0,L|406:82,1,42.5,2|0,0:1|0:0,0:0:0:0:
278,82,64484,5,0,3:0:0:0:
362,143,64651,1,0,3:0:0:0:
201,106,64817,2,0,B|124:86|155:157|44:122,1,127.5,8|0,1:0|0:0,0:0:0:0:
8,108,65151,1,0,1:0:0:0:
96,257,65317,1,0,1:0:0:0:
96,257,65401,1,0,1:0:0:0:
96,257,65484,2,0,B|64:282|64:282|2:261,1,85,8|0,1:0|0:0,0:0:0:0:
173,147,65817,6,0,L|305:160,1,127.5,6|0,1:2|0:0,0:0:0:0:
333,174,66151,2,0,B|341:183|341:183|252:199,1,85,8|0,1:0|0:0,0:0:0:0:
212,245,66484,1,0,1:0:0:0:
337,305,66651,1,0,3:0:0:0:
127,353,66817,6,0,P|155:335|207:339,1,70.1250021400452,8|0,1:0|0:0,0:0:0:0:
261,361,67151,6,0,P|223:338|166:348,1,85,14|0,1:0|3:0,0:0:0:0:
42,384,67484,1,0,1:0:0:0:
0,206,67651,6,0,P|56:248|79:159,1,170,6|0,1:2|0:0,0:0:0:0:
43,52,68151,2,0,L|32:146,1,85,12|0,1:0|3:0,0:0:0:0:
33,136,68401,1,0,1:0:0:0:
33,136,68484,1,0,1:0:0:0:
236,211,68651,6,0,B|260:197|260:197|421:216,1,170,4|8,1:0|1:0,0:0:0:0:
431,290,69151,5,10,3:0:0:0:
500,273,69262,2,0,P|481:290|431:285,1,56.6666666666667,0|0,3:0|3:0,3:0:0:0:
316,201,69484,1,8,3:0:0:0:
380,162,69595,2,0,P|396:189|398:239,1,56.6666666666667,0|0,3:0|3:0,3:0:0:0:
345,318,69817,1,4,0:0:0:0:
251,302,72151,6,0,B|241:338|241:338|247:347|247:347|257:308,1,76.4999976654053,2|0,0:0|0:0,0:0:0:0:
359,290,72484,6,0,B|430:306|430:306|413:284,1,85,6|0,1:0|3:0,0:0:0:0:
152,98,72984,2,0,B|81:114|81:114|98:92,1,85,0|0,3:0|0:0,0:0:0:0:
123,209,73317,1,0,3:0:0:0:
0,177,73484,5,8,1:0:0:0:
0,177,73651,2,0,P|51:146|121:233,1,170,0|0,3:3|3:0,0:0:0:0:
150,284,74151,1,2,0:0:0:0:
278,234,74317,1,8,1:0:0:0:
307,230,74401,1,8,1:0:0:0:
340,226,74484,1,0,3:0:0:0:
440,300,74651,1,0,3:0:0:0:
357,344,74817,2,0,B|314:353|314:353|270:312,1,85,8|8,1:0|3:0,0:0:0:0:
343,255,75151,6,0,B|285:218|168:255|248:312|119:366|57:304,1,305.999990661621,4|2,0:0|0:3,0:0:0:0:
43,314,76484,6,0,P|85:333|47:301,1,136,2|0,0:1|0:0,0:0:0:0:
335,190,77151,6,0,P|355:147|322:187,1,127.5,2|0,0:1|0:0,0:0:0:0:
358,264,77484,6,0,B|463:288|463:288|425:298,1,127.5
443,293,77817,1,2,0:0:0:0:
242,116,79484,6,0,B|244:68|214:80|222:24,2,85,2|2|2,0:0|0:0|0:0,0:0:0:0:
324,168,80484,6,0,B|241:115|241:115|222:227,1,187.000005706787,6|0,1:0|1:0,0:0:0:0:
202,169,80984,1,0,0:0:0:0:
110,155,81151,6,0,L|210:171,1,93.5000028533936,2|0,1:2|0:0,0:0:0:0:
104,295,81484,2,0,P|50:316|91:275,1,140.25000428009,0|0,1:0|0:0,0:0:0:0:
191,294,81817,6,0,L|302:310,1,93.5000028533936,2|0,1:0|0:0,0:0:0:0:
512,180,82151,2,0,B|492:130|492:130|473:219,1,140.25000428009,2|0,1:2|0:0,0:0:0:0:
473,214,82484,1,0,1:0:0:0:
390,123,82651,1,0,0:0:0:0:
339,250,82817,6,0,B|287:293|287:293|266:220,1,140.25000428009,8|0,3:0|0:0,0:0:0:0:
186,155,83151,6,0,L|171:261,1,101.999996887207,4|0,1:0|0:0,0:0:0:0:
182,273,83401,2,0,L|172:330,1,50.9999984436036,0|8,1:0|1:0,0:0:0:0:
306,237,83651,2,0,B|323:186|320:123|320:123|347:154|387:167,1,187.000005706787,2|0,1:2|1:0,0:0:0:0:
480,234,84151,1,8,1:0:0:0:
455,119,84317,6,0,P|408:113|363:146,1,93.5000028533936,0|2,3:0|0:0,0:0:0:0:
226,237,84651,1,0,1:0:0:0:
231,261,84734,1,0,1:0:0:0:
236,284,84817,1,8,1:0:0:0:
179,359,84984,6,0,B|188:329|210:309|210:309|138:343|71:330,1,187.000005706787,0|2,3:0|1:2,0:0:0:0:
60,302,85401,1,0,1:0:0:0:
44,272,85484,2,0,L|34:207,1,46.7500014266968,0|0,1:0|1:0,1:0:0:0:
48,190,85651,2,0,L|37:137,1,46.7500014266968,0|0,1:0|1:0,1:0:0:0:
20,118,85817,5,2,1:2:0:0:
109,89,85984,1,0,0:0:0:0:
179,143,86151,1,2,1:2:0:0:
266,121,86317,1,0,0:0:0:0:
375,232,86484,5,2,1:2:0:0:
291,205,86651,1,0,0:0:0:0:
371,122,86817,5,2,1:2:0:0:
467,184,86984,1,0,0:0:0:0:
422,299,87151,6,0,B|367:258|367:258|295:279,1,140.25000428009,0|0,1:0|0:0,0:0:0:0:
284,286,87484,1,8,1:0:0:0:
165,371,87651,1,2,0:0:0:0:
187,293,87817,5,0,3:0:0:0:
187,293,87901,1,0,3:0:0:0:
187,293,87984,2,0,L|173:350,1,46.7500014266968,2|0,1:2|1:0,1:0:0:0:
92,277,88151,6,0,L|98:317,1,34,2|0,1:2|1:0,1:0:0:0:
33,347,88317,2,0,L|44:305,1,34,2|0,1:2|1:0,1:0:0:0:
1,198,88484,6,0,B|25:191|49:169|49:169|96:161|148:212,1,152.999995330811,6|0,1:0|3:0,0:0:0:0:
149,217,88817,1,8,1:0:0:0:
254,157,88984,1,0,3:0:0:0:
347,263,89151,2,0,B|385:331|385:331|452:270,1,152.999995330811,2|0,1:2|0:0,0:0:0:0:
496,224,89484,5,12,1:0:0:0:
358,136,89651,2,0,B|294:153|294:153|351:172,1,101.999996887207,2|0,1:2|3:0,0:0:0:0:
50,274,90067,5,0,3:0:0:0:
50,274,90151,2,0,B|23:236|23:236|72:203|135:222|140:304,1,187.000005706787,8|2,1:0|0:1,0:0:0:0:
13,351,90651,1,0,3:0:0:0:
184,337,90817,5,8,0:0:0:0:
229,344,90901,1,8,0:0:0:0:
276,339,90984,5,8,0:0:0:0:
302,343,91067,1,8,0:0:0:0:
373,321,91151,6,0,B|351:306|351:306|276:315,1,93.5000028533936,6|0,1:0|0:0,0:0:0:0:
200,230,91401,1,0,1:0:0:0:
212,235,91484,2,0,L|269:242,1,50.9999984436036,0|0,1:0|1:0,1:0:0:0:
416,230,91651,5,6,1:0:0:0:
315,136,91817,1,0,3:0:0:0:
315,136,91901,1,0,3:0:0:0:
315,136,91984,2,0,L|325:197,1,50.9999984436036,0|0,3:0|3:0,3:0:0:0:
252,319,92151,5,6,1:0:0:0:
416,230,92317,2,0,P|396:217|349:225,1,50.9999984436036,0|0,1:0|1:0,1:0:0:0:
291,164,92484,6,0,L|162:184,1,101.999996887207,6|0,1:0|0:0,0:0:0:0:
175,177,92734,1,2,1:2:0:0:
149,183,92817,1,2,1:2:0:0:
117,178,92901,1,2,1:2:0:0:
68,193,92984,1,6,1:0:0:0:
34,45,93151,5,2,1:0:0:0:
70,30,93234,1,0,1:0:0:0:
106,20,93317,2,0,P|132:24|159:50,1,50.9999984436036,0|0,1:0|1:0,1:0:0:0:
243,113,93484,5,0,3:0:0:0:
243,113,93567,1,0,3:0:0:0:
243,113,93651,2,0,L|235:149,1,31.8750012159348,0|0,3:0|3:0,3:0:0:0:
289,218,93817,5,6,1:0:0:0:
138,314,93984,2,0,P|165:302|191:281,1,50.9999984436036,4|0,3:2|0:0,0:0:0:0:
326,134,94317,6,0,P|283:166|294:224,1,110.499994941712,6|0,1:0|0:0,0:0:0:0:
470,374,94651,6,0,P|475:306|431:362,1,178.499994552612,6|0,1:0|0:0,0:0:0:0:
329,308,94984,6,0,B|298:286|257:300|257:300|222:348|167:347,1,170,6|0,1:2|3:0,0:0:0:0:
44,220,95484,2,0,L|173:244,1,101.999996887207,8|0,1:0|0:0,0:0:0:0:
303,322,95817,6,0,P|303:354|267:391,2,67.9999979248048,0|0|8,3:0|3:0|3:0,3:0:0:0:
214,183,96151,2,0,P|247:183|274:203,2,67.9999979248048,0|0|8,3:0|3:0|3:0,3:0:0:0:
178,270,96484,5,2,0:0:0:0:
178,270,96567,1,2,0:0:0:0:
178,270,96651,2,2,L|248:262,1,42.5
355,236,96817,5,2,0:1:0:0:
271,345,96984,1,0,0:0:0:0:
355,236,97151,2,0,L|342:143,1,85,0|2,1:0|0:3,0:0:0:0:
479,260,97484,1,0,1:0:0:0:
450,173,97651,6,0,B|366:157|366:157|409:65,1,170,2|0,1:2|1:0,0:0:0:0:
401,80,98067,1,0,1:0:0:0:
401,80,98151,2,0,L|303:92,1,85,2|0,3:2|0:0,0:0:0:0:
147,170,98484,2,0,L|78:181,1,42.5,0|0,3:0|0:0,0:0:0:0:
65,153,98651,5,0,3:0:0:0:
110,138,98734,1,0,3:0:0:0:
159,154,98817,1,0,3:0:0:0:
184,187,98901,1,0,3:0:0:0:
211,213,98984,1,0,3:0:0:0:
243,219,99067,1,0,3:0:0:0:
270,208,99151,1,6,1:0:0:0:
375,152,99317,5,2,1:0:0:0:
375,152,99401,1,0,1:0:0:0:
375,152,99484,2,0,P|397:156|439:176,1,42.5,0|0,1:0|1:0,1:0:0:0:
512,234,99651,1,6,1:0:0:0:
384,261,99817,5,0,3:0:0:0:
384,261,99901,2,0,P|344:270|272:277,1,85,2|0,1:0|0:0,0:0:0:0:
265,345,100151,2,0,P|249:330|237:312,1,42.5,8|0,1:0|0:0,0:0:0:0:
257,210,100317,2,0,P|238:221|223:236,1,42.5,0|0,3:0|3:0,3:0:0:0:
160,298,100484,5,6,1:2:0:0:
323,255,100651,1,0,3:0:0:0:
247,129,100817,6,0,P|284:130|324:167,1,85,8|0,1:0|1:0,0:0:0:0:
347,165,101067,1,0,3:0:0:0:
382,184,101151,1,0,3:0:0:0:
425,180,101234,1,0,3:0:0:0:
466,152,101317,1,0,3:0:0:0:
500,154,101401,1,0,3:0:0:0:
500,154,101484,2,0,L|491:220,1,42.5,8|0,1:0|1:0,1:0:0:0:
479,246,101651,2,0,L|473:300,1,42.5,2|0,1:0|1:0,1:0:0:0:
496,382,101817,6,0,P|429:359|352:367,1,148.75,2|0,1:2|0:0,0:0:0:0:
237,326,103151,5,6,0:0:0:0:
314,258,103317,1,0,3:0:0:0:
228,221,103484,2,0,L|211:292,1,68,8|0,1:0|0:0,0:0:0:0:
146,314,103734,1,0,1:0:0:0:
150,329,103817,1,2,1:3:0:0:
139,117,104317,6,0,L|62:104,1,68,2|0,3:1|3:0,3:0:0:0:
2,170,104651,1,0,3:0:0:0:
89,272,104817,1,8,1:0:0:0:
139,264,104901,1,0,0:0:0:0:
178,272,104984,1,0,1:0:0:0:
201,268,105067,1,0,1:0:0:0:
388,232,105817,5,0,3:0:0:0:
295,172,105984,1,0,3:0:0:0:
374,125,106151,1,2,3:0:0:0:
374,125,106234,1,2,3:0:0:0:
374,125,106317,2,2,L|380:177,1,34,2|2,1:3|1:3,1:3:0:0:
202,368,107151,5,0,3:0:0:0:
299,301,107317,1,0,3:0:0:0:
397,355,107484,2,2,L|413:314,1,34,2|2,3:0|3:0,3:0:0:0:
473,282,107651,1,2,1:3:0:0:
494,291,107734,1,2,1:3:0:0:
325,211,107984,6,0,L|238:225,1,68,4|2,1:2|3:0,0:0:0:0:
257,221,108234,2,0,L|169:211,1,68,2|2,0:0|1:3,0:0:0:0:
104,262,108484,6,0,P|110:203|59:127,1,136,6|0,1:2|1:0,0:0:0:0:
18,45,108984,1,2,1:3:0:0:
18,45,109067,1,2,1:3:0:0:
220,3,109817,6,0,B|251:18|251:18|209:13,1,68,0|0,3:0|3:0,3:0:0:0:
141,69,110151,1,2,1:0:0:0:
226,114,110317,1,2,1:3:0:0:
251,124,110401,1,2,1:3:0:0:
496,45,111151,6,0,B|408:27|408:27|436:41,1,102,2|0,1:2|0:0,0:0:0:0:
431,108,111484,2,2,L|423:156,2,34,2|2|2,1:3|1:3|1:3,1:3:0:0:
403,117,111734,1,4,0:0:0:0:
217,322,112317,6,0,L|156:313,1,34,8|0,1:0|0:0,0:0:0:0:
217,322,112484,6,0,B|206:252|206:252|288:268,1,136,0|2,3:0|1:3,0:0:0:0:
356,214,112984,1,2,1:3:0:0:
362,244,113067,1,2,1:3:0:0:
217,172,113317,6,0,P|183:174|151:187,1,68,6|8,0:0|1:0,0:0:0:0:
121,223,113567,1,0,3:0:0:0:
72,238,113651,1,0,3:0:0:0:
45,233,113734,1,8,3:0:0:0:
30,217,113817,1,8,3:0:0:0:
262,266,114484,6,0,P|236:186|285:247,1,220.999989883423,10|0,0:0|3:0,0:0:0:0:
239,363,114984,1,2,0:0:0:0:
69,212,115151,6,0,P|253:261|209:395,1,331.499984825135,0|0,1:0|0:0,0:0:0:0:
204,358,115734,1,0,0:0:0:0:
172,344,115817,1,8,0:0:0:0:
281,257,115984,5,2,1:2:0:0:
347,245,116151,1,2,1:2:0:0:
421,232,116317,1,2,1:2:0:0:
414,371,116484,6,0,B|429:326|491:313|491:313|360:348|323:256|394:183|438:250,1,331.499984825135,8|0,3:0|0:0,0:0:0:0:
512,308,117151,1,8,0:0:0:0:
512,308,117484,1,8,3:0:0:0:
328,164,117817,6,0,B|383:178|420:232|420:232|400:191|406:160|406:160|495:148|532:38|446:-25|364:24|396:88,1,441.999979766847,2|8,0:0|0:0,0:0:0:0:
200,125,118817,5,0,3:0:0:0:
420,232,119151,6,0,B|400:185|306:158|250:194|250:194|199:126|199:126|216:184|204:253|148:273,1,441.999979766847,0|8,1:0|0:0,0:0:0:0:
199,126,120151,1,0,3:0:0:0:
54,305,120484,6,0,B|17:228|17:228|105:180|105:180|139:244|139:244|233:198|233:198|191:109,1,441.999979766847,0|8,1:0|0:0,0:0:0:0:
84,11,121317,2,0,B|32:16|32:16|112:37,1,118.999996368408,2|0,0:3|0:0,0:0:0:0:
0,116,121817,6,0,B|46:108|90:63|90:63|66:153|66:153|156:112|156:112|86:185|104:262,1,441.999979766847,0|8,1:0|0:0,0:0:0:0:
363,309,122817,2,0,L|411:304,1,38.2499988327027,0|0,3:0|0:0,0:0:0:0:
468,318,123151,6,0,P|332:315|469:300,1,382.500014591218,0|0,1:0|0:0,0:0:0:0:
401,305,123817,1,8,0:0:0:0:
118,319,124151,6,0,B|117:345|117:345|129:385,1,42.5,2|0,0:3|0:0,0:0:0:0:
118,319,124317,2,0,B|120:295|120:295|127:270,1,42.5
119,165,124484,6,0,B|111:100|111:100|214:135,1,170,6|8,1:2|1:0,0:0:0:0:
325,188,124984,1,0,0:0:0:0:
220,256,125151,2,0,L|207:351,1,85,0|0,1:0|1:0,0:0:0:0:
370,366,125484,5,8,1:0:0:0:
325,188,125651,2,0,B|309:227|309:227|323:274,1,85,2|2,0:0|1:0,0:0:0:0:
414,228,125984,2,0,L|429:163,2,42.5,0|0|8,1:0|1:0|1:0,1:0:0:0:
286,358,126317,1,2,0:0:0:0:
227,244,126484,2,0,B|189:254|154:281|154:281|122:238|88:212,1,170,0|8,1:0|1:0,0:0:0:0:
19,90,126984,5,2,0:0:0:0:
22,87,127067,1,2,0:0:0:0:
25,85,127151,2,0,P|66:85|101:118,1,85,2|0,1:0|3:0,0:0:0:0:
263,17,127484,2,0,B|250:6|250:6|165:19,1,85,8|0,1:0|0:0,0:0:0:0:
287,89,127817,2,0,P|284:150|224:130,1,127.5,2|0,1:2|0:0,0:0:0:0:
223,134,128151,1,8,1:0:0:0:
309,176,128317,6,0,P|384:151|443:245,1,170,4|2,1:2|0:0,0:0:0:0:
346,351,128817,2,0,P|386:347|421:318,1,85,8|0,1:0|0:0,0:0:0:0:
295,165,129151,2,0,P|263:193|261:239,1,85,0|0,1:0|1:0,0:0:0:0:
151,384,129484,1,8,1:0:0:0:
151,384,129651,2,0,P|162:365|167:335,1,42.5,6|0,0:0|0:0,0:0:0:0:
232,209,129817,5,0,3:0:0:0:
126,267,129984,2,0,P|177:334|251:307,1,170,0|8,3:0|1:0,0:0:0:0:
425,57,130651,5,8,1:0:0:0:
355,43,130817,1,0,3:0:0:0:
309,100,130984,1,0,3:0:0:0:
421,154,131151,1,2,0:0:0:0:
239,164,131317,6,0,B|231:186|231:186|307:176,1,85,8|2,1:0|0:3,0:0:0:0:
245,31,131651,2,0,L|154:16,1,85,8|4,1:0|3:0,0:0:0:0:
109,220,131984,1,0,3:0:0:0:
109,220,132067,1,0,3:0:0:0:
109,220,132151,2,0,L|11:244,1,85,8|6,1:0|1:0,0:0:0:0:
182,168,132651,6,0,P|194:187|199:225,1,42.5,6|0,3:0|1:0,0:0:0:0:
78,308,132817,1,8,3:0:0:0:
270,316,132984,6,0,B|219:264|156:285|156:285|184:283|216:308,1,170,6|0,1:0|0:0,0:0:0:0:
337,377,133484,5,6,1:0:0:0:
422,274,133651,2,0,P|410:256|393:244,1,42.5,6|0,3:0|0:0,0:0:0:0:
270,316,133817,5,12,3:0:0:0:
337,377,133984,2,0,P|380:378|416:350,1,85,6|0,1:0|0:0,0:0:0:0:
511,230,134317,5,2,1:0:0:0:
397,275,134484,1,4,3:0:0:0:
317,184,134651,1,4,3:0:0:0:
413,171,134817,5,0,3:0:0:0:
431,182,134984,1,8,3:0:0:0:
298,259,135151,6,0,B|178:240|178:240|234:273,1,170,6|0,1:0|1:0,0:0:0:0:
97,350,135651,2,0,L|45:361,1,42.5,2|2,0:0|0:0,0:0:0:0:
140,128,136151,6,0,B|140:163|158:207|158:207|102:176|42:176,1,170,8|0,1:0|3:0,0:0:0:0:
0,42,136651,2,2,L|14:-16,1,42.5
286,101,137817,5,6,1:0:0:0:
416,54,137984,2,0,B|391:110|391:110|510:92,1,170,0|2,3:0|0:0,0:0:0:0:
512,89,138401,1,2,0:0:0:0:
324,259,138817,5,14,1:0:0:0:
395,169,138984,2,0,B|328:123|328:123|271:195,1,170,0|2,0:0|0:0,0:0:0:0:
262,197,139401,1,2,0:0:0:0:
462,337,139734,5,2,0:0:0:0:
462,337,139817,2,2,L|410:331,1,42.5
387,315,139984,2,2,L|336:309,1,42.5
242,340,140151,6,0,B|247:321|247:321|203:333|226:377,1,85,2|6,1:2|1:0,0:0:0:0:
181,251,140651,6,0,P|158:217|151:241,1,85,2|0,0:0|1:0,0:0:0:0:
248,314,140984,2,0,P|200:291|88:332,1,170,2|2,1:2|0:3,0:0:0:0:
181,251,141484,1,0,1:0:0:0:
10,205,141651,6,0,P|26:131|81:186,1,170,2|2,1:2|0:0,0:0:0:0:
181,251,142151,2,0,P|142:269|87:271,1,85,0|0,1:0|0:0,0:0:0:0:
261,139,142484,2,0,P|302:139|353:171,1,85,2|0,1:2|0:0,0:0:0:0:
420,250,142817,1,2,1:2:0:0:
302,280,142984,5,2,0:3:0:0:
313,272,143067,2,0,L|251:260,1,42.5,0|6,1:0|1:0,1:0:0:0:
130,324,143317,5,0,3:0:0:0:
242,368,143484,1,0,3:0:0:0:
367,331,143651,1,0,3:0:0:0:
486,370,143817,1,0,3:0:0:0:
486,370,143984,1,2,0:0:0:0:
436,272,144151,5,6,1:0:0:0:
436,272,144234,1,0,3:0:0:0:
436,272,144317,2,0,L|495:264,1,50.9999984436036,8|0,1:0|3:0,0:0:0:0:
512,193,144484,1,8,1:0:0:0:
354,131,144651,1,0,3:0:0:0:
507,107,144817,6,0,B|436:94|436:94|488:121,1,101.999996887207,8|0,1:0|3:0,0:0:0:0:
353,259,145151,2,0,B|282:272|282:272|334:245,1,101.999996887207,8|0,1:0|3:0,0:0:0:0:
172,148,145484,6,8,B|132:139|132:139|158:151,1,50.9999984436036,8|8,1:0|1:0,1:0:0:0:
61,249,145651,2,8,B|21:258|21:258|47:246,1,50.9999984436036,8|8,1:0|1:0,1:0:0:0:
0,182,145817,6,0,B|49:167|82:200|82:200|100:276,1,152.999995330811,6|0,1:0|3:0,0:0:0:0:
112,337,146151,1,8,1:0:0:0:
261,291,146317,1,0,1:0:0:0:
308,289,146401,2,0,B|348:280|348:280|415:302|415:302|454:291,1,152.999995330811,2|0,1:0|3:0,0:0:0:0:
475,137,146817,6,0,B|504:112|504:112|432:123,1,101.999996887207,8|0,1:0|0:0,0:0:0:0:
375,152,147067,1,8,1:0:0:0:
375,152,147151,2,0,L|199:135,1,152.999995330811,6|2,1:0|1:0,0:0:0:0:
195,71,147484,1,8,1:0:0:0:
0,127,147651,6,0,B|72:151|72:151|50:46,1,152.999995330811,2|0,1:0|0:0,0:0:0:0:
119,5,147984,1,0,1:0:0:0:
155,212,148151,5,0,3:0:0:0:
155,212,148234,1,0,3:0:0:0:
155,212,148317,1,0,3:0:0:0:
155,212,148401,1,0,3:0:0:0:
155,212,148484,2,0,L|51:231,1,101.999996887207,6|0,1:0|0:0,0:0:0:0:
0,264,148734,2,0,L|62:275,1,50.9999984436036,2|8,1:0|1:0,0:0:0:0:
193,330,148984,2,0,B|304:306|304:306|369:379,1,203.999993774414,6|0,1:2|3:0,0:0:0:0:
512,242,149484,2,0,B|433:254|433:254|508:204,1,152.999995330811,8|0,1:0|0:0,0:0:0:0:
431,109,149817,6,0,B|447:42|447:42|498:46,1,101.999996887207,6|0,1:2|0:0,0:0:0:0:
512,109,150067,1,0,1:0:0:0:
508,129,150151,1,8,1:0:0:0:
405,241,150317,1,2,1:2:0:0:
263,154,150484,1,0,3:0:0:0:
227,139,150567,1,0,3:0:0:0:
189,145,150651,1,0,3:0:0:0:
161,172,150734,1,0,3:0:0:0:
124,234,150817,6,0,B|87:307|87:307|35:234,1,152.999995330811,6|0,1:0|1:0,0:0:0:0:
85,150,151150,1,8,1:0:0:0:
19,21,151317,5,2,1:0:0:0:
0,42,151400,2,0,B|126:30|126:30|74:64,1,152.999995330811,8|0,1:0|0:0,0:0:0:0:
251,120,151817,2,0,L|409:137,1,152.999995330811,12|0,1:0|0:0,0:0:0:0:
403,136,152150,5,0,1:0:0:0:
492,33,152317,2,0,P|462:39|439:61,2,50.9999984436036,0|2|8,1:0|2:0|1:0,1:0:0:0:
310,164,152650,5,0,0:0:0:0:
221,100,152817,2,0,P|202:79|190:43,2,50.9999984436036,0|0|0,1:0|3:0|1:0,1:0:0:0:
76,157,153150,5,0,1:0:0:0:
76,157,153233,1,0,1:0:0:0:
76,157,153317,2,0,B|61:176|61:176|69:139,1,50.9999984436036,0|0,1:0|1:0,1:0:0:0:
0,265,153483,6,0,B|82:245|50:337|150:309,1,152.999995330811,6|0,1:0|0:0,0:0:0:0:
223,275,153817,1,8,1:0:0:0:
376,276,153983,6,0,B|416:300|475:296|475:296|422:358,1,152.999995330811,6|0,1:0|0:0,0:0:0:0:
345,367,154317,1,8,1:0:0:0:
293,228,154483,6,0,B|281:191|281:191|314:117|314:117|294:76,1,152.999995330811,6|0,1:0|0:0,0:0:0:0:
267,18,154817,2,0,B|245:6|245:6|143:23,1,101.999996887207,8|0,1:0|0:0,0:0:0:0:
21,78,155150,6,0,B|41:86|41:86|59:86|59:86|86:98,3,50.9999984436036,0|0|0|0,3:0|3:0|3:0|3:0,3:0:0:0:
178,146,155483,2,0,B|198:138|198:138|219:140|219:140|248:132,3,50.9999984436036,0|0|0|0,3:0|3:0|3:0|3:0,3:0:0:0:
325,103,155817,5,0,3:0:0:0:
385,84,155900,1,0,3:0:0:0:
445,102,155983,1,0,1:0:0:0:
474,123,156067,1,0,1:0:0:0:
507,112,156150,5,6,1:0:0:0:
209,46,158817,5,4,1:0:0:0:
287,267,159150,1,2,0:0:0:0:
401,87,159317,5,2,1:0:0:0:
291,178,159483,2,0,B|312:142|312:142|286:88,1,85,8|0,1:0|3:0,0:0:0:0:
376,231,159817,6,0,L|485:252,1,85,10|0,1:0|3:0,0:0:0:0:
316,97,160150,2,0,B|290:106|290:106|241:91|241:91|191:136|216:182,1,170,6|0,1:2|1:0,0:0:0:0:
101,290,160650,1,8,1:0:0:0:
225,287,160817,6,0,B|201:270|201:270|187:333,1,85,2|0,3:0|3:0,0:0:0:0:
92,199,161150,2,0,L|-7:181,1,85,8|0,1:0|1:0,0:0:0:0:
8,183,161400,1,0,3:0:0:0:
8,183,161483,1,6,1:2:0:0:
232,31,162817,5,6,0:0:0:0:
252,140,163483,1,2,0:0:0:0:
270,263,164150,1,6,1:2:0:0:
272,368,164317,5,0,1:0:0:0:
277,354,164400,1,0,1:0:0:0:
280,340,164483,1,0,1:0:0:0:
192,264,164650,2,0,B|158:277|158:277|167:338,1,93.5000028533936,2|0,1:2|1:0,0:0:0:0:
291,230,164983,5,0,1:2:0:0:
164,87,165150,2,0,P|183:95|217:101,1,46.7500014266968,2|0,1:2|1:0,1:0:0:0:
288,104,165316,2,0,P|312:98|339:86,1,46.7500014266968,2|0,1:2|1:0,1:0:0:0:
392,33,165483,5,2,1:0:0:0:
317,12,165650,1,0,3:0:0:0:
317,12,165733,1,0,3:0:0:0:
317,12,165816,2,0,P|303:28|300:67,1,46.7500014266968,0|0,3:0|3:0,3:0:0:0:
382,151,165983,5,0,3:0:0:0:
416,158,166066,1,0,3:0:0:0:
454,167,166150,1,0,3:0:0:0:
454,167,166233,1,0,1:0:0:0:
454,167,166316,5,0,1:0:0:0:
408,162,166400,1,0,1:0:0:0:
364,181,166483,1,0,1:0:0:0:
330,221,166566,1,0,1:0:0:0:
288,247,166650,1,0,1:0:0:0:
252,245,166733,1,0,1:0:0:0:
211,215,166816,6,0,B|176:173|117:167|117:167|175:151|204:98,1,212.5,6|0,1:0|0:0,0:0:0:0:
96,85,167316,6,0,B|151:102|229:48|229:48|231:58|231:58|200:82|195:125,1,212.5,6|0,1:0|0:0,0:0:0:0:
287,122,167816,6,0,B|309:148|392:119|333:81|430:57|472:115|417:197|345:103,1,220.999989883423,6|0,1:0|0:0,0:0:0:0:
230,239,169483,5,6,1:2:0:0:
238,250,170816,1,4,0:0:0:0:
213,254,171816,2,0,B|193:230|193:230|229:233,1,63.75,2|0,0:0|0:0,0:0:0:0:
258,325,172150,6,0,B|261:353|261:353|156:328,1,101.999996887207,6|0,1:0|0:0,0:0:0:0:
90,300,172400,2,0,B|81:299|81:299|16:315,1,50.9999984436036,0|8,3:0|1:0,0:0:0:0:
258,325,172650,6,0,B|312:336|366:293|366:293|341:336|345:367,1,187.000005706787,2|0,1:0|1:0,0:0:0:0:
453,219,173150,1,8,1:0:0:0:
485,375,173316,6,0,B|456:345|456:345|487:251|487:251|447:214,1,187.000005706787,2|2,1:2|1:0,0:0:0:0:
330,105,173816,2,0,L|317:206,1,93.5000028533936,8|0,1:0|1:0,0:0:0:0:
484,107,174150,6,0,B|431:96|431:96|457:147,1,93.5000028533936,0|0,1:2|3:0,0:0:0:0:
327,203,174483,1,0,3:0:0:0:
279,218,174566,1,0,3:0:0:0:
233,217,174650,1,0,3:0:0:0:
189,195,174733,1,0,3:0:0:0:
168,180,174816,5,2,1:0:0:0:
82,91,174983,2,0,P|111:104|73:108,1,93.5000028533936,2|0,0:0|1:0,0:0:0:0:
294,111,175316,6,0,B|278:117|278:117|191:101,1,93.5000028533936,2|0,1:2|3:0,0:0:0:0:
84,246,175650,1,2,0:0:0:0:
165,310,175816,6,0,P|201:306|262:330,1,93.5000028533936,2|0,1:0|0:0,0:0:0:0:
317,366,176066,1,0,1:0:0:0:
325,372,176150,1,6,1:2:0:0:
236,231,176316,1,2,0:0:0:0:
422,183,176483,5,8,1:0:0:0:
333,277,176650,2,0,B|350:248|350:248|332:178,1,93.5000028533936,0|0,0:0|1:0,0:0:0:0:
281,139,176900,5,8,3:0:0:0:
281,139,176983,2,0,P|298:126|341:115,1,46.7500014266968,0|0,3:0|3:0,3:0:0:0:
333,277,177150,2,0,P|310:269|264:239,1,46.7500014266968,0|0,3:0|3:0,3:0:0:0:
422,183,177316,2,0,P|428:205|431:228,1,46.7500014266968,0|0,3:0|3:0,3:0:0:0:
335,190,177483,6,0,B|240:162|279:211|166:173,1,152.999995330811,6|0,1:0|0:0,0:0:0:0:
112,150,177816,1,8,1:0:0:0:
0,276,177983,6,0,B|37:264|73:228|73:228|55:289|51:361,1,203.999993774414,2|0,1:2|1:0,0:0:0:0:
199,202,178483,2,0,B|178:240|178:240|245:219,1,101.999996887207,12|0,1:0|0:0,0:0:0:0:
361,322,178816,6,0,L|252:309,1,93.5000028533936,2|0,1:0|1:0,0:0:0:0:
191,322,179066,1,0,3:0:0:0:
163,313,179150,1,8,1:0:0:0:
312,231,179316,1,0,3:0:0:0:
127,150,179483,2,0,B|186:186|186:186|202:97,1,140.25000428009,2|0,1:2|0:0,0:0:0:0:
224,37,179816,5,0,1:0:0:0:
273,26,179900,1,0,1:0:0:0:
316,42,179983,1,0,1:0:0:0:
336,67,180066,1,0,1:0:0:0:
365,135,180150,6,0,L|269:148,1,93.5000028533936,6|0,1:2|1:0,0:0:0:0:
249,162,180400,1,0,3:0:0:0:
225,182,180483,1,0,3:0:0:0:
222,215,180566,1,0,3:0:0:0:
254,256,180650,1,6,1:2:0:0:
376,145,180816,1,0,3:0:0:0:
376,145,180900,1,0,3:0:0:0:
376,145,180983,2,0,L|388:204,1,50.9999984436036,0|0,3:0|3:0,3:0:0:0:
504,261,181150,6,0,B|447:243|447:243|482:280,1,101.999996887207,6|0,1:0|0:0,0:0:0:0:
455,347,181400,1,0,3:0:0:0:
483,360,181483,1,4,1:2:0:0:
361,280,181650,1,2,1:0:0:0:
361,280,181733,2,0,P|332:268|209:330,1,152.999995330811,2|0,1:2|3:0,0:0:0:0:
63,360,182150,6,0,P|45:344|43:312,1,50.9999984436036,8|0,1:0|0:0,0:0:0:0:
105,286,182316,2,0,P|123:302|125:334,1,50.9999984436036,2|0,1:2|0:0,0:0:0:0:
38,224,182483,5,0,3:0:0:0:
88,177,182566,1,0,3:0:0:0:
129,162,182650,1,0,1:0:0:0:
178,166,182733,1,0,1:0:0:0:
194,175,182816,6,0,P|173:187|136:180,1,50.9999984436036,2|0,1:0|0:0,0:0:0:0:
23,131,182983,1,4,3:2:0:0:
23,131,183316,1,4,3:2:0:0:
23,131,183650,1,4,3:2:0:0:
23,131,183983,6,0,P|66:117|151:213,1,178.499994552612,6|0,1:2|0:0,0:0:0:0:
175,277,184316,1,0,1:0:0:0:
281,348,184483,6,0,B|351:377|351:377|343:267,1,152.999995330811,8|0,1:0|0:0,0:0:0:0:
414,265,184816,2,2,L|456:257,2,33.9999989624024,2|2|2,1:3|1:3|1:3,1:3:0:0:
405,178,185039,6,0,L|298:152,1,67.9999979248048,0|0,3:0|3:0,3:0:0:0:
236,273,185261,2,0,L|130:300,1,67.9999979248048,0|0,3:0|3:0,3:0:0:0:
256,156,185483,5,2,0:0:0:0:
256,156,185566,1,2,0:0:0:0:
256,156,185650,2,2,L|262:202,1,42.5
338,281,185816,5,0,1:0:0:0:
444,157,185983,1,0,0:0:0:0:
338,281,186150,2,0,B|357:241|357:241|336:187,1,85,2|0,1:2|0:0,0:0:0:0:
185,100,186483,1,0,1:0:0:0:
154,183,186650,6,0,B|72:152|72:152|81:258,1,170,2|0,1:2|0:0,0:0:0:0:
10,338,187150,2,0,L|112:318,1,85,0|0,1:0|0:0,0:0:0:0:
252,182,187483,6,0,L|237:110,1,42.5,2|0,1:0|0:0,0:0:0:0:
272,116,187650,1,0,3:0:0:0:
307,102,187733,1,0,3:0:0:0:
353,121,187816,1,0,3:0:0:0:
356,168,187900,1,0,3:0:0:0:
328,209,187983,1,0,3:0:0:0:
343,253,188066,1,0,3:0:0:0:
385,262,188150,5,6,3:2:0:0:
464,171,188316,2,0,L|453:109,2,42.5,0|0|0,1:0|1:0|1:0,1:0:0:0:
357,289,188650,5,6,1:0:0:0:
228,177,188816,2,0,L|241:104,2,42.5,0|0|0,1:0|1:0|1:0,1:0:0:0:
51,315,189150,5,6,1:0:0:0:
186,248,189316,1,0,1:0:0:0:
252,384,189483,1,0,1:0:0:0:
162,329,189650,5,6,1:2:0:0:
162,329,189733,1,0,1:0:0:0:
162,329,189816,2,0,P|142:319|125:307,1,42.5,0|0,1:0|1:0,1:0:0:0:
76,248,189983,2,0,P|65:231|57:191,1,42.5,0|0,1:0|1:0,1:0:0:0:
57,137,190150,5,0,3:0:0:0:
88,160,190233,1,0,3:0:0:0:
130,162,190316,1,0,3:0:0:0:
167,138,190400,1,0,3:0:0:0:
137,120,190483,1,0,3:0:0:0:
101,151,190566,1,0,3:0:0:0:
92,194,190650,1,0,3:0:0:0:
115,242,190733,1,0,3:0:0:0:
167,287,190816,6,0,B|227:328|323:280|331:201|250:197|248:246,1,212.5,6|0,1:0|0:0,0:0:0:0:
331,327,191316,6,0,B|372:267|324:171|245:163|241:244|290:246,1,212.5,6|0,1:0|0:0,0:0:0:0:
368,161,191816,6,0,B|308:120|212:168|204:247|285:251|287:202,1,212.5,6|0,1:0|0:0,0:0:0:0:
202,124,192316,6,0,B|161:184|209:280|288:288|292:207|243:205,1,212.5,6|0,1:0|0:0,0:0:0:0:
260,210,192816,6,0,P|215:193|233:257,1,140.25000428009,2|0,1:2|0:0,0:0:0:0:
290,222,193150,2,0,P|312:168|255:175,1,140.25000428009,2|0,1:2|0:0,0:0:0:0:
292,295,193483,6,0,P|443:339|493:304,1,212.5,6|0,1:0|0:0,0:0:0:0:
404,293,193983,6,0,P|352:356|229:342,1,212.5,6|0,1:0|0:0,0:0:0:0:
205,270,194483,6,0,P|54:226|4:261,1,212.5,6|0,1:0|0:0,0:0:0:0:
93,272,194983,6,0,P|145:209|268:223,1,212.5,6|0,1:0|0:0,0:0:0:0:
355,194,195483,6,0,B|424:206|424:206|377:120,1,140.25000428009,6|0,1:0|0:0,0:0:0:0:
448,92,195816,2,0,B|517:80|517:80|470:166,1,140.25000428009,6|0,1:0|0:0,0:0:0:0:
403,222,196150,6,0,L|505:242,1,93.5000028533936,6|8,1:0|1:0,0:0:0:0:
501,253,196400,1,0,1:0:0:0:
495,288,196483,1,0,1:0:0:0:
461,310,196566,1,0,1:0:0:0:
450,354,196650,1,6,1:0:0:0:
319,236,196816,5,0,3:0:0:0:
319,236,196900,1,0,3:0:0:0:
319,236,196983,2,0,P|322:254|339:292,1,46.7500014266968,0|0,3:0|3:0,3:0:0:0:
446,334,197150,1,0,3:0:0:0:
323,354,197316,5,0,1:0:0:0:
296,307,197400,1,0,1:0:0:0:
251,295,197483,1,0,1:0:0:0:
212,303,197566,1,0,1:0:0:0:
182,329,197650,1,0,1:0:0:0:
66,359,197816,5,0,3:0:0:0:
66,359,197900,1,0,3:0:0:0:
66,359,197983,2,0,P|86:343|106:310,1,46.7500014266968,0|0,3:0|3:0,3:0:0:0:
166,229,198150,1,0,3:0:0:0:
21,185,198316,5,0,1:0:0:0:
60,170,198400,1,0,1:0:0:0:
99,182,198483,1,0,1:0:0:0:
125,208,198566,1,0,1:0:0:0:
141,239,198650,1,0,1:0:0:0:
177,263,198733,1,0,1:0:0:0:
208,256,198816,1,0,1:0:0:0:
323,168,198983,5,0,1:0:0:0:
323,168,199066,1,0,1:0:0:0:
323,168,199150,2,0,P|297:164|253:149,1,46.7500014266968,0|0,1:0|1:0,1:0:0:0:
169,98,199316,1,6,1:0:0:0:
259,43,199483,6,0,L|244:94,1,46.7500014266968,0|0,1:0|1:0,1:0:0:0:
176,197,199650,1,0,1:0:0:0:
199,200,199733,1,0,1:0:0:0:
224,210,199816,1,6,1:2:0:0:
106,143,199983,5,0,0:0:0:0:
106,143,200066,2,0,L|-13:158,1,93.5000028533936,2|0,1:2|0:0,0:0:0:0:
0,178,200316,2,0,B|20:179|20:179|51:170,1,46.7500014266968,2|0,1:2|1:0,1:0:0:0:
177,112,200483,2,0,B|202:117|202:117|231:134,1,46.7500014266968,2|2,0:0|0:0,0:0:0:0:
320,184,200650,5,2,1:2:0:0:
320,184,200733,1,2,1:2:0:0:
320,184,200816,2,0,B|339:178|339:178|387:196|387:196|399:226|399:226|447:242|447:242|479:234,1,178.499994552612,2|0,1:0|1:0,1:0:0:0:
488,256,201483,6,0,P|452:235|321:314,1,203.999993774414,6|8,1:0|1:0,0:0:0:0:
184,338,201983,1,2,1:2:0:0:
149,355,202066,2,0,P|107:365|8:295,1,152.999995330811,2|0,1:0|1:0,0:0:0:0:
0,139,202483,6,0,B|53:133|53:133|6:167,1,101.999996887207,8|0,1:0|0:0,0:0:0:0:
178,70,202816,1,0,1:2:0:0:
32,36,202983,5,2,1:2:0:0:
32,36,203066,2,0,L|105:47,1,50.9999984436036,0|8,3:0|1:0,0:0:0:0:
212,155,203316,2,0,B|177:71|177:71|298:103,1,203.999993774414,0|0,3:0|1:0,0:0:0:0:
151,213,203816,2,0,B|207:205|207:205|240:184|240:184|313:176,1,152.999995330811,8|0,1:0|0:0,0:0:0:0:
381,138,204150,6,0,B|429:128|429:128|473:175,1,101.999996887207,2|0,1:2|0:0,0:0:0:0:
405,213,204400,1,0,1:0:0:0:
405,213,204483,1,8,1:0:0:0:
510,320,204650,2,0,P|459:307|366:350,1,152.999995330811,2|0,1:2|0:0,0:0:0:0:
381,353,204983,1,0,1:0:0:0:
250,269,205150,6,0,B|239:203|239:203|288:240,1,101.999996887207,8|2,1:0|0:0,0:0:0:0:
103,378,205483,1,0,1:0:0:0:
250,360,205650,6,0,P|273:371|318:384,2,50.9999984436036,0|0|8,1:0|3:0|1:0,0:0:0:0:
171,245,205983,2,0,P|163:206|232:179,1,101.999996887207,2|0,1:2|0:0,0:0:0:0:
84,289,206316,1,0,1:0:0:0:
251,244,206483,5,0,3:0:0:0:
297,255,206566,1,0,3:0:0:0:
331,248,206650,5,0,3:0:0:0:
356,256,206733,1,0,3:0:0:0:
392,281,206816,5,2,1:2:0:0:
345,170,206983,1,0,1:0:0:0:
512,208,207150,6,0,B|448:195|448:195|477:237,1,101.999996887207,2|0,1:0|0:0,0:0:0:0:
401,376,207483,5,0,1:0:0:0:
333,345,207650,2,0,B|380:338|438:297|438:297|409:342|399:387,1,203.999993774414,2|2,1:0|0:0,0:0:0:0:
362,255,208150,6,0,P|336:210|366:168,1,101.999996887207,2|0,1:0|0:0,0:0:0:0:
214,335,208483,1,2,1:2:0:0:
366,250,208650,6,0,P|331:218|266:236,1,101.999996887207,2|0,1:2|0:0,0:0:0:0:
254,231,208900,1,0,3:0:0:0:
223,257,208983,1,0,3:0:0:0:
181,270,209066,1,0,3:0:0:0:
147,254,209150,2,0,P|130:236|133:203,1,50.9999984436036
66,174,209316,2,0,P|74:150|93:133,1,50.9999984436036,0|0,3:0|3:0,3:0:0:0:
25,81,209483,6,0,P|45:77|167:156,1,165.749992412568,6|0,1:0|0:0,0:0:0:0:
163,146,209816,1,0,1:0:0:0:
157,231,209983,5,2,1:2:0:0:
228,253,210150,1,0,1:0:0:0:
266,318,210316,1,0,1:0:0:0:
157,231,210483,5,2,1:2:0:0:
244,165,210650,1,0,1:0:0:0:
344,145,210816,1,4,1:2:0:0:
505,171,210983,5,0,3:0:0:0:
489,178,211066,1,0,3:0:0:0:
459,177,211150,1,8,3:0:0:0:
436,163,211233,1,0,3:0:0:0:
416,139,211316,1,0,3:0:0:0:
407,107,211400,1,0,3:0:0:0:
423,74,211483,5,10,1:0:0:0:
375,51,211566,1,0,1:0:0:0:
326,67,211650,1,0,1:0:0:0:
291,102,211733,1,0,1:0:0:0:
248,122,211816,1,8,1:0:0:0:
193,107,211900,1,0,1:0:0:0:
133,61,211983,6,0,P|117:40|100:-5,1,50.9999984436036,14|0,1:2|0:0,0:0:0:0:
