osu file format v14

[General]
AudioFilename: audio.mp3
AudioLeadIn: 0
PreviewTime: 168390
Countdown: 0
SampleSet: Soft
StackLeniency: 0.6
Mode: 0
LetterboxInBreaks: 0
EpilepsyWarning: 1
WidescreenStoryboard: 1

[Editor]
DistanceSpacing: 0.8
BeatDivisor: 4
GridSize: 32
TimelineZoom: 2.699999

[Metadata]
Title:Into Gray
TitleUnicode:Into Gray
Artist:yuki
ArtistUnicode:yuki
Creator:Bellicose
Version:Insane.
Source:白昼夢の青写真
Tags:eroge momo 緒乃ワサビ case-0 case 0 Laplacian Hakuchuumu no Aojashin The girl who's whos called the world japanese pop rock full version opening op visual novel vn video game lasse kalibe dored koiyuki minakami mtbbsben
BeatmapID:2863391
BeatmapSetID:1373789

[Difficulty]
HPDrainRate:5
CircleSize:3.8
OverallDifficulty:7.8
ApproachRate:9
SliderMultiplier:1.4
SliderTickRate:1

[Events]
//Background and Video events
0,0,"bg2.png",0,0
//Break Periods
2,103350,112884
//Storyboard Layer 0 (Background)
Sprite,Background,Centre,"bg2.png",320,240
//Storyboard Layer 1 (Fail)
//Storyboard Layer 2 (Pass)
//Storyboard Layer 3 (Foreground)
Sprite,Foreground,Centre,"Dream\Other\Bellicose.png",320,240 M,0,10112,10288,500,150,508,150 F,0,10112,10465,0,1 S,0,10112,13112,0.45 M,0,12935,13112,508,150,516,150 F,0,12935,13112,1,0
//Storyboard Layer 4 (Overlay)
//Storyboard Sound Samples

[TimingPoints]
1818,352.941176470588,4,2,1,30,1,0
1818,-142.857142857143,4,2,1,30,0,0
12406,-142.857142857143,4,2,2,15,0,0
13112,-142.857142857143,4,2,2,30,0,0
24406,-166.666666666667,4,2,80,20,0,0
24759,-166.666666666667,4,2,1,30,0,0
34112,-200,4,2,1,30,0,0
35700,-200,4,2,99,5,0,0
36935,-142.857142857143,4,2,1,30,0,0
37112,-142.857142857143,4,2,1,50,0,0
37818,333.333333333333,4,2,1,50,1,0
37984,-90.9090909090909,4,2,1,70,0,0
39818,-83.3333333333333,4,2,1,70,0,0
40068,-83.3333333333333,4,2,1,5,0,0
40151,-83.3333333333333,4,2,1,70,0,0
40484,-90.9090909090909,4,2,1,70,0,0
45817,-83.3333333333333,4,2,1,70,0,0
45901,-83.3333333333333,4,2,1,5,0,0
45984,-83.3333333333333,4,2,1,70,0,0
46067,-83.3333333333333,4,2,1,5,0,0
46151,-83.3333333333333,4,2,1,70,0,0
47234,-83.3333333333333,4,2,1,5,0,0
47317,-83.3333333333333,4,2,1,70,0,0
48484,-111.111111111111,4,2,1,60,0,0
48817,-111.111111111111,4,2,3,50,0,0
49317,-111.111111111111,4,2,2,50,0,0
49651,-111.111111111111,4,2,3,50,0,0
50817,-100,4,2,3,50,0,0
50984,-90.9090909090909,4,2,3,50,0,0
51151,-111.111111111111,4,2,3,50,0,0
52317,-111.111111111111,4,2,1,50,0,0
52484,-111.111111111111,4,2,3,50,0,0
53817,-111.111111111111,4,2,1,50,0,0
53984,-111.111111111111,4,2,3,50,0,0
54484,-125,4,2,1,50,0,0
55151,-111.111111111111,4,2,3,50,0,0
55984,-83.3333333333333,4,2,1,50,0,0
56151,-111.111111111111,4,2,1,50,0,0
56317,-111.111111111111,4,2,3,50,0,0
57651,-111.111111111111,4,2,1,50,0,0
58151,-111.111111111111,4,2,3,50,0,0
58651,-111.111111111111,4,2,1,50,0,0
59151,-111.111111111111,4,2,1,60,0,0
59484,-100,4,2,4,60,0,0
64484,-100,4,2,1,60,0,0
64651,-100,4,2,4,60,0,0
66817,-250,4,2,4,60,0,0
67067,-250,4,2,4,5,0,0
67151,-100,4,2,1,70,0,0
69817,-166.666666666667,4,2,1,60,0,0
70151,-166.666666666667,4,2,1,50,0,0
72484,-100,4,2,1,60,0,0
75151,-166.666666666667,4,2,1,50,0,0
76484,-125,4,2,1,60,0,0
77151,-100,4,2,1,70,0,0
77651,-100,4,2,2,60,0,0
77817,-166.666666666667,4,2,1,50,0,0
79484,-200,4,2,1,50,0,0
80484,-90.9090909090909,4,2,1,75,0,1
81734,-90.9090909090909,4,2,1,5,0,1
81817,-90.9090909090909,4,2,1,75,0,1
82484,-111.111111111111,4,2,1,75,0,1
82817,-90.9090909090909,4,2,1,75,0,1
82901,-90.9090909090909,4,2,1,5,0,1
82984,-90.9090909090909,4,2,1,75,0,1
83067,-90.9090909090909,4,2,1,5,0,1
83151,-83.3333333333333,4,2,1,75,0,1
83651,-90.9090909090909,4,2,1,75,0,1
84234,-90.9090909090909,4,2,1,5,0,1
84317,-90.9090909090909,4,2,1,75,0,1
85151,-90.9090909090909,4,2,4,75,0,1
85317,-90.9090909090909,4,2,1,75,0,1
85817,-90.9090909090909,4,2,1,70,0,0
85984,-90.9090909090909,4,2,4,70,0,0
86151,-90.9090909090909,4,2,1,70,0,0
86317,-90.9090909090909,4,2,4,70,0,0
86484,-90.9090909090909,4,2,1,70,0,0
86651,-90.9090909090909,4,2,4,70,0,0
86817,-90.9090909090909,4,2,1,70,0,0
86984,-90.9090909090909,4,2,4,70,0,0
87151,-90.9090909090909,4,2,1,70,0,0
87234,-90.9090909090909,4,2,2,70,0,0
87484,-90.9090909090909,4,2,1,70,0,0
88317,-90.9090909090909,4,2,2,70,0,0
88484,-83.3333333333333,4,2,1,75,0,0
89151,-83.3333333333333,4,2,4,75,0,0
89317,-83.3333333333333,4,2,1,75,0,0
89817,-90.9090909090909,4,2,1,75,0,0
90484,-90.9090909090909,4,2,4,75,0,0
90651,-90.9090909090909,4,2,1,75,0,0
91151,-83.3333333333333,4,2,1,80,0,1
91317,-83.3333333333333,4,2,1,80,0,1
93984,-166.666666666666,4,2,1,80,0,1
94317,-76.9230769230769,4,2,1,80,0,1
94651,-71.4285714285714,4,2,1,80,0,1
94984,-62.5,4,2,1,85,0,1
95317,-83.3333333333333,4,2,1,80,0,1
96484,-100,4,2,1,75,0,0
96651,-100,4,2,4,75,0,0
96817,-100,4,2,3,75,0,0
96984,-100,4,2,1,75,0,0
97317,-100,4,2,4,75,0,0
97484,-100,4,2,1,75,0,0
97651,-100,4,2,4,75,0,0
97817,-100,4,2,1,75,0,0
98151,-100,4,2,3,75,0,0
98317,-100,4,2,1,75,0,0
99151,-83.3333333333333,4,2,1,75,0,0
99817,-83.3333333333333,4,2,1,77,0,0
100317,-83.3333333333333,4,2,1,79,0,0
100817,-83.3333333333333,4,2,1,82,0,0
101151,-83.3333333333333,4,2,1,84,0,0
101484,-83.3333333333333,4,2,1,86,0,0
101817,-400,4,2,1,70,0,0
103151,-125,4,2,1,50,0,0
103317,-125,4,2,3,50,0,0
108484,-125,4,2,1,50,0,0
108651,-125,4,2,3,50,0,0
112317,-125,4,2,1,50,0,0
112484,-125,4,2,3,50,0,0
113484,-111.111111111111,4,2,1,50,0,0
113817,-76.9230769230769,4,2,5,60,0,0
114817,-333.333333333333,4,2,5,60,0,0
115067,-333.333333333333,4,2,5,5,0,0
115151,-76.9230769230769,4,2,5,60,0,0
115817,-111.111111111111,4,2,5,60,0,0
116484,-76.9230769230769,4,2,5,60,0,0
117484,-333.333333333333,4,2,5,60,0,0
117734,-333.333333333333,4,2,5,5,0,0
117817,-76.9230769230769,4,2,5,60,0,0
118817,-333.333333333333,4,2,5,60,0,0
119067,-333.333333333333,4,2,5,5,0,0
119151,-76.9230769230769,4,2,5,60,0,0
120151,-333.333333333333,4,2,5,60,0,0
120401,-333.333333333333,4,2,5,5,0,0
120484,-76.9230769230769,4,2,5,60,0,0
121317,-142.857142857143,4,2,5,60,0,0
121817,-76.9230769230769,4,2,5,60,0,0
122817,-333.333333333333,4,2,5,60,0,0
123067,-333.333333333333,4,2,5,5,0,0
123151,-66.6666666666667,4,2,5,60,0,0
123817,-66.6666666666667,4,2,5,70,0,0
124151,-100,4,2,1,60,0,0
126984,-100,4,2,4,60,0,0
127151,-100,4,2,1,60,0,0
129651,-100,4,2,4,60,0,0
129817,-100,4,2,1,60,0,0
130734,-100,4,2,1,5,0,0
130817,-100,4,2,1,60,0,0
130901,-100,4,2,1,5,0,0
130984,-100,4,2,1,60,0,0
131234,-100,4,2,1,5,0,0
131317,-100,4,2,1,60,0,0
132317,-200,4,2,4,60,0,0
132484,-100,4,2,1,70,0,0
132651,-100,4,2,4,70,0,0
132817,-100,4,2,1,70,0,0
132984,-100,4,2,4,70,0,0
133484,-100,4,2,1,70,0,0
133651,-100,4,2,4,70,0,0
133817,-100,4,2,1,70,0,0
133984,-100,4,2,4,70,0,0
134317,-100,4,2,1,70,0,0
135484,-100,4,2,2,70,0,0
135651,-100,4,2,4,70,0,0
136151,-100,4,2,1,70,0,0
136484,-100,4,2,2,70,0,0
136651,-100,4,2,4,70,0,0
137817,-100,4,2,1,70,0,0
138151,-100,4,2,2,70,0,0
138317,-100,4,2,4,70,0,0
138817,-100,4,2,1,70,0,0
139151,-100,4,2,2,70,0,0
139317,-100,4,2,4,70,0,0
139734,-100,4,2,2,60,0,0
139817,-100,4,2,4,60,0,0
140484,-100,4,2,1,60,0,0
144151,-83.3333333333333,4,2,1,50,0,0
144484,-83.3333333333333,4,2,1,65,0,0
145151,-83.3333333333333,4,2,1,70,0,0
145484,-83.3333333333333,4,2,1,75,0,0
145817,-83.3333333333333,4,2,1,75,0,1
146151,-83.3333333333333,4,2,4,75,0,1
146317,-83.3333333333333,4,2,1,75,0,1
146484,-83.3333333333333,4,2,4,75,0,1
147151,-83.3333333333333,4,2,3,75,0,1
147317,-83.3333333333333,4,2,4,75,0,1
148484,-83.3333333333333,4,2,1,75,0,1
148651,-83.3333333333333,4,2,4,75,0,1
150817,333.333333333333,4,2,4,75,1,1
150817,-83.3333333333333,4,2,1,75,0,1
150983,-83.3333333333333,4,2,4,75,0,1
151817,-83.3333333333333,4,2,1,75,0,1
152483,-83.3333333333333,4,2,4,75,0,1
153483,-83.3333333333333,4,2,1,75,0,1
153650,-83.3333333333333,4,2,4,75,0,1
153983,-83.3333333333333,4,2,1,75,0,1
154733,-83.3333333333333,4,2,1,5,0,1
154817,-83.3333333333333,4,2,1,70,0,1
155483,-83.3333333333333,4,2,1,75,0,1
155817,-83.3333333333333,4,2,1,80,0,1
156150,-83.3333333333333,4,2,1,75,0,0
156483,-166.666666666667,4,2,1,50,0,0
158817,-100,4,2,1,60,0,0
161483,-166.666666666667,4,2,1,50,0,0
162817,-125,4,2,1,60,0,0
163483,-100,4,2,1,70,0,0
164150,-90.9090909090909,4,2,1,70,0,0
166150,-90.9090909090909,4,2,1,75,0,0
166483,-90.9090909090909,4,2,1,80,0,0
166816,-100,4,2,1,80,0,0
167233,-100,4,2,1,5,0,0
167316,-100,4,2,1,80,0,0
167733,-100,4,2,1,5,0,0
167816,-76.9230769230769,4,2,1,80,0,0
168150,-76.9230769230769,4,2,1,10,0,0
168483,-200,4,2,1,50,0,0
169483,-100,4,2,1,75,0,0
170733,-100,4,2,1,5,0,0
170816,-100,4,2,1,75,0,0
171400,-100,4,2,1,5,0,0
171483,-200.000000000001,4,2,1,75,0,0
172066,-200.000000000001,4,2,1,5,0,0
172150,-83.3333333333333,4,2,1,75,0,1
172650,-90.9090909090909,4,2,1,75,0,1
173233,-90.9090909090909,4,2,1,5,0,1
173316,-90.9090909090909,4,2,1,75,0,1
174150,-90.9090909090909,4,2,4,75,0,1
174316,-90.9090909090909,4,2,1,75,0,1
174816,-90.9090909090909,4,2,1,70,0,0
175150,-90.9090909090909,4,2,3,70,0,0
175316,-90.9090909090909,4,2,1,70,0,0
175650,-90.9090909090909,4,2,4,70,0,0
176150,-90.9090909090909,4,2,1,70,0,0
176483,-90.9090909090909,4,2,3,70,0,0
176650,-90.9090909090909,4,2,1,70,0,0
177316,-90.9090909090909,4,2,2,70,0,0
177483,-83.3333333333333,4,2,1,75,0,0
178150,-83.3333333333333,4,2,4,75,0,0
178316,-83.3333333333333,4,2,1,75,0,0
178816,-90.9090909090909,4,2,1,75,0,0
179483,-90.9090909090909,4,2,4,75,0,0
179650,-90.9090909090909,4,2,1,75,0,0
180150,-83.3333333333333,4,2,1,80,0,1
180316,-83.3333333333333,4,2,1,80,0,1
182983,-166.666666666667,4,2,1,80,0,1
183316,-71.4285714285714,4,2,1,80,0,1
183566,-71.4285714285714,4,2,1,5,0,1
183650,-66.6666666666667,4,2,1,80,0,1
183900,-66.6666666666667,4,2,1,5,0,1
183983,-58.8235294117647,4,2,1,85,0,1
184316,-83.3333333333333,4,2,1,80,0,1
185483,-100,4,2,1,75,0,0
185650,-100,4,2,4,75,0,0
185816,-100,4,2,3,75,0,0
186316,-100,4,2,4,75,0,0
187150,-100,4,2,3,75,0,0
187483,-100,4,2,1,75,0,0
188150,-83.3333333333333,4,2,1,75,0,0
188816,-83.3333333333333,4,2,1,77,0,0
189316,-83.3333333333333,4,2,1,79,0,0
189816,-83.3333333333333,4,2,1,82,0,0
190150,-83.3333333333333,4,2,1,84,0,0
190483,-83.3333333333333,4,2,1,86,0,0
190816,-100,4,2,1,88,0,1
191233,-100,4,2,1,5,0,1
191316,-100,4,2,1,88,0,1
191733,-100,4,2,1,5,0,1
191816,-100,4,2,1,88,0,1
192233,-100,4,2,1,5,0,1
192316,-100,4,2,1,88,0,1
192733,-100,4,2,1,5,0,1
192816,-90.9090909090909,4,2,1,88,0,1
193066,-90.9090909090909,4,2,1,5,0,1
193150,-90.9090909090909,4,2,1,88,0,1
193400,-90.9090909090909,4,2,1,5,0,1
193483,-100,4,2,1,88,0,1
193900,-90.9090909090909,4,2,1,5,0,1
193983,-100,4,2,1,88,0,1
194400,-90.9090909090909,4,2,1,5,0,1
194483,-100,4,2,1,88,0,1
194900,-90.9090909090909,4,2,1,5,0,1
194983,-100,4,2,1,88,0,1
195400,-90.9090909090909,4,2,1,5,0,1
195483,-90.9090909090909,4,2,1,88,0,1
195733,-90.9090909090909,4,2,1,5,0,1
195816,-90.9090909090909,4,2,1,88,0,1
196066,-90.9090909090909,4,2,1,5,0,1
196150,-83.3333333333333,4,2,1,75,0,1
200816,-166.666666666667,4,2,1,75,0,1
201400,-166.666666666667,4,2,1,5,0,1
201483,-83.3333333333334,4,2,1,75,0,0
201816,-83.3333333333334,4,2,4,75,0,0
202816,-83.3333333333334,4,2,3,75,0,0
202983,-83.3333333333334,4,2,4,75,0,0
204066,-83.3333333333334,4,2,4,5,0,0
204150,-83.3333333333334,4,2,3,75,0,0
204483,-83.3333333333334,4,2,4,75,0,0
205483,-83.3333333333334,4,2,3,75,0,0
205650,-83.3333333333334,4,2,4,75,0,0
206816,-83.3333333333334,4,2,4,70,0,0
207150,-83.3333333333334,4,2,3,70,0,0
207316,-83.3333333333334,4,2,4,70,0,0
208483,-83.3333333333334,4,2,3,70,0,0
208816,-83.3333333333334,4,2,1,70,0,0
209483,-76.9230769230769,4,2,1,70,0,0
209733,-76.9230769230769,4,2,1,5,0,0
209816,-83.3333333333333,4,2,1,70,0,0
210483,-83.3333333333333,4,2,1,70,0,0
210816,-83.3333333333333,4,2,1,75,0,0
211483,-83.3333333333333,4,2,1,80,0,0
212150,-83.3333333333333,4,2,1,20,0,0

[Colours]
Combo1 : 124,234,239
Combo2 : 219,180,254
Combo3 : 153,210,249
Combo4 : 168,170,247

[HitObjects]
104,73,1818,6,0,P|113:100|120:143,1,48.9999985046387,0|0,0:0|0:0,0:0:0:0:
185,167,2170,2,0,P|175:194|169:237,1,48.9999985046387,0|2,0:0|0:0,0:0:0:0:
421,20,3229,2,0,P|386:27|358:40,1,48.9999985046387,0|0,0:0|0:0,0:0:0:0:
325,105,3582,1,0,0:0:0:0:
363,179,3759,1,2,0:0:0:0:
190,373,4641,6,0,P|200:332|201:303,1,48.9999985046387,0|0,0:0|0:0,0:0:0:0:
272,271,4994,2,0,P|262:230|261:201,1,48.9999985046387,0|2,0:0|0:0,0:0:0:0:
22,58,6053,2,0,P|59:46|85:48,1,48.9999985046387,0|0,0:0|0:0,0:0:0:0:
150,80,6406,1,0,0:0:0:0:
212,24,6582,1,2,0:0:0:0:
473,146,7465,5,0,0:0:0:0:
394,116,7641,1,0,0:0:0:0:
332,172,7817,2,0,P|325:197|321:238,1,48.9999985046387,0|2,0:0|0:0,0:0:0:0:
46,384,8876,1,0,0:0:0:0:
124,353,9053,1,0,0:0:0:0:
144,271,9229,1,0,0:0:0:0:
92,204,9406,1,2,0:0:0:0:
285,13,10288,5,0,0:0:0:0:
264,94,10465,1,0,0:0:0:0:
345,74,10641,2,0,P|384:66|412:67,1,48.9999985046387,0|2,0:0|0:0,0:0:0:0:
496,365,11700,1,0,0:0:0:0:
512,283,11876,1,0,0:0:0:0:
430,268,12053,1,0,0:0:0:0:
413,350,12229,1,2,0:0:0:0:
60,186,12935,5,0,3:0:0:0:
60,186,13112,2,0,P|112:185|155:213,1,97.9999970092774,2|0,1:2|0:0,0:0:0:0:
210,129,13641,1,0,1:0:0:0:
210,129,13817,2,0,P|204:81|195:24,1,97.9999970092774,8|0,0:0|1:0,0:0:0:0:
297,3,14347,1,2,0:0:0:0:
297,3,14523,2,0,P|302:50|312:108,2,97.9999970092774,2|0|8,1:2|1:0|0:0,0:0:0:0:
503,248,15759,5,2,0:0:0:0:
503,248,15935,2,0,P|516:201|485:154,1,97.9999970092774,2|0,1:2|0:0,0:0:0:0:
400,142,16465,1,0,1:0:0:0:
400,142,16641,2,0,P|338:151|284:168,1,97.9999970092774,8|0,0:0|1:0,0:0:0:0:
309,263,17170,1,2,0:0:0:0:
309,263,17347,2,0,P|371:254|425:237,2,97.9999970092774,2|0|8,1:2|1:0|0:0,0:0:0:0:
181,377,18406,1,2,0:0:0:0:
181,377,18759,6,0,B|139:350|139:350|83:370,2,97.9999970092774,2|2|10,1:2|0:0|0:0,0:0:0:0:
22,275,19817,1,2,1:2:0:0:
22,275,19994,2,0,P|33:212|37:169,1,97.9999970092774,2|0,0:0|0:0,0:0:0:0:
107,122,20523,2,0,P|111:72|61:37,2,97.9999970092774,2|10|2,1:2|0:0|0:0,0:0:0:0:
15,314,21582,1,2,1:2:0:0:
15,314,21759,2,0,P|93:294|132:292,1,97.9999970092774,0|8,1:0|0:0,0:0:0:0:
200,246,22288,2,0,P|235:257|253:259,1,48.9999985046387,2|0,0:0|1:0,0:0:0:0:
320,331,22641,2,0,P|343:303|413:302,1,97.9999970092774,2|0,0:0|1:0,0:0:0:0:
481,340,23170,5,0,1:0:0:0:
481,340,23523,1,2,1:2:0:0:
502,259,23700,1,8,0:0:0:0:
425,214,23876,1,0,1:0:0:0:
401,296,24053,1,8,0:0:0:0:
500,109,24406,5,2,0:0:0:0:
500,109,24759,5,0,0:0:0:0:
458,105,24935,1,0,0:0:0:0:
430,73,25112,1,2,0:0:0:0:
437,31,25641,1,2,0:0:0:0:
437,31,25817,2,0,P|385:40|340:58,1,83.9999974365235,2|0,0:0|0:0,0:0:0:0:
12,275,27229,5,2,0:0:0:0:
12,275,27582,5,0,0:0:0:0:
54,279,27758,1,0,0:0:0:0:
82,311,27935,1,2,0:0:0:0:
75,353,28464,1,2,0:0:0:0:
75,353,28641,2,0,P|127:344|172:326,1,83.9999974365235,2|2,0:0|0:0,0:0:0:0:
202,64,30053,5,2,0:0:0:0:
202,64,30406,2,0,P|145:51|112:49,2,83.9999974365235,2|2|2,0:0|0:0|0:0,0:0:0:0:
316,156,31465,5,2,0:0:0:0:
315,156,31818,2,0,P|355:145|397:141,2,83.9999974365235,2|2|2,0:0|0:0|0:0,0:0:0:0:
211,275,32876,6,0,P|214:361|288:279,1,251.999992309571,2|0,0:0|0:0,0:0:0:0:
259,202,34112,6,0,B|238:108|308:137|302:88|359:62|315:-1|276:-32|189:20|230:69,1,315,2|4,0:0|0:0,0:0:0:0:
472,90,36935,5,2,0:0:0:0:
472,90,37112,2,0,P|445:42|470:-7,1,97.9999970092774,2|0,0:0|0:0,0:0:0:0:
313,240,37818,6,0,B|231:235|264:284|162:271,1,140,6|0,1:2|1:0,0:0:0:0:
159,234,38234,1,0,3:0:0:0:
159,234,38318,2,0,L|179:170,1,38.5000011749268,2|0,3:2|3:0,0:0:0:0:
67,83,38484,2,0,P|73:122|52:153,1,77.0000023498536,0|0,1:0|3:0,0:0:0:0:
209,5,38818,1,2,1:2:0:0:
274,98,38984,1,2,3:2:0:0:
274,98,39068,1,0,3:0:0:0:
274,98,39151,6,0,P|342:83|368:79,1,77.0000023498536,0|2,1:0|3:2,0:0:0:0:
475,225,39484,1,0,1:0:0:0:
439,211,39568,1,0,3:0:0:0:
407,232,39651,1,0,3:0:0:0:
369,226,39734,1,0,3:0:0:0:
336,253,39818,2,0,B|372:279|395:282|395:282|414:339|363:375,1,167.999994873047,2|2,1:2|1:2,0:0:0:0:
92,180,40401,5,0,3:0:0:0:
92,180,40484,2,0,P|27:158|-2:150,1,77.0000023498536,6|0,1:2|3:0,0:0:0:0:
13,117,40734,1,0,3:0:0:0:
13,117,40818,2,0,L|41:74,1,38.5000011749268,0|0,1:0|3:0,0:0:0:0:
119,26,40984,2,0,L|135:68,1,38.5000011749268,2|0,3:2|3:0,0:0:0:0:
262,46,41151,2,0,P|233:110|227:136,1,77.0000023498536,0|0,1:0|3:0,0:0:0:0:
309,282,41484,1,2,1:2:0:0:
239,368,41651,1,0,3:0:0:0:
239,368,41734,1,0,3:0:0:0:
239,368,41817,6,0,P|201:344|151:353,1,77.0000023498536,0|2,1:0|3:2,0:0:0:0:
18,376,42151,2,0,L|26:338,3,38.5000011749268,0|0|0|0,1:0|3:0|3:2|3:0,0:0:0:0:
49,290,42484,2,0,L|40:252,3,38.5000011749268,0|0|0|0,1:0|3:0|3:0|3:0,0:0:0:0:
13,220,42817,1,0,1:0:0:0:
45,198,42901,1,8,0:3:0:0:
83,192,42984,1,4,0:3:0:0:
119,202,43067,1,4,0:3:0:0:
149,226,43151,5,6,1:2:0:0:
250,167,43317,1,0,1:0:0:0:
354,132,43484,5,10,0:0:0:0:
459,208,43651,1,2,0:0:0:0:
512,273,43817,5,2,1:2:0:0:
472,132,43984,1,2,1:2:0:0:
385,245,44151,1,8,0:0:0:0:
197,9,44401,5,8,0:0:0:0:
197,9,44484,2,0,P|251:24|299:24,1,77.0000023498536,2|0,1:2|1:2,0:0:0:0:
211,128,44817,2,0,P|172:132|136:144,1,77.0000023498536,8|2,0:0|0:0,0:0:0:0:
44,200,45151,1,0,1:0:0:0:
80,76,45317,1,2,1:2:0:0:
206,103,45484,1,10,0:0:0:0:
173,239,45651,1,2,0:0:0:0:
319,276,45817,6,0,P|374:262|412:261,1,83.9999974365235,6|0,1:0|1:0,0:0:0:0:
192,370,46151,2,0,B|172:259|242:312|215:187,1,167.999994873047,12|0,0:0|1:0,0:0:0:0:
219,210,46651,2,0,P|199:166|217:121,1,83.9999974365235,0|2,1:0|0:2,0:0:0:0:
340,8,46984,2,0,P|326:66|322:95,1,83.9999974365235,8|0,0:0|0:0,0:0:0:0:
370,171,47317,1,2,1:2:0:0:
241,24,47484,1,8,0:0:0:0:
107,171,47651,1,8,0:0:0:0:
107,171,47734,1,8,0:0:0:0:
107,171,47817,5,8,1:3:0:0:
196,146,47984,1,4,1:3:0:0:
221,254,48151,1,2,1:2:0:0:
221,254,48484,6,0,P|221:332|173:369,1,125.999996154785,4|10,1:2|0:0,0:0:0:0:
114,339,48984,2,0,P|114:261|162:224,1,125.999996154785,2|2,3:2|3:2,0:0:0:0:
221,254,49484,1,2,3:2:0:0:
291,215,49651,1,0,1:0:0:0:
287,139,49817,2,0,P|298:86|304:68,1,62.9999980773926,2|0,1:2|1:0,0:0:0:0:
400,6,50151,1,10,0:0:0:0:
468,46,50317,2,0,P|476:76|481:107,1,62.9999980773926,2|0,3:2|0:0,0:0:0:0:
366,189,50651,5,2,1:2:0:0:
287,139,50817,1,10,0:0:0:0:
223,208,50984,1,2,3:2:0:0:
291,310,51151,5,0,1:0:0:0:
363,343,51317,1,0,1:0:0:0:
426,296,51484,1,10,0:0:0:0:
510,351,51651,1,2,3:2:0:0:
510,351,51984,2,0,B|435:317|456:377|366:330,1,125.999996154785,2|8,0:0|0:0,0:0:0:0:
198,356,52484,6,0,B|144:376|144:376|208:333,1,125.999996154785,2|10,1:2|0:0,0:0:0:0:
297,306,52984,1,0,3:0:0:0:
297,306,53067,2,0,P|274:271|282:222,1,94.499997116089,10|4,0:0|1:2,0:0:0:0:
319,152,53484,1,8,1:2:0:0:
82,10,53734,5,8,0:0:0:0:
82,10,53817,2,0,P|59:65|59:88,1,62.9999980773926,4|0,1:2|1:0,0:0:0:0:
78,142,54151,1,8,0:0:0:0:
4,213,54317,2,0,P|56:173|254:165,1,251.999992309571,0|8,3:0|0:0,0:0:0:0:
310,112,55151,5,2,1:2:0:0:
301,32,55317,1,0,1:0:0:0:
225,4,55484,1,8,0:0:0:0:
231,80,55651,1,0,3:0:0:0:
337,356,55984,6,2,L|350:300,1,41.9999987182618,2|0,1:3|0:0,0:1:0:0:
285,225,56151,1,8,0:0:0:0:
285,225,56484,5,0,1:0:0:0:
356,188,56651,1,0,1:0:0:0:
426,228,56817,1,8,0:0:0:0:
504,211,56984,1,0,3:0:0:0:
504,211,57067,1,12,0:0:0:0:
194,267,57651,5,8,0:0:0:0:
225,154,57817,1,0,1:0:0:0:
154,191,57984,1,0,1:0:0:0:
84,151,58150,1,8,0:0:0:0:
10,168,58317,1,0,3:0:0:0:
10,168,58401,6,0,P|29:88|33:60,1,94.499997116089,8|0,0:0|1:0,0:0:0:0:
38,40,58734,1,0,3:0:0:0:
67,29,58817,1,0,1:0:0:0:
98,35,58901,1,0,3:0:0:0:
116,60,58984,1,0,3:0:0:0:
143,75,59067,1,0,3:0:0:0:
174,73,59151,1,4,1:2:0:0:
498,83,59484,6,0,P|486:43|480:10,1,70,2|0,1:2|3:0,0:0:0:0:
400,131,59817,2,0,P|383:193|382:296,1,140,2|10,1:2|1:2,0:0:0:0:
284,209,60317,1,2,3:2:0:0:
225,381,60484,2,0,P|218:346|207:313,1,70,0|2,1:0|3:2,0:0:0:0:
135,348,60817,5,2,1:2:0:0:
294,311,60984,1,2,3:2:0:0:
272,207,61151,1,2,1:2:0:0:
193,223,61317,1,0,3:0:0:0:
115,239,61484,5,8,1:2:0:0:
94,134,61651,1,2,3:2:0:0:
251,99,61817,2,0,P|316:86|348:83,1,70,2|0,1:2|3:0,0:0:0:0:
133,22,62151,2,0,P|110:70|23:79,1,140,0|0,1:0|1:0,0:0:0:0:
56,9,62651,1,0,3:0:0:0:
56,9,62734,1,0,3:0:0:0:
56,9,62817,1,10,1:2:0:0:
148,145,62984,1,2,3:2:0:0:
17,248,63151,6,0,P|31:185|34:150,1,70,2|0,1:2|3:0,0:0:0:0:
179,148,63484,2,0,P|184:182|193:216,1,70,0|0,1:0|3:0,0:0:0:0:
318,216,63817,2,0,P|327:182|333:148,1,70,0|0,1:0|3:0,0:0:0:0:
480,179,64151,2,0,P|486:214|495:248,1,70,2|0,1:2|3:0,0:0:0:0:
509,300,64401,1,0,3:0:0:0:
509,300,64484,5,6,1:2:0:0:
412,380,64651,1,0,1:0:0:0:
313,307,64817,1,8,0:0:0:0:
16,236,65151,5,2,1:2:0:0:
113,156,65318,1,0,1:0:0:0:
212,229,65484,1,8,0:0:0:0:
325,163,65651,1,2,3:2:0:0:
325,163,65734,1,0,3:0:0:0:
325,163,65817,5,0,1:2:0:0:
290,33,65984,1,0,1:0:0:0:
158,27,66151,2,0,B|131:102|198:89|145:190,1,140,8|2,0:0|0:0,0:0:0:0:
115,232,66651,1,0,1:0:0:0:
10,138,66817,2,0,L|53:129,1,42,10|0,3:2|0:0,0:0:0:0:
125,90,67151,5,14,1:0:0:0:
37,217,67317,1,0,1:0:0:0:
112,61,67484,1,8,1:3:0:0:
198,244,67651,1,4,1:3:0:0:
493,39,68151,5,12,1:0:0:0:
453,190,68317,1,0,1:0:0:0:
304,148,68484,1,8,1:3:0:0:
347,5,68651,2,0,P|358:54|363:83,1,70,4|0,1:3|0:0,0:0:0:0:
250,0,68984,1,8,1:2:0:0:
171,67,69151,6,0,L|112:81,2,46.6666666666667,8|8|8,1:3|1:3|1:3,0:0:0:0:
250,145,69484,6,0,L|234:206,2,46.6666666666667,4|4|4,1:3|1:3|1:3,0:0:0:0:
348,84,69817,5,4,1:2:0:0:
476,357,72151,5,2,0:0:0:0:
476,357,72317,1,2,0:0:0:0:
436,262,72484,6,0,P|451:200|461:174,1,70,14|0,1:2|1:0,0:0:0:0:
383,370,72817,1,2,0:0:0:0:
288,333,72984,2,0,B|195:328|242:379|135:359,1,140,2|0,1:2|1:0,0:0:0:0:
1,231,73484,5,10,0:0:0:0:
58,155,73651,1,0,1:2:0:0:
132,214,73817,2,0,P|185:200|217:195,1,70,2|0,0:0|1:2,0:0:0:0:
288,333,74151,2,0,P|304:270|290:189,1,140,2|0,0:0|1:0,0:0:0:0:
253,127,74651,1,0,1:0:0:0:
320,14,74817,1,8,0:0:0:0:
356,95,74984,1,8,0:3:0:0:
219,47,75151,1,4,1:2:0:0:
219,47,75484,5,2,0:0:0:0:
219,47,75817,2,0,P|159:85|94:83,1,125.999996154785,2|2,0:0|0:0,0:0:0:0:
105,86,76484,2,0,P|76:53|11:50,1,112,2|2,0:0|0:0,0:0:0:0:
102,264,77151,2,0,B|183:259|141:211|249:209,1,140,2|2,0:0|0:0,0:0:0:0:
343,298,77651,2,0,L|328:357,1,35,0|0,3:0|3:0,0:0:0:0:
316,361,77817,2,0,P|308:284|304:264,1,83.9999974365235,2|0,0:0|0:0,0:0:0:0:
432,23,79484,6,0,P|438:78|445:107,2,70,2|2|2,0:0|0:0|0:0,0:0:0:0:
502,176,80484,6,0,P|445:128|345:137,1,154.000004699707,6|2,1:2|1:2,0:0:0:0:
301,262,80984,2,0,P|234:272|137:301,1,154.000004699707,2|2,0:0|0:0,0:0:0:0:
69,110,81484,2,0,P|18:151|28:218,1,115.50000352478,2|0,1:2|0:0,0:0:0:0:
19,205,81817,2,0,P|43:146|15:54,1,154.000004699707,2|0,1:2|1:0,0:0:0:0:
160,0,82317,1,2,0:0:0:0:
230,75,82484,2,0,P|288:64|314:62,1,62.9999980773926,2|2,1:2|0:0,0:0:0:0:
160,212,82817,1,2,1:2:0:0:
160,212,83151,6,0,B|245:210|186:265|307:261,1,125.999996154785,4|0,1:2|1:0,0:0:0:0:
303,248,83484,1,10,0:0:0:0:
436,321,83651,2,0,B|378:332|378:332|352:363|352:363|282:376,1,154.000004699707,2|0,1:2|1:0,0:0:0:0:
400,235,84151,1,10,0:0:0:0:
288,382,84317,2,0,P|245:342|277:255,1,154.000004699707,2|0,1:2|1:0,0:0:0:0:
366,153,84817,2,0,P|382:87|394:50,1,77.0000023498536,8|0,0:0|1:0,0:0:0:0:
467,118,85151,1,2,3:2:0:0:
343,0,85317,1,0,1:0:0:0:
343,0,85401,1,0,1:0:0:0:
343,0,85484,2,0,L|283:13,3,38.5000011749268,10|8|8|8,0:2|0:0|0:0|0:0,0:0:0:0:
213,20,85817,6,0,P|256:96|259:175,1,154.000004699707,2|2,1:2|1:2,0:0:0:0:
193,326,86317,5,2,3:2:0:0:
193,326,86484,2,0,P|150:250|147:171,1,154.000004699707,2|0,1:2|1:0,0:0:0:0:
56,30,86984,5,2,3:2:0:0:
56,30,87151,2,0,P|25:99|27:176,1,154.000004699707,2|2,1:2|1:2,0:0:0:0:
132,258,87651,2,0,P|147:209|142:173,1,77.0000023498536,2|0,0:0|1:0,0:0:0:0:
137,154,87901,1,0,3:0:0:0:
137,154,87984,2,0,L|198:140,1,38.5000011749268,2|0,3:2|1:0,0:0:0:0:
248,166,88151,2,0,L|285:174,1,38.5000011749268,2|4,1:2|0:3,0:0:0:0:
354,144,88317,2,0,L|415:130,1,38.5000011749268,6|4,0:3|0:3,0:0:0:0:
470,179,88484,6,0,B|500:137|500:137|475:63,1,125.999996154785,6|0,1:2|1:0,0:0:0:0:
465,37,88817,1,10,0:0:0:0:
379,159,88984,1,0,1:0:0:0:
259,81,89151,2,0,P|275:22|283:-11,1,83.9999974365235,2|0,3:2|1:0,0:0:0:0:
367,250,89484,2,0,P|351:309|343:342,1,83.9999974365235,14|2,0:1|1:2,0:0:0:0:
276,384,89817,6,0,P|246:361|164:368,1,115.50000352478,4|0,0:3|1:0,0:0:0:0:
158,381,90151,2,0,P|99:365|59:360,1,77.0000023498536,10|0,0:0|1:0,0:0:0:0:
235,249,90484,2,0,P|227:211|216:174,1,77.0000023498536,2|0,3:2|1:0,0:0:0:0:
20,276,90817,1,10,3:2:0:0:
20,276,90901,1,8,0:0:0:0:
20,276,90984,1,8,0:0:0:0:
20,276,91067,1,8,0:0:0:0:
20,276,91151,6,0,P|62:210|54:116,1,167.999994873047,6|0,1:2|3:0,0:0:0:0:
22,41,91567,1,0,3:0:0:0:
22,41,91651,2,0,B|68:20|68:20|156:40|167:99,1,167.999994873047,6|0,1:0|3:0,0:0:0:0:
175,180,92067,1,0,3:0:0:0:
175,180,92151,2,0,P|244:166|286:165,1,83.9999974365235,6|0,1:0|3:0,0:0:0:0:
327,85,92401,1,0,3:0:0:0:
327,85,92484,6,0,P|375:147|466:131,1,167.999994873047,4|0,1:2|3:0,0:0:0:0:
506,257,92901,1,0,3:0:0:0:
506,257,92984,2,0,P|437:243|395:242,1,83.9999974365235,4|0,1:0|3:0,0:0:0:0:
349,309,93234,1,0,3:0:0:0:
349,309,93317,2,0,L|357:369,1,41.9999987182618,0|0,3:0|3:0,0:0:0:0:
320,375,93484,1,8,0:3:0:0:
281,357,93567,1,8,0:3:0:0:
260,320,93651,1,4,0:3:0:0:
261,277,93734,1,4,0:3:0:0:
286,243,93817,5,2,1:2:0:0:
174,301,93984,2,0,L|118:313,1,41.9999987182618,0|2,1:0|0:0,0:0:0:0:
5,184,94317,6,0,B|93:195|54:144|143:150,1,136.499993751526,2|0,1:2|0:0,0:0:0:0:
209,202,94651,6,0,P|168:115|207:48,1,146.999995513916,2|0,1:2|0:0,0:0:0:0:
278,17,94984,6,0,P|313:41|309:219,1,224,14|0,1:2|1:0,0:0:0:0:
321,205,95484,2,0,P|370:192|436:187,1,83.9999974365235,8|0,0:0|0:0,0:0:0:0:
494,326,95817,5,8,1:3:0:0:
472,308,95929,1,8,1:3:0:0:
447,310,96040,1,8,1:3:0:0:
396,369,96151,5,4,1:3:0:0:
371,371,96262,1,4,1:3:0:0:
349,353,96374,1,4,1:3:0:0:
279,315,96484,6,0,P|210:325|121:354,2,140,0|4|2,1:0|1:2|1:2,0:0:0:0:
383,241,97317,1,0,3:0:0:0:
322,149,97484,2,0,P|308:93|307:57,1,70,0|0,1:0|3:0,0:0:0:0:
166,227,97817,6,0,B|166:134|221:186|203:64,1,140,2|4,1:2|1:2,0:0:0:0:
124,10,98317,1,2,0:0:0:0:
15,107,98484,2,0,L|71:91,3,35,0|0|0|0,1:0|3:0|3:0|1:0,0:0:0:0:
88,123,98817,2,0,L|75:173,3,35,0|4|4|4,1:2|0:3|0:3|0:3,0:0:0:0:
10,212,99151,6,0,P|42:238|53:364,1,167.999994873047,6|0,1:0|3:0,0:0:0:0:
156,329,99567,1,0,3:0:0:0:
156,329,99651,2,0,B|193:294|242:306|242:306|257:355|316:352,1,167.999994873047,6|0,1:2|3:0,0:0:0:0:
397,371,100067,1,0,3:0:0:0:
397,371,100151,2,0,B|377:312|377:312|401:264|401:264|378:203,1,167.999994873047,6|2,1:0|3:2,0:0:0:0:
312,145,100567,1,0,3:0:0:0:
312,145,100651,2,0,B|342:154|375:169|375:169|430:153|474:120,1,167.999994873047,4|0,1:2|3:0,0:0:0:0:
471,26,101067,1,0,3:0:0:0:
471,26,101151,2,0,L|420:14,1,41.9999987182618,6|0,1:0|3:0,0:0:0:0:
341,1,101317,2,0,L|300:10,1,41.9999987182618,0|0,3:0|3:0,0:0:0:0:
207,65,101484,5,2,1:2:0:0:
184,100,101567,1,0,3:0:0:0:
203,137,101651,1,2,3:2:0:0:
183,174,101734,1,0,3:0:0:0:
200,212,101817,6,0,P|160:246|171:212,1,140,2|4,0:0|1:2,0:0:0:0:
116,35,113484,5,8,0:0:0:0:
144,47,113567,1,8,0:0:0:0:
161,73,113651,1,8,1:3:0:0:
161,104,113734,1,4,1:3:0:0:
141,136,113817,6,2,B|225:120|247:47|247:47|280:106|338:84|338:84|368:151|442:140,1,363.999983337403,0|8,1:0|0:0,0:1:0:0:
496,335,114817,5,0,1:0:0:0:
496,335,115151,2,0,B|460:315|471:257|471:257|434:253|388:230|388:230|333:282|416:302|388:396|305:371,1,363.999983337403,2|8,0:0|0:0,0:0:0:0:
245,354,115984,2,0,P|204:344|175:340,2,62.9999980773926,2|2|2,0:0|0:0|0:0,0:0:0:0:
171,253,116484,6,2,B|117:256|96:308|96:308|95:260|140:212|117:122|6:115|-30:232|22:246|44:240,1,363.999983337403,0|8,1:0|0:0,0:1:0:0:
209,143,117484,5,0,1:0:0:0:
209,143,117817,2,0,B|335:30|210:-56|109:29|147:133|261:117|274:159|244:217,1,363.999983337403,2|8,0:0|0:0,0:0:0:0:
426,73,118817,5,4,0:3:0:0:
426,73,119151,2,2,B|466:33|509:36|509:36|438:1|329:59|356:164|356:164|378:149,1,363.999983337403,0|8,1:0|0:0,0:1:0:0:
442,319,120151,5,0,1:0:0:0:
442,319,120484,2,0,B|334:282|360:370|274:345|274:345|185:319|208:417|84:373,1,363.999983337403,2|8,0:0|0:0,0:0:0:0:
43,328,121317,2,0,P|52:294|59:264,1,48.9999985046387,2|0,0:3|0:0,0:0:0:0:
148,35,121817,6,0,P|127:150|114:23,1,363.999983337403,0|8,1:0|0:0,0:0:0:0:
257,198,122817,5,0,1:0:0:0:
257,198,123151,2,2,B|412:239|324:74|489:115|523:165|540:198|507:285|430:312|393:226,1,420.000016021729,2|10,0:0|0:0,0:0:0:0:
415,257,124151,6,0,L|424:312,1,35,2|2,0:0|0:0,0:0:0:0:
400,329,124317,2,0,L|394:363,1,35,2|2,0:0|0:0,0:0:0:0:
299,324,124484,6,0,P|239:323|157:381,2,140,6|10|2,1:2|0:0|1:2,0:0:0:0:
211,241,125317,1,0,1:0:0:0:
324,148,125484,1,10,0:0:0:0:
324,148,125651,2,0,B|405:125|390:195|482:149,1,140,2|0,0:0|1:0,0:0:0:0:
428,62,126151,2,0,P|433:11|463:-10,1,70,8|2,0:0|0:0,0:0:0:0:
297,60,126484,2,0,P|235:74|204:84,1,70,2|0,1:2|1:0,0:0:0:0:
107,16,126817,1,10,0:0:0:0:
107,16,127151,5,2,1:2:0:0:
140,87,127317,1,0,1:0:0:0:
95,152,127484,1,8,0:0:0:0:
17,149,127651,1,4,0:3:0:0:
58,81,127817,5,2,1:2:0:0:
175,159,127984,1,0,1:0:0:0:
310,96,128151,2,0,P|355:86|397:73,1,70,8|2,0:0|0:0,0:0:0:0:
223,235,128484,6,0,B|150:228|172:287|67:278,2,140,0|8|2,1:0|0:0|1:2,0:0:0:0:
271,296,129317,1,0,1:0:0:0:
395,381,129484,2,0,P|401:346|411:313,1,70,8|2,0:0|3:2,0:0:0:0:
497,171,129817,6,0,B|456:184|456:184|385:170|374:112,1,140,4|2,1:2|0:0,0:0:0:0:
269,207,130317,2,0,P|197:218|115:244,1,140,8|10,0:0|0:0,0:0:0:0:
200,100,130817,1,0,1:0:0:0:
80,151,130984,2,0,P|93:93|93:59,1,70,0|2,1:0|1:2,0:0:0:0:
261,0,131317,2,0,P|209:25|215:121,1,140,8|10,0:0|0:0,0:0:0:0:
247,162,131817,1,2,1:2:0:0:
375,77,131984,1,0,1:0:0:0:
473,134,132151,2,0,P|462:179|459:223,1,70,10|0,0:0|3:0,0:0:0:0:
375,243,132484,5,10,1:0:0:0:
481,109,132651,1,2,1:3:0:0:
497,278,132817,5,8,1:3:0:0:
317,152,132984,2,0,B|223:140|273:196|167:187,1,140,6|0,1:3|0:0,0:0:0:0:
260,75,133484,5,10,1:0:0:0:
111,213,133651,1,2,1:3:0:0:
154,92,133817,5,8,1:3:0:0:
272,247,133984,2,0,P|252:325|246:394,1,140,6|10,1:3|0:0,0:0:0:0:
168,239,134484,2,0,P|187:178|187:152,1,70,8|8,1:3|1:3,0:0:0:0:
338,137,134817,2,0,P|343:171|357:203,1,70,4|4,1:3|1:3,0:0:0:0:
250,91,135151,5,14,1:2:0:0:
320,17,135317,1,0,1:0:0:0:
427,36,135484,1,0,3:0:0:0:
466,135,135651,1,2,3:2:0:0:
466,135,136151,5,10,1:0:0:0:
364,159,136317,1,0,1:0:0:0:
317,257,136484,1,0,3:0:0:0:
215,280,136651,1,2,3:2:0:0:
45,19,137817,5,10,1:0:0:0:
153,42,137984,1,0,1:0:0:0:
129,148,138151,1,0,3:0:0:0:
18,126,138317,1,2,3:2:0:0:
18,126,138817,5,10,1:0:0:0:
118,62,138984,1,0,1:0:0:0:
229,99,139151,1,0,3:0:0:0:
251,211,139317,1,2,3:2:0:0:
78,359,139734,5,0,3:0:0:0:
78,359,139817,2,0,P|68:312|61:282,1,70,0|0,3:0|3:0,0:0:0:0:
146,225,140151,2,0,B|138:307|192:277|179:380,1,140,0|6,3:0|1:2,0:0:0:0:
188,364,140817,5,0,1:0:0:0:
188,364,140984,2,0,P|266:339|355:339,1,140,2|0,0:0|0:0,0:0:0:0:
402,375,141484,2,0,P|462:370|492:289,1,140,2|0,1:2|1:0,0:0:0:0:
405,275,141984,2,0,P|411:196|441:136,1,140,2|0,0:0|0:0,0:0:0:0:
511,96,142484,2,0,P|455:96|408:20,1,140,2|2,1:2|1:2,0:0:0:0:
209,224,143067,5,0,1:0:0:0:
209,224,143151,2,0,L|303:205,1,70,4|8,1:2|0:3,0:0:0:0:
321,203,143401,2,0,L|308:266,1,35,8|8,0:3|1:3,0:0:0:0:
295,68,143651,5,4,0:3:0:0:
295,68,143734,1,4,0:3:0:0:
295,68,143817,1,4,1:3:0:0:
175,102,143984,5,0,1:0:0:0:
175,102,144067,1,0,1:0:0:0:
175,102,144151,2,0,P|190:31|200:8,1,83.9999974365235,6|0,1:2|3:0,0:0:0:0:
92,171,144484,5,2,1:2:0:0:
0,142,144651,1,0,3:0:0:0:
92,260,144817,5,0,1:0:0:0:
204,205,144984,1,0,3:0:0:0:
280,137,145151,5,8,1:3:0:0:
402,216,145317,1,4,1:3:0:0:
496,191,145484,5,8,0:0:0:0:
496,191,145567,1,8,0:0:0:0:
496,191,145651,1,8,0:0:0:0:
496,191,145734,1,8,0:0:0:0:
496,191,145817,6,0,P|466:115|498:45,1,125.999996154785,6|0,1:2|1:0,0:0:0:0:
492,42,146151,1,8,3:2:0:0:
307,112,146317,2,0,P|322:47|322:23,1,83.9999974365235,2|2,1:2|3:2,0:0:0:0:
392,221,146651,1,2,1:2:0:0:
392,221,146817,2,0,P|307:229|257:307,1,167.999994873047,10|6,3:2|1:2,0:0:0:0:
178,192,147317,5,2,0:0:0:0:
178,192,147401,1,2,1:2:0:0:
178,192,147484,2,0,P|121:207|88:210,1,83.9999974365235,10|0,3:2|1:0,0:0:0:0:
21,352,147817,2,0,P|62:357|102:369,1,83.9999974365235,2|2,3:2|1:2,0:0:0:0:
255,318,148151,1,10,3:2:0:0:
255,318,148234,1,8,0:0:0:0:
255,318,148317,1,8,0:0:0:0:
255,318,148401,1,8,0:0:0:0:
255,318,148484,6,0,B|333:306|287:364|399:351,1,125.999996154785,6|0,1:2|1:0,0:0:0:0:
397,331,148817,2,0,P|468:319|497:318,1,83.9999974365235,8|0,3:2|1:0,0:0:0:0:
508,185,149151,5,2,3:2:0:0:
418,95,149317,1,0,1:2:0:0:
322,162,149484,1,10,3:2:0:0:
322,162,149817,6,0,B|274:168|274:168|253:193|253:193|176:203,1,125.999996154785,2|0,1:2|1:0,0:0:0:0:
173,198,150151,1,8,3:2:0:0:
275,82,150317,1,2,1:2:0:0:
156,11,150484,1,8,3:2:0:0:
156,11,150567,1,8,0:0:0:0:
156,11,150651,1,8,0:0:0:0:
156,11,150734,1,8,0:0:0:0:
156,11,150817,6,0,P|77:22|50:86,1,125.999996154785,4|2,1:2|1:2,0:0:0:0:
55,92,151150,1,10,3:2:0:0:
159,210,151317,2,0,P|174:145|187:114,1,83.9999974365235,2|0,1:2|3:0,0:0:0:0:
67,255,151650,1,0,1:0:0:0:
198,107,151817,2,0,P|275:135|275:242,1,167.999994873047,12|0,1:0|1:0,0:0:0:0:
228,349,152317,5,2,0:0:0:0:
228,349,152400,1,2,1:0:0:0:
228,349,152483,2,0,P|267:334|308:329,1,83.9999974365235,10|0,3:2|1:0,0:0:0:0:
470,376,152817,2,0,P|455:336|450:295,1,83.9999974365235,2|0,3:2|1:0,0:0:0:0:
509,149,153150,1,8,3:2:0:0:
509,149,153233,1,8,0:0:0:0:
509,149,153317,1,8,0:0:0:0:
509,149,153400,1,8,0:0:0:0:
509,149,153483,6,0,P|475:192|383:185,1,125.999996154785,6|0,1:2|1:0,0:0:0:0:
382,179,153817,1,8,0:0:0:0:
423,41,153983,2,0,B|344:18|344:18|289:48|314:100,1,167.999994873047,6|8,1:0|0:0,0:0:0:0:
207,216,154483,2,0,B|133:215|183:260|52:256,1,125.999996154785,8|0,1:0|0:0,0:0:0:0:
18,299,154817,6,0,L|2:243,3,41.9999987182618,10|2|2|2,1:2|3:2|3:2|3:2,0:0:0:0:
0,216,155150,2,0,L|16:160,3,41.9999987182618,2|2|2|2,1:2|3:2|3:2|3:2,0:0:0:0:
30,130,155483,5,2,1:2:0:0:
60,116,155567,1,2,3:2:0:0:
93,119,155650,1,2,3:2:0:0:
119,138,155733,1,2,3:2:0:0:
132,169,155817,1,2,1:2:0:0:
151,196,155900,1,2,3:2:0:0:
181,210,155983,1,2,3:2:0:0:
214,209,156067,1,2,3:2:0:0:
242,191,156150,1,4,1:2:0:0:
466,18,158817,5,14,1:2:0:0:
466,18,159150,1,2,0:0:0:0:
482,107,159317,5,8,1:3:0:0:
399,83,159483,1,4,1:3:0:0:
316,58,159650,1,0,1:0:0:0:
247,110,159817,5,8,0:0:0:0:
266,204,159983,1,0,1:2:0:0:
247,110,160150,1,0,1:2:0:0:
177,176,160317,5,4,1:3:0:0:
94,201,160484,1,8,1:3:0:0:
11,225,160650,1,8,0:0:0:0:
30,142,160817,5,0,1:0:0:0:
94,201,160983,1,0,1:0:0:0:
156,260,161150,2,0,P|148:324|143:345,1,70,8|4,0:0|1:3,0:0:0:0:
256,380,161483,6,0,B|243:272|302:312|276:207,1,167.999994873047,4|2,1:2|0:0,0:0:0:0:
107,11,162650,5,0,0:0:0:0:
107,11,162817,2,0,P|54:46|-4:37,1,112,6|2,1:0|0:0,0:0:0:0:
249,70,163483,6,0,P|328:84|394:101,1,140,2|2,0:0|0:0,0:0:0:0:
510,305,164150,6,0,B|428:296|456:346|356:346,1,154.000004699707,6|0,1:2|1:0,0:0:0:0:
319,374,164567,1,0,3:0:0:0:
319,374,164650,2,0,P|330:291|338:270,1,77.0000023498536,2|0,3:2|1:0,0:0:0:0:
437,175,164983,1,0,3:0:0:0:
437,175,165067,1,0,3:0:0:0:
437,175,165150,2,0,P|371:179|323:102,1,154.000004699707,2|0,1:2|1:0,0:0:0:0:
191,205,165650,5,2,3:2:0:0:
191,205,165733,1,0,3:0:0:0:
191,205,165816,2,0,P|122:213|92:223,1,77.0000023498536,0|0,1:0|3:0,0:0:0:0:
19,109,166150,2,0,L|34:53,1,38.5000011749268,2|0,1:2|3:0,0:0:0:0:
48,28,166316,2,0,L|114:15,1,38.5000011749268,0|0,3:0|3:0,0:0:0:0:
149,70,166483,1,2,1:2:0:0:
185,81,166566,1,0,3:0:0:0:
222,69,166650,1,0,3:0:0:0:
246,40,166733,1,0,3:0:0:0:
248,2,166816,6,0,P|268:102|279:206,1,175,6|0,1:2|0:0,0:0:0:0:
372,200,167316,6,0,P|342:285|335:401,1,175,6|0,1:2|0:0,0:0:0:0:
249,274,167816,6,0,P|223:343|108:331,1,181.999991668702,6|0,1:2|0:0,0:0:0:0:
26,87,169483,6,0,B|103:125|180:213|55:328|-67:245|-14:89|69:93|142:133|140:7|140:7|132:41|96:58,1,525,6|0,1:0|0:0,0:0:0:0:
119,63,170816,6,0,B|189:106|281:31|281:31|223:72|244:130,1,280,6|0,1:0|0:0,0:0:0:0:
500,208,172150,6,0,B|461:188|461:188|410:190|385:238,1,125.999996154785,6|0,1:2|1:0,0:0:0:0:
386,255,172483,1,10,0:0:0:0:
259,374,172650,2,0,B|220:296|318:307|248:208,1,154.000004699707,2|0,1:2|1:0,0:0:0:0:
175,90,173150,1,10,0:0:0:0:
255,215,173316,2,0,B|222:185|175:187|175:187|156:231|99:236,1,154.000004699707,2|0,1:2|1:0,0:0:0:0:
263,115,173816,2,0,P|277:47|283:29,1,77.0000023498536,8|0,0:0|1:0,0:0:0:0:
201,0,174150,1,2,3:2:0:0:
79,117,174316,1,0,1:0:0:0:
79,117,174400,1,0,1:0:0:0:
79,117,174483,2,0,L|20:129,3,38.5000011749268,10|8|8|8,0:0|0:0|0:0|0:0,0:0:0:0:
0,209,174816,6,0,P|55:242|143:203,1,154.000004699707,2|6,1:2|1:2,0:0:0:0:
211,355,175316,5,2,0:0:0:0:
211,355,175483,2,0,P|267:323|277:228,1,154.000004699707,2|2,1:2|1:2,0:0:0:0:
419,180,175983,5,0,3:2:0:0:
419,180,176150,2,0,P|420:115|342:59,1,154.000004699707,2|6,1:2|1:2,0:0:0:0:
250,3,176650,2,0,P|228:48|234:86,1,77.0000023498536,2|0,0:0|1:0,0:0:0:0:
255,107,176900,1,0,3:0:0:0:
255,107,176983,2,0,L|244:164,1,38.5000011749268,2|0,3:2|1:0,0:0:0:0:
200,207,177150,2,0,L|211:264,1,38.5000011749268,2|4,1:2|0:3,0:0:0:0:
253,311,177316,2,0,L|242:368,1,38.5000011749268,6|4,0:3|0:3,0:0:0:0:
314,380,177483,6,0,P|220:356|159:364,1,125.999996154785,6|0,1:2|1:0,0:0:0:0:
158,369,177816,1,10,0:0:0:0:
283,273,177983,1,0,1:0:0:0:
121,184,178150,2,0,P|115:223|98:283,1,83.9999974365235,2|0,3:2|1:0,0:0:0:0:
381,175,178483,2,0,P|370:134|363:92,1,83.9999974365235,14|2,0:1|0:0,0:0:0:0:
269,11,178816,6,0,P|276:51|201:94,1,115.50000352478,4|0,0:3|1:0,0:0:0:0:
189,77,179150,2,0,P|148:66|112:58,1,77.0000023498536,10|0,0:0|1:0,0:0:0:0:
0,210,179483,2,0,P|40:199|77:193,1,77.0000023498536,2|0,3:2|1:0,0:0:0:0:
187,354,179816,1,10,0:0:0:0:
187,354,179900,1,8,0:0:0:0:
187,354,179983,1,8,0:0:0:0:
187,354,180066,1,8,0:0:0:0:
187,354,180150,6,0,B|282:364|228:284|367:306,1,167.999994873047,6|0,1:2|3:0,0:0:0:0:
422,351,180566,1,0,3:0:0:0:
422,351,180650,2,0,P|370:260|393:179,1,167.999994873047,6|0,1:0|3:0,0:0:0:0:
479,222,181066,1,0,3:0:0:0:
479,222,181150,2,0,P|475:151|444:123,1,83.9999974365235,6|0,1:0|3:0,0:0:0:0:
398,67,181400,1,0,3:0:0:0:
398,67,181483,6,0,B|382:105|334:114|334:114|290:79|229:81,1,167.999994873047,6|0,1:2|3:0,0:0:0:0:
170,11,181900,1,0,3:0:0:0:
170,11,181983,2,0,P|143:42|143:83,1,83.9999974365235,6|0,1:0|3:0,0:0:0:0:
195,177,182233,1,0,3:0:0:0:
195,177,182316,2,0,L|180:257,1,41.9999987182618,0|0,3:0|3:0,0:0:0:0:
173,258,182483,1,8,0:3:0:0:
213,266,182566,1,8,0:3:0:0:
253,253,182650,1,4,0:3:0:0:
282,222,182733,1,4,0:3:0:0:
286,180,182816,5,2,1:2:0:0:
367,309,182983,2,0,L|408:301,1,41.9999987182618,0|2,1:0|0:0,0:0:0:0:
502,169,183316,6,0,B|411:146|453:226|346:196,1,146.999995513916,2|0,1:2|0:0,0:0:0:0:
274,138,183650,6,0,B|217:118|217:118|162:127|122:156,1,157.500006008148,2|0,1:2|0:0,0:0:0:0:
59,279,183983,6,0,B|91:318|146:301|146:301|208:242|224:314|297:240,1,238.00000453949,14|0,1:2|1:0,0:0:0:0:
277,259,184483,6,0,P|291:200|270:157,1,83.9999974365235,8|0,0:0|0:0,0:0:0:0:
241,17,184816,5,8,1:3:0:0:
218,33,184928,1,8,1:3:0:0:
190,31,185039,1,8,1:3:0:0:
115,61,185150,5,4,1:3:0:0:
92,45,185262,1,4,1:3:0:0:
64,47,185373,1,4,1:3:0:0:
1,95,185483,6,0,P|18:187|24:269,2,140,0|4|2,1:0|1:2|1:2,0:0:0:0:
116,182,186316,1,0,3:0:0:0:
191,116,186483,2,0,P|245:127|280:127,1,70,2|0,1:2|3:0,0:0:0:0:
152,268,186816,6,0,B|238:267|197:327|293:315,1,140,2|4,1:2|1:2,0:0:0:0:
380,247,187316,1,2,0:0:0:0:
477,364,187483,2,0,L|487:322,3,35,0|0|0|0,1:0|3:0|3:0|1:0,0:0:0:0:
510,290,187816,2,0,L|500:248,3,35,0|4|4|4,1:0|0:3|0:3|0:3,0:0:0:0:
490,165,188150,6,0,P|443:206|332:199,1,167.999994873047,6|0,1:0|3:0,0:0:0:0:
277,131,188566,1,0,3:0:0:0:
277,131,188650,2,0,B|285:64|347:69|347:69|301:84|298:131,1,167.999994873047,6|0,1:2|3:0,0:0:0:0:
245,217,189066,1,0,3:0:0:0:
245,217,189150,2,0,B|180:204|180:204|148:231|148:231|65:213,1,167.999994873047,6|2,1:0|3:2,0:0:0:0:
2,269,189566,1,0,3:0:0:0:
2,269,189650,2,0,B|40:249|40:249|83:181|48:102,1,167.999994873047,4|0,1:2|3:0,0:0:0:0:
14,41,190066,1,0,3:0:0:0:
14,41,190150,2,0,L|87:19,1,41.9999987182618,6|0,1:0|3:0,0:0:0:0:
146,14,190316,2,0,L|186:26,1,41.9999987182618,0|0,3:0|3:0,0:0:0:0:
259,139,190483,5,2,1:2:0:0:
294,162,190566,1,0,3:0:0:0:
331,143,190650,1,2,3:2:0:0:
368,163,190733,1,0,3:0:0:0:
406,159,190816,6,0,P|429:124|345:44,1,175,6|0,1:2|0:0,0:0:0:0:
262,83,191316,6,0,P|238:173|232:258,1,175,6|0,1:2|0:0,0:0:0:0:
288,356,191816,6,0,B|319:310|377:311|377:311|401:348|449:346,1,175,6|0,1:2|0:0,0:0:0:0:
509,279,192316,6,0,B|487:234|487:210|487:210|509:181|509:181|503:139|471:90,1,175,6|0,1:2|0:0,0:0:0:0:
412,60,192816,6,0,P|362:54|328:120,1,115.50000352478,6|0,1:2|0:0,0:0:0:0:
387,175,193150,6,0,P|353:215|276:183,1,115.50000352478,6|0,1:2|0:0,0:0:0:0:
210,147,193483,6,0,B|98:124|145:196|24:174,1,175,6|0,1:2|0:0,0:0:0:0:
10,60,193983,6,0,B|47:62|95:19|95:19|56:55|63:101,1,175,6|0,1:2|0:0,0:0:0:0:
136,199,194483,6,0,B|42:178|42:178|-9:198|15:263,1,175,6|0,1:2|0:0,0:0:0:0:
82,341,194983,6,0,B|60:348|42:365|42:365|47:312|98:294|143:321,1,175,6|0,1:2|0:0,0:0:0:0:
256,364,195483,6,0,B|229:345|229:345|211:301|267:240,1,115.50000352478,6|0,1:2|0:0,0:0:0:0:
336,234,195816,6,0,B|369:200|351:156|351:156|324:137,1,115.50000352478,6|0,1:2|0:0,0:0:0:0:
197,185,196150,6,0,P|227:110|227:-1,1,167.999994873047,6|0,1:2|3:0,0:0:0:0:
323,4,196566,1,0,3:0:0:0:
323,4,196650,2,0,P|349:44|459:41,1,167.999994873047,6|0,1:0|3:0,0:0:0:0:
512,129,197066,1,0,3:0:0:0:
512,129,197150,2,0,B|446:158|446:158|433:204|431:270,1,167.999994873047,6|0,1:2|3:0,0:0:0:0:
483,336,197566,1,0,3:0:0:0:
483,336,197650,2,0,B|449:326|434:290|434:290|406:335|345:345,1,167.999994873047,6|0,1:0|3:0,0:0:0:0:
257,362,198066,1,0,3:0:0:0:
257,362,198150,6,0,L|272:289,3,41.9999987182618,6|0|8|8,1:2|1:0|0:3|0:3,0:0:0:0:
285,277,198483,1,4,0:3:0:0:
271,246,198566,1,4,0:3:0:0:
242,227,198650,1,4,0:3:0:0:
208,225,198733,1,4,0:3:0:0:
176,238,198816,6,0,B|83:227|131:302|8:282,1,167.999994873047,6|0,1:2|3:0,0:0:0:0:
8,185,199233,1,0,3:0:0:0:
8,185,199316,2,0,B|-10:88|-10:88|18:52|65:69,1,167.999994873047,6|0,1:0|3:0,0:0:0:0:
144,104,199733,1,0,3:0:0:0:
144,104,199816,2,0,B|255:72|255:72|230:100|243:136,1,167.999994873047,6|0,1:2|3:0,0:0:0:0:
291,212,200233,1,0,3:0:0:0:
291,212,200316,2,0,B|225:253|225:253|235:302|254:351,1,167.999994873047,6|0,1:0|3:0,0:0:0:0:
348,381,200733,1,0,3:0:0:0:
348,381,200816,6,2,B|414:340|414:340|404:291|385:242,1,167.999994873047,2|4,1:2|1:2,0:1:0:0:
496,127,201733,5,0,1:0:0:0:
496,127,201816,1,8,3:2:0:0:
415,25,201983,2,0,P|369:84|276:73,1,167.999994873047,2|0,1:2|1:0,0:0:0:0:
119,23,202483,2,0,P|163:108|164:197,1,167.999994873047,10|4,3:2|1:2,0:0:0:0:
297,209,202983,5,2,1:2:0:0:
297,209,203066,1,0,1:0:0:0:
297,209,203150,2,0,P|276:264|275:312,1,83.9999974365235,8|0,3:2|1:0,0:0:0:0:
180,384,203483,2,0,P|140:337|30:336,1,167.999994873047,2|10,3:2|3:2,0:0:0:0:
39,331,204150,6,0,P|67:287|48:211,1,125.999996154785,6|0,1:2|1:0,0:0:0:0:
30,185,204483,1,8,3:2:0:0:
170,260,204650,2,0,P|252:234|360:230,1,167.999994873047,2|0,1:2|1:0,0:0:0:0:
486,146,205150,2,0,P|418:137|406:32,1,167.999994873047,10|4,3:2|1:2,0:0:0:0:
257,97,205650,5,2,1:2:0:0:
257,97,205733,1,0,1:0:0:0:
257,97,205816,2,0,P|274:25|274:-10,1,83.9999974365235,8|0,3:2|1:0,0:0:0:0:
380,169,206150,2,0,B|292:151|331:241|206:206,1,167.999994873047,0|8,3:0|3:2,0:0:0:0:
184,209,206566,1,8,0:0:0:0:
148,232,206650,1,8,0:0:0:0:
145,273,206733,1,8,0:0:0:0:
167,308,206816,6,0,P|233:323|263:338,1,83.9999974365235,2|2,1:2|0:0,0:0:0:0:
381,375,207150,2,0,P|371:307|372:268,1,83.9999974365235,6|2,1:2|0:0,0:0:0:0:
474,228,207483,5,2,1:2:0:0:
425,117,207650,1,2,3:2:0:0:
384,198,207816,5,0,1:0:0:0:
511,140,207983,1,0,3:0:0:0:
414,18,208150,6,0,P|368:31|327:38,1,83.9999974365235,2|2,1:2|0:0,0:0:0:0:
186,129,208483,1,4,1:2:0:0:
253,10,208650,1,2,0:0:0:0:
341,163,208816,2,0,L|329:231,3,41.9999987182618,0|0|0|0,1:0|3:0|3:0|1:0,0:0:0:0:
328,254,209150,1,0,1:0:0:0:
299,236,209233,1,4,3:0:0:0:
265,231,209316,1,4,3:0:0:0:
233,243,209400,1,4,3:0:0:0:
210,271,209483,6,1,B|253:155|168:200|204:89,1,181.999991668702,6|0,1:2|3:0,0:0:0:0:
105,22,209983,1,2,3:2:0:0:
105,22,210150,2,0,P|94:72|78:117,1,83.9999974365235,0|0,3:0|3:0,0:0:0:0:
305,64,210483,2,1,P|321:140|333:172,1,83.9999974365235,2|0,1:2|3:0,0:0:0:0:
210,271,210816,5,4,1:0:0:0:
311,358,210983,1,2,3:2:0:0:
311,358,211066,1,0,3:0:0:0:
311,358,211150,2,0,L|324:298,3,41.9999987182618,0|0|0|0,1:0|3:0|3:0|3:0,0:0:0:0:
328,273,211483,1,2,1:2:0:0:
353,251,211566,1,0,3:0:0:0:
386,251,211650,1,0,3:0:0:0:
414,268,211733,1,0,3:0:0:0:
432,295,211816,1,2,1:2:0:0:
465,302,211900,1,0,3:0:0:0:
495,288,211983,2,1,P|511:227|490:190,1,83.9999974365235,4|0,3:1|0:0,0:0:0:0:
