osu file format v14

[General]
AudioFilename: audio.mp3
AudioLeadIn: 0
PreviewTime: 168390
Countdown: 0
SampleSet: Soft
StackLeniency: 0.7
Mode: 0
LetterboxInBreaks: 0
EpilepsyWarning: 1
WidescreenStoryboard: 1

[Editor]
Bookmarks: 178140
DistanceSpacing: 1.2
BeatDivisor: 4
GridSize: 32
TimelineZoom: 2.699999

[Metadata]
Title:Into Gray
TitleUnicode:Into Gray
Artist:yuki
ArtistUnicode:yuki
Creator:Bellicose
Version:Hard.
Source:白昼夢の青写真
Tags:eroge momo 緒乃ワサビ case-0 case 0 Laplacian Hakuchuumu no Aojashin The girl who's whos called the world japanese pop rock full version opening op visual novel vn video game lasse kalibe dored koiyuki minakami mtbbsben
BeatmapID:2848149
BeatmapSetID:1373789

[Difficulty]
HPDrainRate:4
CircleSize:3.6
OverallDifficulty:6
ApproachRate:8
SliderMultiplier:1.4
SliderTickRate:1

[Events]
//Background and Video events
0,0,"bg2.png",0,0
//Break Periods
2,24606,35700
2,103350,112734
//Storyboard Layer 0 (Background)
Sprite,Background,Centre,"bg2.png",320,240
//Storyboard Layer 1 (Fail)
//Storyboard Layer 2 (Pass)
//Storyboard Layer 3 (Foreground)
Sprite,Foreground,Centre,"Dream\Other\Bellicose.png",320,240 M,0,10112,10288,500,150,508,150 F,0,10112,10465,0,1 S,0,10112,13112,0.45 M,0,12935,13112,508,150,516,150 F,0,12935,13112,1,0
//Storyboard Layer 4 (Overlay)
//Storyboard Sound Samples

[TimingPoints]
1818,352.941176470588,4,2,1,30,1,0
1818,-111.111111111111,4,2,1,30,0,0
12406,-111.111111111111,4,2,2,15,0,0
13112,-111.111111111111,4,2,2,35,0,0
24406,-111.111111111111,4,2,80,20,0,0
24759,-111.111111111111,4,2,1,30,0,0
34112,-111.111111111111,4,2,1,30,0,0
35700,-111.111111111111,4,2,99,5,0,0
36935,-111.111111111111,4,2,1,30,0,0
37112,-111.111111111111,4,2,1,50,0,0
37818,333.333333333333,4,2,1,50,1,0
37818,-100,4,2,1,70,0,0
37984,-100,4,2,1,70,0,0
39818,-100,4,2,1,70,0,0
40068,-100,4,2,1,5,0,0
40151,-100,4,2,1,70,0,0
40401,-100,4,2,1,5,0,0
40484,-100,4,2,1,70,0,0
45817,-100,4,2,1,70,0,0
45901,-100,4,2,1,5,0,0
45984,-100,4,2,1,70,0,0
46067,-100,4,2,1,5,0,0
46151,-100,4,2,1,70,0,0
47234,-100,4,2,1,5,0,0
47317,-100,4,2,1,70,0,0
48484,-111.111111111111,4,2,1,60,0,0
48817,-111.111111111111,4,2,3,50,0,0
49317,-111.111111111111,4,2,2,50,0,0
49651,-111.111111111111,4,2,3,50,0,0
50817,-111.111111111111,4,2,3,50,0,0
50984,-111.111111111111,4,2,3,50,0,0
51151,-111.111111111111,4,2,3,50,0,0
52317,-111.111111111111,4,2,1,50,0,0
52484,-111.111111111111,4,2,3,50,0,0
53817,-111.111111111111,4,2,1,50,0,0
53984,-111.111111111111,4,2,3,50,0,0
54484,-111.111111111111,4,2,1,50,0,0
55151,-111.111111111111,4,2,3,50,0,0
55984,-111.111111111111,4,2,1,50,0,0
56151,-111.111111111111,4,2,1,50,0,0
56317,-111.111111111111,4,2,3,50,0,0
57651,-111.111111111111,4,2,1,50,0,0
58151,-111.111111111111,4,2,3,50,0,0
58651,-111.111111111111,4,2,1,50,0,0
59151,-100,4,2,1,60,0,0
59484,-100,4,2,4,60,0,0
64484,-100,4,2,1,60,0,0
64651,-100,4,2,4,60,0,0
66817,-100,4,2,4,60,0,0
67067,-100,4,2,4,5,0,0
67151,-100,4,2,1,70,0,0
69817,-100,4,2,1,60,0,0
70151,-100,4,2,1,50,0,0
72484,-100,4,2,1,60,0,0
75151,-111.111111111111,4,2,1,50,0,0
76484,-111.111111111111,4,2,1,60,0,0
77151,-111.111111111111,4,2,1,70,0,0
77651,-111.111111111111,4,2,2,60,0,0
77817,-111.111111111111,4,2,1,50,0,0
79484,-111.111111111111,4,2,1,50,0,0
80484,-90.9090909090909,4,2,1,75,0,1
81734,-90.9090909090909,4,2,1,5,0,1
81817,-90.9090909090909,4,2,1,75,0,1
82484,-90.9090909090909,4,2,1,75,0,1
82817,-90.9090909090909,4,2,1,75,0,1
82901,-90.9090909090909,4,2,1,5,0,1
82984,-90.9090909090909,4,2,1,75,0,1
83067,-90.9090909090909,4,2,1,5,0,1
83151,-90.9090909090909,4,2,1,75,0,1
83651,-90.9090909090909,4,2,1,75,0,1
84234,-90.9090909090909,4,2,1,5,0,1
84317,-90.9090909090909,4,2,1,75,0,1
85151,-90.9090909090909,4,2,4,75,0,1
85317,-90.9090909090909,4,2,1,75,0,1
85817,-90.9090909090909,4,2,1,70,0,0
85984,-90.9090909090909,4,2,4,70,0,0
86151,-90.9090909090909,4,2,1,70,0,0
86317,-90.9090909090909,4,2,4,70,0,0
86484,-90.9090909090909,4,2,1,70,0,0
86651,-90.9090909090909,4,2,4,70,0,0
86817,-90.9090909090909,4,2,1,70,0,0
86984,-90.9090909090909,4,2,4,70,0,0
87151,-90.9090909090909,4,2,1,70,0,0
87234,-90.9090909090909,4,2,2,70,0,0
87484,-90.9090909090909,4,2,1,70,0,0
88317,-90.9090909090909,4,2,2,70,0,0
88484,-90.9090909090909,4,2,1,75,0,0
89151,-90.9090909090909,4,2,4,75,0,0
89317,-90.9090909090909,4,2,1,75,0,0
89817,-90.9090909090909,4,2,1,75,0,0
90484,-90.9090909090909,4,2,4,75,0,0
90651,-90.9090909090909,4,2,1,75,0,0
91151,-90.9090909090909,4,2,1,80,0,1
91317,-90.9090909090909,4,2,1,80,0,1
93984,-90.9090909090909,4,2,1,80,0,1
94317,-90.9090909090909,4,2,1,80,0,1
94651,-90.9090909090909,4,2,1,80,0,1
94984,-90.9090909090909,4,2,1,85,0,1
95317,-90.9090909090909,4,2,1,80,0,1
96484,-90.9090909090909,4,2,1,75,0,0
96651,-90.9090909090909,4,2,4,75,0,0
96817,-90.9090909090909,4,2,3,75,0,0
96984,-90.9090909090909,4,2,1,75,0,0
97317,-90.9090909090909,4,2,4,75,0,0
97484,-90.9090909090909,4,2,1,75,0,0
97651,-90.9090909090909,4,2,4,75,0,0
97817,-90.9090909090909,4,2,1,75,0,0
98151,-90.9090909090909,4,2,3,75,0,0
98317,-90.9090909090909,4,2,1,75,0,0
99817,-90.9090909090909,4,2,1,77,0,0
100317,-90.9090909090909,4,2,1,79,0,0
100817,-90.9090909090909,4,2,1,82,0,0
101151,-90.9090909090909,4,2,1,84,0,0
101484,-90.9090909090909,4,2,1,86,0,0
101817,-111.111111111111,4,2,1,70,0,0
103151,-100,4,2,1,50,0,0
103317,-100,4,2,3,50,0,0
108484,-100,4,2,1,50,0,0
108651,-100,4,2,3,50,0,0
112317,-100,4,2,1,50,0,0
112484,-100,4,2,3,50,0,0
113484,-100,4,2,1,50,0,0
113817,-111.111111111111,4,2,5,60,0,0
114817,-111.111111111111,4,2,5,60,0,0
115067,-111.111111111111,4,2,5,5,0,0
115151,-111.111111111111,4,2,5,60,0,0
115817,-111.111111111111,4,2,5,60,0,0
116484,-111.111111111111,4,2,5,60,0,0
117484,-111.111111111111,4,2,5,60,0,0
117734,-111.111111111111,4,2,5,5,0,0
117817,-111.111111111111,4,2,5,60,0,0
118817,-111.111111111111,4,2,5,60,0,0
119067,-111.111111111111,4,2,5,5,0,0
119151,-111.111111111111,4,2,5,60,0,0
120151,-111.111111111111,4,2,5,60,0,0
120401,-111.111111111111,4,2,5,5,0,0
120484,-111.111111111111,4,2,5,60,0,0
121317,-111.111111111111,4,2,5,60,0,0
121817,-111.111111111111,4,2,5,60,0,0
122817,-111.111111111111,4,2,5,60,0,0
123067,-111.111111111111,4,2,5,5,0,0
123151,-100,4,2,5,60,0,0
123817,-111.111111111111,4,2,5,70,0,0
124151,-100,4,2,1,60,0,0
126984,-100,4,2,4,60,0,0
127151,-100,4,2,1,60,0,0
129651,-100,4,2,4,60,0,0
129817,-100,4,2,1,60,0,0
130734,-100,4,2,1,5,0,0
130817,-100,4,2,1,60,0,0
130901,-100,4,2,1,5,0,0
130984,-100,4,2,1,60,0,0
131234,-100,4,2,1,5,0,0
131317,-100,4,2,1,60,0,0
132151,-100,4,2,1,60,0,0
132317,-100,4,2,4,60,0,0
132484,-100,4,2,1,70,0,0
132651,-100,4,2,4,70,0,0
132817,-100,4,2,1,70,0,0
132984,-100,4,2,4,70,0,0
133484,-100,4,2,1,70,0,0
133651,-100,4,2,4,70,0,0
133817,-100,4,2,1,70,0,0
133984,-100,4,2,4,70,0,0
134317,-100,4,2,1,70,0,0
135484,-100,4,2,2,70,0,0
135651,-100,4,2,4,70,0,0
136151,-100,4,2,1,70,0,0
136484,-100,4,2,2,70,0,0
136651,-100,4,2,4,70,0,0
137817,-100,4,2,1,70,0,0
138151,-100,4,2,2,70,0,0
138317,-100,4,2,4,70,0,0
138817,-100,4,2,1,70,0,0
139151,-100,4,2,2,70,0,0
139317,-100,4,2,4,70,0,0
139734,-100,4,2,2,60,0,0
139817,-100,4,2,4,60,0,0
140151,-100,4,2,4,60,0,0
140484,-100,4,2,1,60,0,0
144151,-100,4,2,1,50,0,0
144484,-100,4,2,1,65,0,0
145151,-100,4,2,1,70,0,0
145484,-100,4,2,1,75,0,0
145817,-90.9090909090909,4,2,1,75,0,1
146151,-90.9090909090909,4,2,4,75,0,1
146317,-90.9090909090909,4,2,1,75,0,1
146484,-90.9090909090909,4,2,4,75,0,1
147151,-90.9090909090909,4,2,3,75,0,1
147317,-90.9090909090909,4,2,4,75,0,1
148484,-90.9090909090909,4,2,1,75,0,1
148651,-90.9090909090909,4,2,4,75,0,1
150817,333.333333333333,4,2,4,75,1,1
150817,-90.9090909090909,4,2,1,75,0,1
150983,-90.9090909090909,4,2,4,75,0,1
151817,-90.9090909090909,4,2,1,75,0,1
152483,-90.9090909090909,4,2,4,75,0,1
153483,-90.9090909090909,4,2,1,75,0,1
153650,-90.9090909090909,4,2,4,75,0,1
153983,-90.9090909090909,4,2,1,75,0,1
154733,-90.9090909090909,4,2,1,5,0,1
154817,-90.9090909090909,4,2,1,70,0,1
155483,-90.9090909090909,4,2,1,75,0,1
155817,-90.9090909090909,4,2,1,80,0,1
156150,-100,4,2,1,75,0,0
156483,-100,4,2,1,50,0,0
158817,-100,4,2,1,60,0,0
161483,-111.111111111111,4,2,1,50,0,0
162817,-111.111111111111,4,2,1,60,0,0
163483,-111.111111111111,4,2,1,70,0,0
164150,-100,4,2,1,70,0,0
166150,-100,4,2,1,75,0,0
166483,-100,4,2,1,80,0,0
166816,-100,4,2,1,80,0,0
167233,-100,4,2,1,5,0,0
167316,-100,4,2,1,80,0,0
167733,-100,4,2,1,5,0,0
167816,-90.9090909090909,4,2,1,80,0,0
168150,-100,4,2,1,10,0,0
168483,-111.111111111111,4,2,1,50,0,0
169483,-100,4,2,1,75,0,0
170733,-100,4,2,1,5,0,0
170816,-100,4,2,1,75,0,0
171400,-100,4,2,1,5,0,0
171483,-100,4,2,1,75,0,0
172066,-100,4,2,1,5,0,0
172150,-90.9090909090909,4,2,1,75,0,1
172650,-90.9090909090909,4,2,1,75,0,1
173233,-90.9090909090909,4,2,1,5,0,1
173316,-90.9090909090909,4,2,1,75,0,1
174150,-90.9090909090909,4,2,4,75,0,1
174316,-90.9090909090909,4,2,1,75,0,1
174816,-90.9090909090909,4,2,1,70,0,0
174983,-90.9090909090909,4,2,4,70,0,0
175150,-90.9090909090909,4,2,3,70,0,0
175316,-90.9090909090909,4,2,4,70,0,0
175650,-90.9090909090909,4,2,4,70,0,0
176150,-90.9090909090909,4,2,1,70,0,0
176483,-90.9090909090909,4,2,3,70,0,0
176650,-90.9090909090909,4,2,1,70,0,0
177316,-90.9090909090909,4,2,2,70,0,0
177483,-90.9090909090909,4,2,1,75,0,0
178150,-90.9090909090909,4,2,4,75,0,0
178316,-90.9090909090909,4,2,1,75,0,0
178816,-90.9090909090909,4,2,1,75,0,0
179483,-90.9090909090909,4,2,4,75,0,0
179650,-90.9090909090909,4,2,1,75,0,0
180150,-90.9090909090909,4,2,1,80,0,1
180316,-90.9090909090909,4,2,1,80,0,1
182983,-90.9090909090909,4,2,1,80,0,1
183316,-90.9090909090909,4,2,1,80,0,1
183566,-90.9090909090909,4,2,1,5,0,1
183650,-90.9090909090909,4,2,1,80,0,1
183900,-90.9090909090909,4,2,1,5,0,1
183983,-90.9090909090909,4,2,1,85,0,1
184316,-90.9090909090909,4,2,1,80,0,1
185483,-90.9090909090909,4,2,1,75,0,0
185650,-90.9090909090909,4,2,4,75,0,0
185816,-90.9090909090909,4,2,3,75,0,0
186316,-90.9090909090909,4,2,4,75,0,0
187150,-90.9090909090909,4,2,3,75,0,0
187483,-90.9090909090909,4,2,1,75,0,0
188816,-90.9090909090909,4,2,1,77,0,0
189316,-90.9090909090909,4,2,1,79,0,0
189816,-90.9090909090909,4,2,1,82,0,0
190150,-90.9090909090909,4,2,1,84,0,0
190483,-90.9090909090909,4,2,1,86,0,0
190816,-90.9090909090909,4,2,1,88,0,1
191233,-90.9090909090909,4,2,1,5,0,1
191316,-90.9090909090909,4,2,1,88,0,1
191733,-90.9090909090909,4,2,1,5,0,1
191816,-90.9090909090909,4,2,1,88,0,1
192233,-90.9090909090909,4,2,1,5,0,1
192316,-90.9090909090909,4,2,1,88,0,1
192733,-90.9090909090909,4,2,1,5,0,1
192816,-90.9090909090909,4,2,1,88,0,1
193066,-90.9090909090909,4,2,1,5,0,1
193150,-90.9090909090909,4,2,1,88,0,1
193400,-90.9090909090909,4,2,1,5,0,1
193483,-90.9090909090909,4,2,1,88,0,1
193900,-90.9090909090909,4,2,1,5,0,1
193983,-90.9090909090909,4,2,1,88,0,1
194400,-90.9090909090909,4,2,1,5,0,1
194483,-90.9090909090909,4,2,1,88,0,1
194900,-90.9090909090909,4,2,1,5,0,1
194983,-90.9090909090909,4,2,1,88,0,1
195400,-90.9090909090909,4,2,1,5,0,1
195483,-90.9090909090909,4,2,1,88,0,1
195733,-90.9090909090909,4,2,1,5,0,1
195816,-90.9090909090909,4,2,1,88,0,1
196066,-90.9090909090909,4,2,1,5,0,1
196150,-90.9090909090909,4,2,1,75,0,1
200816,-100,4,2,1,75,0,1
201400,-90.9090909090909,4,2,1,5,0,1
201483,-95.2380952380952,4,2,1,75,0,0
201816,-95.2380952380952,4,2,4,75,0,0
202816,-95.2380952380952,4,2,3,75,0,0
202983,-95.2380952380952,4,2,4,75,0,0
204066,-95.2380952380952,4,2,4,5,0,0
204150,-95.2380952380952,4,2,3,75,0,0
204483,-95.2380952380952,4,2,4,75,0,0
205483,-95.2380952380952,4,2,3,75,0,0
205650,-95.2380952380952,4,2,4,75,0,0
206816,-95.2380952380952,4,2,4,70,0,0
207150,-95.2380952380952,4,2,3,70,0,0
207316,-95.2380952380952,4,2,4,70,0,0
208483,-95.2380952380952,4,2,3,70,0,0
208816,-95.2380952380952,4,2,1,70,0,0
209483,-95.2380952380952,4,2,1,70,0,0
209733,-95.2380952380952,4,2,1,5,0,0
209816,-95.2380952380952,4,2,1,70,0,0
210483,-95.2380952380952,4,2,1,70,0,0
210816,-95.2380952380952,4,2,1,75,0,0
211483,-95.2380952380952,4,2,1,80,0,0
212150,-95.2380952380952,4,2,1,20,0,0

[Colours]
Combo1 : 124,234,239
Combo2 : 219,180,254
Combo3 : 153,210,249
Combo4 : 168,170,247

[HitObjects]
14,182,1818,6,0,P|93:160|150:164,1,125.999996154785,0|0,0:0|0:0,0:0:0:0:
206,203,2347,1,2,0:0:0:0:
356,12,3229,2,0,P|339:99|337:143,1,125.999996154785,0|0,0:0|0:0,0:0:0:0:
381,205,3759,1,2,0:0:0:0:
136,22,4641,2,0,P|174:73|156:131,1,125.999996154785,0|0,0:0|0:0,0:0:0:0:
98,184,5170,1,2,0:0:0:0:
257,384,6053,2,0,P|274:301|278:240,1,125.999996154785,0|0,0:0|0:0,0:0:0:0:
257,180,6582,1,2,0:0:0:0:
487,23,7465,6,0,B|447:72|447:72|473:153,1,125.999996154785,0|0,0:0|0:0,0:0:0:0:
494,208,7994,1,2,0:0:0:0:
273,73,8876,2,0,P|173:85|131:99,1,125.999996154785,0|0,0:0|0:0,0:0:0:0:
72,121,9406,1,2,0:0:0:0:
14,361,10288,2,0,B|65:325|65:325|130:351,1,125.999996154785,0|0,0:0|0:0,0:0:0:0:
199,380,10817,1,2,0:0:0:0:
484,241,11700,2,0,P|451:277|374:268,1,125.999996154785,0|0,0:0|0:0,0:0:0:0:
313,222,12229,1,2,0:0:0:0:
89,369,12935,5,0,3:0:0:0:
89,369,13112,2,0,P|105:274|109:225,1,125.999996154785,2|0,1:2|0:0,0:0:0:0:
35,218,13641,1,0,1:0:0:0:
35,218,13817,2,0,P|11:176|46:105,1,125.999996154785,8|0,0:0|1:0,0:0:0:0:
96,49,14347,1,2,0:0:0:0:
96,49,14523,2,0,P|174:59|240:77,2,125.999996154785,2|0|8,1:2|1:0|0:0,0:0:0:0:
182,284,15759,1,2,0:0:0:0:
182,284,15935,6,0,P|215:329|290:326,1,125.999996154785,2|0,1:2|0:0,0:0:0:0:
357,374,16465,1,0,1:0:0:0:
357,374,16641,2,0,P|374:292|399:228,1,125.999996154785,8|0,0:0|1:0,0:0:0:0:
470,233,17170,1,2,0:0:0:0:
470,233,17347,2,0,B|499:176|499:176|466:120,2,125.999996154785,2|0|8,1:2|1:0|0:0,0:0:0:0:
356,113,18406,1,2,0:0:0:0:
208,183,18759,6,0,P|131:169|71:164,2,125.999996154785,2|2|10,1:2|0:0|0:0,0:0:0:0:
291,43,19817,1,2,1:2:0:0:
291,43,19994,2,0,P|368:57|428:62,1,125.999996154785,2|0,0:0|0:0,0:0:0:0:
489,25,20523,2,0,P|459:57|450:146,1,125.999996154785,2|10,1:2|0:0,0:0:0:0:
487,294,21229,1,2,0:0:0:0:
343,372,21582,6,0,P|355:294|352:233,1,125.999996154785,2|2,1:2|0:0,0:0:0:0:
189,238,22288,2,0,P|177:316|180:377,1,125.999996154785,2|2,0:0|0:0,0:0:0:0:
343,372,22994,1,0,1:0:0:0:
343,372,23170,2,0,P|375:342|462:337,1,125.999996154785,0|2,1:0|1:2,0:0:0:0:
495,262,23700,2,0,P|488:223|483:180,1,62.9999980773926,8|0,0:0|1:0,0:0:0:0:
422,146,24053,2,0,P|383:153|340:158,1,62.9999980773926,8|0,0:0|0:0,0:0:0:0:
304,216,24406,5,2,0:0:0:0:
125,40,36935,5,2,0:0:0:0:
125,40,37112,2,0,P|71:66|66:138,1,125.999996154785,2|0,0:0|0:0,0:0:0:0:
217,239,37818,6,0,P|138:225|58:219,1,140,6|0,1:2|1:0,0:0:0:0:
29,298,38318,1,2,3:2:0:0:
29,298,38401,1,0,3:0:0:0:
29,298,38484,2,0,P|41:351|41:375,1,70,0|0,1:0|3:0,0:0:0:0:
134,315,38818,1,2,1:2:0:0:
207,368,38984,1,2,3:2:0:0:
296,322,39151,5,0,1:0:0:0:
296,322,39318,2,0,P|298:287|308:253,1,70,2|0,3:2|1:0,0:0:0:0:
250,185,39651,1,0,3:0:0:0:
250,185,39734,1,0,3:0:0:0:
250,185,39818,2,0,P|301:163|384:201,1,140,2|2,1:2|1:2,0:0:0:0:
481,43,40484,6,0,P|377:53|320:70,1,140,6|0,1:2|1:0,0:0:0:0:
265,13,40984,1,2,3:2:0:0:
265,13,41068,1,0,3:0:0:0:
265,13,41151,2,0,P|251:60|247:89,1,70,0|0,1:0|3:0,0:0:0:0:
273,167,41484,2,0,B|195:153|224:205|122:181,1,140,2|0,1:2|1:0,0:0:0:0:
47,245,41984,5,2,3:2:0:0:
47,245,42068,1,0,3:0:0:0:
47,245,42151,2,0,P|61:292|65:321,1,70,0|0,1:0|3:2,0:0:0:0:
127,378,42484,2,0,P|161:371|194:360,1,70,0|0,1:0|3:0,0:0:0:0:
285,371,42817,2,0,L|299:308,3,35,0|8|4|4,1:0|0:3|0:3|0:3,0:0:0:0:
304,292,43151,5,6,1:2:0:0:
259,213,43317,1,0,1:0:0:0:
323,148,43484,2,0,P|357:154|390:165,1,70,10|2,0:0|0:0,0:0:0:0:
471,122,43817,2,0,P|460:88|453:54,1,70,2|2,1:2|1:2,0:0:0:0:
373,9,44151,2,0,P|332:49|238:38,1,140,8|2,0:0|1:2,0:0:0:0:
157,9,44651,5,0,1:2:0:0:
83,62,44817,2,0,P|67:118|66:147,1,70,8|2,0:0|0:0,0:0:0:0:
128,196,45151,1,0,1:0:0:0:
210,158,45317,1,2,1:2:0:0:
284,210,45484,2,0,P|278:244|267:277,1,70,10|2,0:0|0:0,0:0:0:0:
227,379,45817,6,0,P|175:364|129:356,1,70,6|0,1:0|1:0,0:0:0:0:
59,384,46151,2,0,B|63:300|-1:348|7:229,1,140,12|0,0:0|1:0,0:0:0:0:
9,169,46651,2,0,P|113:181|176:200,1,140,0|8,1:0|0:0,0:0:0:0:
225,143,47151,1,0,1:0:0:0:
225,143,47317,2,0,P|236:78|235:51,1,70,2|8,1:2|0:0,0:0:0:0:
324,21,47651,1,8,0:0:0:0:
324,21,47734,1,8,0:0:0:0:
324,21,47817,1,8,1:3:0:0:
409,68,47984,1,4,1:3:0:0:
330,129,48151,1,2,1:2:0:0:
477,200,48484,6,0,B|438:232|438:232|432:276|473:312,1,125.999996154785,4|10,1:2|0:0,0:0:0:0:
392,356,48984,2,0,B|325:351|341:400|250:379,1,125.999996154785,2|2,3:2|3:2,0:0:0:0:
209,326,49484,1,2,3:2:0:0:
209,326,49651,1,0,1:0:0:0:
262,264,49817,2,0,P|281:195|250:140,1,125.999996154785,2|10,1:2|0:0,0:0:0:0:
239,68,50317,2,0,P|151:81|91:103,1,125.999996154785,2|2,3:2|1:2,0:0:0:0:
37,115,50817,2,0,P|28:156|26:184,1,62.9999980773926,10|2,0:0|3:2,0:0:0:0:
9,260,51151,5,0,1:0:0:0:
9,260,51317,2,0,P|48:222|135:233,1,125.999996154785,0|2,1:0|3:2,0:0:0:0:
189,368,51984,2,0,P|202:288|200:229,1,125.999996154785,2|8,0:0|0:0,0:0:0:0:
179,164,52484,2,0,B|216:132|216:132|261:128|291:166,1,125.999996154785,2|10,1:2|0:0,0:0:0:0:
339,220,52984,1,2,3:2:0:0:
467,118,53317,1,4,1:2:0:0:
467,118,53484,2,0,P|478:174|480:201,1,62.9999980773926,8|0,1:2|0:0,0:0:0:0:
512,264,53817,6,0,B|379:236|442:339|321:318|321:318|200:299|244:400|97:367,1,440.999986541748,4|8,1:2|0:0,0:0:0:0:
26,377,55151,2,0,P|6:304|52:254,1,125.999996154785,2|8,1:2|0:0,0:0:0:0:
103,227,55651,1,0,3:0:0:0:
226,334,55984,1,2,1:3:0:0:
226,334,56151,2,0,P|235:284|246:255,1,62.9999980773926,8|2,0:0|3:2,0:0:0:0:
302,220,56484,2,0,P|322:147|276:97,1,125.999996154785,2|8,1:2|0:0,0:0:0:0:
233,56,56984,1,0,3:0:0:0:
0,220,57651,1,8,0:0:0:0:
0,220,57817,6,0,P|51:202|135:190,1,125.999996154785,0|8,1:0|0:0,0:0:0:0:
197,223,58317,1,0,3:0:0:0:
109,96,58651,1,0,1:0:0:0:
109,96,58734,1,0,3:0:0:0:
109,96,58817,2,0,L|122:42,3,31.4999990386963,0|0|0|0,1:0|3:0|3:0|3:0,0:0:0:0:
130,21,59151,6,0,P|206:11|243:79,1,140,4|2,1:2|1:2,0:0:0:0:
334,40,59651,1,0,3:0:0:0:
334,40,59817,2,0,P|314:112|308:187,1,140,2|10,1:2|1:2,0:0:0:0:
235,231,60317,1,2,3:2:0:0:
235,231,60484,2,0,B|278:209|278:209|328:208|382:261,1,140,0|2,1:0|1:2,0:0:0:0:
428,303,60984,1,2,3:2:0:0:
506,257,61151,1,2,1:2:0:0:
512,76,61484,2,0,P|465:81|429:93,1,70,8|2,1:2|3:2,0:0:0:0:
404,62,61734,1,0,3:0:0:0:
404,62,61817,6,0,P|426:99|436:211,1,140,2|0,1:2|1:0,0:0:0:0:
361,242,62317,1,0,3:0:0:0:
361,242,62484,2,0,B|312:262|312:262|284:303|308:376,1,140,0|10,1:0|1:2,0:0:0:0:
208,286,62984,1,2,3:2:0:0:
140,355,63151,6,0,P|98:359|44:378,1,70,2|0,1:2|3:0,0:0:0:0:
4,303,63484,2,0,P|12:269|15:234,1,70,0|0,1:0|3:0,0:0:0:0:
74,165,63817,1,0,1:0:0:0:
167,203,63984,1,0,3:0:0:0:
167,203,64067,1,0,3:0:0:0:
167,203,64151,2,0,P|209:199|263:180,1,70,2|0,1:2|3:0,0:0:0:0:
308,121,64484,6,0,P|304:79|285:25,1,70,6|0,1:2|1:0,0:0:0:0:
391,9,64817,2,0,P|405:110|423:175,1,140,8|2,0:0|1:2,0:0:0:0:
496,185,65317,1,0,1:0:0:0:
498,276,65484,2,0,P|439:286|406:304,1,70,8|2,0:0|3:2,0:0:0:0:
407,331,65734,1,0,3:0:0:0:
407,331,65817,6,0,P|372:328|339:317,1,70,0|0,1:2|1:0,0:0:0:0:
271,379,66151,2,0,P|244:310|296:239,1,140,8|2,0:0|0:0,0:0:0:0:
351,210,66651,1,0,1:0:0:0:
302,133,66817,2,0,P|267:135|234:146,1,70,10|0,3:2|0:0,0:0:0:0:
124,132,67151,6,0,P|134:98|137:64,1,70,14|0,1:0|1:0,0:0:0:0:
209,7,67484,1,8,1:3:0:0:
291,46,67651,1,4,1:3:0:0:
222,310,68151,2,0,P|188:299|154:296,1,70,12|0,1:0|1:0,0:0:0:0:
79,348,68484,1,8,1:3:0:0:
11,286,68651,2,0,P|22:195|84:176,1,140,4|8,1:3|1:2,0:0:0:0:
135,128,69151,6,0,L|148:61,2,46.6666666666667,8|8|8,1:3|1:3|1:3,0:0:0:0:
182,165,69484,2,0,L|190:210,2,46.6666666666667,4|4|4,1:3|1:3|1:3,0:0:0:0:
237,140,69817,1,4,1:2:0:0:
123,350,72484,6,0,P|136:291|140:251,1,70,14|0,1:2|1:0,0:0:0:0:
213,231,72817,1,2,0:0:0:0:
282,289,72984,2,0,B|362:287|334:338|427:332,1,140,2|0,1:2|1:0,0:0:0:0:
490,286,73484,1,10,0:0:0:0:
490,286,73651,1,0,1:2:0:0:
435,213,73817,6,0,P|440:178|449:144,1,70,2|2,0:0|1:2,0:0:0:0:
399,67,74151,1,2,0:0:0:0:
399,67,74317,2,0,P|364:61|330:52,1,70,8|0,0:0|1:0,0:0:0:0:
251,6,74651,1,0,1:0:0:0:
175,55,74817,2,0,P|166:88|160:123,1,70,8|8,0:0|0:3,0:0:0:0:
246,183,75151,6,0,P|316:295|241:388,1,251.999992309571,4|2,1:2|0:0,0:0:0:0:
19,335,76317,1,2,0:0:0:0:
19,335,76484,2,0,P|84:318|146:315,1,125.999996154785,2|2,0:0|0:0,0:0:0:0:
206,163,77151,2,0,P|141:180|79:183,1,125.999996154785,2|2,0:0|0:0,0:0:0:0:
104,20,77817,2,0,P|37:40|36:111,1,125.999996154785,2|0,0:0|0:0,0:0:0:0:
436,142,79484,6,0,P|450:68|463:20,2,125.999996154785,2|2|2,0:0|0:0|0:0,0:0:0:0:
463,340,80484,6,0,P|420:271|333:281,1,154.000004699707,6|2,1:2|1:2,0:0:0:0:
260,305,80984,2,0,B|303:291|303:291|329:226|329:157,1,154.000004699707,2|2,0:0|0:0,0:0:0:0:
311,86,81484,1,2,1:2:0:0:
175,232,81817,2,0,P|100:214|19:205,1,154.000004699707,2|0,1:2|1:0,0:0:0:0:
6,307,82317,1,2,0:0:0:0:
6,307,82484,2,0,P|59:322|108:322,1,77.0000023498536,2|2,1:2|0:0,0:0:0:0:
164,378,82817,1,2,1:2:0:0:
251,329,82984,1,2,0:0:0:0:
354,379,83151,6,0,B|344:338|344:338|360:312|360:312|347:243,1,115.50000352478,4|0,1:2|1:0,0:0:0:0:
337,221,83484,1,10,0:0:0:0:
237,231,83651,2,0,P|197:189|224:98,1,154.000004699707,2|0,1:2|1:0,0:0:0:0:
292,35,84151,1,10,0:0:0:0:
372,93,84317,2,0,B|473:87|425:143|522:142,1,154.000004699707,2|0,1:2|1:0,0:0:0:0:
494,240,84817,2,0,P|481:299|477:340,1,77.0000023498536,8|0,0:0|1:0,0:0:0:0:
396,373,85151,1,2,3:2:0:0:
310,321,85317,1,0,1:0:0:0:
310,321,85401,1,0,1:0:0:0:
310,321,85484,2,0,L|298:251,3,38.5000011749268,10|8|8|8,0:2|0:0|0:0|0:0,0:0:0:0:
288,240,85817,6,0,P|229:250|197:261,1,77.0000023498536,2|0,1:2|3:0,0:0:0:0:
178,341,86151,2,0,P|140:351|102:356,1,77.0000023498536,2|0,1:2|3:0,0:0:0:0:
12,333,86484,2,0,B|1:238|73:286|56:180,1,154.000004699707,2|2,1:2|1:2,0:0:0:0:
4,118,86984,1,2,3:2:0:0:
95,103,87151,1,2,1:2:0:0:
212,255,87484,1,2,1:2:0:0:
212,255,87651,1,2,0:0:0:0:
279,181,87817,2,0,L|288:126,3,38.5000011749268,0|0|2|0,1:0|3:0|3:2|1:0,0:0:0:0:
254,102,88151,2,0,L|198:112,3,38.5000011749268,2|4|6|4,1:2|0:3|0:3|0:3,0:0:0:0:
167,119,88484,6,0,P|150:52|184:3,1,115.50000352478,6|0,1:2|1:0,0:0:0:0:
219,2,88817,2,0,P|275:10|315:25,1,77.0000023498536,10|0,0:0|1:0,0:0:0:0:
376,74,89151,2,0,P|415:64|454:59,1,77.0000023498536,2|0,3:2|1:0,0:0:0:0:
502,145,89484,1,14,0:1:0:0:
424,209,89651,1,2,1:2:0:0:
502,271,89817,6,0,P|464:307|398:302,1,115.50000352478,4|0,0:3|1:0,0:0:0:0:
354,296,90151,2,0,P|338:350|337:381,1,77.0000023498536,10|0,0:0|1:0,0:0:0:0:
237,381,90484,1,2,3:2:0:0:
192,291,90651,1,0,1:0:0:0:
276,235,90817,1,10,3:2:0:0:
276,235,90901,1,8,0:0:0:0:
276,235,90984,2,0,L|285:173,1,38.5000011749268,8|8,0:0|0:0,0:0:0:0:
297,149,91151,6,0,P|239:114|155:130,1,154.000004699707,6|0,1:2|3:0,0:0:0:0:
119,160,91567,1,0,3:0:0:0:
119,160,91651,2,0,P|69:150|29:150,1,77.0000023498536,6|0,1:0|3:0,0:0:0:0:
7,52,91984,1,0,3:0:0:0:
7,52,92067,1,0,3:0:0:0:
7,52,92151,2,0,P|45:49|82:41,1,77.0000023498536,6|0,1:0|3:0,0:0:0:0:
179,8,92484,6,0,B|273:8|214:70|319:69,1,154.000004699707,4|0,1:2|3:0,0:0:0:0:
328,121,92901,1,0,3:0:0:0:
328,121,92984,2,0,P|310:172|309:216,1,77.0000023498536,4|0,1:0|3:0,0:0:0:0:
211,238,93317,1,0,3:0:0:0:
211,238,93401,1,0,3:0:0:0:
211,238,93484,2,0,L|220:301,3,38.5000011749268,8|8|4|4,0:3|0:3|0:3|0:3,0:0:0:0:
219,326,93817,5,2,1:2:0:0:
309,369,93984,2,0,P|370:353|401:352,1,77.0000023498536,0|2,1:0|0:0,0:0:0:0:
482,366,94317,2,0,P|507:280|479:247,1,115.50000352478,2|0,1:2|0:0,0:0:0:0:
454,238,94651,2,0,P|463:157|480:103,1,115.50000352478,2|0,1:2|0:0,0:0:0:0:
474,74,94984,2,0,B|433:48|433:48|374:50|322:89,1,154.000004699707,14|0,1:2|1:0,0:0:0:0:
289,170,95484,1,8,0:0:0:0:
122,58,95817,6,0,L|136:0,2,51.3333348999024,8|8|8,1:3|1:3|1:3,0:0:0:0:
57,104,96151,2,0,L|7:91,2,51.3333348999024,4|4|4,1:3|1:3|1:3,0:0:0:0:
94,178,96484,5,0,1:0:0:0:
18,242,96651,1,0,3:0:0:0:
18,242,96734,1,0,3:0:0:0:
18,242,96817,2,0,P|33:292|29:333,1,77.0000023498536,4|0,1:2|0:0,0:0:0:0:
110,380,97151,1,2,1:2:0:0:
184,313,97317,1,0,3:0:0:0:
272,360,97484,2,0,P|336:343|370:342,1,77.0000023498536,0|0,1:0|3:0,0:0:0:0:
448,376,97817,6,0,P|479:322|440:238,1,154.000004699707,2|4,1:2|1:2,0:0:0:0:
346,251,98317,1,2,0:0:0:0:
287,169,98484,2,0,L|298:116,3,38.5000011749268,0|0|0|0,1:0|3:0|3:0|1:0,0:0:0:0:
328,93,98817,2,0,L|317:42,3,38.5000011749268,0|4|4|4,1:2|0:3|0:3|0:3,0:0:0:0:
297,9,99151,6,0,B|200:4|257:58|148:40,1,154.000004699707,6|0,1:0|3:0,0:0:0:0:
89,118,99651,1,6,1:2:0:0:
162,185,99817,2,0,P|144:252|143:280,1,77.0000023498536,0|0,3:0|3:0,0:0:0:0:
209,335,100151,1,6,1:0:0:0:
288,273,100317,1,0,3:0:0:0:
288,273,100401,1,0,3:0:0:0:
288,273,100484,6,0,P|355:255|383:254,1,77.0000023498536,2|4,3:2|1:2,0:0:0:0:
455,291,100817,2,0,P|475:239|455:199,1,77.0000023498536,0|0,3:0|3:0,0:0:0:0:
450,121,101151,2,0,L|432:48,3,38.5000011749268,6|0|0|0,1:0|3:0|3:0|3:0,0:0:0:0:
411,53,101484,1,2,1:2:0:0:
411,53,101567,1,0,3:0:0:0:
411,53,101651,2,0,L|355:65,1,38.5000011749268,2|0,3:2|3:0,0:0:0:0:
325,38,101817,6,0,B|185:123|405:249|233:197|268:340|268:340|196:311|233:222|126:236,1,503.999984619141,2|4,0:0|1:2,0:0:0:0:
96,79,113484,6,0,L|100:126,3,35,8|8|8|4,0:0|0:0|1:3|1:3,0:0:0:0:
86,153,113817,6,0,B|242:170|157:68|338:94,1,251.999992309571,0|8,1:0|0:0,0:0:0:0:
463,171,114817,1,0,1:0:0:0:
420,329,115151,2,0,B|375:332|332:357|332:357|254:360|169:299,1,251.999992309571,2|8,0:0|0:0,0:0:0:0:
102,295,115984,2,0,P|92:346|90:378,2,62.9999980773926,2|2|2,0:0|0:0|0:0,0:0:0:0:
21,281,116484,6,0,B|38:194|38:194|107:160|107:160|124:71,1,251.999992309571,0|8,1:0|0:0,0:0:0:0:
245,184,117484,1,0,1:0:0:0:
343,53,117817,2,0,B|416:-14|512:23|512:23|472:38|461:91,1,251.999992309571,2|8,0:0|0:0,0:0:0:0:
488,235,118817,1,4,0:3:0:0:
326,203,119151,6,0,B|182:176|182:176|126:209|163:279,1,251.999992309571,0|8,1:0|0:0,0:0:0:0:
273,382,120151,1,0,1:0:0:0:
431,340,120484,2,0,P|498:265|480:118,1,251.999992309571,2|8,0:0|0:0,0:0:0:0:
433,56,121317,1,2,0:3:0:0:
187,64,121817,6,0,B|342:20|342:20|249:84,1,251.999992309571,0|8,1:0|0:0,0:0:0:0:
128,160,122817,1,0,1:0:0:0:
303,209,123151,2,0,B|265:243|209:248|209:248|181:309|199:380|279:386,1,280,2|10,0:0|0:0,0:0:0:0:
449,363,124151,2,0,L|462:309,3,35,2|2|2|2,0:0|0:0|0:0|0:0,0:0:0:0:
469,285,124484,6,0,P|377:294|333:348,2,140,6|10|2,1:2|0:0|1:2,0:0:0:0:
503,200,125317,1,0,1:0:0:0:
468,115,125484,1,10,0:0:0:0:
468,115,125651,2,0,B|434:79|434:79|377:73|339:120,1,140,2|0,0:0|1:0,0:0:0:0:
282,166,126151,2,0,P|202:149|115:142,1,140,8|2,0:0|1:2,0:0:0:0:
60,178,126651,1,0,1:0:0:0:
5,105,126817,2,0,P|20:59|24:27,1,70,10|0,0:0|3:0,0:0:0:0:
122,27,127151,6,0,P|156:20|189:8,1,70,2|0,1:2|1:0,0:0:0:0:
260,65,127484,2,0,B|216:138|298:125|237:219,1,140,8|2,0:0|1:2,0:0:0:0:
175,251,127984,1,0,1:0:0:0:
95,206,128151,1,8,0:0:0:0:
95,206,128317,2,0,P|36:226|28:318,1,140,2|0,0:0|0:0,0:0:0:0:
56,378,128817,1,8,0:0:0:0:
236,355,129151,2,0,P|225:298|227:272,1,70,2|0,1:2|1:0,0:0:0:0:
296,229,129484,1,8,0:0:0:0:
373,277,129651,1,2,3:2:0:0:
444,221,129817,6,0,P|478:222|512:231,1,70,4|0,1:2|1:0,0:0:0:0:
471,132,130151,1,2,0:0:0:0:
471,132,130317,2,0,P|406:123|328:102,1,140,8|10,0:0|0:0,0:0:0:0:
293,22,130817,1,0,1:0:0:0:
209,59,130984,1,0,1:0:0:0:
249,146,131151,1,2,1:2:0:0:
249,146,131317,2,0,P|247:180|238:214,1,70,8|0,0:0|0:0,0:0:0:0:
305,276,131651,1,10,0:0:0:0:
267,371,131817,2,0,P|195:330|129:341,1,140,2|10,1:2|0:0,0:0:0:0:
61,381,132317,1,0,3:0:0:0:
1,293,132484,6,0,P|10:259|11:224,1,70,10|2,1:0|1:3,0:0:0:0:
81,165,132817,1,8,1:3:0:0:
151,223,132984,1,6,1:3:0:0:
322,10,133484,2,0,P|312:43|311:78,1,70,10|2,1:0|1:3,0:0:0:0:
242,138,133817,1,8,1:3:0:0:
172,80,133984,2,0,B|89:78|121:117|28:106,1,140,6|10,1:3|0:0,0:0:0:0:
7,195,134484,1,8,1:3:0:0:
7,195,134651,1,8,1:3:0:0:
51,274,134817,2,0,P|41:307|40:342,1,70,4|4,1:3|1:3,0:0:0:0:
131,384,135151,6,0,P|164:374|199:373,1,70,14|0,1:2|1:0,0:0:0:0:
265,310,135484,1,0,3:0:0:0:
215,233,135651,1,2,3:2:0:0:
371,9,136151,2,0,P|337:18|302:19,1,70,10|0,1:0|1:0,0:0:0:0:
237,83,136484,1,0,3:0:0:0:
287,160,136651,1,2,3:2:0:0:
371,9,137817,6,0,P|337:18|302:19,1,70,10|0,1:0|1:0,0:0:0:0:
237,83,138150,1,0,3:0:0:0:
287,160,138317,1,2,3:2:0:0:
131,384,138817,2,0,P|164:374|199:373,1,70,10|0,1:0|1:0,0:0:0:0:
265,310,139150,1,0,3:0:0:0:
215,233,139317,1,2,3:2:0:0:
405,357,139734,1,0,3:0:0:0:
405,357,139817,2,0,P|413:292|423:266,1,70,0|0,3:0|3:0,0:0:0:0:
494,243,140151,2,0,P|453:201|468:138,1,105,0|0,3:0|0:0,0:0:0:0:
493,133,140484,6,0,B|475:99|475:99|434:82|368:108,1,140,6|0,1:2|1:0,0:0:0:0:
321,178,140984,2,0,P|222:153|160:152,1,140,2|0,0:0|0:0,0:0:0:0:
95,132,141484,2,0,P|102:97|104:63,1,70,2|0,1:2|0:0,0:0:0:0:
181,14,141817,1,0,1:0:0:0:
181,14,141984,2,0,P|240:51|321:24,1,140,2|0,0:0|0:0,0:0:0:0:
391,7,142484,1,2,1:2:0:0:
505,148,142817,1,2,1:2:0:0:
410,246,143067,1,0,1:0:0:0:
410,246,143151,6,0,P|426:291|425:344,1,70,4|8,1:2|0:3,0:0:0:0:
425,362,143401,1,8,0:3:0:0:
425,362,143484,2,0,P|392:348|358:343,1,70,8|4,1:3|0:3,0:0:0:0:
272,375,143817,1,4,1:3:0:0:
187,324,143984,1,0,1:0:0:0:
187,324,144067,1,0,1:0:0:0:
187,324,144151,2,0,P|200:291|205:257,1,70,6|0,1:2|3:0,0:0:0:0:
281,195,144484,5,2,1:2:0:0:
219,128,144651,1,0,3:0:0:0:
145,181,144817,2,0,P|110:186|77:199,1,70,0|0,1:0|3:0,0:0:0:0:
1,135,145151,1,8,1:3:0:0:
16,41,145317,1,4,1:3:0:0:
107,8,145484,2,0,L|165:20,3,35,8|8|8|8,0:0|0:0|0:0|0:0,0:0:0:0:
160,61,145817,6,0,P|230:67|270:26,1,115.50000352478,6|0,1:2|1:0,0:0:0:0:
296,2,146151,1,8,3:2:0:0:
386,65,146317,1,2,1:2:0:0:
386,65,146401,1,2,0:2:0:0:
386,65,146484,2,0,P|368:128|367:154,1,77.0000023498536,2|2,3:2|1:2,0:0:0:0:
299,213,146817,2,0,P|236:195|210:194,1,77.0000023498536,10|0,3:2|0:0,0:0:0:0:
128,222,147151,6,0,P|147:294|152:365,1,115.50000352478,6|0,1:2|1:0,0:0:0:0:
151,384,147484,2,0,P|214:366|240:365,1,77.0000023498536,8|0,3:2|1:0,0:0:0:0:
310,313,147817,1,2,3:2:0:0:
387,377,147984,1,2,1:2:0:0:
474,328,148151,1,10,3:2:0:0:
474,328,148234,1,8,0:0:0:0:
474,328,148317,2,0,L|482:279,1,38.5000011749268,8|8,0:0|0:0,0:0:0:0:
500,243,148484,6,0,P|446:249|395:188,1,115.50000352478,6|0,1:2|1:0,0:0:0:0:
351,205,148817,2,0,P|368:129|376:114,1,77.0000023498536,8|0,3:2|1:0,0:0:0:0:
466,111,149151,1,2,3:2:0:0:
418,23,149317,1,0,1:2:0:0:
320,45,149484,1,10,3:2:0:0:
125,90,149817,6,0,P|137:135|212:151,1,115.50000352478,2|0,1:2|1:0,0:0:0:0:
246,143,150151,1,8,3:2:0:0:
313,216,150317,1,2,1:2:0:0:
238,281,150484,1,8,3:2:0:0:
238,281,150567,1,8,0:0:0:0:
238,281,150651,2,0,L|226:328,1,38.5000011749268,8|8,0:0|0:0,0:0:0:0:
238,367,150817,6,0,B|205:347|205:347|167:347|119:368,1,115.50000352478,4|2,1:2|1:2,0:0:0:0:
81,373,151150,2,0,P|96:301|97:280,1,77.0000023498536,10|2,3:2|1:2,0:0:0:0:
42,212,151483,2,0,L|-19:225,2,38.5000011749268,2|2|2,3:2|0:2|1:2,0:0:0:0:
108,126,151817,2,0,P|144:179|237:171,1,154.000004699707,12|0,1:0|1:0,0:0:0:0:
317,133,152317,5,2,0:0:0:0:
317,133,152400,1,2,1:0:0:0:
317,133,152483,2,0,P|301:66|301:26,1,77.0000023498536,10|0,3:2|1:0,0:0:0:0:
214,5,152817,2,0,P|147:21|107:21,1,77.0000023498536,2|0,3:2|1:0,0:0:0:0:
50,68,153150,1,8,3:2:0:0:
50,68,153233,1,8,0:0:0:0:
50,68,153317,2,0,L|37:114,1,38.5000011749268,8|8,0:0|0:0,0:0:0:0:
21,151,153483,6,0,B|68:135|68:135|102:138|131:167,1,115.50000352478,6|0,1:2|1:0,0:0:0:0:
141,211,153817,1,8,0:0:0:0:
248,174,153983,2,0,P|228:249|218:352,1,154.000004699707,6|8,1:0|0:0,0:0:0:0:
303,378,154483,2,0,P|372:343|362:286,1,115.50000352478,8|0,1:0|0:0,0:0:0:0:
362,263,154817,6,0,L|416:253,3,38.5000011749268,10|2|2|2,1:2|3:2|3:2|3:2,0:0:0:0:
448,270,155150,2,0,L|485:277,3,38.5000011749268,2|2|2|2,1:2|3:2|3:2|3:2,0:0:0:0:
509,232,155483,2,0,L|501:194,3,38.5000011749268,2|2|2|2,1:2|3:2|3:2|3:2,0:0:0:0:
470,168,155817,1,2,1:2:0:0:
470,168,155900,1,2,3:2:0:0:
470,168,155983,2,0,L|462:130,1,38.5000011749268,2|2,3:2|3:2,0:0:0:0:
482,89,156150,5,4,1:2:0:0:
336,17,158817,6,0,P|316:70|315:101,1,70,14|0,1:2|0:0,0:0:0:0:
367,157,159150,1,2,0:0:0:0:
454,131,159317,2,0,P|468:99|475:65,2,70,8|4|0,1:3|1:3|1:0,0:0:0:0:
485,221,159817,1,8,0:0:0:0:
396,244,159983,2,0,P|361:250|330:265,1,70,0|0,1:2|1:2,0:0:0:0:
239,280,160317,2,0,P|224:311|217:345,2,70,4|8|8,1:3|1:3|0:0,0:0:0:0:
271,194,160817,1,0,1:0:0:0:
181,210,160983,1,0,1:0:0:0:
211,124,161150,2,0,P|204:89|189:58,1,70,8|4,0:0|1:3,0:0:0:0:
121,3,161483,6,0,P|45:20|39:180,1,251.999992309571,4|2,1:2|0:0,0:0:0:0:
218,336,162650,1,0,0:0:0:0:
218,336,162817,2,0,P|144:348|89:371,1,125.999996154785,6|2,1:0|0:0,0:0:0:0:
125,205,163483,2,0,P|199:193|254:170,1,125.999996154785,2|2,0:0|0:0,0:0:0:0:
350,323,164150,6,0,P|379:266|472:265,1,140,6|0,1:2|1:0,0:0:0:0:
492,173,164650,1,2,3:2:0:0:
492,173,164733,1,0,3:0:0:0:
492,173,164817,2,0,P|479:118|480:80,1,70,0|0,1:0|3:0,0:0:0:0:
436,23,165150,2,0,B|366:9|376:74|288:47,1,140,2|0,1:2|1:0,0:0:0:0:
261,135,165650,1,2,3:2:0:0:
261,135,165733,1,0,3:0:0:0:
261,135,165816,2,0,P|274:190|273:228,1,70,0|0,1:0|3:0,0:0:0:0:
354,248,166150,2,0,L|340:310,3,35,2|0|0|0,1:2|3:0|3:0|3:0,0:0:0:0:
341,327,166483,2,0,L|306:334,3,35,2|0|0|0,1:2|3:0|3:0|3:0,0:0:0:0:
263,322,166816,6,0,B|230:360|230:360|168:375|101:334,1,175,6|0,1:2|0:0,0:0:0:0:
67,355,167316,2,0,P|96:256|29:196,1,175,6|0,1:2|0:0,0:0:0:0:
11,182,167816,2,0,B|65:164|65:164|107:179|107:179|186:150,1,154.000004699707,6|0,1:2|0:0,0:0:0:0:
294,72,168483,2,0,P|286:30|203:9,2,125.999996154785,2|2|2,0:0|0:0|0:0,0:0:0:0:
247,248,169483,6,0,B|288:154|403:79|563:120|578:305|487:344|391:339|381:257,1,525,6|0,1:0|0:0,0:0:0:0:
394,230,170816,2,0,P|382:308|200:344,1,280,6|0,1:0|0:0,0:0:0:0:
38,136,172150,6,0,P|18:215|16:273,1,115.50000352478,6|0,1:2|1:0,0:0:0:0:
13,299,172483,1,10,0:0:0:0:
111,279,172650,2,0,B|221:282|149:214|284:232,1,154.000004699707,2|0,1:2|1:0,0:0:0:0:
348,248,173150,1,10,0:0:0:0:
412,171,173316,2,0,P|374:101|282:111,1,154.000004699707,2|0,1:2|1:0,0:0:0:0:
206,136,173816,2,0,P|221:73|223:37,1,77.0000023498536,8|0,0:0|1:0,0:0:0:0:
137,5,174150,1,2,3:2:0:0:
50,54,174316,1,0,1:0:0:0:
50,54,174400,1,0,1:0:0:0:
50,54,174483,2,0,L|55:107,3,38.5000011749268,10|8|8|8,0:0|0:0|0:0|0:0,0:0:0:0:
74,138,174816,6,0,P|37:148|-1:154,1,77.0000023498536,2|0,1:2|3:0,0:0:0:0:
5,246,175150,2,0,P|42:236|80:230,1,77.0000023498536,2|0,1:2|3:0,0:0:0:0:
158,180,175483,2,0,P|249:202|259:274,1,154.000004699707,2|2,1:2|1:2,0:0:0:0:
190,307,175983,1,2,3:2:0:0:
242,381,176150,1,2,1:2:0:0:
415,291,176483,1,6,1:2:0:0:
415,291,176650,1,2,0:0:0:0:
502,338,176816,2,0,L|515:286,3,38.5000011749268,0|0|2|0,1:0|3:0|3:2|1:0,0:0:0:0:
509,250,177150,2,0,L|496:198,3,38.5000011749268,2|4|6|4,1:2|0:3|0:3|0:3,0:0:0:0:
489,163,177483,6,0,P|434:171|364:202,1,115.50000352478,6|0,1:2|1:0,0:0:0:0:
329,202,177816,2,0,P|341:139|344:114,1,77.0000023498536,10|0,0:0|1:0,0:0:0:0:
377,31,178150,2,0,P|338:36|301:44,1,77.0000023498536,2|0,3:2|1:0,0:0:0:0:
210,1,178483,1,14,0:1:0:0:
158,86,178650,1,2,0:0:0:0:
243,136,178816,6,0,B|228:177|228:177|244:205|244:205|229:267,1,115.50000352478,4|0,0:3|1:0,0:0:0:0:
258,287,179150,2,0,P|220:293|183:306,1,77.0000023498536,10|0,0:0|1:0,0:0:0:0:
116,381,179483,1,2,3:2:0:0:
28,331,179650,1,0,1:0:0:0:
95,258,179816,1,10,0:0:0:0:
95,258,179900,1,8,0:0:0:0:
95,258,179983,2,0,L|103:202,1,38.5000011749268,8|8,0:0|0:0,0:0:0:0:
124,175,180150,6,0,P|39:165|6:96,1,154.000004699707,6|0,1:2|3:0,0:0:0:0:
10,61,180566,1,0,3:0:0:0:
10,61,180650,2,0,P|70:49|100:51,1,77.0000023498536,6|0,1:0|3:0,0:0:0:0:
185,16,180983,1,0,3:0:0:0:
185,16,181066,1,0,3:0:0:0:
185,16,181150,2,0,P|245:28|275:26,1,77.0000023498536,6|0,1:0|3:0,0:0:0:0:
364,104,181483,6,0,B|270:102|317:162|207:148,1,154.000004699707,6|0,1:2|3:0,0:0:0:0:
193,191,181900,1,0,3:0:0:0:
193,191,181983,2,0,P|205:251|203:281,1,77.0000023498536,6|0,1:0|3:0,0:0:0:0:
261,361,182316,1,0,3:0:0:0:
261,361,182400,1,0,3:0:0:0:
261,361,182483,2,0,L|333:343,3,38.5000011749268,8|8|4|4,0:3|0:3|0:3|0:3,0:0:0:0:
347,361,182816,5,2,1:2:0:0:
432,309,182983,2,0,P|433:270|443:233,1,77.0000023498536,0|2,1:0|0:0,0:0:0:0:
360,177,183316,2,0,P|282:175|268:221,1,115.50000352478,2|0,1:2|0:0,0:0:0:0:
252,246,183650,2,0,B|209:236|209:236|181:248|181:248|138:236,1,115.50000352478,2|0,1:2|0:0,0:0:0:0:
92,228,183983,2,0,B|78:181|109:148|109:148|158:143|172:90,1,154.000004699707,14|0,1:2|1:0,0:0:0:0:
206,21,184483,1,8,0:0:0:0:
398,74,184816,6,0,L|414:-7,2,51.3333348999024,8|8|8,1:3|1:3|1:3,0:0:0:0:
455,131,185150,2,0,L|505:140,2,51.3333348999024,4|4|4,1:3|1:3|1:3,0:0:0:0:
391,182,185483,5,0,1:0:0:0:
468,261,185650,1,0,3:0:0:0:
468,261,185733,1,0,3:0:0:0:
468,261,185816,2,0,P|448:321|448:350,1,77.0000023498536,4|0,1:2|0:0,0:0:0:0:
360,384,186150,1,2,1:2:0:0:
290,312,186316,1,0,3:0:0:0:
203,363,186483,2,0,P|143:343|114:343,1,77.0000023498536,2|0,1:2|3:0,0:0:0:0:
30,357,186816,6,0,P|98:326|118:246,1,154.000004699707,2|4,1:2|1:2,0:0:0:0:
55,176,187316,1,2,0:0:0:0:
130,109,187483,2,0,L|139:53,3,38.5000011749268,0|0|0|0,1:0|3:0|3:0|1:0,0:0:0:0:
167,32,187816,2,0,L|223:23,3,38.5000011749268,0|4|4|4,1:0|0:3|0:3|0:3,0:0:0:0:
239,63,188150,6,0,B|285:76|285:76|328:57|328:57|389:76,1,154.000004699707,6|0,1:0|3:0,0:0:0:0:
473,29,188650,1,6,1:2:0:0:
508,122,188816,2,0,P|486:189|484:221,1,77.0000023498536,0|0,3:0|3:0,0:0:0:0:
387,170,189150,1,6,1:0:0:0:
346,264,189316,1,0,3:0:0:0:
346,264,189400,1,0,3:0:0:0:
346,264,189483,6,0,P|360:299|368:337,1,77.0000023498536,2|4,3:2|1:2,0:0:0:0:
277,379,189816,2,0,P|241:364|203:356,1,77.0000023498536,0|0,3:0|3:0,0:0:0:0:
103,362,190150,2,0,L|122:297,3,38.5000011749268,6|0|0|0,1:0|3:0|3:0|3:0,0:0:0:0:
145,286,190483,2,0,L|126:221,1,38.5000011749268,2|0,1:2|3:0,0:0:0:0:
95,217,190650,2,0,L|30:236,1,38.5000011749268,2|0,3:2|3:0,0:0:0:0:
11,209,190816,6,0,B|119:156|102:236|206:182,1,192.500005874634,6|0,1:2|0:0,0:0:0:0:
239,213,191316,2,0,P|292:146|260:36,1,192.500005874634,6|0,1:2|0:0,0:0:0:0:
238,9,191816,2,0,P|142:16|36:62,1,192.500005874634,6|0,1:2|0:0,0:0:0:0:
5,67,192316,2,0,B|-5:119|50:136|50:136|66:196|-7:236,1,192.500005874634,6|0,1:2|0:0,0:0:0:0:
11,272,192816,1,6,1:2:0:0:
190,183,193150,1,6,1:2:0:0:
246,374,193483,6,0,B|312:365|312:365|348:327|348:327|441:317,1,192.500005874634,6|0,1:2|0:0,0:0:0:0:
470,331,193983,2,0,B|427:292|427:292|404:210|464:164,1,192.500005874634,6|0,1:2|0:0,0:0:0:0:
498,140,194483,2,0,B|452:149|430:169|430:169|356:171|294:121,1,192.500005874634,6|0,1:2|0:0,0:0:0:0:
296,92,194983,2,0,B|318:35|382:22|382:22|430:63|469:39,1,192.500005874634,6|0,1:2|0:0,0:0:0:0:
500,33,195483,1,6,1:2:0:0:
381,194,195816,1,6,1:2:0:0:
488,363,196150,6,0,P|425:321|337:326,1,154.000004699707,6|0,1:2|3:0,0:0:0:0:
312,355,196566,1,0,3:0:0:0:
312,355,196650,2,0,P|264:345|210:347,1,77.0000023498536,6|0,1:0|3:0,0:0:0:0:
237,251,196983,1,0,3:0:0:0:
237,251,197066,1,0,3:0:0:0:
237,251,197150,2,0,B|230:165|297:206|281:105,1,154.000004699707,6|0,1:2|3:0,0:0:0:0:
246,17,197650,2,0,B|188:25|188:25|164:56|164:56|80:70,1,154.000004699707,6|0,1:0|3:0,0:0:0:0:
59,72,198066,1,0,3:0:0:0:
59,72,198150,2,0,L|73:138,3,38.5000011749268,6|0|8|8,1:2|1:0|0:3|0:3,0:0:0:0:
94,151,198483,2,0,L|80:217,3,38.5000011749268,4|4|4|4,0:3|0:3|0:3|0:3,0:0:0:0:
47,220,198816,6,0,P|7:273|43:356,1,154.000004699707,6|0,1:2|3:0,0:0:0:0:
88,352,199233,1,0,3:0:0:0:
88,352,199316,2,0,P|142:334|172:330,1,77.0000023498536,6|0,1:0|3:0,0:0:0:0:
253,283,199650,1,0,3:0:0:0:
253,283,199733,1,0,3:0:0:0:
253,283,199816,2,0,B|294:255|294:255|307:199|256:140,1,154.000004699707,6|0,1:2|3:0,0:0:0:0:
275,56,200316,2,0,B|308:24|348:24|348:24|385:54|436:35,1,154.000004699707,6|0,1:0|3:0,0:0:0:0:
464,30,200733,1,0,3:0:0:0:
464,30,200816,6,2,B|467:85|443:99|443:99|488:120|498:161|498:161|459:179|458:246,1,245,2|0,1:2|0:0,0:1:0:0:
490,266,201483,6,0,P|407:272|372:295,1,110.249996635437,4|0,1:2|1:0,0:0:0:0:
353,320,201816,1,8,3:2:0:0:
265,359,201983,2,0,B|227:293|312:284|252:208,1,146.999995513916,2|0,1:2|1:0,0:0:0:0:
172,182,202483,2,0,P|274:143|278:86,1,146.999995513916,10|4,3:2|1:2,0:0:0:0:
262,23,202983,1,2,1:2:0:0:
262,23,203066,1,0,1:0:0:0:
262,23,203150,2,0,P|216:26|163:48,1,73.4999977569581,8|0,3:2|1:0,0:0:0:0:
98,6,203483,2,0,B|41:25|41:25|4:74|31:126,1,146.999995513916,2|10,3:2|3:2,0:0:0:0:
179,216,204150,6,0,B|115:217|155:255|46:251,1,110.249996635437,6|0,1:2|1:0,0:0:0:0:
29,255,204483,1,8,3:2:0:0:
87,345,204650,2,0,B|142:350|142:350|165:380|165:380|229:385,1,146.999995513916,2|0,1:2|1:0,0:0:0:0:
314,376,205150,2,0,P|289:300|329:234,1,146.999995513916,10|4,3:2|1:2,0:0:0:0:
408,273,205650,1,2,1:2:0:0:
408,273,205733,1,0,1:0:0:0:
408,273,205816,2,0,P|422:205|432:180,1,73.4999977569581,8|0,3:2|1:0,0:0:0:0:
346,143,206150,2,0,P|310:153|274:158,1,73.4999977569581,0|0,3:0|1:0,0:0:0:0:
186,119,206483,2,0,L|198:64,3,36.749998878479,8|8|8|8,3:2|0:0|0:0|0:0,0:0:0:0:
203,36,206816,5,2,1:2:0:0:
292,1,206983,1,2,0:0:0:0:
369,57,207150,2,0,P|437:43|462:33,1,73.4999977569581,6|2,1:2|0:0,0:0:0:0:
495,119,207483,2,0,P|484:154|479:190,1,73.4999977569581,2|2,1:2|3:2,0:0:0:0:
500,289,207816,2,0,P|422:298|383:381,1,146.999995513916,0|2,1:0|1:2,0:0:0:0:
310,290,208316,5,2,0:0:0:0:
231,370,208483,2,0,P|217:302|207:277,1,73.4999977569581,4|2,1:2|0:0,0:0:0:0:
160,220,208816,2,0,L|214:206,3,36.749998878479,0|0|0|0,1:0|3:0|3:0|1:0,0:0:0:0:
235,182,209150,2,0,L|270:191,3,36.749998878479,0|4|4|4,1:0|3:0|3:0|3:0,0:0:0:0:
315,207,209483,5,6,1:2:0:0:
303,16,209816,2,0,P|230:26|206:35,1,73.4999977569581,0|2,3:0|3:2,0:0:0:0:
145,71,210150,2,0,P|109:78|72:80,1,73.4999977569581,0|0,3:0|3:0,0:0:0:0:
5,149,210483,1,2,1:2:0:0:
95,179,210650,1,0,3:0:0:0:
29,247,210816,6,0,P|21:282|19:319,1,73.4999977569581,4|2,1:0|3:2,0:0:0:0:
104,363,211150,2,0,L|163:350,3,36.749998878479,0|0|0|0,1:0|3:0|3:0|3:0,0:0:0:0:
187,357,211483,2,0,L|200:298,3,36.749998878479,2|0|0|0,1:2|3:0|3:0|3:0,0:0:0:0:
232,287,211816,1,2,1:2:0:0:
232,287,211900,1,0,3:0:0:0:
232,287,211983,2,1,P|214:238|239:197,1,73.4999977569581,4|0,3:1|0:0,0:0:0:0:
