osu file format v14

[General]
AudioFilename: audio.mp3
AudioLeadIn: 0
PreviewTime: 168390
Countdown: 0
SampleSet: Soft
StackLeniency: 0.7
Mode: 0
LetterboxInBreaks: 0
EpilepsyWarning: 1
WidescreenStoryboard: 1

[Editor]
DistanceSpacing: 1.05
BeatDivisor: 4
GridSize: 32
TimelineZoom: 2.699999

[Metadata]
Title:Into Gray
TitleUnicode:Into Gray
Artist:yuki
ArtistUnicode:yuki
Creator:Bellicose
Version:Easy.
Source:白昼夢の青写真
Tags:eroge momo 緒乃ワサビ case-0 case 0 Laplacian Hakuchuumu no Aojashin The girl who's whos called the world japanese pop rock full version opening op visual novel vn video game lasse kalibe dored koiyuki minakami mtbbsben
BeatmapID:2856294
BeatmapSetID:1373789

[Difficulty]
HPDrainRate:2.5
CircleSize:2.5
OverallDifficulty:3
ApproachRate:3.5
SliderMultiplier:0.9
SliderTickRate:1

[Events]
//Background and Video events
0,0,"bg2.png",0,0
//Break Periods
2,24606,35700
2,103350,112437
//Storyboard Layer 0 (Background)
Sprite,Background,Centre,"bg2.png",320,240
//Storyboard Layer 1 (Fail)
//Storyboard Layer 2 (Pass)
//Storyboard Layer 3 (Foreground)
Sprite,Foreground,Centre,"Dream\Other\Bellicose.png",320,240 M,0,10112,10288,500,150,508,150 F,0,10112,10465,0,1 S,0,10112,13112,0.45 M,0,12935,13112,508,150,516,150 F,0,12935,13112,1,0
//Storyboard Layer 4 (Overlay)
//Storyboard Sound Samples

[TimingPoints]
1818,352.941176470588,4,2,1,30,1,0
1818,-111.111111111111,4,2,1,30,0,0
12406,-111.111111111111,4,2,2,15,0,0
13112,-111.111111111111,4,2,2,35,0,0
24406,-111.111111111111,4,2,80,20,0,0
24759,-111.111111111111,4,2,1,30,0,0
34112,-111.111111111111,4,2,1,30,0,0
35700,-111.111111111111,4,2,99,5,0,0
36935,-111.111111111111,4,2,1,30,0,0
37112,-111.111111111111,4,2,1,50,0,0
37818,333.333333333333,4,2,1,50,1,0
37818,-100,4,2,1,70,0,0
37984,-100,4,2,1,70,0,0
39818,-100,4,2,1,70,0,0
40068,-100,4,2,1,5,0,0
40151,-100,4,2,1,70,0,0
40401,-100,4,2,1,5,0,0
40484,-100,4,2,1,70,0,0
45817,-100,4,2,1,70,0,0
45901,-100,4,2,1,5,0,0
45984,-100,4,2,1,70,0,0
46067,-100,4,2,1,5,0,0
46151,-100,4,2,1,70,0,0
47234,-100,4,2,1,5,0,0
47317,-100,4,2,1,70,0,0
48484,-111.111111111111,4,2,1,60,0,0
48817,-111.111111111111,4,2,3,50,0,0
49317,-111.111111111111,4,2,2,50,0,0
49651,-111.111111111111,4,2,3,50,0,0
50817,-111.111111111111,4,2,3,50,0,0
50984,-111.111111111111,4,2,3,50,0,0
51151,-111.111111111111,4,2,3,50,0,0
52317,-111.111111111111,4,2,1,50,0,0
52484,-111.111111111111,4,2,3,50,0,0
53817,-111.111111111111,4,2,1,50,0,0
53984,-111.111111111111,4,2,3,50,0,0
54484,-111.111111111111,4,2,1,50,0,0
55151,-111.111111111111,4,2,3,50,0,0
55984,-111.111111111111,4,2,1,50,0,0
56151,-111.111111111111,4,2,1,50,0,0
56317,-111.111111111111,4,2,3,50,0,0
57651,-111.111111111111,4,2,1,50,0,0
58151,-111.111111111111,4,2,3,50,0,0
58651,-111.111111111111,4,2,1,50,0,0
59151,-100,4,2,1,60,0,0
59484,-100,4,2,4,60,0,0
64484,-100,4,2,1,60,0,0
64651,-100,4,2,4,60,0,0
66817,-100,4,2,4,60,0,0
67067,-100,4,2,4,5,0,0
67151,-100,4,2,1,70,0,0
69817,-100,4,2,1,60,0,0
70151,-111.111111111111,4,2,1,50,0,0
72484,-100,4,2,1,60,0,0
75151,-111.111111111111,4,2,1,50,0,0
76484,-111.111111111111,4,2,1,60,0,0
77151,-111.111111111111,4,2,1,70,0,0
77651,-111.111111111111,4,2,2,60,0,0
77817,-111.111111111111,4,2,1,50,0,0
79484,-111.111111111111,4,2,1,50,0,0
80484,-95.2380952380952,4,2,1,75,0,1
81734,-95.2380952380952,4,2,1,5,0,1
81817,-95.2380952380952,4,2,1,75,0,1
82484,-95.2380952380952,4,2,1,75,0,1
82817,-95.2380952380952,4,2,1,75,0,1
82901,-95.2380952380952,4,2,1,5,0,1
82984,-95.2380952380952,4,2,1,75,0,1
83067,-95.2380952380952,4,2,1,5,0,1
83151,-95.2380952380952,4,2,1,75,0,1
83651,-95.2380952380952,4,2,1,75,0,1
84234,-95.2380952380952,4,2,1,5,0,1
84317,-95.2380952380952,4,2,1,75,0,1
85151,-95.2380952380952,4,2,4,75,0,1
85317,-95.2380952380952,4,2,1,75,0,1
85817,-95.2380952380952,4,2,1,70,0,0
85984,-95.2380952380952,4,2,4,70,0,0
86151,-95.2380952380952,4,2,1,70,0,0
86317,-95.2380952380952,4,2,4,70,0,0
86484,-95.2380952380952,4,2,1,70,0,0
86651,-95.2380952380952,4,2,4,70,0,0
86817,-95.2380952380952,4,2,1,70,0,0
86984,-95.2380952380952,4,2,4,70,0,0
87151,-95.2380952380952,4,2,1,70,0,0
87234,-95.2380952380952,4,2,2,70,0,0
87484,-95.2380952380952,4,2,1,70,0,0
88317,-95.2380952380952,4,2,2,70,0,0
88484,-95.2380952380952,4,2,1,75,0,0
89151,-95.2380952380952,4,2,4,75,0,0
89317,-95.2380952380952,4,2,1,75,0,0
89817,-95.2380952380952,4,2,1,75,0,0
90484,-95.2380952380952,4,2,4,75,0,0
90651,-95.2380952380952,4,2,1,75,0,0
91151,-95.2380952380952,4,2,1,80,0,1
91317,-95.2380952380952,4,2,1,80,0,1
93984,-95.2380952380952,4,2,1,80,0,1
94317,-95.2380952380952,4,2,1,80,0,1
94651,-95.2380952380952,4,2,1,80,0,1
94984,-95.2380952380952,4,2,1,85,0,1
95317,-95.2380952380952,4,2,1,80,0,1
96484,-95.2380952380952,4,2,1,75,0,0
96651,-95.2380952380952,4,2,4,75,0,0
96817,-95.2380952380952,4,2,3,75,0,0
96984,-95.2380952380952,4,2,1,75,0,0
97651,-95.2380952380952,4,2,4,75,0,0
97817,-95.2380952380952,4,2,1,75,0,0
98151,-95.2380952380952,4,2,3,75,0,0
98317,-95.2380952380952,4,2,1,75,0,0
99817,-95.2380952380952,4,2,1,77,0,0
100317,-95.2380952380952,4,2,1,79,0,0
100817,-95.2380952380952,4,2,1,82,0,0
101151,-95.2380952380952,4,2,1,84,0,0
101484,-95.2380952380952,4,2,1,86,0,0
101817,-100,4,2,1,70,0,0
103151,-100,4,2,1,50,0,0
103317,-100,4,2,3,50,0,0
108484,-100,4,2,1,50,0,0
108651,-100,4,2,3,50,0,0
112317,-100,4,2,1,50,0,0
112484,-100,4,2,3,50,0,0
113484,-100,4,2,1,50,0,0
113817,-105.263157894737,4,2,5,60,0,0
114817,-105.263157894737,4,2,5,60,0,0
115067,-105.263157894737,4,2,5,5,0,0
115151,-105.263157894737,4,2,5,60,0,0
115817,-105.263157894737,4,2,5,60,0,0
116484,-105.263157894737,4,2,5,60,0,0
117484,-105.263157894737,4,2,5,60,0,0
117734,-105.263157894737,4,2,5,5,0,0
117817,-105.263157894737,4,2,5,60,0,0
118817,-105.263157894737,4,2,5,60,0,0
119067,-105.263157894737,4,2,5,5,0,0
119151,-105.263157894737,4,2,5,60,0,0
120151,-105.263157894737,4,2,5,60,0,0
120401,-105.263157894737,4,2,5,5,0,0
120484,-105.263157894737,4,2,5,60,0,0
121317,-105.263157894737,4,2,5,60,0,0
121817,-105.263157894737,4,2,5,60,0,0
122817,-105.263157894737,4,2,5,60,0,0
123067,-105.263157894737,4,2,5,5,0,0
123151,-105.263157894737,4,2,5,60,0,0
123817,-100,4,2,5,70,0,0
124151,-100,4,2,1,60,0,0
126984,-100,4,2,4,60,0,0
127151,-100,4,2,1,60,0,0
129651,-100,4,2,4,60,0,0
129817,-100,4,2,1,60,0,0
130734,-100,4,2,1,5,0,0
130817,-100,4,2,1,60,0,0
130901,-100,4,2,1,5,0,0
130984,-100,4,2,1,60,0,0
131234,-100,4,2,1,5,0,0
131317,-100,4,2,1,60,0,0
132151,-100,4,2,1,60,0,0
132317,-100,4,2,4,60,0,0
132484,-100,4,2,1,70,0,0
132651,-100,4,2,4,70,0,0
132817,-100,4,2,1,70,0,0
132984,-100,4,2,4,70,0,0
133484,-100,4,2,1,70,0,0
133651,-100,4,2,4,70,0,0
133817,-100,4,2,1,70,0,0
133984,-100,4,2,4,70,0,0
134317,-100,4,2,1,70,0,0
135484,-100,4,2,2,70,0,0
135651,-100,4,2,4,70,0,0
136151,-100,4,2,1,70,0,0
136484,-100,4,2,2,70,0,0
136651,-100,4,2,4,70,0,0
137817,-100,4,2,1,70,0,0
138151,-100,4,2,2,70,0,0
138317,-100,4,2,4,70,0,0
138817,-100,4,2,1,70,0,0
139151,-100,4,2,2,70,0,0
139317,-100,4,2,4,70,0,0
139734,-100,4,2,2,60,0,0
139817,-100,4,2,4,60,0,0
140151,-100,4,2,4,60,0,0
140484,-100,4,2,1,60,0,0
144151,-100,4,2,1,50,0,0
144484,-100,4,2,1,65,0,0
145151,-100,4,2,1,70,0,0
145484,-100,4,2,1,75,0,0
145817,-95.2380952380952,4,2,1,75,0,1
146151,-95.2380952380952,4,2,4,75,0,1
146317,-95.2380952380952,4,2,1,75,0,1
146484,-95.2380952380952,4,2,4,75,0,1
147151,-95.2380952380952,4,2,3,75,0,1
147317,-95.2380952380952,4,2,4,75,0,1
148484,-95.2380952380952,4,2,1,75,0,1
148651,-95.2380952380952,4,2,4,75,0,1
150817,333.333333333333,4,2,4,75,1,1
150817,-95.2380952380952,4,2,1,75,0,1
150983,-95.2380952380952,4,2,4,75,0,1
151817,-95.2380952380952,4,2,1,75,0,1
152483,-95.2380952380952,4,2,4,75,0,1
153483,-95.2380952380952,4,2,1,75,0,1
153983,-95.2380952380952,4,2,1,75,0,1
154733,-95.2380952380952,4,2,1,5,0,1
154817,-95.2380952380952,4,2,1,70,0,1
155483,-95.2380952380952,4,2,1,75,0,1
155817,-95.2380952380952,4,2,1,80,0,1
156150,-100,4,2,1,75,0,0
156483,-100,4,2,1,50,0,0
158817,-100,4,2,1,60,0,0
161483,-111.111111111111,4,2,1,50,0,0
162817,-111.111111111111,4,2,1,60,0,0
163483,-111.111111111111,4,2,1,70,0,0
164150,-100,4,2,1,70,0,0
166150,-100,4,2,1,75,0,0
166483,-100,4,2,1,80,0,0
166816,-100,4,2,1,80,0,0
167233,-100,4,2,1,5,0,0
167316,-100,4,2,1,80,0,0
167733,-100,4,2,1,5,0,0
167816,-100,4,2,1,80,0,0
168150,-100,4,2,1,10,0,0
168483,-111.111111111111,4,2,1,50,0,0
169483,-100,4,2,1,75,0,0
170733,-100,4,2,1,5,0,0
170816,-100,4,2,1,75,0,0
171400,-100,4,2,1,5,0,0
171483,-100,4,2,1,75,0,0
172066,-100,4,2,1,5,0,0
172150,-95.2380952380952,4,2,1,75,0,1
172650,-95.2380952380952,4,2,1,75,0,1
173233,-95.2380952380952,4,2,1,5,0,1
173316,-95.2380952380952,4,2,1,75,0,1
174150,-95.2380952380952,4,2,4,75,0,1
174316,-95.2380952380952,4,2,1,75,0,1
174816,-95.2380952380952,4,2,1,70,0,0
175150,-95.2380952380952,4,2,3,70,0,0
175316,-95.2380952380952,4,2,1,70,0,0
175650,-95.2380952380952,4,2,4,70,0,0
176150,-95.2380952380952,4,2,1,70,0,0
176483,-95.2380952380952,4,2,3,70,0,0
176650,-95.2380952380952,4,2,1,70,0,0
177316,-95.2380952380952,4,2,2,70,0,0
177483,-95.2380952380952,4,2,1,75,0,0
178150,-95.2380952380952,4,2,4,75,0,0
178316,-95.2380952380952,4,2,1,75,0,0
178816,-95.2380952380952,4,2,1,75,0,0
179483,-95.2380952380952,4,2,4,75,0,0
179650,-95.2380952380952,4,2,1,75,0,0
180150,-95.2380952380952,4,2,1,80,0,1
180316,-95.2380952380952,4,2,1,80,0,1
182983,-95.2380952380952,4,2,1,80,0,1
183316,-95.2380952380952,4,2,1,80,0,1
183566,-95.2380952380952,4,2,1,5,0,1
183650,-95.2380952380952,4,2,1,80,0,1
183900,-95.2380952380952,4,2,1,5,0,1
183983,-95.2380952380952,4,2,1,85,0,1
184316,-95.2380952380952,4,2,1,80,0,1
185483,-95.2380952380952,4,2,1,75,0,0
185650,-95.2380952380952,4,2,4,75,0,0
185816,-95.2380952380952,4,2,3,75,0,0
186316,-95.2380952380952,4,2,4,75,0,0
187150,-95.2380952380952,4,2,3,75,0,0
187483,-95.2380952380952,4,2,1,75,0,0
188816,-95.2380952380952,4,2,1,77,0,0
189316,-95.2380952380952,4,2,1,79,0,0
189816,-95.2380952380952,4,2,1,82,0,0
190150,-95.2380952380952,4,2,1,84,0,0
190483,-95.2380952380952,4,2,1,86,0,0
190816,-95.2380952380952,4,2,1,88,0,1
191233,-95.2380952380952,4,2,1,5,0,1
191316,-95.2380952380952,4,2,1,88,0,1
191733,-95.2380952380952,4,2,1,5,0,1
191816,-95.2380952380952,4,2,1,88,0,1
192233,-95.2380952380952,4,2,1,5,0,1
192316,-95.2380952380952,4,2,1,88,0,1
192733,-95.2380952380952,4,2,1,5,0,1
192816,-95.2380952380952,4,2,1,88,0,1
193066,-95.2380952380952,4,2,1,5,0,1
193150,-95.2380952380952,4,2,1,88,0,1
193400,-95.2380952380952,4,2,1,5,0,1
193483,-95.2380952380952,4,2,1,88,0,1
193900,-95.2380952380952,4,2,1,5,0,1
193983,-95.2380952380952,4,2,1,88,0,1
194400,-95.2380952380952,4,2,1,5,0,1
194483,-95.2380952380952,4,2,1,88,0,1
194900,-95.2380952380952,4,2,1,5,0,1
194983,-95.2380952380952,4,2,1,88,0,1
195400,-95.2380952380952,4,2,1,5,0,1
195483,-95.2380952380952,4,2,1,88,0,1
195733,-95.2380952380952,4,2,1,5,0,1
195816,-95.2380952380952,4,2,1,88,0,1
196066,-95.2380952380952,4,2,1,5,0,1
196150,-95.2380952380952,4,2,1,75,0,1
200816,-95.2380952380952,4,2,1,75,0,1
201400,-95.2380952380952,4,2,1,5,0,1
201483,-95.2380952380952,4,2,1,75,0,0
201816,-95.2380952380952,4,2,4,75,0,0
202816,-95.2380952380952,4,2,3,75,0,0
202983,-95.2380952380952,4,2,4,75,0,0
204066,-95.2380952380952,4,2,4,5,0,0
204150,-95.2380952380952,4,2,3,75,0,0
204483,-95.2380952380952,4,2,4,75,0,0
205483,-95.2380952380952,4,2,3,75,0,0
205650,-95.2380952380952,4,2,4,75,0,0
206816,-100,4,2,4,70,0,0
207150,-100,4,2,3,70,0,0
207316,-100,4,2,4,70,0,0
208483,-100,4,2,3,70,0,0
208816,-100,4,2,1,70,0,0
209483,-100,4,2,1,70,0,0
209733,-100,4,2,1,5,0,0
209816,-100,4,2,1,70,0,0
210483,-100,4,2,1,70,0,0
210816,-100,4,2,1,75,0,0
211483,-100,4,2,1,80,0,0
212150,-100,4,2,1,20,0,0

[Colours]
Combo1 : 124,234,239
Combo2 : 219,180,254
Combo3 : 153,210,249
Combo4 : 168,170,247

[HitObjects]
114,31,1817,5,2,0:0:0:0:
80,197,3229,1,2,0:0:0:0:
248,222,4641,1,2,0:0:0:0:
282,56,6053,1,2,0:0:0:0:
449,23,7465,1,2,0:0:0:0:
465,192,8876,1,2,0:0:0:0:
481,361,10288,1,2,0:0:0:0:
327,288,11700,1,2,0:0:0:0:
175,366,13112,6,0,P|199:284|205:191,1,161.999995056153,2|8,1:2|0:0,0:0:0:0:
256,139,14170,1,0,1:0:0:0:
248,54,14523,2,0,P|178:39|103:105,1,161.999995056153,2|8,1:2|0:0,0:0:0:0:
71,255,15935,2,0,B|152:296|151:217|243:264,1,161.999995056153,2|8,1:2|0:0,0:0:0:0:
290,313,16994,1,0,1:0:0:0:
353,369,17347,2,0,P|439:348|519:347,1,161.999995056153,2|8,1:2|0:0,0:0:0:0:
491,177,18759,6,0,P|495:140|459:98,2,80.9999975280763,2|2|10,1:2|0:0|0:0,0:0:0:0:
451,252,19817,1,2,1:2:0:0:
366,239,20170,2,0,P|366:166|379:67,1,161.999995056153,2|10,0:0|0:0,0:0:0:0:
318,15,21229,1,2,0:0:0:0:
240,49,21582,2,0,P|189:35|150:31,2,80.9999975280763,2|2|2,1:2|0:0|0:0,0:0:0:0:
246,134,22641,1,2,0:0:0:0:
249,218,22994,2,0,B|152:210|195:269|81:247,1,161.999995056153,0|8,1:0|0:0,0:0:0:0:
12,226,24053,1,8,0:0:0:0:
8,141,24406,5,2,0:0:0:0:
104,27,37112,6,0,P|97:105|90:119,1,80.9999975280763,2|0,0:0|0:0,0:0:0:0:
53,179,37817,5,6,1:2:0:0:
11,314,38318,2,0,P|79:308|128:361,1,135,2|2,3:2|1:2,0:0:0:0:
166,372,38984,2,0,P|238:354|270:354,1,90,2|2,3:2|3:2,0:0:0:0:
393,373,39818,1,2,1:2:0:0:
378,279,40151,1,2,1:2:0:0:
365,185,40484,2,0,B|423:149|423:149|488:178,1,135,6|2,1:2|3:2,0:0:0:0:
501,35,41484,2,0,P|441:19|361:9,1,135,2|2,1:2|3:2,0:0:0:0:
227,32,42484,1,0,1:0:0:0:
242,125,42817,1,0,1:0:0:0:
260,217,43151,6,0,P|185:229|137:326,1,180,6|2,1:2|1:2,0:0:0:0:
61,371,44151,1,8,0:0:0:0:
4,295,44484,2,0,P|18:197|26:106,1,180,2|0,1:2|1:0,0:0:0:0:
76,36,45484,1,10,0:0:0:0:
168,15,45817,2,0,P|199:33|189:129,1,135,6|2,1:0|0:0,0:0:0:0:
133,248,46817,1,2,0:0:0:0:
233,348,47317,1,2,1:2:0:0:
359,284,47817,2,0,P|425:289|459:296,1,90,8|2,1:3|1:2,0:0:0:0:
511,235,48484,6,0,P|511:179|500:98,1,121.499996292114,4|2,1:2|3:2,0:0:0:0:
423,14,49484,1,2,0:0:0:0:
339,27,49817,2,0,P|301:47|297:126,1,121.499996292114,2|2,1:2|3:2,0:0:0:0:
353,179,50651,2,0,P|338:232|331:273,1,80.9999975280763,2|2,1:2|3:2,0:0:0:0:
275,371,51484,1,10,0:0:0:0:
147,374,51984,2,0,P|138:334|127:295,1,80.9999975280763,2|8,0:0|0:0,0:0:0:0:
93,268,52484,2,0,B|88:198|139:226|128:148,1,121.499996292114,2|2,1:2|3:2,0:0:0:0:
87,83,53317,1,4,1:2:0:0:
194,14,53817,6,0,B|370:-1|265:111|465:95,1,283.499991348267,4|8,1:2|0:0,0:0:0:0:
490,79,55151,2,0,P|470:163|464:211,1,121.499996292114,2|0,1:2|3:0,0:0:0:0:
473,282,55984,1,2,1:3:0:0:
383,373,56484,2,0,B|330:345|330:345|265:370,1,121.499996292114,2|2,1:2|3:2,0:0:0:0:
108,231,57817,2,0,P|175:234|219:189,1,121.499996292114,0|2,1:0|3:2,0:0:0:0:
269,135,58651,2,0,P|326:119|400:115,1,121.499996292114,0|4,1:0|1:2,0:0:0:0:
482,118,59484,5,2,1:2:0:0:
506,26,59817,1,2,1:2:0:0:
365,8,60317,2,0,P|302:14|229:35,1,135,2|2,3:2|1:2,0:0:0:0:
149,77,61151,1,2,1:2:0:0:
74,19,61484,1,8,1:2:0:0:
5,83,61817,2,0,B|-48:220|111:160|33:345,1,270,2|10,1:2|1:2,0:0:0:0:
26,376,62984,2,0,P|105:324|248:342,1,225,2|0,3:2|1:0,0:0:0:0:
282,253,64151,1,2,1:2:0:0:
231,174,64484,6,0,P|216:93|274:19,1,180,6|2,1:2|1:2,0:0:0:0:
414,11,65651,2,0,P|397:85|388:155,1,135,2|8,3:2|0:0,0:0:0:0:
328,216,66484,1,2,0:0:0:0:
365,302,66817,1,10,3:2:0:0:
458,290,67151,2,0,P|449:358|439:388,2,90,14|8|2,1:0|1:3|0:0,0:0:0:0:
507,209,68151,1,12,1:0:0:0:
458,128,68484,2,0,B|425:50|495:79|442:-18,1,135,8|8,1:3|1:2,0:0:0:0:
403,2,69151,2,0,B|293:-12|362:58|227:36,1,180,8|4,1:3|1:2,0:0:0:0:
21,178,72484,5,14,1:2:0:0:
55,90,72817,2,0,P|137:80|210:147,1,180,2|10,0:0|0:0,0:0:0:0:
234,230,73817,1,2,0:0:0:0:
264,319,74151,2,0,P|170:329|82:355,1,180,2|8,0:0|0:0,0:0:0:0:
8,322,75151,5,4,1:2:0:0:
39,155,75817,1,2,0:0:0:0:
206,184,76484,2,0,P|193:114|184:93,1,80.9999975280763,2|2,0:0|0:0,0:0:0:0:
231,30,77151,2,0,P|269:41|309:46,1,80.9999975280763,2|2,0:0|0:0,0:0:0:0:
387,13,77817,2,0,P|428:19|454:66,1,80.9999975280763,2|0,0:0|0:0,0:0:0:0:
489,224,79484,6,0,P|499:166|509:133,2,80.9999975280763,2|2|2,0:0|0:0|0:0,0:0:0:0:
493,323,80484,6,0,P|405:367|329:326,1,188.999994232178,6|0,1:2|1:0,0:0:0:0:
269,250,81484,1,2,1:2:0:0:
339,180,81817,2,0,B|297:70|390:95|333:-13,1,188.999994232178,2|2,1:2|1:2,0:0:0:0:
240,12,82817,1,2,1:2:0:0:
141,28,83151,1,4,1:2:0:0:
111,173,83651,2,0,B|160:150|160:150|219:155|254:183,1,141.749995674133,2|10,1:2|0:0,0:0:0:0:
288,156,84317,2,0,B|275:201|275:201|299:236|299:236|282:300,1,141.749995674133,2|8,1:2|0:0,0:0:0:0:
261,383,85151,1,2,3:2:0:0:
170,342,85484,1,10,0:2:0:0:
76,376,85817,6,0,P|66:308|57:277,1,94.499997116089,2|2,1:2|1:2,0:0:0:0:
4,199,86484,2,0,P|15:153|20:106,1,94.499997116089,2|0,1:2|1:0,0:0:0:0:
91,36,87151,1,2,1:2:0:0:
169,95,87484,2,0,L|223:103,1,47.2499985580445,2|2,1:2|0:0,0:0:0:0:
299,47,87984,2,0,P|315:84|281:177,1,141.749995674133,2|6,3:2|1:2,0:0:0:0:
190,211,88817,5,10,0:0:0:0:
98,249,89151,2,0,P|109:292|116:350,1,94.499997116089,2|14,3:2|0:1,0:0:0:0:
149,377,89651,2,0,P|223:336|289:348,1,141.749995674133,2|10,1:2|0:0,0:0:0:0:
370,376,90484,1,2,3:2:0:0:
441,307,90817,1,10,3:2:0:0:
412,211,91151,6,0,P|351:198|271:196,1,141.749995674133,6|6,1:2|1:0,0:0:0:0:
165,92,92151,1,6,1:0:0:0:
222,11,92484,2,0,B|273:18|273:18|292:46|292:46|356:55,1,141.749995674133,4|4,1:2|1:0,0:0:0:0:
487,1,93484,1,8,0:3:0:0:
505,98,93817,2,0,P|490:160|487:210,1,94.499997116089,2|2,1:2|0:0,0:0:0:0:
495,239,94317,1,2,1:2:0:0:
398,261,94651,1,2,1:2:0:0:
302,285,94984,2,0,B|276:210|346:223|308:133,1,141.749995674133,14|8,1:2|0:0,0:0:0:0:
278,56,95817,2,0,B|228:24|228:24|169:27|97:68,1,188.999994232178,8|0,1:3|1:0,0:0:0:0:
44,141,96817,5,4,1:2:0:0:
74,235,97151,2,0,P|144:221|188:217,1,94.499997116089,2|0,1:2|1:0,0:0:0:0:
259,182,97817,2,0,P|305:234|274:356,1,188.999994232178,2|0,1:2|1:0,0:0:0:0:
194,382,98817,1,0,1:2:0:0:
95,372,99151,2,0,P|107:315|113:219,1,141.749995674133,6|6,1:0|1:2,0:0:0:0:
27,110,100151,2,0,P|105:80|123:26,1,141.749995674133,6|4,1:0|1:2,0:0:0:0:
271,15,101151,1,6,1:0:0:0:
253,112,101484,1,2,1:2:0:0:
235,209,101817,6,0,B|394:239|308:127|475:129|509:176|499:282|417:276,1,360,2|4,0:0|1:2,0:0:0:0:
110,20,113817,6,0,B|60:106|151:86|98:185,1,170.999995433807,0|8,1:0|0:0,0:0:0:0:
55,259,114817,1,0,1:0:0:0:
82,344,115151,2,0,P|157:307|260:309,1,170.999995433807,2|8,0:0|0:0,0:0:0:0:
409,371,116484,2,0,P|398:274|379:194,1,170.999995433807,0|8,1:0|0:0,0:0:0:0:
453,149,117484,1,0,1:0:0:0:
471,61,117817,2,0,B|409:37|409:37|367:59|367:59|307:41,1,170.999995433807,2|8,0:0|0:0,0:0:0:0:
212,192,119151,6,0,B|274:174|274:174|335:184|363:231,1,170.999995433807,0|8,1:0|0:0,0:0:0:0:
375,317,120151,1,0,1:0:0:0:
305,373,120484,2,0,P|210:354|125:347,1,170.999995433807,2|8,0:0|0:0,0:0:0:0:
10,219,121817,2,0,B|18:157|18:157|56:128|56:128|68:60,1,170.999995433807,0|8,1:0|0:0,0:0:0:0:
129,3,122817,1,0,1:0:0:0:
218,14,123151,2,0,B|262:37|262:37|291:100|242:156,1,170.999995433807,2|10,0:0|0:0,0:0:0:0:
176,214,124151,1,2,0:0:0:0:
236,286,124484,6,0,P|221:335|218:381,1,90,6|10,1:2|0:0,0:0:0:0:
310,372,125151,2,0,P|359:357|405:354,1,90,2|10,1:2|0:0,0:0:0:0:
444,360,125651,2,0,P|484:326|473:244,1,135,2|8,0:0|0:0,0:0:0:0:
420,174,126484,1,2,1:2:0:0:
464,90,126817,1,10,0:0:0:0:
395,24,127151,2,0,B|280:18|342:90|212:63,1,180,2|2,1:2|1:2,0:0:0:0:
323,170,128317,2,0,P|306:241|300:304,1,135,2|8,0:0|0:0,0:0:0:0:
238,375,129151,1,2,1:2:0:0:
151,337,129484,1,8,0:0:0:0:
63,373,129817,6,0,B|4:280|78:183|78:183|204:154|181:25,1,405,4|8,1:2|0:0,0:0:0:0:
45,2,131817,2,0,P|12:36|19:92,1,90,2|10,1:2|0:0,0:0:0:0:
28,169,132484,2,0,P|114:149|177:145,1,135,10|6,1:0|1:3,0:0:0:0:
228,269,133484,1,10,1:0:0:0:
319,244,133817,2,0,P|307:311|303:385,1,135,8|10,1:3|0:0,0:0:0:0:
445,352,134817,1,4,1:3:0:0:
475,262,135151,6,0,P|487:195|491:121,1,135,14|2,1:2|3:2,0:0:0:0:
403,16,136151,1,10,1:0:0:0:
266,52,136651,1,2,3:2:0:0:
26,12,137817,2,0,P|14:79|10:153,1,135,10|2,1:0|3:2,0:0:0:0:
98,258,138817,1,10,1:0:0:0:
235,222,139317,1,2,3:2:0:0:
422,380,140484,6,0,B|452:358|452:358|475:309|436:253,1,135,6|2,1:2|0:0,0:0:0:0:
332,176,141484,2,0,P|238:186|194:201,1,135,2|2,1:2|0:0,0:0:0:0:
63,238,142484,1,2,1:2:0:0:
11,158,142817,1,2,1:2:0:0:
42,68,143151,2,0,P|88:25|198:62,1,180,4|4,1:2|1:3,0:0:0:0:
277,13,144151,1,6,1:2:0:0:
359,59,144484,2,0,P|341:134|332:243,1,180,2|8,1:2|1:3,0:0:0:0:
390,310,145484,1,8,0:0:0:0:
313,373,145817,6,0,B|260:360|260:360|227:375|227:375|168:362,2,141.749995674133,6|2|10,1:2|1:2|3:2,0:0:0:0:
390,310,147151,1,6,1:2:0:0:
346,167,147651,1,0,1:0:0:0:
203,209,148151,1,10,3:2:0:0:
133,138,148484,2,0,P|146:63|146:31,1,94.499997116089,6|8,1:2|3:2,0:0:0:0:
235,0,149151,2,0,P|281:10|328:13,1,94.499997116089,2|10,3:2|3:2,0:0:0:0:
427,19,149817,1,2,1:2:0:0:
509,143,150317,2,0,B|440:135|458:187|366:174,1,141.749995674133,2|4,1:2|1:2,0:0:0:0:
236,120,151317,5,2,1:2:0:0:
91,156,151817,2,0,P|44:192|52:323,1,188.999994232178,12|10,1:0|3:2,0:0:0:0:
125,369,152817,2,0,P|204:348|235:348,1,94.499997116089,2|8,3:2|3:2,0:0:0:0:
313,368,153483,1,6,1:2:0:0:
270,225,153983,1,6,1:0:0:0:
411,179,154483,1,8,1:0:0:0:
435,82,154817,6,0,B|171:19|328:181|55:116,1,377.999988464356,10|4,1:2|1:2,0:0:0:0:
128,13,158817,5,14,1:2:0:0:
39,47,159150,2,0,P|58:125|60:239,1,180,2|10,0:0|0:0,0:0:0:0:
40,316,160150,1,2,1:2:0:0:
115,373,160483,2,0,P|201:347|207:258,1,180,8|8,1:3|0:0,0:0:0:0:
191,184,161483,5,4,1:2:0:0:
317,69,162150,1,2,0:0:0:0:
479,120,162817,2,0,P|468:160|465:210,1,80.9999975280763,6|2,1:0|0:0,0:0:0:0:
509,280,163483,2,0,P|468:283|429:294,1,80.9999975280763,2|2,0:0|0:0,0:0:0:0:
354,351,164150,5,6,1:2:0:0:
214,374,164650,1,2,3:2:0:0:
148,248,165150,1,2,1:2:0:0:
247,146,165650,1,2,3:2:0:0:
374,208,166150,2,0,P|385:144|396:115,1,90,2|2,1:2|1:2,0:0:0:0:
440,39,166816,5,6,1:2:0:0:
299,59,167316,1,6,1:2:0:0:
158,80,167816,2,0,P|171:122|177:167,1,90,6|0,1:2|0:0,0:0:0:0:
29,368,169483,6,0,B|-51:153|122:247|24:17,1,360,6|6,1:0|1:0,0:0:0:0:
213,58,171483,1,2,0:0:0:0:
150,245,172150,1,6,1:2:0:0:
298,229,172650,2,0,P|257:299|275:371,1,141.749995674133,2|10,1:2|0:0,0:0:0:0:
313,371,173316,2,0,B|367:357|367:357|399:373|399:373|461:359,1,141.749995674133,2|8,1:2|0:0,0:0:0:0:
499,275,174150,1,2,3:2:0:0:
484,176,174483,1,10,0:0:0:0:
469,77,174816,6,0,P|398:64|373:56,1,94.499997116089,2|6,1:2|1:2,0:0:0:0:
277,46,175483,2,0,P|289:91|296:138,1,94.499997116089,2|2,1:2|1:2,0:0:0:0:
349,222,176150,1,2,1:2:0:0:
316,315,176483,2,0,L|252:304,1,47.2499985580445,6|2,1:2|0:0,0:0:0:0:
195,373,176983,2,0,P|166:333|199:237,1,141.749995674133,2|6,3:2|1:2,0:0:0:0:
175,149,177816,5,10,0:0:0:0:
160,50,178150,2,0,P|97:62|53:76,1,94.499997116089,2|14,3:2|0:1,0:0:0:0:
22,90,178650,2,0,B|7:160|78:142|40:236,1,141.749995674133,2|10,0:0|0:0,0:0:0:0:
14,317,179483,1,2,3:2:0:0:
93,376,179816,1,10,0:0:0:0:
189,352,180150,6,0,P|199:274|213:211,1,141.749995674133,6|6,1:2|1:0,0:0:0:0:
166,70,181150,1,6,1:0:0:0:
243,7,181483,2,0,P|313:13|350:86,1,141.749995674133,6|6,1:2|1:0,0:0:0:0:
314,213,182483,1,8,0:3:0:0:
368,296,182816,2,0,P|413:282|473:278,1,94.499997116089,2|2,1:2|0:0,0:0:0:0:
505,256,183316,1,2,1:2:0:0:
491,157,183650,1,2,1:2:0:0:
476,58,183983,2,0,B|397:38|422:95|338:81,1,141.749995674133,14|8,1:2|0:0,0:0:0:0:
259,25,184816,2,0,P|310:99|307:208,1,188.999994232178,8|0,1:3|1:0,0:0:0:0:
284,291,185816,5,4,1:2:0:0:
184,285,186150,2,0,P|169:348|163:398,1,94.499997116089,2|2,1:2|1:2,0:0:0:0:
65,377,186816,2,0,P|80:304|97:172,1,188.999994232178,2|0,1:2|1:0,0:0:0:0:
44,104,187816,1,0,1:0:0:0:
105,25,188150,2,0,B|159:6|159:6|200:11|243:58,1,141.749995674133,6|6,1:0|1:2,0:0:0:0:
191,192,189150,2,0,P|263:173|339:169,1,141.749995674133,6|4,1:0|1:2,0:0:0:0:
451,254,190150,1,6,1:0:0:0:
499,167,190483,1,2,1:2:0:0:
467,73,190816,6,0,P|422:32|338:38,1,141.749995674133,6|6,1:2|1:2,0:0:0:0:
206,89,191816,2,0,P|193:194|191:236,1,141.749995674133,6|6,1:2|1:2,0:0:0:0:
259,361,192816,1,6,1:2:0:0:
357,350,193150,1,6,1:2:0:0:
455,342,193483,2,0,B|444:292|444:292|462:256|462:256|447:200,1,141.749995674133,6|6,1:2|1:2,0:0:0:0:
381,74,194483,2,0,B|345:52|345:52|291:50|246:101,1,141.749995674133,6|6,1:2|1:2,0:0:0:0:
204,229,195483,1,6,1:2:0:0:
105,218,195816,1,6,1:2:0:0:
6,206,196150,6,0,B|-2:128|59:154|42:57,1,141.749995674133,6|6,1:2|1:0,0:0:0:0:
174,2,197150,2,0,P|249:10|321:29,1,141.749995674133,6|6,1:2|1:0,0:0:0:0:
423,126,198150,1,6,1:2:0:0:
411,224,198483,1,4,0:3:0:0:
399,322,198816,2,0,P|330:304|259:297,1,141.749995674133,6|6,1:2|1:0,0:0:0:0:
131,373,199816,2,0,P|97:310|123:228,1,141.749995674133,6|6,1:2|1:0,0:0:0:0:
242,174,200816,2,2,B|257:104|257:104|229:65|229:65|248:-1,1,188.999994232178,2|4,1:2|1:2,0:1:0:0:
123,80,201983,5,2,1:2:0:0:
157,224,202483,1,10,3:2:0:0:
304,240,202983,1,2,1:2:0:0:
372,107,203483,2,0,P|436:116|481:127,1,94.499997116089,2|10,3:2|3:2,0:0:0:0:
506,212,204150,1,6,1:2:0:0:
445,348,204650,1,2,1:2:0:0:
313,278,205150,1,10,3:2:0:0:
194,368,205650,1,2,1:2:0:0:
106,247,206150,2,0,P|50:256|6:268,1,94.499997116089,0|8,3:0|3:2,0:0:0:0:
3,171,206816,6,0,P|-2:81|69:26,1,180,2|2,1:2|1:2,0:0:0:0:
155,15,207816,1,0,1:0:0:0:
244,45,208150,2,0,P|230:104|225:148,1,90,2|4,1:2|1:2,0:0:0:0:
203,224,208816,2,0,B|314:247|259:168|379:190,1,180,0|6,1:0|1:2,0:0:0:0:
504,236,209983,1,2,3:2:0:0:
475,97,210483,1,2,1:2:0:0:
335,73,210983,1,2,3:2:0:0:
269,198,211483,1,2,1:2:0:0:
176,178,211816,2,1,L|121:166,1,45,2|4,1:2|3:1,0:0:0:0:
