osu file format v14

[General]
AudioFilename: audio.ogg
AudioLeadIn: 0
PreviewTime: 167896
Countdown: 0
SampleSet: Soft
StackLeniency: 0.5
Mode: 0
LetterboxInBreaks: 0
WidescreenStoryboard: 1

[Editor]
Bookmarks: 45376
DistanceSpacing: 1
BeatDivisor: 4
GridSize: 4
TimelineZoom: 2.1

[Metadata]
Title:Clammbon
TitleUnicode:クラムボン
Artist:yuki
ArtistUnicode:yuki
Creator:pnky
Version:Insane
Source:白昼夢の青写真
Tags:Garden Hakuchuumu no Aojashin Cyanotype Daydream -The Girl Who Dreamed the World- Who's Called Laplacian case-1 opening full version momo onoWasabi japanese video game pop rock jpop j-pop jrock j-rock visual novel vn eroge
BeatmapID:3588814
BeatmapSetID:1737221

[Difficulty]
HPDrainRate:6
CircleSize:4
OverallDifficulty:8
ApproachRate:8.5
SliderMultiplier:1.73
SliderTickRate:1

[Events]
//Background and Video events
0,0,"rinn3.jpg",0,0
//Break Periods
//Storyboard Layer 0 (Background)
//Storyboard Layer 1 (Fail)
//Storyboard Layer 2 (Pass)
//Storyboard Layer 3 (Foreground)
//Storyboard Layer 4 (Overlay)
//Storyboard Sound Samples

[TimingPoints]
-104,480,4,2,1,70,1,0
3736,-83.3333333333333,4,2,1,70,0,0
4216,-83.3333333333333,4,2,1,70,0,0
22936,-100,4,2,1,50,0,0
34456,-125,4,2,1,60,0,0
47896,-125,4,2,1,60,0,0
48376,-83.3333333333333,4,2,1,60,0,0
48856,-83.3333333333333,4,2,1,60,0,0
50296,-125,4,2,1,60,0,0
50776,-83.3333333333333,4,2,1,60,0,0
50836,-83.3333333333333,4,2,1,40,0,0
51256,-83.3333333333333,4,2,1,60,0,0
51736,-71.4285714285714,4,2,1,75,0,1
82456,-83.3333333333333,4,2,1,70,0,0
90136,-125,4,2,1,50,0,0
101656,-125,4,2,1,55,0,0
117016,-83.3333333333333,3,2,1,65,0,0
140056,-166.666666666667,3,2,1,55,0,0
153016,-250.000000000001,3,2,1,60,0,0
153496,-125,3,2,1,60,0,0
172696,-71.4285714285714,3,2,1,75,0,1
199576,-83.3333333333333,3,2,1,65,0,0
211096,-90.9090909090909,3,2,1,55,0,0
214936,-100,3,2,1,50,0,0
218776,-111.111111111111,3,2,1,40,0,0
222616,-125,3,2,1,30,0,0
226456,-142.857142857143,3,2,1,25,0,0
230416,-166.666666666667,3,2,1,20,0,0
232216,-166.666666666667,3,2,1,15,0,0
234136,-166.666666666667,3,2,1,10,0,0
236056,-166.666666666667,3,2,1,5,0,0

[Colours]
Combo1 : 160,230,150
Combo2 : 250,180,240
Combo3 : 120,200,230
Combo4 : 255,230,130

[HitObjects]
94,198,3736,5,4,3:2:0:0:
94,82,3976,1,2,0:0:0:0:
194,140,4216,2,0,P|184:197|179:258,1,103.799996832275,2|2,1:2|0:0,0:0:0:0:
113,297,4576,2,0,P|121:320|133:344,1,51.8999984161377,0|2,1:2|3:2,0:0:0:0:
134,345,4816,2,0,B|213:351|187:281|285:285,1,155.699995248413,0|2,1:0|1:2,0:0:0:0:
271,284,5416,1,2,0:0:0:0:
376,384,5656,6,0,P|379:338|395:272,1,103.799996832275,2|2,3:2|0:0,0:0:0:0:
417,271,6016,1,0,0:0:0:0:
417,271,6136,1,2,1:2:0:0:
463,158,6376,2,0,P|469:184|472:214,1,51.8999984161377,2|0,0:0|1:0,0:0:0:0:
358,206,6616,2,0,P|360:180|366:154,1,51.8999984161377,2|0,3:2|1:0,0:0:0:0:
414,92,6856,1,2,0:0:0:0:
273,13,7096,2,0,P|217:28|198:73,1,103.799996832275,2|2,1:2|0:0,0:0:0:0:
212,93,7456,1,0,0:0:0:0:
212,93,7576,5,2,3:2:0:0:
110,59,7816,2,0,P|99:27|94:8,1,51.8999984161377,2|0,0:0|0:0,0:0:0:0:
33,84,8056,2,0,P|65:128|137:133,1,103.799996832275,2|2,1:2|0:0,0:0:0:0:
182,227,8416,1,0,1:0:0:0:
182,227,8536,2,0,P|184:201|189:175,2,51.8999984161377,2|0|0,3:2|1:0|0:0,0:0:0:0:
27,350,9016,2,0,P|43:295|146:302,1,155.699995248413,2|0,1:2|1:0,0:0:0:0:
216,304,9496,5,2,3:2:0:0:
244,294,9616,1,2,0:0:0:0:
270,284,9736,2,0,L|383:300,2,103.799996832275,0|2|2,0:0|1:2|0:0,0:0:0:0:
373,299,10336,2,0,L|425:307,1,51.8999984161377,0|2,1:2|3:2,0:0:0:0:
339,212,10576,2,0,L|452:228,1,103.799996832275,0|0,1:0|0:0,0:0:0:0:
467,230,10936,1,2,1:2:0:0:
336,94,11176,1,2,0:0:0:0:
199,202,11416,6,0,P|191:153|176:93,1,103.799996832275,2|2,3:2|0:0,0:0:0:0:
93,137,11776,1,0,0:0:0:0:
93,137,11896,2,0,P|153:132|183:78,1,103.799996832275,2|2,1:2|0:0,0:0:0:0:
265,126,12256,2,0,P|273:161|277:188,1,51.8999984161377,0|2,1:2|3:2,0:0:0:0:
225,293,12496,1,2,1:2:0:0:
225,293,12616,1,2,0:0:0:0:
225,293,12856,2,0,B|185:286|185:286|171:271|171:271|114:258,1,103.799996832275,2|2,1:2|0:0,0:0:0:0:
60,337,13216,1,0,0:0:0:0:
60,355,13336,6,0,P|154:345|127:260,1,207.599993664551,2|4,3:2|1:2,0:0:0:0:
129,262,14056,2,0,L|120:199,1,51.8999984161377,2|0,0:0|1:0,0:0:0:0:
65,145,14296,1,2,3:2:0:0:
65,145,14416,2,0,P|89:101|139:94,1,103.799996832275,0|0,1:0|1:0,0:0:0:0:
223,146,14776,1,2,1:2:0:0:
295,140,14896,1,0,1:0:0:0:
355,180,15016,1,2,1:2:0:0:
427,175,15136,1,0,1:0:0:0:
465,113,15256,6,0,P|452:63|430:11,1,103.799996832275,4|2,3:2|0:0,0:0:0:0:
295,140,15736,1,2,1:2:0:0:
322,310,15976,2,0,L|314:365,1,51.8999984161377,2|0,0:0|0:0,0:0:0:0:
189,198,16216,1,2,3:2:0:0:
206,238,16336,1,0,1:0:0:0:
177,276,16456,2,0,P|204:239|265:236,2,103.799996832275,2|2|2,0:0|1:2|0:0,0:0:0:0:
122,355,17056,1,0,1:0:0:0:
122,355,17176,6,0,P|96:349|68:347,1,51.8999984161377,2|0,3:2|3:0,0:0:0:0:
32,274,17416,2,0,P|58:268|86:266,1,51.8999984161377,2|2,0:0|0:0,0:0:0:0:
161,179,17656,2,0,P|117:117|35:136,1,155.699995248413,2|0,1:2|1:0,0:0:0:0:
45,126,18136,2,0,P|41:93|30:68,1,51.8999984161377,2|0,3:2|1:0,0:0:0:0:
15,57,18376,1,2,0:0:0:0:
136,11,18616,2,0,B|218:-6|202:62|289:44,1,155.699995248413,2|0,1:2|0:0,0:0:0:0:
346,89,19096,6,0,P|371:74|409:72,1,51.8999984161377,2|0,3:2|0:0,0:0:0:0:
360,214,19336,1,2,0:0:0:0:
341,203,19456,1,2,0:0:0:0:
328,181,19576,2,0,P|319:131|346:89,1,103.799996832275,2|2,1:2|0:0,0:0:0:0:
440,87,19936,2,0,P|417:73|391:69,1,51.8999984161377,0|2,1:2|3:2,0:0:0:0:
487,154,20176,1,0,1:0:0:0:
510,145,20296,1,2,0:0:0:0:
505,277,20536,2,0,P|458:262|386:257,1,103.799996832275,2|2,1:2|0:0,0:0:0:0:
297,357,20896,1,0,1:0:0:0:
297,357,21016,6,0,P|346:341|397:336,1,103.799996832275,2|2,3:2|0:0,0:0:0:0:
341,203,21376,1,0,0:0:0:0:
341,203,21496,2,0,P|294:188|222:183,1,103.799996832275,2|0,1:2|0:0,0:0:0:0:
145,303,21856,1,0,1:0:0:0:
123,290,21976,1,2,3:2:0:0:
101,275,22096,2,0,B|106:238|106:238|96:212|96:212|104:155,1,103.799996832275,0|0,1:0|3:0,0:0:0:0:
34,124,22456,2,0,P|75:95|138:100,2,103.799996832275,2|2|4,1:2|0:0|3:2,0:0:0:0:
34,124,24136,5,2,0:0:0:0:
46,209,24376,1,0,1:0:0:0:
59,294,24616,1,2,0:0:0:0:
171,361,24856,2,0,B|265:365|228:278|337:293,1,173,2|0,3:2|3:2,0:0:0:0:
382,351,25576,1,2,0:0:0:0:
382,351,26056,1,2,0:0:0:0:
320,291,26296,1,0,1:0:0:0:
355,212,26536,1,2,0:0:0:0:
355,212,27976,5,2,0:0:0:0:
390,133,28216,1,0,1:0:0:0:
328,73,28456,1,2,0:0:0:0:
217,20,28696,2,0,B|150:39|150:39|129:71|129:71|49:95,1,173,2|0,3:2|3:0,0:0:0:0:
8,25,29416,1,2,0:0:0:0:
8,25,29896,1,2,0:0:0:0:
66,89,30136,1,0,1:0:0:0:
40,171,30376,1,2,0:0:0:0:
40,171,31336,5,2,0:0:0:0:
123,150,31576,2,0,B|179:166|198:112|198:112|186:47|186:47|209:2|257:10|257:10|326:30|326:30|414:53|414:53|345:64|341:126,1,519,2|0,3:2|1:0,0:0:0:0:
326,203,34456,6,0,P|305:258|296:347,1,138.4,4|0,3:2|1:0,0:0:0:0:
222,376,35176,2,0,B|153:359|182:313|111:303,1,138.4,2|2,0:0|0:0,0:0:0:0:
37,338,35896,1,0,1:0:0:0:
37,338,36136,1,2,0:0:0:0:
8,260,36376,2,0,P|21:189|33:99,1,138.4,2|0,3:2|1:0,0:0:0:0:
85,61,37096,2,0,P|78:36|73:3,1,34.6,2|2,0:0|0:0,0:0:0:0:
153,103,37336,2,0,P|160:128|164:160,2,34.6,0|0|2,3:0|1:0|0:0,0:0:0:0:
173,66,37696,2,0,P|176:49|181:32,1,34.6,0|2,0:0|1:2,0:0:0:0:
134,212,38056,1,2,0:0:0:0:
197,265,38296,6,0,P|255:254|350:244,2,138.4,2|0|0,3:2|1:0|3:0,0:0:0:0:
145,331,39496,1,2,0:0:0:0:
145,331,39736,1,0,1:0:0:0:
214,376,39976,1,2,0:0:0:0:
288,338,40216,2,0,P|346:327|441:317,1,138.4,2|0,3:2|1:0,0:0:0:0:
475,252,40936,2,0,P|477:227|481:206,1,34.6,2|0,0:0|0:0,0:0:0:0:
434,151,41176,2,0,P|432:126|428:105,2,34.6,0|0|0,3:0|1:0|0:0,0:0:0:0:
404,181,41536,2,0,P|401:198|400:215,1,34.6,0|2,3:0|1:2,0:0:0:0:
484,52,41896,1,2,0:0:0:0:
408,18,42136,6,0,B|369:12|340:29|348:49|316:66|277:54,2,138.4,2|0|0,3:2|1:0|3:0,0:0:0:0:
345,129,43336,1,2,0:0:0:0:
345,129,43576,1,0,1:0:0:0:
294,194,43816,1,2,0:0:0:0:
343,260,44056,2,0,P|366:253|390:249,2,34.6,2|0|0,3:2|1:0|0:0,0:0:0:0:
305,334,44536,1,2,1:2:0:0:
229,369,44776,2,0,P|206:362|182:358,1,34.6,2|0,0:0|1:0,0:0:0:0:
134,304,45016,2,0,P|117:307|100:313,2,34.6,0|0|2,3:0|1:0|0:0,0:0:0:0:
165,276,45376,2,0,P|188:283|212:287,1,34.6,0|0,0:0|1:0,0:0:0:0:
262,231,45736,1,2,3:2:0:0:
200,99,45976,6,0,P|205:133|207:168,1,69.2,4|0,3:2|0:0,0:0:0:0:
133,207,46456,2,0,P|100:195|70:178,1,69.2,0|2,1:0|3:2,0:0:0:0:
73,95,46936,2,0,P|94:78|116:62,2,34.6,2|0|2,3:2|1:0|0:0,0:0:0:0:
201,99,47416,1,2,3:2:0:0:
270,53,47656,2,0,P|292:59|317:63,1,34.6,0|0,1:0|1:0,0:0:0:0:
339,91,47896,5,2,3:2:0:0:
339,91,48016,2,0,P|391:75|453:66,1,103.8,2|4,0:0|1:2,0:0:0:0:
497,177,48616,2,0,P|491:207|486:235,1,51.8999984161377,2|0,0:0|3:0,0:0:0:0:
440,318,48856,5,0,1:0:0:0:
400,330,48976,1,0,1:0:0:0:
364,308,49096,1,0,1:0:0:0:
324,320,49216,1,0,1:0:0:0:
255,343,49336,5,0,1:0:0:0:
193,305,49456,1,0,1:0:0:0:
231,243,49576,1,2,1:2:0:0:
231,243,50776,6,0,L|227:207,6,25.9499992080689,2|2|2|2|2|2|2,0:1|0:1|0:1|0:1|0:1|0:1|0:1,0:0:0:0:
254,173,51256,2,0,B|316:159|316:159|352:173|352:173|410:159,1,155.699995248413,2|0,0:1|0:1,0:0:0:0:
460,114,51736,6,0,P|426:48|326:66,1,181.649994456482,4|0,3:2|0:0,0:0:0:0:
317,86,52216,1,2,1:2:0:0:
254,173,52456,2,0,P|222:164|181:162,1,60.5499981521607,2|0,0:0|1:0,0:0:0:0:
73,225,52696,1,2,3:2:0:0:
19,175,52816,2,0,P|110:168|209:140,1,181.649994456482,0|2,1:0|1:2,0:0:0:0:
197,144,53416,2,0,P|203:116|200:83,1,60.5499981521607,2|0,0:0|1:0,0:0:0:0:
290,45,53656,6,0,B|376:-36|479:35|406:128|346:88,1,242.199992608643,2|2,3:2|1:2,0:0:0:0:
356,93,54376,1,2,0:0:0:0:
357,123,54496,1,0,1:0:0:0:
295,157,54616,2,0,L|356:153,1,60.5499981521607,2|0,3:2|1:0,0:0:0:0:
430,202,54856,1,2,0:0:0:0:
432,232,54976,1,0,3:0:0:0:
332,271,55096,2,0,P|341:208|359:138,1,121.099996304321,2|0,1:2|0:0,0:0:0:0:
417,329,55576,6,0,B|403:354|403:354|340:353|278:362|278:362|262:339,1,181.649994456482,2|0,3:2|0:0,0:0:0:0:
241,317,56056,1,2,1:2:0:0:
183,221,56296,2,0,P|153:238|118:246,1,60.5499981521607,2|0,0:0|1:0,0:0:0:0:
0,275,56536,1,2,3:2:0:0:
49,328,56656,2,0,P|53:239|72:133,1,181.649994456482,0|2,1:0|1:2,0:0:0:0:
251,161,57256,2,0,P|222:152|195:137,1,60.5499981521607,2|0,0:0|1:0,0:0:0:0:
283,37,57496,6,0,B|319:39|349:11|349:11|307:65|326:119|326:119|362:111|407:105,1,242.199992608643,2|2,3:2|1:2,0:0:0:0:
378,109,58216,1,2,0:0:0:0:
378,139,58336,1,0,1:0:0:0:
438,212,58456,2,0,P|444:174|455:149,1,60.5499981521607,2|0,3:2|1:0,0:0:0:0:
330,208,58696,1,2,0:0:0:0:
337,237,58816,1,2,0:0:0:0:
405,296,58936,2,0,B|370:304|355:330|355:330|329:307|289:317,1,121.099996304321,2|2,1:2|1:2,0:0:0:0:
163,384,59416,6,0,B|119:336|119:336|162:204,1,181.649994456482,4|0,3:2|0:0,0:0:0:0:
166,197,59896,1,2,1:2:0:0:
51,70,60136,2,0,L|71:133,1,60.5499981521607,2|0,0:0|1:0,0:0:0:0:
166,197,60376,1,2,3:2:0:0:
192,129,60496,2,0,P|261:97|335:165,1,181.649994456482,0|2,1:0|1:2,0:0:0:0:
333,158,61096,2,0,P|340:123|355:90,1,60.5499981521607,2|0,0:0|1:0,0:0:0:0:
480,189,61336,6,0,B|433:165|393:195|382:226|384:233|388:239|375:275|325:297|279:261,1,242.199992608643,2|2,3:2|1:2,0:0:0:0:
282,263,62056,1,2,0:0:0:0:
209,156,62296,2,0,P|214:191|217:224,1,60.5499981521607,2|0,3:2|1:0,0:0:0:0:
146,100,62536,1,2,0:0:0:0:
19,225,62776,2,0,P|75:197|141:176,1,121.099996304321,2|2,1:2|0:0,0:0:0:0:
374,250,63256,6,0,B|330:256|294:222|294:222|289:272|240:293,1,181.649994456482,4|0,3:2|0:0,0:0:0:0:
209,296,63736,1,2,1:2:0:0:
409,371,63976,2,0,P|418:330|440:297,1,60.5499981521607,2|0,0:0|1:0,0:0:0:0:
491,189,64216,1,2,3:2:0:0:
418,190,64336,2,0,P|467:168|454:53,1,181.649994456482,0|2,1:0|1:2,0:0:0:0:
314,14,64936,2,0,P|287:32|252:36,1,60.5499981521607,2|0,0:0|1:0,0:0:0:0:
200,115,65176,6,0,P|151:78|89:78,1,121.099996304321,4|0,3:2|1:0,0:0:0:0:
69,95,65536,1,0,1:0:0:0:
20,188,65656,2,0,P|69:151|131:151,1,121.099996304321,2|0,1:2|1:0,0:0:0:0:
150,168,66016,1,0,1:0:0:0:
227,219,66136,1,2,3:2:0:0:
212,245,66256,2,0,P|215:210|230:175,2,60.5499981521607,0|0|0,1:0|1:0|1:0,0:0:0:0:
258,300,66616,1,2,1:2:0:0:
299,276,66736,1,0,1:0:0:0:
346,279,66856,1,2,1:2:0:0:
384,308,66976,1,0,1:0:0:0:
426,384,67096,6,0,P|432:301|447:191,1,181.649994456482,4|0,3:2|0:0,0:0:0:0:
451,173,67576,1,2,1:2:0:0:
512,52,67816,2,0,P|477:65|441:69,1,60.5499981521607,2|0,0:0|1:0,0:0:0:0:
315,36,68056,1,2,3:2:0:0:
350,99,68176,2,0,P|295:52|187:71,1,181.649994456482,0|2,1:0|1:2,0:0:0:0:
192,66,68776,2,0,P|191:100|217:137,1,60.5499981521607,2|0,0:0|1:0,0:0:0:0:
111,194,69016,6,0,B|184:99|309:178|209:280|161:222,1,242.199992608643,2|2,3:2|1:2,0:0:0:0:
171,231,69736,1,2,0:0:0:0:
176,260,69856,1,0,1:0:0:0:
120,311,69976,2,0,L|177:290,1,60.5499981521607,2|0,3:2|1:0,0:0:0:0:
266,320,70216,1,2,0:0:0:0:
264,350,70336,1,0,3:0:0:0:
340,276,70456,2,0,P|396:287|425:358,1,121.099996304321,2|2,1:2|1:2,0:0:0:0:
473,155,70936,6,0,B|472:145|485:131|485:131|367:166|367:166|386:170|395:179,1,181.649994456482,4|0,3:2|0:0,0:0:0:0:
410,205,71416,1,2,1:2:0:0:
256,236,71656,2,0,P|267:206|276:161,1,60.5499981521607,2|0,0:0|1:0,0:0:0:0:
190,80,71896,1,2,3:2:0:0:
184,152,72016,2,0,P|227:96|338:107,1,181.649994456482,0|2,1:0|1:2,0:0:0:0:
330,100,72616,2,0,P|319:70|310:25,1,60.5499981521607,2|0,0:0|1:0,0:0:0:0:
394,202,72856,6,0,P|405:133|422:63,1,121.099996304321,4|2,3:2|0:0,0:0:0:0:
465,29,73216,1,2,0:0:0:0:
465,29,73336,1,2,1:2:0:0:
330,100,73576,1,2,0:0:0:0:
460,227,73816,1,4,3:2:0:0:
407,277,73936,2,0,P|348:267|269:260,1,121.099996304321,0|0,1:0|1:0,0:0:0:0:
224,297,74296,1,2,1:2:0:0:
204,253,74416,1,0,1:0:0:0:
166,224,74536,1,2,1:2:0:0:
118,216,74656,1,0,1:0:0:0:
59,280,74776,6,0,P|32:224|66:150,1,121.099996304321,4|2,3:2|0:0,0:0:0:0:
236,43,75256,2,0,P|263:99|229:173,1,121.099996304321,2|2,1:2|0:0,0:0:0:0:
226,175,75616,1,0,1:0:0:0:
292,222,75736,1,2,3:2:0:0:
321,214,75856,2,0,B|357:195|388:218|397:242|395:248|392:252|402:281|441:298|477:270,1,181.649994456482,0|2,1:0|1:2,0:0:0:0:
468,275,76456,2,0,P|457:309|451:348,1,60.5499981521607,2|0,0:0|1:0,0:0:0:0:
330,383,76696,6,0,P|263:362|276:208,1,242.199992608643,2|2,3:2|1:2,0:0:0:0:
341,56,77416,2,0,P|316:68|270:66,1,60.5499981521607,2|0,0:0|1:0,0:0:0:0:
159,21,77656,1,2,3:2:0:0:
103,67,77776,2,0,P|171:64|216:105,1,121.099996304321,0|0,1:0|0:0,0:0:0:0:
283,69,78136,2,0,P|313:68|372:4,1,121.099996304321,2|2,1:2|0:0,0:0:0:0:
475,129,78616,6,0,P|493:190|410:263,1,181.649994456482,4|0,3:2|0:0,0:0:0:0:
387,248,79096,1,2,1:2:0:0:
281,328,79336,2,0,P|250:314|210:311,1,60.5499981521607,2|2,0:0|0:0,0:0:0:0:
95,366,79576,1,2,3:2:0:0:
43,315,79696,2,0,P|58:225|57:117,1,181.649994456482,0|2,1:0|1:2,0:0:0:0:
58,134,80296,1,2,0:0:0:0:
88,131,80416,1,0,0:0:0:0:
136,77,80536,6,0,L|276:90,1,121.099996304321,2|2,3:2|0:0,0:0:0:0:
348,25,80896,1,2,0:0:0:0:
324,8,81016,2,0,P|287:17|260:100,1,121.099996304321,2|2,1:2|0:2,0:0:0:0:
282,103,81376,1,0,1:0:0:0:
356,166,81496,2,0,P|366:136|365:102,2,60.5499981521607,2|0|2,3:2|1:0|0:0,0:0:0:0:
260,199,81976,1,2,1:2:0:0:
214,186,82096,1,2,1:2:0:0:
170,205,82216,1,2,1:2:0:0:
147,247,82336,1,2,1:2:0:0:
57,282,82456,6,0,P|113:285|170:293,1,103.799996832275,4|2,3:2|0:0,0:0:0:0:
267,346,82936,2,0,P|318:339|370:336,1,103.799996832275,2|2,1:2|0:0,0:0:0:0:
512,376,83296,1,0,1:0:0:0:
493,367,83416,1,2,3:2:0:0:
476,360,83536,2,0,B|460:302|460:302|494:190,1,155.699995248413,0|2,1:0|1:2,0:0:0:0:
487,210,84136,1,2,0:0:0:0:
416,80,84376,6,0,P|350:90|331:120,1,103.799996832275,2|2,3:2|0:0,0:0:0:0:
342,146,84736,1,0,0:0:0:0:
342,146,84856,1,2,1:2:0:0:
206,61,85096,2,0,P|239:65|274:74,1,51.8999984161377,2|0,0:0|1:0,0:0:0:0:
255,160,85336,2,0,P|229:166|204:169,1,51.8999984161377,2|0,3:2|1:0,0:0:0:0:
119,114,85576,1,2,0:0:0:0:
33,228,85816,2,0,P|63:285|113:291,1,103.799996832275,2|2,1:2|0:0,0:0:0:0:
123,284,86176,1,2,0:0:0:0:
123,284,86296,5,2,3:2:0:0:
312,315,86536,1,2,0:0:0:0:
275,337,86656,1,0,0:0:0:0:
235,320,86776,2,0,P|231:266|219:203,1,103.799996832275,2|2,1:2|0:0,0:0:0:0:
285,125,87136,1,0,1:0:0:0:
285,125,87256,2,0,P|311:135|341:137,2,51.8999984161377,2|0|2,3:2|1:0|0:0,0:0:0:0:
483,8,87736,2,0,P|467:89|455:189,1,155.699995248413,2|0,1:2|1:0,0:0:0:0:
387,211,88216,5,2,3:2:0:0:
392,236,88336,1,2,0:0:0:0:
395,258,88456,2,0,P|445:257|473:299,2,103.799996832275,2|2|2,0:0|1:2|0:0,0:0:0:0:
374,384,89056,1,2,0:0:0:0:
374,384,89176,2,0,P|371:353|365:325,1,51.8999984161377,4|0,3:2|0:0,0:0:0:0:
296,249,89416,1,0,1:0:0:0:
255,259,89536,1,0,1:0:0:0:
204,310,89656,5,0,1:0:0:0:
134,291,89776,1,4,3:0:0:0:
115,221,89896,1,4,3:0:0:0:
166,170,90016,1,4,3:0:0:0:
237,189,90136,5,4,3:2:0:0:
237,189,91336,5,2,0:0:0:0:
310,207,91576,1,2,0:0:0:0:
363,152,91816,1,0,0:0:0:0:
339,79,92056,2,0,P|273:89|192:108,1,138.4,2|0,0:0|0:0,0:0:0:0:
161,168,92776,1,2,0:0:0:0:
21,101,93256,1,0,0:0:0:0:
67,40,93496,1,2,0:0:0:0:
140,60,93736,1,2,0:0:0:0:
365,260,95176,5,0,0:0:0:0:
319,199,95416,1,2,0:0:0:0:
246,219,95656,1,0,0:0:0:0:
232,293,95896,2,0,P|211:222|186:155,1,138.4,2|2,0:0|0:0,0:0:0:0:
119,130,96616,1,2,0:0:0:0:
233,30,97096,1,0,0:0:0:0:
307,43,97336,1,2,0:0:0:0:
381,57,97576,1,2,0:0:0:0:
381,57,98536,5,0,0:0:0:0:
307,43,98776,1,2,0:0:0:0:
233,30,100696,2,0,B|213:62|213:62|216:111,1,69.2,2|2,0:3|0:3,0:0:0:0:
178,159,101056,1,2,0:3:0:0:
178,159,101176,2,0,P|228:140|303:125,1,103.8,2|0,0:3|0:0,0:0:0:0:
307,145,101656,6,0,P|312:184|320:221,2,69.2,4|2|2,3:2|0:0|3:2,0:0:0:0:
225,290,102376,2,0,P|231:256|236:221,1,69.2,2|0,0:0|3:0,0:0:0:0:
343,326,102856,1,2,0:0:0:0:
397,272,103096,1,0,3:0:0:0:
470,291,103336,1,2,0:0:0:0:
415,135,103576,6,0,P|403:201|396:302,1,138.4,2|0,3:2|3:0,0:0:0:0:
343,326,104296,1,2,0:0:0:0:
270,307,104536,2,0,P|264:272|252:219,1,69.2,0|2,3:0|0:0,0:0:0:0:
231,222,104896,1,2,0:0:0:0:
231,222,105016,1,0,1:0:0:0:
115,292,105256,1,2,0:0:0:0:
49,252,105496,6,0,L|60:157,1,69.2,0|0,3:0|0:0,0:0:0:0:
100,120,105976,2,0,L|92:51,1,69.2,0|2,3:0|0:0,0:0:0:0:
171,146,106456,1,0,3:0:0:0:
235,110,106696,1,2,0:0:0:0:
304,137,106936,1,0,3:0:0:0:
327,207,107176,2,0,L|321:262,1,34.6,2|0,0:0|0:0,0:0:0:0:
373,297,107416,6,0,P|449:289|475:215,1,138.4,2|0,3:2|3:0,0:0:0:0:
476,239,108136,1,2,0:0:0:0:
422,185,108376,2,0,L|429:93,1,69.2,0|2,3:0|0:0,0:0:0:0:
433,81,108736,1,0,3:0:0:0:
433,81,108856,1,0,1:0:0:0:
309,17,109096,2,0,L|256:28,1,34.6,0|0,3:0|3:0,0:0:0:0:
219,75,109336,6,0,L|129:66,1,69.2,2|0,3:2|0:0,0:0:0:0:
84,29,109816,2,0,L|15:35,1,69.2,0|2,3:0|0:0,0:0:0:0:
64,163,110296,1,0,3:0:0:0:
136,142,110536,1,2,0:0:0:0:
206,169,110776,1,0,3:0:0:0:
246,232,111016,1,2,0:0:0:0:
194,307,111256,6,0,P|201:242|206:157,1,138.4,2|0,3:2|3:0,0:0:0:0:
136,142,111976,1,2,0:0:0:0:
183,82,112216,2,0,P|222:91|266:96,1,69.2,0|2,3:0|0:0,0:0:0:0:
286,77,112576,1,0,0:0:0:0:
286,77,112696,2,0,P|305:73|323:72,1,34.6,0|0,1:0|0:0,0:0:0:0:
353,154,112936,2,0,P|334:150|316:149,1,34.6,2|2,0:0|0:0,0:0:0:0:
451,65,113176,6,0,P|436:131|427:204,1,138.4,4|0,3:2|1:0,0:0:0:0:
460,269,113896,1,2,0:0:0:0:
362,337,114136,2,0,P|340:331|311:326,2,34.6,0|0|0,3:0|1:0|3:0,0:0:0:0:
428,374,114616,1,0,1:0:0:0:
269,276,114856,1,0,3:0:0:0:
251,278,114976,1,0,1:0:0:0:
198,331,115096,5,4,3:2:0:0:
180,329,115216,1,0,1:0:0:0:
162,327,115336,1,0,3:0:0:0:
264,369,115576,1,0,1:0:0:0:
180,250,115816,2,0,L|186:193,1,34.6,0|0,3:0|1:0,0:0:0:0:
243,134,116056,2,0,L|246:168,2,34.6,2|0|0,3:2|1:0|3:0,0:0:0:0:
237,99,116416,1,0,3:0:0:0:
184,49,116536,1,2,1:2:0:0:
132,51,116656,1,0,1:0:0:0:
88,77,116776,1,0,1:0:0:0:
62,121,116896,1,0,1:0:0:0:
59,173,117016,5,4,3:2:0:0:
183,215,117256,1,2,0:0:0:0:
49,313,117496,2,0,P|99:297|163:283,1,103.799996832275,2|2,1:2|0:0,0:0:0:0:
240,348,117856,1,2,0:0:0:0:
240,348,117976,2,0,P|243:301|252:235,2,103.799996832275,2|2|2,3:2|0:0|1:2,0:0:0:0:
381,384,118696,2,0,P|377:358|371:333,1,51.8999984161377,2|0,0:0|0:0,0:0:0:0:
503,227,118936,6,0,P|475:219|451:221,1,51.8999984161377,2|2,3:2|0:0,0:0:0:0:
443,298,119176,2,0,P|471:306|495:304,1,51.8999984161377,2|0,0:0|0:0,0:0:0:0:
390,167,119416,1,2,1:2:0:0:
318,178,119536,1,0,1:0:0:0:
270,233,119656,1,0,1:0:0:0:
198,244,119776,1,0,1:0:0:0:
137,204,119896,2,0,P|145:150|152:90,2,103.799996832275,4|2|2,3:2|0:0|1:2,0:0:0:0:
160,342,120616,1,2,0:0:0:0:
20,286,120856,6,0,P|12:232|5:172,1,103.799996832275,2|2,3:2|0:0,0:0:0:0:
18,162,121216,1,2,0:0:0:0:
18,162,121336,1,2,1:2:0:0:
137,204,121576,1,2,0:0:0:0:
241,40,121816,2,0,P|186:41|147:84,1,103.799996832275,2|2,3:2|0:0,0:0:0:0:
150,101,122176,1,0,0:0:0:0:
150,101,122296,1,2,1:2:0:0:
277,158,122536,2,0,P|307:148|345:138,1,51.8999984161377,2|2,1:2|1:2,0:0:0:0:
401,175,122776,5,2,1:2:0:0:
401,175,122896,1,2,3:0:0:0:
351,290,123136,1,2,3:0:0:0:
476,276,123376,1,2,3:0:0:0:
401,175,123616,1,2,3:0:0:0:
401,175,123736,2,0,P|405:123|411:58,1,103.799996832275,4|2,3:2|0:0,0:0:0:0:
312,84,124096,1,2,0:0:0:0:
297,92,124216,2,0,P|327:51|377:50,1,103.799996832275,2|2,1:2|0:0,0:0:0:0:
314,172,124576,1,2,0:0:0:0:
314,172,124696,6,0,P|257:162|195:156,1,103.799996832275,2|2,3:2|0:0,0:0:0:0:
184,180,125056,1,2,0:0:0:0:
184,180,125176,1,2,1:2:0:0:
303,90,125416,1,2,0:0:0:0:
138,2,125656,2,0,P|149:57|159:114,1,103.799996832275,2|2,3:2|0:0,0:0:0:0:
126,283,126136,1,2,1:2:0:0:
76,228,126256,1,0,1:0:0:0:
111,165,126376,1,0,1:0:0:0:
184,180,126496,1,0,1:0:0:0:
192,250,126616,6,0,P|181:305|171:362,2,103.799996832275,4|2|2,3:2|0:0|1:2,0:0:0:0:
237,111,127336,2,0,P|264:117|296:117,1,51.8999984161377,2|0,0:0|1:0,0:0:0:0:
222,35,127576,2,0,P|169:65|159:122,1,103.799996832275,4|0,3:2|1:0,0:0:0:0:
88,190,127936,1,0,1:0:0:0:
88,190,128056,2,0,P|61:184|32:184,1,51.8999984161377,2|4,1:2|3:0,0:0:0:0:
42,334,128296,1,4,3:0:0:0:
62,289,128416,1,4,3:0:0:0:
112,288,128536,6,0,P|60:289|10:302,2,103.799996832275,4|2|2,3:2|0:0|1:2,0:0:0:0:
230,384,129256,1,2,0:0:0:0:
344,307,129496,2,0,P|336:254|325:188,1,103.799996832275,2|2,3:2|0:0,0:0:0:0:
313,188,129856,1,0,0:0:0:0:
313,188,129976,1,2,1:2:0:0:
402,102,130216,1,2,0:0:0:0:
290,35,130456,6,0,B|235:31|243:73|180:69,1,103.799996832275,2|2,3:2|0:0,0:0:0:0:
177,56,130816,1,2,0:0:0:0:
177,56,130936,1,2,1:2:0:0:
115,95,131056,1,0,1:0:0:0:
99,166,131176,1,0,1:0:0:0:
138,228,131296,1,0,1:0:0:0:
210,244,131416,6,0,P|262:229|333:217,2,103.799996832275,4|2|2,3:2|0:0|1:2,0:0:0:0:
64,227,132136,2,0,P|33:217|-1:212,1,51.8999984161377,2|0,0:0|0:0,0:0:0:0:
124,330,132376,6,0,P|127:278|140:219,1,103.799996832275,4|2,3:2|1:2,0:0:0:0:
188,174,132736,1,2,1:2:0:0:
90,91,132856,1,2,1:2:0:0:
93,116,132976,1,4,3:0:0:0:
96,141,133096,1,4,3:0:0:0:
99,166,133216,1,4,3:0:0:0:
137,227,133336,2,0,P|184:216|241:211,1,103.799996832275,4|2,3:2|0:0,0:0:0:0:
323,108,133816,2,0,P|374:112|425:123,1,103.799996832275,2|2,1:2|0:0,0:0:0:0:
383,228,134176,1,0,0:0:0:0:
383,228,134296,6,0,P|378:193|368:160,2,69.1999978881837,4|0|0,3:2|1:0|1:0,0:0:0:0:
450,287,134776,2,0,P|454:252|464:219,2,69.1999978881837,2|2|2,3:2|1:2|1:2,0:0:0:0:
393,353,135256,5,2,1:2:0:0:
367,357,135376,5,2,3:0:0:0:
341,361,135616,1,2,3:0:0:0:
315,365,135856,1,2,3:0:0:0:
289,369,136096,5,2,3:0:0:0:
263,373,136216,6,0,B|237:329|237:329|257:268,1,103.799996832275,4|2,3:2|0:0,0:0:0:0:
263,254,136576,1,2,0:0:0:0:
218,195,136696,2,0,P|164:193|131:234,1,103.799996832275,2|2,1:2|0:0,0:0:0:0:
291,185,137176,1,2,3:2:0:0:
152,98,137416,1,2,0:0:0:0:
360,14,137656,2,0,L|352:126,1,103.799996832275,2|2,1:2|0:0,0:0:0:0:
420,192,138016,1,0,1:0:0:0:
433,214,138136,6,0,P|406:206|376:202,2,51.8999984161377,4|0|2,3:2|1:0|0:0,0:0:0:0:
301,315,138616,2,0,L|293:211,1,103.799996832275,2|2,1:2|0:0,0:0:0:0:
221,132,138976,1,0,1:0:0:0:
221,132,139096,2,0,P|190:134|160:154,1,51.8999984161377,4|2,3:2|0:0,0:0:0:0:
144,218,139336,1,2,1:2:0:0:
147,243,139456,1,2,1:2:0:0:
92,290,139576,1,2,1:2:0:0:
23,265,139696,1,2,1:2:0:0:
11,193,139816,1,2,1:2:0:0:
66,146,139936,1,2,1:2:0:0:
135,171,140056,6,0,L|126:230,3,51.8999984161377,4|2|2|2,3:2|0:0|0:0|0:0,0:0:0:0:
92,290,141016,2,0,L|101:349,3,51.8999984161377,2|2|2|2,0:0|0:0|0:0|0:0,0:0:0:0:
193,379,141976,2,0,P|240:338|338:354,1,155.699995248413,2|2,0:0|0:0,0:0:0:0:
326,336,142936,2,0,P|251:322|190:368,1,155.699995248413,2|2,0:0|0:0,0:0:0:0:
411,381,143896,2,0,P|418:319|438:219,1,155.699995248413,2|2,0:0|0:0,0:0:0:0:
420,223,144856,2,0,P|404:299|395:376,1,155.699995248413,2|2,0:0|0:0,0:0:0:0:
327,207,145816,2,0,P|366:142|440:129,1,155.699995248413,2|2,0:0|0:0,0:0:0:0:
432,121,146776,2,0,P|358:134|319:199,1,155.699995248413,2|0,0:0|0:0,0:0:0:0:
251,246,147736,6,0,P|221:244|199:242,3,51.8999984161377,2|2|2|2,0:0|0:0|0:0|0:0,0:0:0:0:
140,293,148696,2,0,P|110:295|88:297,2,51.8999984161377,2|2|2,0:0|0:0|0:0,0:0:0:0:
46,235,149416,2,0,P|17:273|26:339,2,103.799996832275,2|2|2,0:0|0:0|0:0,0:0:0:0:
118,205,150856,2,0,P|147:167|138:101,1,103.799996832275,2|2,0:0|0:0,0:0:0:0:
144,113,152536,6,0,L|111:109,1,25.9499992080689,2|2,0:0|0:0,0:0:0:0:
200,62,152776,2,0,L|233:58,1,25.9499992080689,2|2,0:0|0:0,0:0:0:0:
292,98,153016,2,0,L|279:160,1,51.9,2|0,3:0|0:0,0:0:0:0:
304,183,153496,6,0,P|336:175|376:176,2,69.2,4|2|0,3:2|0:0|1:0,0:0:0:0:
236,242,154216,2,0,P|204:234|164:235,2,69.2,2|0|2,0:0|3:0|0:0,0:0:0:0:
274,269,154816,1,2,0:0:0:0:
274,269,154936,2,0,L|263:359,1,69.2,0|2,1:0|0:0,0:0:0:0:
404,253,155416,2,0,L|389:165,2,69.2,2|2|0,3:2|0:0|1:0,0:0:0:0:
461,103,156136,2,0,L|426:99,1,34.6,2|2,0:0|0:0,0:0:0:0:
364,58,156376,2,0,L|329:62,2,34.6,0|0|2,3:0|1:0|3:2,0:0:0:0:
238,147,156856,2,0,L|153:131,1,69.2,0|2,1:0|0:0,0:0:0:0:
145,106,157216,1,0,0:0:0:0:
145,106,157336,6,0,L|60:119,2,69.2,2|2|0,3:2|0:0|1:0,0:0:0:0:
238,147,158056,1,2,0:0:0:0:
163,213,158296,2,0,P|164:251|187:285,1,69.2,0|2,3:0|0:0,0:0:0:0:
220,298,158656,1,2,0:0:0:0:
220,298,158776,1,0,1:0:0:0:
320,234,159016,1,2,0:0:0:0:
399,358,159256,6,0,P|363:352|309:346,2,69.2,0|2|0,3:0|0:0|1:0,0:0:0:0:
220,298,159976,1,2,0:0:0:0:
320,234,160216,2,0,L|312:189,2,34.6,0|0|2,3:0|1:0|3:2,0:0:0:0:
356,263,160576,1,0,0:0:0:0:
356,263,160696,1,0,1:0:0:0:
264,139,160936,1,2,0:0:0:0:
264,139,161056,1,0,1:0:0:0:
264,139,161176,6,0,L|273:62,1,69.2,4|2,3:2|0:0,0:0:0:0:
246,43,161536,1,2,0:0:0:0:
246,43,161656,2,0,P|210:25|175:28,1,69.2,0|2,1:0|0:0,0:0:0:0:
55,100,162136,2,0,P|91:82|126:85,1,69.2,0|2,3:0|0:0,0:0:0:0:
156,110,162496,1,2,0:0:0:0:
156,110,162616,1,0,1:0:0:0:
264,139,162856,1,2,0:0:0:0:
97,238,163096,6,0,L|103:149,2,69.2,4|2|0,3:2|0:0|1:0,0:0:0:0:
0,288,163816,2,0,L|6:344,1,34.6,2|0,0:0|1:0,0:0:0:0:
36,347,164056,2,0,L|32:381,2,34.6,2|0|0,3:2|1:0|0:0,0:0:0:0:
111,247,164536,1,2,1:2:0:0:
220,302,164776,1,0,3:0:0:0:
237,299,164896,1,0,3:0:0:0:
254,296,165016,1,4,1:2:0:0:
364,359,165256,5,0,3:0:0:0:
364,359,165376,1,0,3:0:0:0:
364,359,165496,1,0,1:0:0:0:
437,243,165736,2,0,L|429:186,1,34.6,0|0,1:0|1:0,0:0:0:0:
407,184,165976,2,0,L|410:144,3,34.6,2|0|0|0,1:2|3:0|3:0|3:0,0:0:0:0:
449,116,166456,2,0,L|452:76,3,34.6,2|0|0|0,1:2|3:0|3:0|3:0,0:0:0:0:
393,24,166936,5,2,1:2:0:0:
367,28,167056,1,4,3:0:0:0:
345,41,167176,1,4,3:0:0:0:
329,61,167296,1,4,3:0:0:0:
320,84,167416,1,2,1:2:0:0:
299,111,167536,1,8,3:0:0:0:
269,128,167656,1,8,3:0:0:0:
235,130,167776,1,8,3:0:0:0:
202,119,167896,6,0,L|208:60,3,34.6,2|0|0|0,1:2|1:0|1:0|1:0,0:0:0:0:
121,121,168376,1,2,1:2:0:0:
126,163,168496,1,2,1:2:0:0:
131,206,168616,1,2,1:2:0:0:
136,249,168736,1,2,1:2:0:0:
144,295,168856,6,0,B|218:231|288:314|284:319|278:324|349:427|550:360|429:142|308:245,1,484.4,4|4,3:2|3:2,0:0:0:0:
313,240,171616,2,0,L|311:268,1,17.3,0|0,1:0|1:0,0:0:0:0:
273,179,171736,1,0,1:2:0:0:
273,179,171856,1,0,1:0:0:0:
273,179,171976,1,0,3:0:0:0:
393,37,172456,1,2,0:0:0:0:
299,84,172696,6,0,B|231:79|231:79|200:55|200:55|123:50,1,181.649994456482,4|0,3:2|0:0,0:0:0:0:
102,69,173176,1,2,1:2:0:0:
199,175,173416,2,0,P|212:203|218:243,1,60.5499981521607,2|0,0:0|1:2,0:0:0:0:
111,299,173656,1,2,3:2:0:0:
168,343,173776,2,0,P|167:257|197:138,1,181.649994456482,0|2,1:0|1:2,0:0:0:0:
187,163,174376,2,0,P|153:146|118:147,1,60.5499981521607,2|0,0:0|1:0,0:0:0:0:
38,256,174616,6,0,B|-31:174|50:80|136:149|90:204,1,242.199992608643,2|2,3:2|1:2,0:0:0:0:
168,343,175336,1,2,0:0:0:0:
198,339,175456,1,0,1:0:0:0:
233,276,175576,2,0,L|228:337,1,60.5499981521607,2|0,3:2|1:0,0:0:0:0:
309,380,175816,1,2,0:0:0:0:
339,376,175936,1,0,1:0:0:0:
383,300,176056,2,0,P|355:237|302:222,1,121.099996304321,2|2,1:2|0:0,0:0:0:0:
233,276,176416,1,2,0:0:0:0:
233,276,176536,6,0,B|217:259|192:245|192:245|201:179|205:101|205:101|236:91|263:66,1,242.199992608643,4|2,3:2|1:2,0:0:0:0:
341,142,177256,2,0,P|374:131|413:128,1,60.5499981521607,2|0,0:0|1:0,0:0:0:0:
275,88,177496,1,0,3:0:0:0:
245,80,177616,1,0,1:0:0:0:
179,25,177736,2,0,P|148:33|95:42,1,60.5499981521607,2|0,0:0|0:0,0:0:0:0:
14,94,177976,2,0,P|32:150|97:155,1,121.099996304321,2|2,1:2|0:0,0:0:0:0:
109,139,178336,1,0,1:0:0:0:
248,212,178456,6,0,P|158:190|49:182,1,181.649994456482,4|0,3:2|0:0,0:0:0:0:
51,206,178936,1,2,1:2:0:0:
215,357,179176,2,0,P|215:322|204:289,1,60.5499981521607,2|0,0:0|1:0,0:0:0:0:
351,228,179416,1,2,3:2:0:0:
305,285,179536,2,0,B|396:253|395:333|490:305,1,181.649994456482,0|2,1:0|1:2,0:0:0:0:
456,156,180136,2,0,P|448:185|449:215,1,60.5499981521607,2|0,0:0|0:0,0:0:0:0:
490,60,180376,6,0,B|430:36|391:99|396:106|400:113|365:173|285:147,1,242.199992608643,4|2,3:2|1:2,0:0:0:0:
287,147,181096,2,0,L|278:80,1,60.5499981521607,2|0,0:0|1:0,0:0:0:0:
351,228,181336,2,0,L|360:160,2,60.5499981521607,2|0|2,3:2|1:0|0:0,0:0:0:0:
351,228,181816,1,2,1:2:0:0:
263,74,182056,1,2,3:2:0:0:
208,248,182296,6,0,P|161:205|102:215,1,121.099996304321,4|8,1:0|3:0,0:0:0:0:
46,170,182656,2,0,P|32:232|70:278,1,121.099996304321,2|8,1:2|3:0,0:0:0:0:
60,350,183016,2,0,P|120:330|141:274,1,121.099996304321,2|4,1:2|3:0,0:0:0:0:
107,211,183376,1,2,1:2:0:0:
123,185,183496,2,0,P|124:154|116:113,1,60.5499981521607,0|0,3:0|3:0,0:0:0:0:
191,56,183736,1,2,1:2:0:0:
235,38,183856,1,2,1:2:0:0:
282,49,183976,1,2,1:2:0:0:
314,84,184096,1,2,1:2:0:0:
276,164,184216,6,0,B|320:83|416:110|416:110|440:162|386:205,1,242.199992608643,4|2,3:2|1:2,0:0:0:0:
511,305,184936,2,0,P|478:300|441:266,1,60.5499981521607,2|0,0:0|1:0,0:0:0:0:
290,321,185176,1,2,3:2:0:0:
324,384,185296,2,0,P|328:291|343:183,1,181.649994456482,0|2,1:0|1:2,0:0:0:0:
339,203,185896,2,0,P|307:201|269:220,1,60.5499981521607,2|0,0:0|1:2,0:0:0:0:
200,313,186136,6,0,B|163:313|131:276|131:276|122:220|165:187|165:187|201:204|202:241,1,242.199992608643,2|2,3:2|1:2,0:0:0:0:
74,172,186856,1,2,0:0:0:0:
44,178,186976,1,0,1:0:0:0:
53,95,187096,2,0,L|126:107,1,60.5499981521607,2|0,3:2|1:0,0:0:0:0:
190,155,187336,1,2,0:0:0:0:
220,149,187456,1,2,0:0:0:0:
256,78,187576,2,0,P|298:123|279:196,1,121.099996304321,2|0,1:2|0:0,0:0:0:0:
200,313,188056,6,0,B|243:311|263:278|263:278|303:326|368:313,1,181.649994456482,4|0,3:2|0:0,0:0:0:0:
379,293,188536,1,2,1:2:0:0:
463,142,188776,2,0,P|450:170|444:200,1,60.5499981521607,2|0,0:0|1:0,0:0:0:0:
334,30,189016,1,2,3:2:0:0:
360,97,189136,2,0,P|289:78|220:182,1,181.649994456482,0|2,1:0|1:2,0:0:0:0:
219,148,189736,2,0,P|188:142|148:138,1,60.5499981521607,2|0,0:0|1:0,0:0:0:0:
304,224,189976,6,0,P|239:232|169:254,1,121.099996304321,2|2,3:2|0:0,0:0:0:0:
169,274,190336,1,2,0:0:0:0:
169,274,190456,1,2,1:2:0:0:
36,181,190696,1,2,0:0:0:0:
132,364,190936,1,2,3:2:0:0:
179,370,191056,1,0,1:0:0:0:
223,352,191176,1,0,3:0:0:0:
252,313,191296,1,0,1:0:0:0:
340,328,191416,2,0,P|331:268|283:232,1,121.099996304321,2|2,1:2|0:0,0:0:0:0:
36,181,191896,6,0,P|84:183|158:126,1,121.099996304321,4|2,3:2|0:0,0:0:0:0:
260,9,192376,2,0,P|309:42|369:43,1,121.099996304321,2|2,1:2|0:0,0:0:0:0:
394,26,192736,1,0,1:0:0:0:
461,92,192856,1,2,3:2:0:0:
456,121,192976,2,0,B|438:166|386:171|386:171|435:203|417:273,1,181.649994456482,0|2,1:0|1:2,0:0:0:0:
421,249,193576,2,0,P|396:253|361:277,1,60.5499981521607,2|0,0:0|1:0,0:0:0:0:
265,356,193816,6,0,B|219:379|180:350|169:320|173:314|175:308|162:271|113:250|68:285,1,242.199992608643,4|2,3:2|1:2,0:0:0:0:
13,384,194536,2,0,P|7:354|-3:298,1,60.5499981521607,2|0,0:0|1:0,0:0:0:0:
124,140,194776,1,2,3:2:0:0:
80,198,194896,2,0,P|145:196|209:235,1,121.099996304321,0|0,1:0|1:0,0:0:0:0:
241,285,195256,2,0,P|294:249|358:257,1,121.099996304321,2|2,1:2|0:0,0:0:0:0:
487,375,195736,6,0,P|470:347|467:307,1,60.5499981521607,4|0,3:2|0:0,0:0:0:0:
348,252,195976,2,0,P|355:220|381:189,1,60.5499981521607,2|0,0:0|0:0,0:0:0:0:
512,124,196216,2,0,P|455:150|392:121,1,121.099996304321,2|2,1:2|0:0,0:0:0:0:
386,106,196576,1,0,1:0:0:0:
263,82,196696,2,0,P|296:78|322:68,1,60.5499981521607,2|0,3:2|1:0,0:0:0:0:
355,5,196936,1,2,0:0:0:0:
213,142,197176,2,0,P|170:113|91:117,1,121.099996304321,2|2,1:2|0:0,0:0:0:0:
80,133,197536,1,0,1:0:0:0:
136,251,197656,6,0,L|144:170,2,60.5499981521607,4|0|0,3:2|1:0|3:0,0:0:0:0:
44,384,198136,2,0,L|30:260,1,121.099996304321,2|2,1:2|0:0,0:0:0:0:
26,233,198496,1,2,3:2:0:0:
134,283,198616,2,0,L|217:270,2,60.5499981521607,2|0|2,3:2|1:0|3:2,0:0:0:0:
264,378,199096,1,2,1:2:0:0:
275,331,199216,1,2,1:2:0:0:
311,299,199336,1,2,1:2:0:0:
358,291,199456,1,2,1:2:0:0:
410,358,199576,6,0,P|463:349|536:343,1,103.799996832275,4|2,3:2|0:0,0:0:0:0:
350,207,200056,2,0,P|297:198|224:192,1,103.799996832275,2|2,1:2|0:0,0:0:0:0:
163,315,200416,1,0,1:0:0:0:
178,290,200536,1,0,3:0:0:0:
167,266,200656,2,0,B|164:176|227:214|219:110,1,155.699995248413,0|2,1:0|1:2,0:0:0:0:
219,125,201256,1,2,0:0:0:0:
65,51,201496,6,0,L|76:129,1,51.8999984161377,2|0,3:2|1:2,0:0:0:0:
143,132,201736,2,0,L|150:80,1,51.8999984161377,2|2,0:0|0:0,0:0:0:0:
78,178,201976,2,0,P|36:203|26:264,1,103.799996832275,2|2,1:2|0:0,0:0:0:0:
70,331,202336,1,0,1:0:0:0:
84,342,202456,2,0,P|114:331|151:329,1,51.8999984161377,2|0,3:2|1:0,0:0:0:0:
196,270,202696,1,2,0:0:0:0:
221,275,202816,1,2,0:0:0:0:
244,279,202936,2,0,L|366:263,1,103.799996832275,2|2,1:2|0:0,0:0:0:0:
314,108,203416,6,0,P|267:129|256:184,1,103.799996832275,2|2,3:2|0:0,0:0:0:0:
346,265,203776,1,2,0:0:0:0:
346,265,203896,2,0,P|350:236|357:207,1,51.8999984161377,2|0,1:2|0:0,0:0:0:0:
406,146,204136,2,0,P|402:117|395:88,1,51.8999984161377,2|0,0:0|1:0,0:0:0:0:
491,241,204376,2,0,P|460:236|434:228,2,51.8999984161377,2|0|2,3:2|1:0|0:0,0:0:0:0:
383,345,204856,2,0,L|281:359,1,103.799996832275,2|2,1:2|0:0,0:0:0:0:
181,384,205216,1,0,1:0:0:0:
181,384,205336,6,0,P|176:358|172:332,1,51.8999984161377,2|0,3:2|0:0,0:0:0:0:
230,215,205576,2,0,P|224:240|219:265,1,51.8999984161377,2|0,0:0|0:0,0:0:0:0:
71,276,205816,2,0,P|125:260|142:216,1,103.799996832275,2|2,1:2|0:0,0:0:0:0:
316,221,206296,1,2,3:2:0:0:
316,221,206416,2,0,P|305:163|302:92,1,103.799996832275,0|0,1:0|1:0,0:0:0:0:
295,92,206776,1,2,1:2:0:0:
390,120,207016,1,2,0:0:0:0:
180,28,207256,6,0,P|125:33|87:73,1,103.799996832275,2|2,3:2|0:0,0:0:0:0:
2,102,207616,1,2,0:0:0:0:
2,102,207736,2,0,P|57:97|95:57,1,103.799996832275,2|2,1:2|0:0,0:0:0:0:
179,120,208096,1,0,1:0:0:0:
179,120,208216,2,0,P|195:150|215:172,1,51.8999984161377,2|0,3:2|1:0,0:0:0:0:
180,28,208456,1,2,0:0:0:0:
276,232,208696,2,0,P|196:206|97:217,1,155.699995248413,2|0,1:2|0:0,0:0:0:0:
2,240,209176,6,0,P|27:290|69:287,1,103.799996832275,4|2,3:2|0:0,0:0:0:0:
198,240,209536,1,2,0:0:0:0:
198,240,209656,2,0,P|187:300|180:357,1,103.799996832275,2|2,1:2|0:0,0:0:0:0:
300,320,210016,1,0,1:0:0:0:
300,320,210136,2,0,P|325:311|351:308,2,51.8999984161377,2|0|2,3:2|1:0|0:0,0:0:0:0:
348,213,210616,1,2,1:2:0:0:
388,219,210736,1,2,1:2:0:0:
421,243,210856,1,2,1:2:0:0:
440,280,210976,1,2,1:2:0:0:
416,356,211096,5,4,3:2:0:0:
256,192,211216,12,4,218776,3:2:0:0:
