osu file format v14

[General]
AudioFilename: audio.mp3
AudioLeadIn: 0
PreviewTime: 72383
Countdown: 0
SampleSet: Soft
StackLeniency: 0.7
Mode: 0
LetterboxInBreaks: 0
WidescreenStoryboard: 1

[Editor]
Bookmarks: 16577,17606,39549,61491,77949,94406,108120
DistanceSpacing: 1.2
BeatDivisor: 4
GridSize: 8
TimelineZoom: 1.3

[Metadata]
Title:Bulukanilo (Short Ver.)
TitleUnicode:ブルカニロ (Short Ver.)
Artist:yuki
ArtistUnicode:yuki
Creator:Stompy_
Version:Share's Insane
Source:白昼夢の青写真
Tags:Yours- riffy bakari froskya revialink share enuhq animestyle kuki1537 Laplacian Hakuchuumu no Aojashin The girl who's whos called the world The girl who dreamed the world cyanotype daydream video game visual novel vn japanese pop j-pop case 1 case-1 ed ending eroge female vocals vocalist
BeatmapID:3880537
BeatmapSetID:1800039

[Difficulty]
HPDrainRate:4.2
CircleSize:3.8
OverallDifficulty:7.5
ApproachRate:8.6
SliderMultiplier:1.6
SliderTickRate:1

[Events]
//Background and Video events
0,0,"bg1.jpg",0,0
//Break Periods
//Storyboard Layer 0 (Background)
//Storyboard Layer 1 (Fail)
//Storyboard Layer 2 (Pass)
//Storyboard Layer 3 (Foreground)
//Storyboard Layer 4 (Overlay)
//Storyboard Sound Samples

[TimingPoints]
1145,342.857142857143,4,2,1,40,1,0
1145,-142.857142857143,4,2,1,40,0,0
6630,-100,4,2,2,80,0,0
6640,-100,4,2,2,80,0,0
17602,-133.333333333333,4,2,1,30,0,0
17612,-133.333333333333,4,2,1,30,0,0
23087,-133.333333333333,4,2,1,30,0,0
38687,-133.333333333333,4,2,1,30,0,0
39030,-133.333333333333,4,2,1,40,0,0
39040,-133.333333333333,4,2,1,40,0,0
39545,-100,4,2,1,50,0,0
39555,-100,4,2,1,50,0,0
56002,-100,4,2,1,60,0,0
56012,-100,4,2,1,60,0,0
58745,-100,4,2,1,60,0,0
61487,-158.730158730159,4,2,1,30,0,0
61497,-158.730158730159,4,2,1,30,0,0
64230,-125,4,2,1,50,0,0
64240,-125,4,2,1,50,0,0
66973,-111.111111111111,4,2,1,60,0,0
66983,-111.111111111111,4,2,1,60,0,0
69545,-111.111111111111,4,2,1,60,0,0
69716,-142.857142857143,4,2,1,50,0,0
69726,-142.857142857143,4,2,1,50,0,0
71087,-100,4,2,1,65,0,0
71097,-100,4,2,1,65,0,0
72459,-90.9090909090909,4,2,3,70,0,1
72469,-90.9090909090909,4,2,3,70,0,1
77430,-90.9090909090909,4,2,3,60,0,0
77440,-90.9090909090909,4,2,3,60,0,0
77945,-90.9090909090909,4,2,3,80,0,1
77955,-90.9090909090909,4,2,3,80,0,1
83430,-111.111111111111,4,2,3,70,0,0
83440,-111.111111111111,4,2,3,70,0,0
88916,-90.9090909090909,4,2,3,70,0,0
89430,-100,4,2,3,70,0,0
91659,-212.765957446809,4,2,3,40,0,0
91669,-212.765957446809,4,2,3,40,0,0
94402,-111.111111111111,4,2,3,60,0,0
94412,-111.111111111111,4,2,3,60,0,0
95773,-100,4,2,3,60,0,0
96116,-100,4,2,3,40,0,0
96126,-100,4,2,3,40,0,0
96459,-100,4,2,3,50,0,0
96469,-100,4,2,3,50,0,0
96802,-100,4,2,3,60,0,0
96812,-100,4,2,3,60,0,0
97145,-100,4,2,3,70,0,1
97155,-100,4,2,3,70,0,1
108116,-111.111111111111,4,2,3,60,0,0
108126,-111.111111111111,4,2,3,60,0,0

[Colours]
Combo1 : 255,227,142
Combo2 : 128,255,128
Combo3 : 145,194,255
Combo4 : 249,151,166

[HitObjects]
77,41,1145,6,0,B|60:55|39:65|39:65|54:149,1,111.999996582031,2|0,0:2|0:2,0:0:0:0:
120,196,1659,1,2,0:2:0:0:
115,210,1830,2,0,P|74:218|49:222,1,55.9999982910157,0|0,0:2|0:2,0:0:0:0:
29,310,2173,2,0,P|56:315|84:320,1,55.9999982910157,2|0,0:2|0:2,0:0:0:0:
190,369,2516,6,0,B|192:329|192:329|209:311|209:311|212:262,1,111.999996582031,0|0,0:2|0:2,0:0:0:0:
291,331,3030,1,0,0:2:0:0:
299,344,3202,2,0,P|332:352|364:344,1,55.9999982910157,2|0,0:2|0:2,0:0:0:0:
355,252,3545,2,0,P|322:244|290:252,1,55.9999982910157,2|0,0:2|0:2,0:0:0:0:
439,306,3887,6,0,L|445:187,1,111.999996582031,2|0,0:2|0:2,0:0:0:0:
498,84,4402,1,2,0:2:0:0:
491,99,4573,2,0,L|419:110,1,55.9999982910157,0|0,0:2|0:2,0:0:0:0:
358,14,4916,2,0,L|413:22,1,55.9999982910157,2|0,0:2|0:2,0:0:0:0:
311,104,5259,6,0,P|265:81|202:103,1,111.999996582031,0|0,0:2|0:2,0:0:0:0:
128,134,5773,1,0,0:2:0:0:
132,147,5945,2,0,L|123:208,1,55.9999982910157,2|0,0:2|0:2,0:0:0:0:
39,128,6287,2,0,L|30:72,1,55.9999982910157,2|0,0:2|0:2,0:0:0:0:
11,264,6630,6,0,B|73:276|73:276|96:302|96:302|168:314,1,160,6|0,2:3|1:2,0:0:0:0:
245,197,7145,1,0,3:2:0:0:
247,356,7316,2,0,P|240:305|234:266,1,80,4|4,0:3|0:3,0:0:0:0:
343,181,7659,2,0,P|338:220|332:260,1,80,0|0,1:2|3:2,0:0:0:0:
361,340,7916,5,0,3:2:0:0:
361,340,8002,2,0,P|424:314|503:369,1,160,4|0,2:3|1:2,0:0:0:0:
495,205,8516,1,0,3:2:0:0:
495,205,8602,1,0,3:0:0:0:
495,205,8687,2,0,P|438:215|398:224,1,80,4|4,0:3|0:3,0:0:0:0:
315,96,9030,2,0,P|354:102|393:110,1,80,0|0,1:2|3:2,0:0:0:0:
252,170,9373,6,0,B|228:155|201:142|201:142|221:37,1,160,4|0,2:3|1:2,0:0:0:0:
92,19,9887,1,0,3:2:0:0:
92,19,9973,1,0,3:0:0:0:
92,19,10059,2,0,P|95:58|100:101,1,80,4|4,0:3|0:3,0:0:0:0:
120,181,10402,2,0,P|116:220|112:260,1,80,0|0,1:2|3:2,0:0:0:0:
108,274,10659,1,0,3:2:0:0:
104,286,10745,1,4,2:3:0:0:
16,362,10916,5,4,2:3:0:0:
30,372,11087,2,0,L|125:370,1,80,0|0,1:2|3:2,0:0:0:0:
182,342,11345,1,0,3:0:0:0:
182,342,11430,2,0,L|261:343,1,80,4|4,0:3|0:3,0:0:0:0:
441,316,11773,1,0,1:2:0:0:
347,274,11945,5,0,3:2:0:0:
347,274,12030,1,0,3:2:0:0:
347,274,12116,2,0,B|367:173|367:173|359:209|323:223,1,160,6|0,2:3|1:2,0:0:0:0:
209,142,12630,2,0,P|252:134|291:151,1,80,0|4,3:2|0:3,0:0:0:0:
334,217,12973,1,4,0:3:0:0:
401,56,13145,2,0,P|362:47|324:60,1,80,0|0,1:2|3:2,0:0:0:0:
244,214,13487,5,4,2:3:0:0:
181,68,13659,1,4,2:3:0:0:
120,213,13830,1,0,1:2:0:0:
89,122,14002,5,0,3:2:0:0:
89,122,14087,1,0,3:0:0:0:
89,122,14173,2,0,P|41:133|7:143,1,80,4|4,0:3|0:3,0:0:0:0:
8,275,14516,2,0,P|47:283|85:294,1,80,0|0,1:2|3:2,0:0:0:0:
279,172,14859,5,4,2:3:0:0:
122,211,15030,1,4,2:3:0:0:
209,338,15202,2,0,P|216:290|222:243,1,80,0|0,1:2|3:2,0:0:0:0:
358,105,15545,1,4,0:3:0:0:
305,259,15716,1,4,0:3:0:0:
237,102,15887,1,0,1:2:0:0:
408,234,16059,5,0,3:2:0:0:
408,234,16145,1,0,3:2:0:0:
408,234,16230,2,0,P|459:242|500:232,1,80,4|4,2:3|2:3,0:0:0:0:
492,85,16573,2,0,P|441:77|400:87,1,80,0|0,1:2|3:2,0:0:0:0:
297,236,16916,5,8,0:3:0:0:
237,102,17087,1,8,0:3:0:0:
165,288,17259,2,0,P|159:248|152:208,1,80,4|4,2:3|2:3,0:0:0:0:
113,358,17602,6,0,P|168:334|226:354,1,120.000004577637,2|0,3:0|0:0,0:0:0:0:
321,315,18116,1,0,3:2:0:0:
334,318,18287,2,0,L|401:327,1,60.0000022888184
255,249,18630,2,0,L|195:256,1,60.0000022888184,2|0,3:2|0:0,0:0:0:0:
346,212,18973,6,0,B|380:186|380:186|369:102,1,120.000004577637,2|2,3:2|0:2,0:0:0:0:
434,40,19487,2,0,B|507:31|507:31|477:35|465:58,1,120.000004577637,2|2,3:2|0:2,0:0:0:0:
369,109,20002,2,0,P|328:106|292:102,1,60.0000022888184,0|2,3:2|0:2,0:0:0:0:
221,25,20345,6,0,B|225:68|225:68|207:95|207:95|214:138,1,120.000004577637,0|2,3:2|0:2,0:0:0:0:
134,216,20859,2,0,L|121:147,1,60.0000022888184,2|0,3:2|0:0,0:0:0:0:
282,192,21202,2,0,L|270:250,1,60.0000022888184,2|0,0:2|3:2,0:0:0:0:
166,321,21545,6,0,B|193:306|223:331|219:334|216:337|245:360|277:345,1,120.000004577637,2|0,0:2|0:0,0:0:0:0:
358,309,22059,2,0,P|364:358|367:380,1,60.0000022888184,0|0,3:2|3:2,0:0:0:0:
460,251,22402,2,0,P|456:280|452:310,1,60.0000022888184,0|2,0:0|3:2,0:0:0:0:
420,122,22745,1,2,3:2:0:0:
372,217,22916,1,2,0:2:0:0:
421,98,23087,6,0,B|376:92|376:92|342:112|342:112|299:107,1,120.000004577637,14|2,3:2|0:2,0:0:0:0:
209,27,23602,2,0,P|213:89|218:156,1,120.000004577637,10|0,3:2|0:0,0:0:0:0:
153,210,24116,2,0,P|121:207|89:203,1,60.0000022888184,10|0,0:2|0:0,0:0:0:0:
27,328,24459,6,0,P|94:322|161:322,1,120.000004577637,10|2,3:2|0:2,0:0:0:0:
261,295,24973,2,0,P|256:327|249:359,1,60.0000022888184,10|0,3:2|0:0,0:0:0:0:
379,346,25316,1,2,0:2:0:0:
379,346,25402,1,2,0:2:0:0:
379,346,25487,2,0,P|408:341|437:335,1,60.0000022888184,8|2,1:2|0:2,0:0:0:0:
355,257,25830,6,0,B|352:211|352:211|366:187|366:187|363:125,1,120.000004577637,8|0,3:2|0:0,0:0:0:0:
304,52,26345,2,0,P|248:31|186:64,1,120.000004577637,8|0,3:2|0:0,0:0:0:0:
102,54,26859,2,0,P|107:87|111:120,1,60.0000022888184,10|2,0:2|0:2,0:0:0:0:
25,198,27202,6,0,P|90:202|158:210,1,120.000004577637,8|8,3:2|0:2,0:0:0:0:
263,162,27716,2,0,B|229:189|229:189|240:274,1,120.000004577637,8|8,3:2|0:2,0:0:0:0:
169,311,28230,2,0,L|95:298,1,60.0000022888184,10|2,1:2|0:2,0:0:0:0:
237,370,28573,6,0,P|291:338|357:368,1,120.000004577637,14|0,3:2|0:0,0:0:0:0:
443,368,29087,2,0,B|477:342|477:342|464:260,1,120.000004577637,8|0,3:2|0:0,0:0:0:0:
376,193,29602,2,0,L|369:262,1,60.0000022888184,10|0,0:2|0:0,0:0:0:0:
449,137,29945,6,0,P|408:103|339:113,1,120.000004577637,10|2,3:2|0:2,0:0:0:0:
238,28,30459,2,0,P|268:32|303:37,1,60.0000022888184,10|0,3:2|0:0,0:0:0:0:
139,94,30802,1,2,0:2:0:0:
223,182,30973,2,0,P|227:152|232:117,1,60.0000022888184,10|0,1:2|0:0,0:0:0:0:
36,63,31316,6,0,P|47:151|52:195,1,120.000004577637,10|2,3:2|0:2,0:0:0:0:
8,305,31830,2,0,P|46:295|71:290,1,60.0000022888184,10|0,3:2|0:0,0:0:0:0:
141,242,32173,1,2,0:2:0:0:
152,246,32345,2,0,P|181:252|210:260,1,60.0000022888184,10|2,0:2|0:2,0:0:0:0:
309,354,32687,6,0,P|303:294|298:221,1,120.000004577637,10|8,3:2|0:2,0:0:0:0:
338,159,33202,2,0,P|394:144|446:181,1,120.000004577637,10|2,3:2|0:2,0:0:0:0:
493,40,33716,2,0,L|429:50,1,60.0000022888184,10|0,1:2|0:0,0:0:0:0:
339,26,34059,6,0,B|291:30|291:30|266:47|266:47|206:52,1,120.000004577637,14|0,3:2|0:0,0:0:0:0:
102,23,34573,2,0,B|145:43|145:43|137:136,1,120.000004577637,8|0,3:2|0:0,0:0:0:0:
62,188,35087,2,0,L|54:124,1,60.0000022888184,8|0,0:2|0:0,0:0:0:0:
3,255,35430,6,0,P|61:237|116:274,1,120.000004577637,10|2,3:2|0:2,0:0:0:0:
140,353,35945,1,8,3:2:0:0:
127,364,36116,2,0,P|97:370|52:379,1,60.0000022888184,2|0,0:2|0:0,0:0:0:0:
254,341,36459,2,0,P|284:347|312:352,1,60.0000022888184,10|0,1:2|0:0,0:0:0:0:
194,266,36802,6,0,P|192:203|190:137,1,120.000004577637,10|0,3:2|0:0,0:0:0:0:
123,73,37316,2,0,P|180:46|247:70,1,120.000004577637,8|2,3:2|0:2,0:0:0:0:
301,126,37830,1,10,0:2:0:0:
370,37,38002,1,0,0:0:0:0:
443,117,38173,6,0,P|441:150|438:178,1,60.0000022888184,10|0,3:2|0:0,0:0:0:0:
492,248,38516,2,0,P|489:277|487:307,1,60.0000022888184,0|8,0:0|3:2,0:0:0:0:
405,355,38773,5,8,0:0:0:0:
405,355,38859,2,0,P|406:316|407:282,1,60.0000022888184,8|8,1:1|0:3,0:0:0:0:
331,196,39202,1,4,0:3:0:0:
274,308,39373,1,4,0:3:0:0:
210,165,39545,6,0,P|171:155|129:168,1,80,6|2,3:2|0:0,0:0:0:0:
85,261,39887,1,2,3:2:0:0:
73,253,40059,2,0,B|53:243|29:229|29:229|53:113,1,160,2|2,1:2|1:2,0:0:0:0:
68,28,40573,1,2,3:2:0:0:
134,166,40745,6,0,B|190:158|190:158|220:179|220:179|293:170,1,160,2|0,3:2|1:2,0:0:0:0:
369,84,41259,2,0,L|282:74,1,80,2|2,0:0|1:2,0:0:0:0:
414,203,41602,5,0,3:2:0:0:
445,119,41773,1,2,3:2:0:0:
347,252,41945,1,0,1:2:0:0:
496,227,42116,1,2,1:2:0:0:
286,170,42287,6,0,P|293:250|302:340,1,160,4|2,3:2|3:2,0:0:0:0:
125,258,42802,2,0,P|168:243|206:248,1,80,2|0,1:2|0:0,0:0:0:0:
211,349,43145,2,0,P|167:363|129:358,1,80,2|0,1:2|3:2,0:0:0:0:
29,297,43487,6,0,B|25:229|25:229|39:202|39:202|39:132,1,160,2|0,3:2|1:2,0:0:0:0:
176,42,44002,1,0,0:0:0:0:
128,164,44173,1,0,1:2:0:0:
4,60,44345,2,0,P|53:50|87:61,1,80,0|2,3:2|3:2,0:0:0:0:
129,199,44687,1,2,1:2:0:0:
231,129,44859,5,2,1:2:0:0:
231,129,44945,1,2,1:2:0:0:
231,129,45030,2,0,P|295:133|394:143,1,160,6|2,3:2|3:2,0:0:0:0:
464,85,45545,2,0,P|469:45|472:5,1,80,2|0,1:2|0:0,0:0:0:0:
390,142,45887,1,0,1:2:0:0:
506,236,46059,2,0,P|464:231|426:227,1,80,2|0,3:2|3:2,0:0:0:0:
285,261,46402,6,0,B|310:263|337:252|337:252|374:302|340:351,1,160,2|2,0:0|0:0,0:0:0:0:
206,359,46916,2,0,P|202:319|197:280,1,80,2|0,1:2|3:2,0:0:0:0:
174,183,47259,1,2,3:2:0:0:
171,199,47430,1,0,1:2:0:0:
113,109,47602,5,2,1:2:0:0:
113,109,47687,1,2,1:2:0:0:
113,109,47773,2,0,B|63:130|63:130|80:235,1,160,4|0,3:2|3:2,0:0:0:0:
251,209,48287,2,0,P|210:203|169:199,1,80,0|0,1:2|0:0,0:0:0:0:
347,147,48630,1,2,1:2:0:0:
348,163,48802,1,2,3:2:0:0:
248,26,48973,6,0,L|251:119,1,80,2|2,3:2|0:0,0:0:0:0:
251,209,49316,1,0,1:2:0:0:
251,233,49659,5,0,1:2:0:0:
348,163,49831,2,0,L|345:242,1,80,0|0,3:2|3:2,0:0:0:0:
403,312,50173,1,2,1:2:0:0:
315,373,50345,5,2,1:2:0:0:
315,373,50430,1,2,1:2:0:0:
315,373,50516,2,0,P|243:339|158:364,1,160,6|0,3:2|0:0,0:0:0:0:
34,274,51030,1,0,3:2:0:0:
34,274,51116,1,0,1:2:0:0:
34,274,51202,2,0,P|95:282|132:290,1,80,0|0,1:2|3:2,0:0:0:0:
223,165,51545,2,0,P|183:169|143:176,1,80,2|0,0:0|3:2,0:0:0:0:
285,242,51887,6,0,B|308:230|334:218|334:218|319:110,1,160,2|2,0:0|0:0,0:0:0:0:
245,7,52402,2,0,L|238:95,1,80,2|0,3:2|1:2,0:0:0:0:
415,126,52745,1,2,1:2:0:0:
413,109,52916,2,0,L|406:29,1,80,2|2,3:2|1:2,0:0:0:0:
319,113,53259,6,0,P|323:192|328:272,1,160,2|2,3:2|0:0,0:0:0:0:
397,331,53773,1,2,3:2:0:0:
397,331,53859,1,0,1:2:0:0:
397,331,53945,2,0,P|445:328|483:325,1,80,0|2,1:2|3:2,0:0:0:0:
352,207,54287,1,2,0:0:0:0:
267,350,54459,6,0,P|221:363|183:350,1,80,2|0,3:2|0:0,0:0:0:0:
184,246,54802,2,0,P|230:233|268:246,1,80,0|0,3:2|1:2,0:0:0:0:
88,341,55145,1,0,3:2:0:0:
88,322,55316,2,0,L|82:233,1,80,0|0,1:2|3:2,0:0:0:0:
130,147,55659,1,8,0:3:0:0:
130,147,55830,1,4,0:3:0:0:
124,43,56002,6,0,B|142:24|179:25|197:51|196:57|191:61|189:67|209:92|242:92|263:75,1,160,6|0,3:2|1:2,0:0:0:0:
355,33,56516,1,0,1:0:0:0:
355,33,56602,1,0,1:2:0:0:
355,33,56687,2,0,L|344:121,1,80,0|0,3:2|3:2,0:0:0:0:
476,183,57030,2,0,P|435:172|395:183,1,80,0|0,1:2|0:0,0:0:0:0:
381,331,57373,6,0,B|409:336|433:354|433:354|474:305|430:248,1,160,0|2,3:2|1:2,0:0:0:0:
355,163,57887,1,0,0:0:0:0:
304,248,58059,2,0,P|265:258|227:250,1,80,2|0,3:2|3:2,0:0:0:0:
134,333,58402,2,0,L|125:253,1,80,0|2,1:2|1:2,0:0:0:0:
173,186,58659,5,0,1:2:0:0:
173,186,58745,2,0,L|164:106,1,80,6|0,3:2|3:2,0:0:0:0:
79,50,59087,2,0,P|36:43|-3:69,1,80,0|0,1:2|3:0,0:0:0:0:
19,149,59345,1,0,1:0:0:0:
19,149,59430,2,0,P|62:156|101:130,1,80,0|0,1:2|3:2,0:0:0:0:
176,57,59773,2,0,P|211:39|249:47,1,80,0|0,1:0|3:2,0:0:0:0:
331,185,60116,5,6,2:2:0:0:
341,23,60287,1,0,3:2:0:0:
341,23,60373,1,0,1:0:0:0:
341,23,60459,2,0,P|338:72|335:116,1,80,0|8,1:0|0:3,0:0:0:0:
323,268,60802,5,2,3:2:0:0:
248,160,60973,1,0,3:2:0:0:
192,270,61145,2,0,P|147:280|101:265,1,80,0|0,1:0|3:0,0:0:0:0:
56,143,61487,6,0,B|80:114|119:105|150:129|150:141|148:147|149:163|183:185|232:176|251:136|251:136|208:82|159:103|159:103|244:66|244:66|247:60|247:60|348:21|348:21|304:38|300:84,1,604.799981542969,4|0,3:2|0:0,0:0:0:0:
350,145,63887,1,2,0:2:0:0:
460,190,64230,6,0,B|455:241|455:241|463:270|463:270|455:333,1,128,6|2,3:2|0:2,0:0:0:0:
383,365,64745,2,0,P|326:335|265:362,1,128,6|2,3:2|0:2,0:0:0:0:
174,379,65259,2,0,P|171:312|165:242,1,128,6|0,3:2|0:0,0:0:0:0:
164,134,65773,1,0,3:2:0:0:
22,196,65945,6,0,P|64:204|94:199,1,64,2|0,0:2|1:0,0:0:0:0:
91,58,66287,2,0,P|49:50|19:55,1,64,2|4,3:2|0:3,0:0:0:0:
163,152,66630,1,2,3:2:0:0:
212,54,66802,1,0,1:0:0:0:
212,54,66887,1,0,1:0:0:0:
212,54,66973,6,0,P|279:29|347:74,1,143.999995605469,6|2,3:2|3:2,0:0:0:0:
383,187,67487,1,2,2:2:0:0:
433,33,67659,2,0,P|427:77|423:120,1,71.9999978027344,2|0,3:2|0:0,0:0:0:0:
487,227,68002,1,2,3:2:0:0:
420,328,68173,6,0,B|367:321|367:321|337:343|337:343|265:334,1,143.999995605469,2|0,2:2|0:0,0:0:0:0:
187,370,68687,1,2,3:2:0:0:
187,370,68773,1,0,0:0:0:0:
187,370,68859,2,0,P|180:286|174:221,1,143.999995605469,2|2,2:2|0:0,0:0:0:0:
111,156,69373,2,0,P|74:150|30:166,1,71.9999978027344,2|0,3:2|1:0,0:0:0:0:
174,226,69716,6,0,B|224:281|299:271|328:231|318:208|314:204|306:175|356:133|416:132|463:169,1,335.999989746094,4|2,1:2|2:2,0:0:0:0:
398,229,70916,1,0,0:0:0:0:
462,70,71087,6,0,P|421:68|363:65,1,80,4|4,1:2|0:3,0:0:0:0:
245,178,71430,5,8,2:3:0:0:
207,24,71602,1,4,2:3:0:0:
9,156,72459,6,0,B|67:166|67:166|96:209|96:209|169:223,1,176.000005371094,12|4,3:2|2:3,0:0:0:0:
239,118,72973,2,0,P|191:122|146:127,1,88.000002685547,8|4,1:2|0:3,0:0:0:0:
65,292,73316,2,0,P|107:301|150:309,1,88.000002685547,2|8,0:3|1:2,0:0:0:0:
321,364,73659,5,2,0:3:0:0:
321,364,73745,1,0,0:0:0:0:
321,364,73830,2,0,L|323:268,1,88.000002685547,4|8,3:2|1:2,0:0:0:0:
404,143,74173,1,4,0:3:0:0:
315,180,74345,5,2,0:3:0:0:
408,230,74516,2,0,P|454:242|499:230,1,88.000002685547,8|4,1:2|0:3,0:0:0:0:
490,63,74859,2,0,P|444:51|399:63,1,88.000002685547,8|4,1:2|0:3,0:0:0:0:
315,180,75202,6,0,P|311:93|307:3,1,176.000005371094,12|4,3:2|2:3,0:0:0:0:
208,135,75716,2,0,P|163:149|114:138,1,88.000002685547,8|4,1:2|0:3,0:0:0:0:
114,44,76059,2,0,P|159:30|208:41,1,88.000002685547,2|8,0:3|1:2,0:0:0:0:
18,142,76402,6,0,B|2:40|2:40|9:81|44:103,1,176.000005371094,2|0,0:3|3:0,0:0:0:0:
44,234,76916,1,4,2:3:0:0:
44,234,77002,1,0,1:0:0:0:
44,234,77087,2,0,L|-25:257,3,44.0000013427735,2|0|0|0,1:2|1:0|1:2|1:0,0:0:0:0:
82,198,77430,6,0,B|115:182|146:198|147:220|152:228|149:236|151:246|172:272|210:274|240:246,1,176.000005371094,6|2,1:2|0:0,0:0:0:0:
327,327,77945,2,0,P|385:341|424:328,1,88.000002685547,4|4,3:2|0:3,0:0:0:0:
424,189,78287,2,0,P|366:175|327:188,1,88.000002685547,8|4,1:2|0:3,0:0:0:0:
197,333,78630,1,4,0:3:0:0:
374,258,78802,1,4,0:3:0:0:
249,156,78973,2,0,P|257:214|261:255,1,88.000002685547,10|0,1:2|0:0,0:0:0:0:
180,346,79316,6,0,B|115:338|115:338|78:358|78:358|-4:344,1,176.000005371094,2|10,3:2|1:2,0:0:0:0:
17,220,79830,1,2,0:0:0:0:
17,220,79916,1,0,1:2:0:0:
17,220,80002,2,0,L|109:238,1,88.000002685547,4|4,0:3|0:3,0:0:0:0:
200,251,80345,1,10,1:2:0:0:
87,132,80516,5,0,1:0:0:0:
87,132,80602,1,0,1:0:0:0:
87,132,80687,2,0,B|111:28|111:28|102:69|115:95,1,176.000005371094,2|10,3:2|1:2,0:0:0:0:
219,286,81202,1,4,2:3:0:0:
225,79,81373,2,0,L|212:170,1,88.000002685547,0|4,1:2|2:3,0:0:0:0:
103,330,81716,1,8,1:2:0:0:
12,268,81887,6,0,P|61:198|140:218,1,176.000005371094,6|4,1:2|2:3,0:0:0:0:
219,286,82402,2,0,L|214:341,2,44.0000013427735,10|0|4,1:2|1:2|2:3,0:0:0:0:
301,218,82745,2,0,L|297:174,2,44.0000013427735,8|0|4,1:2|1:2|2:3,0:0:0:0:
348,313,83087,5,8,1:2:0:0:
368,330,83172,1,0,1:2:0:0:
394,339,83258,1,0,1:2:0:0:
421,338,83344,1,0,1:2:0:0:
445,326,83430,6,0,B|441:262|441:262|454:236|454:236|451:177,1,143.999995605469,6|2,3:2|2:2,0:0:0:0:
492,104,83945,2,0,P|451:94|408:107,1,71.9999978027344,6|0,3:2|0:0,0:0:0:0:
356,168,84287,2,0,P|321:177|286:172,1,71.9999978027344,2|4,2:2|3:2,0:0:0:0:
187,46,84630,6,0,P|191:120|196:200,2,143.999995605469,2|4|2,2:2|3:2|2:2,0:0:0:0:
111,130,85487,2,0,P|76:138|41:130,1,71.9999978027344,4|0,3:2|0:0,0:0:0:0:
187,46,85830,2,0,P|221:37|256:45,1,71.9999978027344,4|0,3:2|0:0,0:0:0:0:
406,169,86173,1,6,3:2:0:0:
350,74,86345,5,0,1:2:0:0:
350,74,86430,1,0,1:2:0:0:
350,74,86516,2,0,L|360:24,2,35.9999989013672,2|0|2,1:2|1:2|3:2,0:0:0:0:
276,164,86859,5,0,1:0:0:0:
276,164,86944,1,0,1:0:0:0:
276,164,87030,2,0,L|283:199,2,35.9999989013672,2|0|0,1:2|1:0|3:2,0:0:0:0:
170,102,87373,5,8,2:3:0:0:
138,85,87458,1,4,0:3:0:0:
102,84,87544,1,4,0:3:0:0:
70,98,87630,1,4,0:3:0:0:
47,126,87716,2,0,P|56:200|64:270,1,143.999995605469,2|2,3:2|2:2,0:0:0:0:
56,353,88230,6,0,L|-9:367,2,47.9999985351563,8|4|8,0:3|0:3|0:3,0:0:0:0:
190,327,88573,2,0,L|143:316,2,47.9999985351563,4|4|8,0:3|0:3|0:3,0:0:0:0:
285,352,88916,6,0,B|310:328|344:330|354:350|362:356|362:364|368:373|395:390|423:382|444:358,1,176.000005371094,6|0,3:2|0:0,0:0:0:0:
470,254,89430,1,4,0:3:0:0:
458,266,89602,2,0,P|396:258|367:255,1,80,6|0,1:2|0:0,0:0:0:0:
370,130,89945,2,0,P|409:124|449:120,1,80,2|0,2:2|0:0,0:0:0:0:
297,38,90287,6,0,B|249:63|249:63|277:178,1,160,2|2,2:2|2:2,0:0:0:0:
297,273,90802,1,2,3:2:0:0:
143,237,90973,2,0,P|185:224|237:237,1,80,0|8,1:2|0:3,0:0:0:0:
231,334,91316,2,0,P|193:346|153:342,1,80,4|4,2:3|0:3,0:0:0:0:
49,283,91659,6,0,B|31:225|31:225|41:202|41:202|12:70|12:70|32:161|96:171|96:171|137:144|116:90,1,451.199993115235,6|0,3:2|0:0,0:0:0:0:
221,26,94059,2,0,L|290:32,1,56.3999991394043,2|0,2:2|0:0,0:0:0:0:
320,15,94402,6,0,L|307:99,1,71.9999978027344,6|0,3:2|1:2,0:0:0:0:
249,140,94659,1,0,1:2:0:0:
249,140,94745,2,0,L|189:143,2,35.9999989013672,0|0|4,1:2|1:2|0:3,0:0:0:0:
343,202,95087,5,0,1:2:0:0:
366,190,95172,1,0,1:2:0:0:
391,185,95258,1,0,1:2:0:0:
417,188,95344,1,0,1:2:0:0:
441,199,95430,2,0,L|452:148,3,35.9999989013672,8|4|4|4,0:3|0:3|0:3|0:3,0:0:0:0:
456,254,95773,6,0,P|469:300|451:352,1,80,6|0,3:2|0:0,0:0:0:0:
366,359,96116,1,2,1:2:0:0:
351,367,96287,2,0,P|306:357|262:351,1,80,2|0,1:2|1:2,0:0:0:0:
125,219,96630,1,4,2:3:0:0:
180,371,96802,1,8,2:3:0:0:
251,231,96973,1,0,1:2:0:0:
103,316,97145,6,0,P|49:319|15:303,1,80,4|4,3:2|0:3,0:0:0:0:
44,136,97487,2,0,P|98:133|132:149,1,80,8|2,1:2|0:0,0:0:0:0:
179,280,97830,1,4,0:3:0:0:
213,114,98002,1,4,0:3:0:0:
81,228,98173,1,8,1:2:0:0:
251,231,98345,5,4,0:3:0:0:
251,231,98430,1,4,0:3:0:0:
251,231,98516,2,0,P|245:183|241:146,1,80,0|4,3:2|0:3,0:0:0:0:
365,70,98859,2,0,P|360:109|355:149,1,80,8|0,1:2|1:2,0:0:0:0:
385,329,99202,2,0,P|420:348|460:348,1,80,4|4,0:3|0:3,0:0:0:0:
481,235,99545,2,0,P|446:216|407:216,1,80,8|8,1:2|0:3,0:0:0:0:
220,310,99887,5,6,3:2:0:0:
319,182,100059,1,4,0:3:0:0:
312,368,100230,1,8,1:2:0:0:
226,211,100402,6,0,L|187:221,2,40,0|0|4,1:0|1:2|0:3,0:0:0:0:
397,144,100745,1,4,0:3:0:0:
328,275,100916,1,10,1:2:0:0:
255,123,101087,5,0,0:0:0:0:
255,123,101173,1,0,1:2:0:0:
255,123,101259,2,0,P|216:114|179:127,1,80,2|4,3:2|0:3,0:0:0:0:
88,216,101602,1,10,1:2:0:0:
82,43,101773,1,2,1:2:0:0:
82,43,101859,1,0,1:2:0:0:
82,43,101945,2,0,L|86:136,1,80,4|4,0:3|0:3,0:0:0:0:
88,216,102202,1,0,0:0:0:0:
88,216,102287,2,0,L|32:230,3,40,8|0|2|0,1:2|1:2|1:2|1:2,0:0:0:0:
135,234,102630,6,0,B|157:249|185:256|185:256|169:369,1,160,4|8,3:2|1:2,0:0:0:0:
340,220,103145,1,2,0:0:0:0:
340,220,103230,1,2,1:2:0:0:
340,220,103316,2,0,P|294:207|253:226,1,80,4|4,0:3|0:3,0:0:0:0:
268,324,103659,2,0,P|314:337|355:318,1,80,8|0,1:2|0:0,0:0:0:0:
447,259,104002,5,0,3:2:0:0:
424,377,104173,1,4,0:3:0:0:
452,240,104345,2,0,L|446:152,1,80,8|0,1:2|2:2,0:0:0:0:
317,102,104687,5,4,0:3:0:0:
340,220,104858,1,4,0:3:0:0:
312,83,105030,2,0,L|317:3,1,80,10|0,1:2|0:0,0:0:0:0:
232,159,105373,6,0,P|189:170|146:163,1,80,6|4,3:2|0:3,0:0:0:0:
142,47,105716,2,0,P|185:36|228:43,1,80,8|0,1:2|0:0,0:0:0:0:
276,240,106059,5,4,0:3:0:0:
312,83,106230,1,4,0:3:0:0:
268,255,106402,2,0,L|280:345,1,80,10|0,1:2|0:0,0:0:0:0:
205,158,106745,5,2,3:2:0:0:
362,194,106916,1,4,0:3:0:0:
190,150,107088,2,0,L|100:162,1,80,8|0,1:2|0:0,0:0:0:0:
268,255,107430,5,4,0:3:0:0:
292,121,107602,1,4,0:3:0:0:
198,292,107773,1,8,1:2:0:0:
365,240,107945,5,0,1:0:0:0:
365,240,108030,1,0,1:0:0:0:
365,240,108116,2,0,B|420:243|420:243|446:267|446:267|507:273,1,143.999995605469,4|0,3:2|0:0,0:0:0:0:
491,173,108630,1,4,2:3:0:0:
489,156,108802,2,0,L|481:74,1,71.9999978027344,0|4,1:2|2:3,0:0:0:0:
388,34,109145,5,0,0:0:0:0:
380,46,109316,2,0,L|248:63,2,107.999996704102,4|8|4,2:3|2:3|2:3,0:0:0:0:
299,148,110002,1,0,1:2:0:0:
396,137,110173,2,0,B|397:186|397:186|375:217|375:217|381:275,1,143.999995605469,4|0,3:2|0:0,0:0:0:0:
338,350,110687,6,0,L|278:341,3,35.9999989013672,4|0|0|0,3:2|0:0|0:0|0:0,0:0:0:0:
239,293,111030,2,0,L|203:298,3,35.9999989013672,4|0|0|0,2:3|0:0|0:0|0:0,0:0:0:0:
142,352,111373,6,0,L|106:357,3,35.9999989013672,4|0|0|0,2:3|0:0|1:2|1:2,0:0:0:0:
59,289,111716,2,0,L|23:283,3,35.9999989013672,4|0|0|0,2:3|0:0|1:2|1:2,0:0:0:0:
130,213,112059,1,4,2:3:0:0:
130,213,112145,1,0,0:0:0:0:
130,213,112230,2,0,L|181:193,5,35.9999989013672,4|0|4|0|4|4,2:3|0:0|1:3|0:0|2:3|2:3,0:0:0:0:
238,137,112745,5,4,2:3:0:0:
263,138,112830,1,0,1:2:0:0:
287,139,112916,1,0,1:2:0:0:
311,140,113002,1,0,1:2:0:0:
337,143,113087,2,0,L|368:119,2,35.9999989013672,0|0|8,1:2|1:2|2:3,0:0:0:0:
