osu file format v14

[General]
AudioFilename: audio.mp3
AudioLeadIn: 0
PreviewTime: 72383
Countdown: 0
SampleSet: Soft
StackLeniency: 0.8
Mode: 0
LetterboxInBreaks: 0
WidescreenStoryboard: 1

[Editor]
Bookmarks: 17606,23091,39549,50520,85149
DistanceSpacing: 1
BeatDivisor: 4
GridSize: 32
TimelineZoom: 1.9

[Metadata]
Title:Bulukanilo (Short Ver.)
TitleUnicode:ブルカニロ (Short Ver.)
Artist:yuki
ArtistUnicode:yuki
Creator:Stompy_
Version:Expert
Source:白昼夢の青写真
Tags:Yours- riffy bakari froskya revialink share enuhq animestyle kuki1537 Laplacian Hakuchuumu no Aojashin The girl who's whos called the world The girl who dreamed the world cyanotype daydream video game visual novel vn japanese pop j-pop case 1 case-1 ed ending eroge female vocals vocalist
BeatmapID:3902306
BeatmapSetID:1800039

[Difficulty]
HPDrainRate:5
CircleSize:4.2
OverallDifficulty:8.4
ApproachRate:9
SliderMultiplier:1.72
SliderTickRate:1

[Events]
//Background and Video events
0,0,"bg1.jpg",0,0
//Break Periods
2,61687,63630
//Storyboard Layer 0 (Background)
//Storyboard Layer 1 (Fail)
//Storyboard Layer 2 (Pass)
//Storyboard Layer 3 (Foreground)
//Storyboard Layer 4 (Overlay)
//Storyboard Sound Samples

[TimingPoints]
1145,342.857142857143,4,2,1,40,1,0
1145,-200,4,2,1,40,0,0
6630,-100,4,2,2,80,0,0
6640,-100,4,2,2,80,0,0
17602,-125,4,2,1,30,0,0
17612,-125,4,2,1,30,0,0
18973,-125,4,2,1,30,0,0
39030,-125,4,2,1,40,0,0
39040,-125,4,2,1,40,0,0
39545,-100,4,2,1,50,0,0
39555,-100,4,2,1,50,0,0
42116,-111.111111111111,4,2,1,50,0,0
45030,-100,4,2,1,50,0,0
50516,-111.111111111111,4,2,1,50,0,0
54459,-100,4,2,1,50,0,0
56002,-100,4,2,1,60,0,0
56012,-100,4,2,1,60,0,0
60116,-111.111111111111,4,2,1,60,0,0
61487,-117.647058823529,4,2,1,30,0,0
61497,-117.647058823529,4,2,1,30,0,0
64230,-100,4,2,1,50,0,0
64240,-100,4,2,1,50,0,0
64745,-125,4,2,1,50,0,0
65259,-100,4,2,1,50,0,0
65945,-117.647058823529,4,2,1,50,0,0
66973,-111.111111111111,4,2,1,60,0,0
66983,-111.111111111111,4,2,1,60,0,0
69545,-111.111111111111,4,2,1,60,0,0
69716,-111.111111111111,4,2,1,50,0,0
69726,-111.111111111111,4,2,1,50,0,0
71087,-111.111111111111,4,2,1,65,0,0
71097,-111.111111111111,4,2,1,65,0,0
72459,-76.9230769230769,4,2,3,70,0,1
72469,-76.9230769230769,4,2,3,70,0,1
77430,-76.9230769230769,4,2,3,60,0,0
77440,-76.9230769230769,4,2,3,60,0,0
77945,-76.9230769230769,4,2,3,80,0,1
77955,-76.9230769230769,4,2,3,80,0,1
81887,-90.9090909090909,4,2,3,80,0,1
83430,-90.9090909090909,4,2,3,70,0,0
83440,-90.9090909090909,4,2,3,70,0,0
83945,-100,4,2,3,70,0,0
84459,-90.9090909090909,4,2,3,70,0,0
84973,-100,4,2,3,70,0,0
85487,-90.9090909090909,4,2,3,70,0,0
91659,-90.9090909090909,4,2,3,40,0,0
91669,-90.9090909090909,4,2,3,40,0,0
94402,-90.9090909090909,4,2,3,60,0,0
94412,-90.9090909090909,4,2,3,60,0,0
94745,-90.9090909090969,4,2,3,60,0,0
96116,-90.9090909090969,4,2,3,40,0,0
96126,-90.9090909090969,4,2,3,40,0,0
96459,-90.9090909090969,4,2,3,50,0,0
96469,-90.9090909090969,4,2,3,50,0,0
96802,-90.9090909090969,4,2,3,60,0,0
96812,-90.9090909090969,4,2,3,60,0,0
97145,-90.9090909090969,4,2,3,70,0,1
97155,-90.9090909090969,4,2,3,70,0,1
108116,-100,4,2,3,60,0,0
108126,-100,4,2,3,60,0,0

[Colours]
Combo1 : 255,227,142
Combo2 : 128,255,128
Combo3 : 145,194,255
Combo4 : 249,151,166

[HitObjects]
256,192,1145,12,2,6287,0:2:0:0:
33,210,6630,6,0,P|46:254|58:315,1,86,6|4,2:3|2:3,0:0:0:0:
177,146,6973,2,0,P|187:104|201:63,1,86,0|0,1:2|3:2,0:0:0:0:
138,260,7316,1,4,0:3:0:0:
53,74,7487,1,4,0:3:0:0:
258,183,7659,2,0,P|300:186|343:192,1,86,0|0,1:2|3:2,0:0:0:0:
343,192,7916,1,0,3:2:0:0:
343,192,8002,6,0,B|370:260|332:277|300:290|320:358,1,172,4|0,2:3|1:2,0:0:0:0:
490,293,8516,1,0,3:2:0:0:
490,293,8687,2,0,P|444:297|422:258,1,86,4|4,0:3|0:3,0:0:0:0:
273,213,9030,2,0,P|227:207|165:204,1,86,0|0,1:2|3:2,0:0:0:0:
187,204,9287,1,0,3:2:0:0:
187,204,9373,6,0,B|144:137|173:76|173:76|186:106|231:123,1,172,4|0,2:3|1:2,0:0:0:0:
239,39,9887,1,0,3:2:0:0:
93,194,10059,2,0,P|50:184|2:181,1,86,4|4,0:3|0:3,0:0:0:0:
136,326,10402,1,0,1:2:0:0:
253,162,10573,1,0,3:2:0:0:
253,162,10659,1,0,3:2:0:0:
253,162,10745,1,4,2:3:0:0:
94,80,10916,1,4,2:3:0:0:
233,290,11087,6,0,P|277:293|323:304,1,86,0|0,1:2|3:2,0:0:0:0:
317,302,11345,1,0,3:0:0:0:
317,302,11430,1,4,0:3:0:0:
496,250,11602,1,4,0:3:0:0:
325,77,11773,2,0,P|337:119|344:166,1,86,0|0,1:2|3:2,0:0:0:0:
343,160,12030,1,0,3:2:0:0:
343,160,12116,6,0,B|313:210|257:213|257:213|237:182|201:173,1,172,6|0,2:3|1:2,0:0:0:0:
55,90,12630,1,0,3:2:0:0:
55,90,12716,1,0,3:0:0:0:
55,90,12802,1,4,0:3:0:0:
156,260,12973,1,4,0:3:0:0:
276,54,13145,2,0,B|350:18|350:18|390:44,1,129,0|0,1:2|3:2,0:0:0:0:
456,80,13487,6,0,P|446:127|441:174,1,86,4|4,2:3|2:3,0:0:0:0:
364,345,13830,2,0,B|398:305|398:305|436:303|488:354,1,129,0|0,1:2|3:0,0:0:0:0:
496,353,14173,1,4,0:3:0:0:
359,181,14345,1,4,0:3:0:0:
232,370,14516,2,0,P|190:355|142:347,1,86,0|0,1:2|3:2,0:0:0:0:
149,347,14773,1,0,3:2:0:0:
149,347,14859,6,0,B|178:284|135:242|135:242|98:254|63:222,1,172,4|0,2:3|1:2,0:0:0:0:
120,166,15373,1,0,3:2:0:0:
25,357,15545,1,4,0:3:0:0:
246,270,15716,1,4,0:3:0:0:
30,175,15887,2,0,P|25:127|14:89,1,86,0|0,1:2|3:2,0:0:0:0:
57,281,16230,5,4,2:3:0:0:
206,168,16402,1,4,2:3:0:0:
206,168,16487,1,4,2:3:0:0:
206,168,16573,1,0,1:2:0:0:
328,290,16745,1,0,3:2:0:0:
407,152,16916,5,8,0:3:0:0:
509,203,17087,1,8,0:3:0:0:
420,256,17259,1,4,2:3:0:0:
496,97,17430,1,4,2:3:0:0:
414,272,17602,6,0,B|380:287|353:268|353:268|322:225|265:232|231:282|231:282|269:303|269:346,1,275.2,2|0,3:0|0:0,0:0:0:0:
197,347,18630,1,2,3:2:0:0:
392,201,18973,6,0,P|404:132|424:63,1,137.6,2|2,3:2|0:2,0:0:0:0:
342,39,19487,2,0,P|329:106|310:172,1,137.6,2|2,3:2|0:2,0:0:0:0:
310,172,20002,1,0,3:2:0:0:
185,359,20345,6,0,P|149:322|88:320,1,103.2,0|0,3:2|0:0,0:0:0:0:
99,316,20687,1,2,0:2:0:0:
261,379,20859,2,0,P|318:351|405:342,1,137.6,2|2,3:2|0:2,0:0:0:0:
473,252,21373,1,0,3:2:0:0:
473,252,21716,6,0,P|482:181|466:105,1,137.6,0|0,3:2|3:2,0:0:0:0:
292,118,22230,2,0,P|283:189|299:265,1,137.6,0|2,3:2|3:2,0:0:0:0:
350,359,22745,5,2,3:2:0:0:
350,359,22916,1,2,0:2:0:0:
189,249,23087,6,0,B|161:215|103:222|103:222|101:252|73:266,1,137.6,14|2,3:2|0:2,0:0:0:0:
206,381,23602,2,0,P|273:368|349:363,1,137.6,10|0,3:2|0:0,0:0:0:0:
342,363,24116,1,10,0:2:0:0:
112,176,24459,6,0,P|57:171|28:102,1,137.6,10|2,3:2|0:2,0:0:0:0:
171,28,24973,2,0,B|210:34|239:15|239:15|210:34|208:80,1,137.6,10|2,3:2|0:2,0:0:0:0:
209,71,25402,1,2,0:2:0:0:
209,71,25487,1,8,1:2:0:0:
483,283,25830,6,0,P|416:270|340:265,1,137.6,8|0,3:2|0:0,0:0:0:0:
205,283,26345,2,0,B|232:291|255:277|255:277|262:323|216:376,1,137.6,8|0,3:2|0:0,0:0:0:0:
231,357,26859,1,10,0:2:0:0:
233,48,27202,6,0,B|147:13|147:13|110:42,1,137.6,8|8,3:2|0:2,0:0:0:0:
216,169,27716,2,0,P|278:155|359:146,1,137.6,8|8,3:2|0:2,0:0:0:0:
351,146,28230,1,10,1:2:0:0:
240,53,28402,1,2,0:2:0:0:
165,231,28573,6,0,P|97:210|29:200,1,137.6,14|0,3:2|0:0,0:0:0:0:
102,360,29087,2,0,B|131:388|169:382|169:382|191:350|242:339,1,137.6,8|0,3:2|0:0,0:0:0:0:
220,345,29602,1,10,0:2:0:0:
487,99,29945,6,0,P|471:164|461:236,1,137.6,10|2,3:2|0:2,0:0:0:0:
323,231,30459,2,0,P|309:163|290:97,1,137.6,10|2,3:2|0:2,0:0:0:0:
290,97,30887,1,2,0:2:0:0:
290,97,30973,1,10,1:2:0:0:
134,353,31316,6,0,P|77:365|26:304,1,137.6,10|2,3:2|0:2,0:0:0:0:
66,211,31830,2,0,P|123:199|174:260,1,137.6,10|2,3:2|0:2,0:0:0:0:
173,252,32345,1,10,0:2:0:0:
456,34,32687,6,0,B|511:53|511:53|519:92|481:152,1,137.6,10|8,3:2|0:2,0:0:0:0:
309,133,33202,2,0,P|272:95|304:18,1,137.6,10|2,3:2|0:2,0:0:0:0:
296,22,33716,1,10,1:2:0:0:
484,350,34059,6,0,P|413:333|338:326,1,137.6,14|0,3:2|0:0,0:0:0:0:
202,253,34573,2,0,B|161:276|162:320|162:320|201:331|208:376,1,137.6,8|0,3:2|0:0,0:0:0:0:
202,354,35087,1,8,0:2:0:0:
39,204,35430,6,0,P|25:138|4:69,1,137.6,10|2,3:2|0:2,0:0:0:0:
65,20,35945,2,0,P|127:4|166:66,1,137.6,8|0,3:2|0:0,0:0:0:0:
166,56,36373,1,2,0:2:0:0:
166,56,36459,1,10,1:2:0:0:
369,352,36802,6,0,B|441:376|441:376|478:368|490:328,1,137.6,10|0,3:2|0:0,0:0:0:0:
488,261,37316,2,0,B|441:229|441:229|356:267,1,137.6,8|2,3:2|0:2,0:0:0:0:
367,261,37830,1,10,0:2:0:0:
56,140,38173,6,0,B|83:142|100:167|100:167|128:131|126:60|62:22,1,206.4,10|8,3:2|3:2,0:0:0:0:
76,31,38773,1,8,0:0:0:0:
76,31,38859,1,8,1:1:0:0:
41,216,39030,1,8,0:3:0:0:
257,96,39202,2,0,P|220:86|181:82,1,68.8,4|4,0:3|0:3,0:0:0:0:
323,284,39545,6,0,P|360:274|413:269,1,86,6|2,3:2|0:0,0:0:0:0:
487,259,39887,1,2,3:2:0:0:
345,373,40059,2,0,P|278:357|208:350,1,129,2|0,1:2|0:0,0:0:0:0:
218,351,40402,1,2,1:2:0:0:
112,236,40573,1,2,3:2:0:0:
224,108,40745,6,0,B|171:121|154:169|154:169|197:196|188:255,1,172,2|0,3:2|1:2,0:0:0:0:
60,298,41259,1,2,0:0:0:0:
60,298,41430,2,0,P|33:257|39:214,1,86,2|0,1:2|3:2,0:0:0:0:
157,170,41773,2,0,P|239:175|348:203,1,172,2|2,3:2|1:2,0:0:0:0:
326,195,42202,1,2,1:2:0:0:
326,195,42287,6,0,B|357:130|309:85|309:85|282:102|241:89,1,154.799995275879,4|2,3:2|3:2,0:0:0:0:
292,295,42802,2,0,P|348:281|428:272,1,116.099996456909,2|0,1:2|0:0,0:0:0:0:
479,302,43145,2,0,P|493:340|454:369,1,77.3999976379395,2|0,1:2|3:2,0:0:0:0:
327,208,43487,6,0,P|315:143|295:74,1,116.099996456909,2|0,3:2|0:0,0:0:0:0:
271,28,43830,2,0,P|229:24|206:57,1,77.3999976379395,0|0,1:2|0:0,0:0:0:0:
139,165,44173,1,0,1:2:0:0:
30,94,44345,2,0,P|21:50|10:12,1,77.3999976379395,0|2,3:2|3:2,0:0:0:0:
8,265,44687,2,0,P|50:270|94:286,1,77.3999976379395,2|2,1:2|1:2,0:0:0:0:
83,280,44945,1,2,1:2:0:0:
83,280,45030,6,0,B|135:238|191:255|191:255|176:284|196:315,1,172,6|2,3:2|3:2,0:0:0:0:
392,305,45545,2,0,P|437:292|490:284,1,86,2|0,1:2|0:0,0:0:0:0:
476,286,45887,1,0,1:2:0:0:
322,367,46059,2,0,P|315:324|304:282,1,86,2|0,3:2|3:2,0:0:0:0:
259,83,46402,6,0,B|247:50|274:0|274:0|327:39|329:82,1,172,2|2,0:0|0:0,0:0:0:0:
252,215,46916,2,0,P|205:222|154:237,1,86,2|0,1:2|3:2,0:0:0:0:
167,231,47259,1,2,3:2:0:0:
50,105,47430,2,0,P|96:112|146:126,1,86,0|2,1:2|1:2,0:0:0:0:
133,122,47687,1,2,1:2:0:0:
133,122,47773,6,0,B|164:55|219:24|219:24|229:59|268:72,1,172,4|0,3:2|3:2,0:0:0:0:
269,257,48287,2,0,P|211:238|137:228,1,129,0|0,1:2|0:0,0:0:0:0:
143,228,48630,1,2,1:2:0:0:
213,356,48802,1,2,3:2:0:0:
361,300,48973,6,0,P|355:240|336:168,1,129,2|0,3:2|0:0,0:0:0:0:
372,104,49316,2,0,P|419:90|451:112,1,86,0|0,1:2|0:0,0:0:0:0:
354,245,49659,2,0,P|311:236|257:232,1,86,0|0,1:2|3:2,0:0:0:0:
102,216,50002,1,0,3:2:0:0:
202,137,50173,1,2,1:2:0:0:
34,290,50345,1,2,1:2:0:0:
34,290,50431,1,2,1:2:0:0:
34,290,50516,6,0,P|20:211|0:127,1,154.799995275879,6|0,3:2|0:0,0:0:0:0:
100,20,51030,1,0,3:2:0:0:
100,20,51116,1,0,1:2:0:0:
100,20,51202,1,0,1:2:0:0:
204,150,51373,1,0,3:2:0:0:
341,56,51545,6,0,B|297:44|255:86|255:86|280:103|279:138,1,154.799995275879,2|2,0:0|0:0,0:0:0:0:
178,224,52059,2,0,P|136:214|87:210,1,77.3999976379395,0|2,3:2|0:0,0:0:0:0:
166,116,52402,1,2,3:2:0:0:
295,260,52573,1,0,1:2:0:0:
403,116,52745,1,2,1:2:0:0:
403,116,52830,1,2,0:0:0:0:
403,116,52916,6,0,B|395:160|395:160|403:181|403:181|392:240,1,116.099996456909,2|2,3:2|1:2,0:0:0:0:
431,294,53259,2,0,P|474:309|506:286,1,77.3999976379395,2|0,3:2|0:0,0:0:0:0:
314,179,53602,1,2,0:0:0:0:
256,341,53773,1,2,3:2:0:0:
256,341,53859,1,0,1:2:0:0:
256,341,53945,2,0,P|216:328|172:322,1,77.3999976379395,0|2,1:2|3:2,0:0:0:0:
20,187,54287,1,2,0:0:0:0:
20,187,54459,6,0,B|43:164|41:105|41:105|54:163|84:182,1,172,2|0,3:2|3:2,0:0:0:0:
147,28,54973,1,0,1:2:0:0:
147,28,55145,2,0,P|133:68|120:119,1,86,0|0,3:2|1:2,0:0:0:0:
50,320,55487,1,0,3:2:0:0:
182,194,55659,1,8,0:3:0:0:
37,89,55830,1,4,0:3:0:0:
145,321,56002,6,0,P|201:337|261:289,1,129,6|0,3:2|0:0,0:0:0:0:
256,299,56345,1,0,1:2:0:0:
460,358,56516,1,0,1:0:0:0:
460,358,56602,1,0,1:2:0:0:
460,358,56687,2,0,P|418:343|375:336,1,86,0|0,3:2|3:2,0:0:0:0:
189,256,57030,1,0,1:2:0:0:
300,109,57202,1,0,0:0:0:0:
111,18,57373,2,0,P|124:60|134:119,1,86,0|0,3:2|3:2,0:0:0:0:
343,230,57716,6,0,P|398:222|464:175,1,129,2|0,1:2|0:0,0:0:0:0:
458,181,58059,1,2,3:2:0:0:
304,59,58230,1,0,3:2:0:0:
205,224,58402,1,0,1:2:0:0:
406,114,58573,1,2,1:2:0:0:
406,114,58659,1,0,1:2:0:0:
406,114,58745,2,0,P|415:69|428:26,1,86,6|0,3:2|3:2,0:0:0:0:
361,241,59087,5,0,1:2:0:0:
200,137,59259,1,0,3:0:0:0:
200,137,59345,1,0,1:0:0:0:
200,137,59430,1,0,1:2:0:0:
120,319,59602,5,0,3:2:0:0:
285,148,59773,1,0,1:0:0:0:
376,359,59945,1,0,3:2:0:0:
120,319,60116,6,0,B|98:329|85:352|85:352|62:239,1,154.799995275879,6|0,2:2|1:0,0:0:0:0:
63,248,60545,1,4,0:3:0:0:
63,248,60630,1,8,0:3:0:0:
32,52,60802,1,2,3:2:0:0:
246,149,60973,1,0,3:2:0:0:
65,163,61145,1,0,1:0:0:0:
177,28,61316,1,0,3:0:0:0:
177,28,61402,1,0,3:0:0:0:
177,28,61487,1,4,3:2:0:0:
177,28,64230,6,0,B|238:37|318:87|318:87|298:55|299:19,1,215,6|0,3:2|0:0,0:0:0:0:
299,29,64745,6,0,P|284:83|266:171,1,137.6,6|2,3:2|0:2,0:0:0:0:
199,291,65259,6,0,B|223:319|215:374|215:374|232:320|285:294,1,172,6|0,3:2|0:0,0:0:0:0:
249,234,65773,1,0,3:2:0:0:
123,359,65945,6,0,P|80:343|35:331,1,73.1000013942719,2|0,0:2|1:0,0:0:0:0:
249,234,66287,2,0,P|293:222|367:211,1,109.650002091408,2|4,3:2|0:3,0:0:0:0:
417,171,66630,2,0,P|431:128|410:97,1,73.1000013942719,2|0,3:2|1:0,0:0:0:0:
420,105,66887,1,0,1:0:0:0:
420,105,66973,1,6,3:2:0:0:
292,23,67145,1,0,0:0:0:0:
183,139,67316,6,0,P|142:128|99:124,1,77.3999976379395,2|2,3:2|2:2,0:0:0:0:
16,66,67659,2,0,B|37:58|51:37|51:37|27:158,1,154.799995275879,2|2,3:2|3:2,0:0:0:0:
23,298,68173,1,2,2:2:0:0:
23,298,68345,2,0,P|63:288|107:283,1,77.3999976379395,2|0,3:2|0:0,0:0:0:0:
303,257,68687,1,2,3:2:0:0:
271,189,68859,6,0,B|247:195|237:222|237:222|209:183|223:147|251:115,1,154.799995275879,2|2,2:2|0:0,0:0:0:0:
380,272,69373,2,0,P|420:276|464:285,1,77.3999976379395,2|0,3:2|1:0,0:0:0:0:
458,283,69630,1,0,1:0:0:0:
458,283,69716,1,4,1:2:0:0:
458,283,71087,5,4,1:2:0:0:
300,50,71259,1,4,0:3:0:0:
195,276,71430,1,8,2:3:0:0:
462,100,71602,5,4,2:3:0:0:
462,100,72459,6,0,B|395:56|342:82|342:82|361:102|356:157,1,167.699992323304,12|0,3:2|3:2,0:0:0:0:
356,118,72802,1,4,2:3:0:0:
159,106,72973,2,0,P|144:48|125:-6,1,111.799994882202,8|4,1:2|0:3,0:0:0:0:
285,135,73316,2,0,P|267:187|253:242,1,111.799994882202,2|8,0:3|1:2,0:0:0:0:
217,379,73659,1,2,0:3:0:0:
28,216,73830,6,0,B|12:181|57:137|121:168|120:252,1,167.699992323304,4|0,3:2|0:0,0:0:0:0:
119,236,74173,1,4,0:3:0:0:
46,375,74345,1,2,0:3:0:0:
264,248,74516,6,0,B|363:256|317:196|424:208,1,167.699992323304,8|0,1:2|0:0,0:0:0:0:
485,244,74859,2,0,B|510:289|510:289|475:341,1,111.799994882202,8|4,1:2|0:3,0:0:0:0:
278,169,75202,6,0,B|246:112|246:112|306:15,1,167.699992323304,12|0,3:2|0:0,0:0:0:0:
299,24,75545,1,4,2:3:0:0:
171,191,75716,2,0,B|57:163|57:163|34:175|29:204,1,167.699992323304,8|0,1:2|0:0,0:0:0:0:
29,202,76059,1,2,0:3:0:0:
128,366,76230,2,0,P|182:348|241:338,1,111.799994882202,8|2,1:2|0:3,0:0:0:0:
458,308,76573,5,4,2:3:0:0:
458,308,76659,1,0,3:0:0:0:
458,308,76745,2,0,P|446:340|439:374,1,55.8999974411012,0|0,3:0|3:0,0:0:0:0:
312,190,76916,1,4,2:3:0:0:
312,190,77002,1,0,1:0:0:0:
312,190,77088,2,0,P|304:163|292:137,1,55.8999974411012,2|0,1:2|1:0,0:0:0:0:
466,218,77259,2,0,P|434:221|408:234,1,55.8999974411012,0|0,1:2|1:0,0:0:0:0:
195,335,77430,1,6,1:2:0:0:
195,335,77945,6,0,B|135:284|76:308|76:308|86:368,1,167.699992323304,4|0,3:2|0:0,0:0:0:0:
82,346,78287,1,8,1:2:0:0:
46,127,78459,1,4,0:3:0:0:
46,127,78545,1,0,1:2:0:0:
46,127,78630,1,4,0:3:0:0:
195,237,78802,1,4,0:3:0:0:
381,49,78973,2,0,B|303:36|257:68|257:68|259:86|247:105,1,167.699992323304,10|0,1:2|0:0,0:0:0:0:
287,172,79316,6,0,P|335:178|360:121,1,111.799994882202,2|4,3:2|0:3,0:0:0:0:
208,11,79659,1,10,1:2:0:0:
113,209,79830,1,2,0:0:0:0:
113,209,79916,1,0,1:2:0:0:
113,209,80002,2,0,P|57:188|2:176,1,111.799994882202,4|4,0:3|0:3,0:0:0:0:
0,371,80345,2,0,P|55:350|110:338,1,111.799994882202,10|0,1:2|1:0,0:0:0:0:
352,332,80687,6,0,B|407:364|465:351|465:351|451:326|475:292,1,167.699992323304,2|2,3:2|0:0,0:0:0:0:
468,303,81030,1,10,1:2:0:0:
374,46,81202,5,4,2:3:0:0:
275,269,81373,1,0,1:2:0:0:
183,26,81545,5,4,2:3:0:0:
278,284,81716,1,8,1:2:0:0:
498,108,81887,6,0,P|425:117|337:151,1,141.900004330444,6|0,1:2|0:0,0:0:0:0:
360,139,82230,1,4,2:3:0:0:
129,228,82402,5,10,1:2:0:0:
129,228,82487,1,0,1:2:0:0:
129,228,82573,1,4,2:3:0:0:
277,360,82745,5,8,1:2:0:0:
277,360,82830,1,0,1:2:0:0:
277,360,82916,1,4,2:3:0:0:
178,162,83087,5,8,1:2:0:0:
139,142,83172,1,0,1:2:0:0:
97,146,83258,1,0,1:2:0:0:
63,169,83344,1,0,1:2:0:0:
44,207,83430,5,6,3:2:0:0:
44,207,83773,1,2,2:2:0:0:
77,332,83945,6,0,B|126:368|184:358|184:358|210:291,1,172,6|2,3:2|2:2,0:0:0:0:
210,76,84459,6,0,B|210:33|137:2|100:75|113:126|165:173,1,189.200005773926,4|0,3:2|0:0,0:0:0:0:
279,269,84973,6,0,B|325:297|364:348|364:348|363:322|382:286,1,172,4|2,3:2|2:2,0:0:0:0:
418,149,85487,6,0,P|371:131|315:124,1,94.600002886963,4|0,3:2|0:0,0:0:0:0:
422,49,85830,2,0,P|469:31|525:24,1,94.600002886963,4|0,3:2|0:0,0:0:0:0:
414,233,86173,6,0,P|350:259|274:269,1,141.900004330444,6|0,3:2|1:2,0:0:0:0:
278,268,86516,1,2,1:2:0:0:
133,182,86687,2,0,P|88:155|45:142,1,94.600002886963,2|0,3:2|1:0,0:0:0:0:
47,142,86945,1,0,1:0:0:0:
47,142,87030,1,2,1:2:0:0:
108,320,87202,1,0,3:2:0:0:
218,214,87373,1,8,2:3:0:0:
329,358,87545,1,4,0:3:0:0:
329,358,87630,1,4,0:3:0:0:
329,358,87716,6,0,P|376:346|474:332,1,141.900004330444,2|0,3:2|0:0,0:0:0:0:
468,332,88059,1,2,2:2:0:0:
458,126,88230,5,8,0:3:0:0:
433,98,88344,5,4,0:3:0:0:
397,91,88458,5,8,0:3:0:0:
364,109,88572,5,4,0:3:0:0:
350,143,88687,5,4,0:3:0:0:
361,179,88801,5,8,0:3:0:0:
378,209,88916,6,0,P|288:185|189:171,1,189.200005773926,6|0,3:2|0:0,0:0:0:0:
12,143,89430,1,4,0:3:0:0:
12,143,89516,1,4,0:3:0:0:
12,143,89602,6,0,P|23:189|31:250,1,94.600002886963,6|0,1:2|0:0,0:0:0:0:
220,245,89945,2,0,P|226:198|237:152,1,94.600002886963,2|0,2:2|0:0,0:0:0:0:
118,16,90287,6,0,P|121:85|126:196,1,141.900004330444,2|0,2:2|0:0,0:0:0:0:
124,157,90630,1,2,2:2:0:0:
315,248,90802,2,0,P|360:256|433:190,1,141.900004330444,2|0,3:2|0:0,0:0:0:0:
430,199,91145,1,8,0:3:0:0:
339,16,91316,1,4,2:3:0:0:
232,158,91487,1,4,0:3:0:0:
505,71,91659,5,6,3:2:0:0:
74,97,94402,21,6,3:2:0:0:
80,69,94487,1,0,1:0:0:0:
96,45,94573,1,0,1:2:0:0:
122,34,94659,1,0,1:2:0:0:
146,31,94745,2,1,P|154:54|158:76,1,47.3000014434815,0|0,1:2|1:2,0:0:0:0:
219,195,94916,2,1,P|214:218|206:240,1,47.3000014434815,4|0,0:3|0:0,0:0:0:0:
49,245,95087,5,0,1:2:0:0:
47,227,95173,1,0,1:2:0:0:
54,210,95259,2,1,P|77:200|99:196,1,47.3000014434815,0|0,1:2|1:2,0:0:0:0:
232,117,95430,1,8,0:3:0:0:
274,109,95516,1,4,0:3:0:0:
315,126,95602,1,4,0:3:0:0:
338,162,95687,1,4,0:3:0:0:
344,201,95773,6,0,P|328:266|312:357,1,141.900004330444,6|0,3:2|0:0,0:0:0:0:
314,339,96116,1,2,1:2:0:0:
489,211,96287,1,2,1:2:0:0:
447,371,96459,1,0,1:2:0:0:
270,216,96630,5,4,2:3:0:0:
189,371,96802,1,8,2:3:0:0:
103,149,96973,1,0,1:2:0:0:
16,358,97145,6,0,P|82:355|127:283,1,141.900004330444,4|0,3:2|0:0,0:0:0:0:
125,298,97487,1,8,1:2:0:0:
13,147,97659,1,2,0:0:0:0:
214,22,97830,6,0,P|198:71|188:115,1,94.600002886963,4|4,0:3|0:3,0:0:0:0:
377,113,98173,2,0,P|366:66|351:22,1,94.600002886963,8|4,1:2|0:3,0:0:0:0:
351,22,98430,1,4,0:3:0:0:
351,22,98516,1,0,3:2:0:0:
265,198,98687,1,4,0:3:0:0:
128,49,98859,2,0,P|82:30|31:21,1,94.600002886963,8|0,1:2|1:2,0:0:0:0:
14,250,99202,6,0,P|82:226|162:209,1,141.900004330444,4|0,0:3|0:0,0:0:0:0:
150,210,99545,1,8,1:2:0:0:
405,162,99716,1,8,0:3:0:0:
230,20,99887,2,0,P|249:84|265:166,1,141.900004330444,6|0,3:2|0:0,0:0:0:0:
263,157,100230,1,8,1:2:0:0:
303,363,100402,1,0,1:0:0:0:
492,258,100573,6,0,B|431:221|392:247|392:247|407:270|398:294,1,141.900004330444,4|0,0:3|0:0,0:0:0:0:
429,353,100916,2,0,P|474:365|512:337,1,94.600002886963,10|0,1:2|0:0,0:0:0:0:
483,163,101259,2,0,P|442:138|357:168,1,141.900004330444,2|0,3:2|0:0,0:0:0:0:
358,166,101602,1,10,1:2:0:0:
207,257,101773,2,0,P|221:305|229:357,1,94.600002886963,2|4,1:2|0:3,0:0:0:0:
32,291,102116,2,0,P|78:296|124:307,1,94.600002886963,4|8,0:3|1:2,0:0:0:0:
124,307,102373,1,0,1:2:0:0:
124,307,102459,1,2,1:2:0:0:
290,190,102630,6,0,P|342:166|436:146,1,141.900004330444,4|0,3:2|0:0,0:0:0:0:
424,147,102973,1,8,1:2:0:0:
301,22,103145,1,2,0:0:0:0:
173,130,103316,5,4,0:3:0:0:
28,24,103487,1,4,0:3:0:0:
170,144,103659,2,0,P|156:193|144:252,1,94.600002886963,8|0,1:2|0:0,0:0:0:0:
111,377,104002,5,0,3:2:0:0:
291,269,104173,1,4,0:3:0:0:
99,371,104345,2,0,P|54:349|10:336,1,94.600002886963,8|0,1:2|2:2,0:0:0:0:
48,155,104687,5,4,0:3:0:0:
163,311,104859,1,4,0:3:0:0:
368,152,105030,2,0,P|315:163|225:200,1,141.900004330444,10|0,1:2|0:0,0:0:0:0:
167,168,105373,2,0,P|141:130|177:88,1,94.600002886963,6|4,3:2|0:3,0:0:0:0:
306,257,105716,6,0,P|359:268|449:305,1,141.900004330444,8|0,1:2|1:2,0:0:0:0:
507,273,106059,2,0,P|533:235|497:193,1,94.600002886963,4|4,0:3|0:3,0:0:0:0:
333,48,106402,6,0,B|286:14|242:29|242:29|255:53|244:79,1,141.900004330444,10|0,1:2|0:0,0:0:0:0:
246,72,106745,1,2,3:2:0:0:
212,235,106916,1,4,0:3:0:0:
30,86,107087,6,0,P|78:68|148:132,1,141.900004330444,8|0,1:2|1:2,0:0:0:0:
145,118,107430,1,4,0:3:0:0:
243,325,107602,1,4,0:3:0:0:
398,153,107773,2,0,P|350:160|301:178,1,94.600002886963,8|0,1:2|1:0,0:0:0:0:
306,175,108030,1,0,1:0:0:0:
306,175,108116,6,0,P|228:138|135:116,1,172,4|0,3:2|0:0,0:0:0:0:
76,152,108630,1,4,2:3:0:0:
76,152,108802,2,0,P|62:194|92:228,1,86,0|4,1:2|2:3,0:0:0:0:
337,103,109316,6,0,P|349:56|367:17,1,86,4|0,2:3|0:0,0:0:0:0:
446,178,109573,6,0,P|404:180|361:174,1,86,8|0,2:3|0:0,0:0:0:0:
442,20,109830,6,0,P|460:60|470:102,1,86,4|0,2:3|1:2,0:0:0:0:
311,237,110173,6,0,P|265:248|205:192,1,129,4|0,3:2|0:0,0:0:0:0:
206,198,110516,1,0,0:0:0:0:
303,27,110687,6,0,P|290:74|281:125,1,86,4|0,3:2|0:0,0:0:0:0:
228,14,111030,2,0,P|215:61|206:112,1,86,4|0,2:3|0:0,0:0:0:0:
43,200,111373,6,0,P|56:247|65:298,1,86,4|0,2:3|1:2,0:0:0:0:
118,187,111716,2,0,P|131:234|140:285,1,86,4|0,2:3|1:2,0:0:0:0:
447,363,112059,6,0,P|452:342|454:321,1,43,4|0,2:3|0:0,0:0:0:0:
377,351,112230,2,0,P|382:330|384:309,1,43,4|0,2:3|0:0,0:0:0:0:
209,223,112402,6,0,P|201:195|198:166,1,43,4|0,1:3|0:0,0:0:0:0:
279,207,112573,2,0,P|271:179|268:150,1,43,4|4,2:3|2:3,0:0:0:0:
259,90,112745,5,4,2:3:0:0:
398,194,112916,1,0,1:2:0:0:
398,194,113002,1,0,1:2:0:0:
398,194,113087,1,0,1:2:0:0:
504,19,113259,5,8,2:3:0:0:
