osu file format v14

[General]
AudioFilename: audio.mp3
AudioLeadIn: 0
PreviewTime: 72383
Countdown: 0
SampleSet: Soft
StackLeniency: 0.7
Mode: 0
LetterboxInBreaks: 0
WidescreenStoryboard: 1

[Editor]
DistanceSpacing: 1.4
BeatDivisor: 4
GridSize: 4
TimelineZoom: 1.6

[Metadata]
Title:Bulukanilo (Short Ver.)
TitleUnicode:ブルカニロ (Short Ver.)
Artist:yuki
ArtistUnicode:yuki
Creator:Stompy_
Version:Enu & Kuki's Hard
Source:白昼夢の青写真
Tags:Yours- riffy bakari froskya revialink share enuhq animestyle kuki1537 Laplacian Hakuchuumu no Aojashin The girl who's whos called the world The girl who dreamed the world cyanotype daydream video game visual novel vn japanese pop j-pop case 1 case-1 ed ending eroge female vocals vocalist
BeatmapID:3690218
BeatmapSetID:1800039

[Difficulty]
HPDrainRate:4
CircleSize:3.6
OverallDifficulty:6.4
ApproachRate:8
SliderMultiplier:1.42
SliderTickRate:1

[Events]
//Background and Video events
0,0,"bg1.jpg",0,0
//Break Periods
//Storyboard Layer 0 (Background)
//Storyboard Layer 1 (Fail)
//Storyboard Layer 2 (Pass)
//Storyboard Layer 3 (Foreground)
//Storyboard Layer 4 (Overlay)
//Storyboard Sound Samples

[TimingPoints]
1145,342.857142857143,4,2,1,40,1,0
6630,-98.0392156862745,4,2,2,80,0,0
6640,-98.0392156862745,4,2,2,80,0,0
17602,-138.888888888889,4,2,1,30,0,0
17612,-138.888888888889,4,2,1,30,0,0
23087,-128.205128205128,4,2,1,30,0,0
38687,-128.205128205128,4,2,1,30,0,0
39030,-128.205128205128,4,2,1,40,0,0
39040,-128.205128205128,4,2,1,40,0,0
39545,-119.047619047619,4,2,1,50,0,0
39555,-119.047619047619,4,2,1,50,0,0
56002,-119.047619047619,4,2,1,60,0,0
56012,-119.047619047619,4,2,1,60,0,0
56259,-119.047619047619,4,2,1,60,0,0
56345,-119.047619047619,4,2,1,60,0,0
57973,-119.047619047619,4,2,1,60,0,0
58059,-119.047619047619,4,2,1,60,0,0
58745,-119.047619047619,4,2,1,60,0,0
61487,-119.047619047619,4,2,1,30,0,0
61497,-119.047619047619,4,2,1,30,0,0
64230,-135.135135135135,4,2,1,50,0,0
64240,-135.135135135135,4,2,1,50,0,0
66973,-119.047619047619,4,2,1,60,0,0
66983,-119.047619047619,4,2,1,60,0,0
69545,-119.047619047619,4,2,1,60,0,0
69716,-119.047619047619,4,2,1,50,0,0
69726,-119.047619047619,4,2,1,50,0,0
71087,-119.047619047619,4,2,1,65,0,0
71097,-119.047619047619,4,2,1,65,0,0
72459,-98.0392156862745,4,2,3,70,0,1
72469,-98.0392156862745,4,2,3,70,0,1
77430,-98.0392156862745,4,2,3,60,0,0
77440,-98.0392156862745,4,2,3,60,0,0
77945,-98.0392156862745,4,2,3,80,0,1
77955,-98.0392156862745,4,2,3,80,0,1
83430,-129.87012987013,4,2,3,70,0,0
83440,-129.87012987013,4,2,3,70,0,0
86345,-98.0392156862745,4,2,3,70,0,0
88916,-129.87012987013,4,2,3,70,0,0
91659,-319.488817891374,4,2,3,40,0,0
91669,-319.488817891374,4,2,3,40,0,0
94402,-98.0392156862745,4,2,3,60,0,0
94412,-98.0392156862745,4,2,3,60,0,0
96116,-98.0392156862745,4,2,3,40,0,0
96126,-98.0392156862745,4,2,3,40,0,0
96459,-98.0392156862745,4,2,3,50,0,0
96469,-98.0392156862745,4,2,3,50,0,0
96802,-98.0392156862745,4,2,3,60,0,0
96812,-98.0392156862745,4,2,3,60,0,0
97145,-98.0392156862745,4,2,3,70,0,1
97155,-98.0392156862745,4,2,3,70,0,1
105630,-98.0392156862745,4,2,3,70,0,1
105716,-98.0392156862745,4,2,3,70,0,1
108116,-108.695652173913,4,2,3,60,0,0
108126,-108.695652173913,4,2,3,60,0,0

[Colours]
Combo1 : 255,227,142
Combo2 : 128,255,128
Combo3 : 145,194,255
Combo4 : 249,151,166

[HitObjects]
19,22,6630,6,0,P|54:30|88:41,1,72.4200004420166,6|4,2:3|2:3,0:0:0:0:
152,98,6973,2,0,P|186:86|221:78,1,72.4200004420166,0|0,1:2|3:2,0:0:0:0:
295,3,7316,1,4,0:3:0:0:
295,3,7487,1,4,0:3:0:0:
371,82,7659,1,0,1:2:0:0:
306,157,7830,5,0,3:2:0:0:
306,157,7916,1,0,3:2:0:0:
306,157,8002,2,0,P|317:191|325:226,1,72.4200004420166,4|4,2:3|2:3,0:0:0:0:
280,327,8345,2,0,P|349:307|420:291,1,144.840000884033,0|4,1:2|0:3,0:0:0:0:
512,270,8859,1,4,0:3:0:0:
512,270,9030,1,0,1:2:0:0:
406,119,9373,6,0,P|415:76|426:38,1,72.4200004420166,4|4,2:3|2:3,0:0:0:0:
335,0,9716,1,0,1:2:0:0:
244,37,9887,2,0,P|193:70|103:75,1,144.840000884033,0|4,3:2|0:3,0:0:0:0:
14,65,10402,1,0,1:2:0:0:
78,167,10573,5,0,3:2:0:0:
78,167,10659,1,0,3:2:0:0:
78,167,10745,2,0,P|56:195|53:231,1,72.4200004420166,4|4,2:3|2:3,0:0:0:0:
18,333,11087,2,0,P|52:321|87:313,1,72.4200004420166,0|0,1:2|3:2,0:0:0:0:
179,283,11430,1,4,0:3:0:0:
249,357,11602,1,4,0:3:0:0:
249,357,11773,1,0,1:2:0:0:
268,183,12116,6,0,P|259:147|248:113,1,72.4200004420166,6|4,2:3|2:3,0:0:0:0:
169,66,12459,2,0,P|225:23|294:34,1,144.840000884033,0|4,1:2|0:3,0:0:0:0:
393,30,12973,1,4,0:3:0:0:
443,119,13145,2,0,P|431:153|423:188,1,72.4200004420166,0|0,1:2|3:2,0:0:0:0:
493,265,13487,5,4,2:3:0:0:
493,265,13659,1,4,2:3:0:0:
437,343,13830,2,0,P|402:331|367:323,1,72.4200004420166,0|0,1:2|3:2,0:0:0:0:
298,258,14173,2,0,P|263:269|228:277,1,72.4200004420166,4|4,0:3|0:3,0:0:0:0:
170,350,14516,1,0,1:2:0:0:
33,282,14859,6,0,P|43:247|34:213,1,72.4200004420166,4|4,2:3|2:3,0:0:0:0:
2,120,15202,2,0,P|37:116|66:95,1,72.4200004420166,0|0,1:2|3:2,0:0:0:0:
129,20,15545,1,4,0:3:0:0:
129,20,15716,1,4,0:3:0:0:
197,97,15887,2,0,P|231:85|266:77,1,72.4200004420166,0|0,1:2|3:2,0:0:0:0:
337,17,16230,6,0,P|348:51|356:86,1,72.4200004420166,4|4,2:3|2:3,0:0:0:0:
422,167,16573,2,0,P|410:201|402:236,1,72.4200004420166,0|0,1:2|3:2,0:0:0:0:
470,322,16916,1,8,0:3:0:0:
470,322,17087,1,8,0:3:0:0:
387,384,17259,1,4,2:3:0:0:
326,304,17431,1,4,2:3:0:0:
253,378,17602,6,0,P|154:349|54:324,1,204.480004992188,2|0,3:0|0:0,0:0:0:0:
140,228,18630,1,2,3:2:0:0:
47,138,18973,6,0,P|98:123|145:111,1,102.240002496094,2|2,3:2|0:2,0:0:0:0:
239,108,19487,2,0,P|230:58|189:31,2,102.240002496094,2|2|2,3:2|0:2|0:2,0:0:0:0:
210,209,20345,6,0,P|261:194|308:182,1,102.240002496094,0|2,3:2|0:2,0:0:0:0:
376,122,20859,1,2,3:2:0:0:
493,258,21202,1,2,0:2:0:0:
375,376,21545,6,0,P|270:348|170:323,1,204.480004992188,2|0,0:2|3:2,0:0:0:0:
268,176,22573,2,0,P|273:198|281:225,2,51.1200012480469,2|2|2,3:2|3:2|0:2,0:0:0:0:
336,115,23087,6,0,P|293:82|239:89,1,110.76000371814,6|2,3:2|0:2,0:0:0:0:
169,28,23602,2,0,P|110:84|29:84,1,166.14000557721,2|2,3:2|0:2,0:0:0:0:
0,228,24459,6,0,P|53:241|106:257,1,110.76000371814,2|2,3:2|0:2,0:0:0:0:
159,334,24973,2,0,P|212:318|265:304,1,110.76000371814,2|2,3:2|0:2,0:0:0:0:
300,299,25402,1,2,0:2:0:0:
300,299,25487,1,8,1:2:0:0:
447,384,25830,6,0,P|447:302|503:244,1,166.14000557721,0|0,3:2|3:2,0:0:0:0:
366,88,26859,2,0,P|337:95|312:102,1,55.3800018590699,2|2,0:2|0:2,0:0:0:0:
255,182,27202,6,0,B|214:111|214:111|252:23,2,166.14000557721,0|0|10,3:2|3:2|1:2,0:0:0:0:
286,326,28573,6,0,P|233:310|180:296,1,110.76000371814,6|0,3:2|0:0,0:0:0:0:
104,362,29087,2,0,P|89:308|73:255,1,110.76000371814,0|0,3:2|0:0,0:0:0:0:
0,205,29602,1,2,0:2:0:0:
59,85,29945,6,0,P|100:49|155:50,1,110.76000371814,2|2,3:2|0:2,0:0:0:0:
231,10,30459,2,0,P|272:45|327:44,1,110.76000371814,2|2,3:2|0:2,0:0:0:0:
352,33,30887,1,2,0:2:0:0:
352,33,30973,1,10,1:2:0:0:
458,133,31316,6,0,P|441:186|427:239,1,110.76000371814,2|2,3:2|0:2,0:0:0:0:
437,321,31830,2,0,P|396:318|326:352,1,110.76000371814,2|2,3:2|0:2,0:0:0:0:
259,305,32345,2,0,P|230:317|197:314,1,55.3800018590699,2|2,0:2|0:2,0:0:0:0:
305,234,32687,6,0,P|293:167|287:125,1,110.76000371814,2|0,3:2|0:2,0:0:0:0:
313,45,33202,2,0,P|258:36|203:26,1,110.76000371814,2|2,3:2|0:2,0:0:0:0:
121,12,33716,1,10,1:2:0:0:
9,135,34059,6,0,B|59:202|59:202|29:297,2,166.14000557721,6|0|0,3:2|3:2|0:2,0:0:0:0:
167,186,35430,6,0,B|194:201|194:201|299:184,1,110.76000371814,2|2,3:2|0:2,0:0:0:0:
332,128,35945,1,0,3:2:0:0:
407,161,36116,2,0,P|423:195|422:218,1,55.3800018590699,2|0,0:2|0:0,0:0:0:0:
419,257,36373,1,2,0:2:0:0:
419,257,36459,1,10,1:2:0:0:
292,364,36802,6,0,P|270:347|186:343,1,110.76000371814,2|0,3:2|0:0,0:0:0:0:
113,374,37316,2,0,L|90:241,1,110.76000371814,0|2,3:2|0:2,0:0:0:0:
39,202,37830,1,2,0:2:0:0:
197,151,38173,6,0,P|238:185|312:181,1,110.76000371814,2|0,3:2|0:0,0:0:0:0:
361,137,38687,1,8,3:2:0:0:
361,137,38773,1,8,0:0:0:0:
361,137,38859,2,0,L|352:80,1,55.3800018590699,8|8,1:1|0:3,0:0:0:0:
445,180,39202,1,4,0:3:0:0:
382,256,39373,1,4,0:3:0:0:
448,319,39545,6,0,P|478:312|507:309,2,59.6399981799317,6|2|2,3:2|0:0|3:2,0:0:0:0:
375,371,40059,2,0,P|313:355|241:351,1,119.279996359863,2|2,1:2|1:2,0:0:0:0:
151,383,40573,1,2,3:2:0:0:
152,383,40745,6,0,P|165:327|127:284,1,119.279996359863,2|0,3:2|1:2,0:0:0:0:
208,167,41430,2,0,P|236:176|265:183,1,59.6399981799317,2|0,1:2|3:2,0:0:0:0:
369,187,41773,2,0,P|360:158|353:129,1,59.6399981799317,2|0,3:2|1:2,0:0:0:0:
306,51,42116,5,2,1:2:0:0:
306,51,42202,1,2,1:2:0:0:
306,51,42287,2,0,P|248:65|191:82,1,119.279996359863,4|2,3:2|3:2,0:0:0:0:
94,26,42802,2,0,P|102:54|96:82,1,59.6399981799317,2|0,1:2|0:0,0:0:0:0:
19,154,43145,2,0,P|26:182|34:211,1,59.6399981799317,2|0,1:2|3:2,0:0:0:0:
41,304,43487,6,0,B|87:286|87:286|99:267|99:267|146:248,1,119.279996359863,2|0,3:2|1:2,0:0:0:0:
269,345,44173,1,0,1:2:0:0:
269,345,44345,2,0,P|277:316|284:287,1,59.6399981799317,0|2,3:2|3:2,0:0:0:0:
364,226,44687,2,0,P|355:197|348:168,1,59.6399981799317,2|2,1:2|1:2,0:0:0:0:
346,134,44945,5,2,1:2:0:0:
346,134,45030,2,0,P|402:148|450:116,1,119.279996359863,6|2,3:2|3:2,0:0:0:0:
380,40,45545,2,0,P|322:22|265:8,1,119.279996359863,2|0,1:2|1:2,0:0:0:0:
203,73,46059,1,2,3:2:0:0:
203,73,46230,1,0,3:2:0:0:
126,14,46402,6,0,P|117:42|110:71,1,59.6399981799317,2|0,0:0|1:2,0:0:0:0:
51,138,46745,1,2,0:0:0:0:
51,138,46916,2,0,P|59:166|66:195,1,59.6399981799317,2|0,1:2|3:2,0:0:0:0:
8,265,47259,2,0,P|30:283|59:288,1,59.6399981799317,2|0,3:2|1:2,0:0:0:0:
130,352,47602,5,2,1:2:0:0:
130,352,47687,1,2,1:2:0:0:
130,352,47773,2,0,P|169:309|227:309,1,119.279996359863,4|0,3:2|3:2,0:0:0:0:
287,243,48287,2,0,P|280:214|271:185,1,59.6399981799317,0|0,1:2|0:0,0:0:0:0:
225,108,48630,2,0,P|253:99|282:92,1,59.6399981799317,2|2,1:2|3:2,0:0:0:0:
345,30,48973,1,2,3:2:0:0:
438,139,49316,6,0,P|420:161|415:190,1,59.6399981799317,0|0,1:2|0:0,0:0:0:0:
475,260,49659,2,0,P|453:278|424:283,1,59.6399981799317,0|0,1:2|3:2,0:0:0:0:
336,274,50002,1,0,3:2:0:0:
336,274,50173,2,0,P|344:302|351:331,1,59.6399981799317,2|2,1:2|1:2,0:0:0:0:
359,360,50430,5,2,1:2:0:0:
359,360,50516,2,0,P|278:335|186:312,1,178.919994539795,6|0,3:2|3:2,0:0:0:0:
167,308,51116,1,0,1:2:0:0:
167,308,51202,1,0,1:2:0:0:
77,384,51373,2,0,P|70:355|41:264,1,119.279996359863,0|0,3:2|3:2,0:0:0:0:
0,190,51887,1,2,0:0:0:0:
54,45,52230,1,2,0:0:0:0:
54,45,52402,2,0,B|100:63|100:63|112:82|112:82|159:101,1,119.279996359863,2|2,3:2|1:2,0:0:0:0:
247,54,52916,2,0,P|275:45|304:38,1,59.6399981799317,2|2,3:2|1:2,0:0:0:0:
335,31,53173,5,2,1:2:0:0:
335,31,53259,2,0,P|384:100|347:177,1,178.919994539795,2|2,3:2|3:2,0:0:0:0:
328,194,53859,1,0,1:2:0:0:
328,194,53945,1,0,1:2:0:0:
353,301,54116,2,0,P|324:294|295:285,1,59.6399981799317,2|2,3:2|0:0,0:0:0:0:
193,269,54459,6,0,P|210:325|224:383,2,119.279996359863,2|0|0,3:2|3:2|3:2,0:0:0:0:
132,207,55316,2,0,P|154:189|183:184,1,59.6399981799317,0|0,1:2|3:2,0:0:0:0:
256,123,55659,2,0,P|278:141|307:146,1,59.6399981799317,8|4,0:3|0:3,0:0:0:0:
383,82,56002,6,0,P|394:126|406:168,1,89.4599972698975,6|0,3:2|0:0,0:0:0:0:
435,196,56345,2,0,P|426:224|419:253,1,59.6399981799317,0|0,1:2|1:0,0:0:0:0:
417,280,56602,1,0,1:2:0:0:
417,280,56687,1,0,3:2:0:0:
352,349,56859,1,0,3:2:0:0:
262,325,57030,1,0,1:2:0:0:
173,216,57373,6,0,P|179:187|189:158,1,59.6399981799317,0|0,3:2|3:2,0:0:0:0:
144,81,57716,2,0,P|101:91|60:75,1,89.4599972698975,2|0,1:2|0:0,0:0:0:0:
31,64,58059,2,0,P|14:120|0:178,1,119.279996359863,2|0,3:2|1:2,0:0:0:0:
0,281,58573,5,2,1:2:0:0:
0,281,58659,1,0,1:2:0:0:
0,281,58745,2,0,P|28:271|57:265,1,59.6399981799317,6|0,3:2|3:2,0:0:0:0:
112,347,59087,2,0,P|140:337|169:331,1,59.6399981799317,0|0,1:2|3:0,0:0:0:0:
196,305,59345,1,0,1:0:0:0:
196,305,59430,2,0,P|224:314|253:320,1,59.6399981799317,0|0,1:2|3:2,0:0:0:0:
322,256,59773,1,0,1:0:0:0:
322,256,59945,1,0,3:2:0:0:
388,349,60116,6,0,P|402:293|419:234,1,119.279996359863,6|0,2:2|1:0,0:0:0:0:
478,159,60630,1,8,0:3:0:0:
478,159,60716,1,8,0:3:0:0:
478,159,60802,2,0,P|448:153|420:143,1,59.6399981799317,2|0,3:2|3:2,0:0:0:0:
357,77,61145,2,0,P|327:82|299:92,1,59.6399981799317,0|0,1:0|3:0,0:0:0:0:
223,33,61487,5,4,3:2:0:0:
52,249,64230,6,0,P|37:195|25:147,1,105.08000256543,6|2,3:2|0:2,0:0:0:0:
70,66,64745,2,0,P|114:91|164:79,1,105.08000256543,6|2,3:2|0:2,0:0:0:0:
228,6,65259,1,6,3:2:0:0:
342,129,65773,6,0,P|348:154|355:179,1,52.5400012827149,0|2,3:2|0:2,0:0:0:0:
422,248,66116,1,0,1:0:0:0:
422,248,66287,2,0,P|415:273|408:298,1,52.5400012827149,2|4,3:2|0:3,0:0:0:0:
335,345,66630,2,0,P|309:337|284:331,1,52.5400012827149,2|0,3:2|1:0,0:0:0:0:
210,281,66973,6,0,P|149:297|94:311,1,119.279996359863,6|2,3:2|3:2,0:0:0:0:
2,276,67487,1,2,2:2:0:0:
2,276,67659,2,0,P|9:247|17:218,1,59.6399981799317,2|0,3:2|0:0,0:0:0:0:
75,146,68002,2,0,P|68:117|60:88,1,59.6399981799317,2|2,3:2|2:2,0:0:0:0:
125,21,68345,6,0,B|187:41|165:60|225:85,1,119.279996359863,2|2,3:2|3:2,0:0:0:0:
295,153,68859,1,2,2:2:0:0:
295,153,69030,2,0,P|324:146|353:138,1,59.6399981799317,0|2,3:2|0:0,0:0:0:0:
432,88,69373,2,0,P|439:117|447:146,1,59.6399981799317,2|0,3:2|1:0,0:0:0:0:
471,230,69716,1,4,1:2:0:0:
287,327,71087,6,0,P|295:355|302:384,2,59.6399981799317,4|4|8,1:2|0:3|2:3,0:0:0:0:
258,235,71602,1,4,2:3:0:0:
2,62,72459,6,0,P|33:32|134:35,1,144.840000884033,12|4,3:2|2:3,0:0:0:0:
172,185,72973,2,0,P|179:150|188:115,1,72.4200004420166,8|4,1:2|0:3,0:0:0:0:
294,0,73316,2,0,P|287:34|279:69,1,72.4200004420166,2|8,0:3|1:2,0:0:0:0:
345,150,73659,1,2,0:3:0:0:
345,150,73830,6,0,P|414:160|472:120,1,144.840000884033,4|4,3:2|0:3,0:0:0:0:
499,223,74345,1,2,0:3:0:0:
499,223,74516,2,0,L|513:299,1,72.4200004420166,8|4,1:2|0:3,0:0:0:0:
437,363,74859,2,0,L|365:349,1,72.4200004420166,8|4,1:2|0:3,0:0:0:0:
216,306,75202,6,0,P|285:298|322:239,1,144.840000884033,12|4,3:2|2:3,0:0:0:0:
297,140,75716,2,0,L|371:150,1,72.4200004420166,8|4,1:2|0:3,0:0:0:0:
216,77,76059,2,0,L|187:7,1,72.4200004420166,2|8,0:3|1:2,0:0:0:0:
199,181,76402,1,2,0:3:0:0:
199,181,76573,6,0,P|153:237|113:297,1,144.840000884033,4|4,2:3|2:3,0:0:0:0:
13,277,77087,2,0,P|11:256|5:224,3,36.2100002210083,2|0|0|0,1:2|1:0|1:2|1:0,0:0:0:0:
0,199,77430,1,6,1:2:0:0:
6,51,77945,6,0,P|72:38|155:18,1,144.840000884033,4|8,3:2|1:2,0:0:0:0:
254,18,78459,1,4,0:3:0:0:
254,18,78545,1,0,1:2:0:0:
254,18,78630,2,0,P|275:46|285:81,1,72.4200004420166,4|4,0:3|0:3,0:0:0:0:
386,89,78973,2,0,P|376:123|354:152,1,72.4200004420166,10|0,1:2|0:0,0:0:0:0:
445,291,79316,6,0,P|396:243|321:238,1,144.840000884033,2|10,3:2|1:2,0:0:0:0:
227,202,79830,2,0,L|221:166,2,36.2100002210083,2|0|4,0:0|1:2|0:3,0:0:0:0:
184,295,80173,1,4,0:3:0:0:
184,295,80345,2,0,P|148:311|112:312,1,72.4200004420166,10|0,1:2|1:0,0:0:0:0:
126,197,80687,6,0,L|114:110,1,72.4200004420166,2|4,3:2|2:3,0:0:0:0:
56,34,81030,5,10,1:2:0:0:
145,5,81202,1,4,2:3:0:0:
214,88,81373,5,0,1:2:0:0:
303,59,81545,1,4,2:3:0:0:
372,142,81716,5,8,1:2:0:0:
461,113,81887,2,0,P|452:166|444:256,1,144.840000884033,6|4,1:2|2:3,0:0:0:0:
358,312,82402,2,0,L|352:357,2,36.2100002210083,10|0|4,1:2|1:2|2:3,0:0:0:0:
293,247,82745,1,8,1:2:0:0:
293,247,82830,1,0,1:2:0:0:
293,247,82916,1,4,2:3:0:0:
204,284,83087,2,0,P|181:292|150:288,2,36.2100002210083,8|0|0,1:2|1:2|1:2,0:0:0:0:
82,277,83430,5,6,3:2:0:0:
71,115,83773,1,2,2:2:0:0:
71,115,83945,2,0,P|130:110|193:84,1,109.339997831085,6|2,3:2|2:2,0:0:0:0:
201,20,84459,2,0,P|223:75|267:127,1,109.339997831085,4|0,3:2|0:0,0:0:0:0:
332,113,84973,2,0,P|286:151|250:209,1,109.339997831085,4|2,3:2|2:2,0:0:0:0:
224,269,85487,2,0,P|221:298|232:324,1,54.6699989155426,4|0,3:2|0:0,0:0:0:0:
316,312,85830,2,0,P|319:283|308:257,1,54.6699989155426,4|0,3:2|0:0,0:0:0:0:
258,192,86173,5,6,3:2:0:0:
190,136,86345,2,0,L|154:127,4,36.2100002210083,0|0|2|0|2,1:2|1:2|1:2|1:2|3:2,0:0:0:0:
308,119,86859,2,0,L|354:94,4,36.2100002210083,0|0|2|0|0,1:0|1:0|1:2|1:0|3:2,0:0:0:0:
241,63,87373,1,8,2:3:0:0:
241,63,87459,1,4,0:3:0:0:
241,63,87545,1,4,0:3:0:0:
258,192,87716,6,0,P|268:258|280:353,1,144.840000884033,2|2,3:2|2:2,0:0:0:0:
354,378,88230,2,0,P|385:356|428:351,1,72.4200004420166,8|2,0:3|2:2,0:0:0:0:
456,326,88487,1,0,0:0:0:0:
456,326,88573,2,0,L|448:250,1,72.4200004420166,4|2,0:3|2:2,0:0:0:0:
500,176,88916,6,0,P|459:162|385:180,1,109.339997831085,6|0,3:2|0:0,0:0:0:0:
331,121,89430,1,4,0:3:0:0:
331,121,89516,1,4,0:3:0:0:
331,121,89602,2,0,L|345:9,2,109.339997831085,6|2|2,1:2|2:2|2:2,0:0:0:0:
258,180,90459,2,0,L|275:294,1,109.339997831085,0|2,3:0|3:2,0:0:0:0:
211,357,90973,2,0,P|183:357|157:349,1,54.6699989155426,0|8,1:2|0:3,0:0:0:0:
78,300,91316,2,0,P|50:299|24:307,1,54.6699989155426,4|4,2:3|0:3,0:0:0:0:
154,271,91659,6,0,B|193:130|86:162|135:7,1,266.675989420203,6|0,3:2|0:0,0:0:0:0:
212,63,94059,5,2,2:2:0:0:
291,29,94402,6,0,P|325:19|381:12,1,72.4200004420166,6|0,3:2|1:2,0:0:0:0:
416,13,94659,1,0,1:2:0:0:
416,13,94745,1,0,1:2:0:0:
486,85,94916,1,4,0:3:0:0:
418,160,95087,2,0,L|411:204,3,36.2100002210083,0|0|0|0,1:2|1:2|1:2|1:2,0:0:0:0:
439,238,95430,2,0,L|432:282,3,36.2100002210083,8|4|4|4,0:3|0:3|0:3|0:3,0:0:0:0:
460,316,95773,6,0,P|395:307|304:343,1,144.840000884033,6|2,3:2|1:2,0:0:0:0:
258,242,96287,1,2,1:2:0:0:
188,345,96459,2,0,P|179:307|169:275,1,72.4200004420166,0|4,1:2|2:3,0:0:0:0:
73,211,96802,1,8,2:3:0:0:
146,138,96973,1,0,1:2:0:0:
61,57,97145,6,0,P|95:45|130:37,1,72.4200004420166,4|4,3:2|0:3,0:0:0:0:
227,81,97488,2,0,P|261:93|296:101,1,72.4200004420166,8|2,1:2|0:0,0:0:0:0:
376,38,97831,1,4,0:3:0:0:
376,38,98002,1,4,0:3:0:0:
433,125,98174,1,8,1:2:0:0:
356,197,98345,5,4,0:3:0:0:
356,197,98431,1,4,0:3:0:0:
356,197,98517,2,0,P|382:222|417:233,1,72.4200004420166,0|4,3:2|0:3,0:0:0:0:
512,199,98859,1,8,1:2:0:0:
493,384,99202,2,0,P|423:363|352:348,1,144.840000884033,4|8,0:3|1:2,0:0:0:0:
265,298,99716,1,8,0:3:0:0:
185,384,99887,6,0,P|176:348|165:314,1,72.4200004420166,6|4,3:2|0:3,0:0:0:0:
203,223,100230,2,0,P|211:187|222:153,1,72.4200004420166,8|0,1:2|1:0,0:0:0:0:
317,92,100573,1,4,0:3:0:0:
317,92,100745,1,4,0:3:0:0:
232,20,100916,2,0,P|196:28|162:39,1,72.4200004420166,10|0,1:2|0:0,0:0:0:0:
142,60,101173,5,0,1:2:0:0:
142,60,101259,2,0,P|107:48|72:40,1,72.4200004420166,2|4,3:2|0:3,0:0:0:0:
3,110,101602,1,10,1:2:0:0:
71,181,101773,2,0,P|61:215|39:244,1,72.4200004420166,2|4,1:2|0:3,0:0:0:0:
60,346,102116,1,4,0:3:0:0:
146,292,102287,2,0,L|185:302,3,36.2100002210083,8|0|2|0,1:2|1:2|1:2|1:2,0:0:0:0:
200,332,102630,6,0,P|269:311|340:296,1,144.840000884033,4|8,3:2|1:2,0:0:0:0:
413,371,103145,1,2,0:0:0:0:
413,371,103230,1,2,1:2:0:0:
413,371,103316,2,0,P|428:338|433:302,1,72.4200004420166,4|4,0:3|0:3,0:0:0:0:
502,235,103659,2,0,P|486:202|481:166,1,72.4200004420166,8|0,1:2|0:0,0:0:0:0:
421,74,104002,5,0,3:2:0:0:
421,74,104173,1,4,0:3:0:0:
342,139,104345,2,0,P|307:127|272:119,1,72.4200004420166,8|0,1:2|2:2,0:0:0:0:
196,34,104687,2,0,P|161:46|126:54,1,72.4200004420166,4|4,0:3|0:3,0:0:0:0:
56,139,105030,1,10,1:2:0:0:
51,323,105373,6,0,P|102:304|168:294,1,108.630000663025,6|0,3:2|0:0,0:0:0:0:
183,290,105716,2,0,P|191:254|202:220,1,72.4200004420166,8|0,1:2|0:0,0:0:0:0:
289,169,106059,1,4,0:3:0:0:
289,169,106230,1,4,0:3:0:0:
219,101,106402,2,0,P|247:77|282:69,1,72.4200004420166,10|0,1:2|0:0,0:0:0:0:
362,14,106745,6,0,P|408:66|477:58,1,144.840000884033,2|8,3:2|1:2,0:0:0:0:
512,174,107259,1,0,0:0:0:0:
512,174,107430,2,0,P|500:208|492:243,1,72.4200004420166,4|4,0:3|0:3,0:0:0:0:
403,324,107773,2,0,P|394:288|383:254,1,72.4200004420166,8|0,1:2|1:0,0:0:0:0:
367,218,108030,5,0,1:0:0:0:
367,218,108116,2,0,B|317:239|317:239|306:261|306:261|255:285,1,130.639995614502,4|0,3:2|0:0,0:0:0:0:
203,359,108630,1,4,2:3:0:0:
203,359,108802,1,0,1:2:0:0:
140,282,108973,2,0,P|132:250|122:219,1,65.319997807251,4|0,2:3|0:0,0:0:0:0:
122,126,109316,6,0,P|74:135|39:168,2,97.9799967108766,4|8|4,2:3|2:3|2:3,0:0:0:0:
153,35,110002,1,0,1:2:0:0:
153,35,110173,2,0,B|202:56|202:56|213:78|213:78|264:102,1,130.639995614502,4|0,3:2|0:0,0:0:0:0:
344,36,110687,6,0,P|351:67|361:98,1,65.319997807251,4|0,3:2|0:0,0:0:0:0:
452,125,111030,2,0,P|459:156|469:187,1,65.319997807251,4|0,2:3|0:0,0:0:0:0:
495,215,111287,1,0,0:0:0:0:
495,215,111373,2,0,P|487:246|477:277,1,65.319997807251,4|0,2:3|1:2,0:0:0:0:
487,376,111716,2,0,P|455:365|424:358,1,65.319997807251,4|0,2:3|1:2,0:0:0:0:
352,287,112059,6,0,P|320:297|289:304,1,65.319997807251,4|4,2:3|2:3,0:0:0:0:
225,377,112402,2,0,P|193:366|162:359,1,65.319997807251,4|4,1:3|2:3,0:0:0:0:
100,289,112745,1,4,2:3:0:0:
100,289,112830,1,0,1:2:0:0:
100,289,112916,2,0,L|112:241,3,32.6599989036255,0|0|0|0,1:2|1:2|1:2|1:2,0:0:0:0:
122,224,113259,1,8,2:3:0:0:
