osu file format v14

[General]
AudioFilename: audio.mp3
AudioLeadIn: 0
PreviewTime: 72383
Countdown: 0
SampleSet: Soft
StackLeniency: 0.7
Mode: 0
LetterboxInBreaks: 0
WidescreenStoryboard: 1

[Editor]
DistanceSpacing: 1
BeatDivisor: 4
GridSize: 32
TimelineZoom: 1

[Metadata]
Title:Bulukanilo (Short Ver.)
TitleUnicode:ブルカニロ (Short Ver.)
Artist:yuki
ArtistUnicode:yuki
Creator:Stompy_
Version:Easy
Source:白昼夢の青写真
Tags:Yours- riffy bakari froskya revialink share enuhq animestyle kuki1537 Laplacian Hakuchuumu no Aojashin The girl who's whos called the world The girl who dreamed the world cyanotype daydream video game visual novel vn japanese pop j-pop case 1 case-1 ed ending eroge female vocals vocalist
BeatmapID:3691507
BeatmapSetID:1800039

[Difficulty]
HPDrainRate:2
CircleSize:2.4
OverallDifficulty:2
ApproachRate:3
SliderMultiplier:0.9
SliderTickRate:1

[Events]
//Background and Video events
0,0,"bg1.jpg",0,0
//Break Periods
2,17802,21647
//Storyboard Layer 0 (Background)
//Storyboard Layer 1 (Fail)
//Storyboard Layer 2 (Pass)
//Storyboard Layer 3 (Foreground)
//Storyboard Layer 4 (Overlay)
//Storyboard Sound Samples

[TimingPoints]
1145,342.857142857143,4,2,1,40,1,0
6630,-100,4,2,2,80,0,0
6640,-100,4,2,2,80,0,0
17602,-100,4,2,1,30,0,0
17612,-100,4,2,1,30,0,0
23087,-100,4,2,1,30,0,0
39030,-100,4,2,1,40,0,0
39040,-100,4,2,1,40,0,0
39545,-100,4,2,1,50,0,0
39555,-100,4,2,1,50,0,0
56002,-100,4,2,1,60,0,0
56012,-100,4,2,1,60,0,0
61487,-100,4,2,1,30,0,0
61497,-100,4,2,1,30,0,0
64230,-100,4,2,1,50,0,0
64240,-100,4,2,1,50,0,0
66973,-100,4,2,1,60,0,0
66983,-100,4,2,1,60,0,0
69545,-100,4,2,1,60,0,0
69716,-100,4,2,1,50,0,0
69726,-100,4,2,1,50,0,0
71087,-100,4,2,1,65,0,0
71097,-100,4,2,1,65,0,0
72459,-100,4,2,3,70,0,1
72469,-100,4,2,3,70,0,1
77430,-100,4,2,3,60,0,0
77440,-100,4,2,3,60,0,0
77945,-100,4,2,3,80,0,1
77955,-100,4,2,3,80,0,1
83430,-100,4,2,3,70,0,0
83440,-100,4,2,3,70,0,0
91659,-100,4,2,3,40,0,0
91669,-100,4,2,3,40,0,0
94402,-100,4,2,3,60,0,0
94412,-100,4,2,3,60,0,0
96116,-100,4,2,3,40,0,0
96126,-100,4,2,3,40,0,0
96459,-100,4,2,3,50,0,0
96469,-100,4,2,3,50,0,0
96802,-100,4,2,3,60,0,0
96812,-100,4,2,3,60,0,0
97145,-100,4,2,3,70,0,1
97155,-100,4,2,3,70,0,1
108116,-100,4,2,3,60,0,0
108126,-100,4,2,3,60,0,0

[Colours]
Combo1 : 255,227,142
Combo2 : 128,255,128
Combo3 : 145,194,255
Combo4 : 249,151,166

[HitObjects]
50,58,6630,6,0,P|96:65|138:57,1,90,6|0,2:3|1:2,0:0:0:0:
220,19,7316,1,4,0:3:0:0:
274,90,7659,1,0,1:2:0:0:
211,155,8002,2,0,P|197:201|206:247,1,90,4|0,2:3|1:2,0:0:0:0:
172,325,8687,1,4,0:3:0:0:
349,353,9373,6,0,L|448:344,2,90,4|0|4,2:3|1:2|0:3,0:0:0:0:
272,304,10402,1,0,1:2:0:0:
314,224,10745,2,0,P|318:175|298:136,1,90,4|0,2:3|1:2,0:0:0:0:
247,66,11430,1,4,0:3:0:0:
96,164,12116,6,0,L|106:258,1,90,6|0,2:3|1:2,0:0:0:0:
150,331,12802,1,4,0:3:0:0:
221,276,13145,1,0,1:2:0:0:
278,344,13487,2,0,P|321:354|371:342,1,90,4|0,2:3|1:2,0:0:0:0:
444,301,14173,1,4,0:3:0:0:
504,131,14859,6,0,L|490:32,1,90,4|0,2:3|1:2,0:0:0:0:
406,12,15545,1,4,0:3:0:0:
350,82,15887,1,0,1:2:0:0:
273,32,16230,2,0,P|227:44|176:34,1,90,4|0,2:3|1:2,0:0:0:0:
106,82,16916,2,0,P|98:126|108:169,1,90,8|4,0:3|2:3,0:0:0:0:
167,238,17602,1,2,3:0:0:0:
455,142,23087,6,0,P|469:80|432:22,2,135,6|2|2,3:2|3:2|0:2,0:0:0:0:
402,215,24459,2,0,L|305:222,1,90,2|2,3:2|0:2,0:0:0:0:
60,319,25830,2,0,B|74:199|21:252|38:136,1,180,0|0,3:2|0:0,0:0:0:0:
77,63,26859,2,0,P|128:68|165:109,1,90,2|0,0:2|3:2,0:0:0:0:
274,334,28230,1,10,1:2:0:0:
339,272,28573,6,0,B|428:247|396:289|485:260,2,135,6|0|2,3:2|3:2|0:2,0:0:0:0:
276,206,29945,2,0,P|207:194|147:230,1,135,2|2,3:2|3:2,0:0:0:0:
55,317,30973,1,10,1:2:0:0:
21,233,31316,2,0,B|16:175|16:175|24:151|24:151|19:99,1,135,2|2,3:2|3:2,0:0:0:0:
241,64,32687,2,0,P|302:82|378:75,1,135,2|2,3:2|3:2,0:0:0:0:
494,19,33716,1,10,1:2:0:0:
507,107,34059,6,0,B|511:191|472:158|476:243,1,135,6|0,3:2|3:2,0:0:0:0:
282,348,35430,1,2,3:2:0:0:
219,282,35773,2,0,P|131:302|32:305,1,180,2|10,0:2|1:2,0:0:0:0:
37,215,36802,2,0,P|15:152|61:97,1,135,2|0,3:2|3:2,0:0:0:0:
268,38,38173,2,0,B|350:23|322:59|413:43,2,135,2|8|4,3:2|3:2|0:3,0:0:0:0:
199,97,39545,6,0,B|172:140|172:140|189:231,1,135,6|2,3:2|1:2,0:0:0:0:
162,309,40402,1,2,1:2:0:0:
245,343,40745,2,0,P|333:353|427:323,1,180,2|2,3:2|1:2,0:0:0:0:
476,257,41773,1,2,3:2:0:0:
400,208,42116,2,0,B|381:118|439:137|420:28,1,180,2|2,1:2|1:2,0:0:0:0:
334,8,43145,1,2,1:2:0:0:
282,81,43487,2,0,L|97:66,1,180,2|0,3:2|1:2,0:0:0:0:
37,282,45030,6,0,P|92:311|112:381,2,135,6|2|2,3:2|1:2|3:2,0:0:0:0:
41,191,46402,2,0,P|30:118|36:52,1,135,2|2,0:0|1:2,0:0:0:0:
116,19,47259,1,2,3:2:0:0:
169,91,47602,2,0,B|274:109|240:48|353:70,1,180,2|0,1:2|1:2,0:0:0:0:
426,33,48630,1,2,1:2:0:0:
468,112,48973,2,0,B|492:160|492:160|464:287,1,180,2|0,3:2|1:2,0:0:0:0:
249,349,50516,6,0,P|164:357|140:278,1,180,6|0,3:2|1:2,0:0:0:0:
167,193,51545,1,2,0:0:0:0:
135,108,51887,2,0,P|70:97|6:127,2,135,2|2|2,0:0|3:2|3:2,0:0:0:0:
209,56,53259,2,0,P|277:68|344:53,1,135,2|2,3:2|3:2,0:0:0:0:
426,26,54116,1,2,3:2:0:0:
483,94,54459,2,0,L|471:232,1,135,2|0,3:2|1:2,0:0:0:0:
224,338,56002,6,0,B|119:356|153:295|40:317,1,180,6|0,3:2|3:2,0:0:0:0:
14,232,57030,1,0,1:2:0:0:
92,69,57716,1,2,1:2:0:0:
163,14,58059,1,2,3:2:0:0:
287,143,58745,2,0,B|330:134|384:140,2,90,6|0|0,3:2|1:2|1:2,0:0:0:0:
228,211,59773,1,0,1:0:0:0:
270,290,60116,2,0,B|374:311|345:248|447:269,1,180,6|2,2:2|3:2,0:0:0:0:
486,188,61145,1,0,1:0:0:0:
448,106,61487,5,4,3:2:0:0:
165,332,64230,2,0,P|106:304|34:308,2,135,6|6|6,3:2|3:2|3:2,0:0:0:0:
332,266,65945,1,2,0:2:0:0:
374,186,66287,1,2,3:2:0:0:
335,104,66630,1,2,3:2:0:0:
379,25,66973,6,0,P|426:16|474:17,2,90,6|2|2,3:2|3:2|3:2,0:0:0:0:
288,19,68002,1,2,3:2:0:0:
230,88,68345,2,0,P|184:86|132:70,1,90,2|2,3:2|3:2,0:0:0:0:
55,48,69030,1,0,3:2:0:0:
20,224,69716,1,4,1:2:0:0:
362,335,71087,2,0,P|397:273|373:205,1,135,4|4,1:2|2:3,0:0:0:0:
202,43,72459,6,0,B|120:34|152:76|59:67,2,135,12|8|8,3:2|1:2|1:2,0:0:0:0:
278,90,73830,1,4,3:2:0:0:
344,29,74173,1,4,0:3:0:0:
414,85,74516,2,0,L|404:182,1,90,8|8,1:2|1:2,0:0:0:0:
354,249,75202,2,0,B|374:314|374:314|350:381,2,135,12|8|8,3:2|1:2|1:2,0:0:0:0:
275,204,76573,2,0,P|202:202|137:215,1,135,4|2,2:3|1:2,0:0:0:0:
58,248,77430,1,6,1:2:0:0:
18,118,77945,6,0,P|11:65|31:21,1,90,4|8,3:2|1:2,0:0:0:0:
113,30,78630,2,0,P|126:72|118:116,1,90,4|10,0:3|1:2,0:0:0:0:
78,197,79316,2,0,B|58:262|58:262|82:329,2,135,2|2|10,3:2|0:0|1:2,0:0:0:0:
162,162,80687,2,0,P|228:147|312:159,1,135,2|4,3:2|2:3,0:0:0:0:
379,122,81545,1,4,2:3:0:0:
432,194,81887,2,0,P|435:239|428:294,2,90,6|4|4,1:2|2:3|2:3,0:0:0:0:
242,65,83430,6,0,B|133:75|184:19|72:28,1,180,6|0,3:2|0:0,0:0:0:0:
26,106,84459,1,4,3:2:0:0:
91,168,84802,2,0,P|77:256|70:353,1,180,0|4,0:0|3:2,0:0:0:0:
154,379,85830,1,4,3:2:0:0:
231,333,86173,6,0,P|297:347|372:347,1,135,6|2,3:2|3:2,0:0:0:0:
453,336,87030,1,2,1:2:0:0:
488,253,87373,2,0,P|496:199|482:164,1,90,8|2,2:3|3:2,0:0:0:0:
435,90,88059,1,2,2:2:0:0:
362,142,88402,2,0,P|293:144|220:131,1,135,2|6,2:2|3:2,0:0:0:0:
48,144,89602,5,6,1:2:0:0:
23,230,89945,1,2,2:2:0:0:
72,304,90287,2,0,P|108:328|201:316,2,135,2|2|4,2:2|3:2|2:3,0:0:0:0:
140,244,91659,1,6,3:2:0:0:
208,62,94059,5,2,2:2:0:0:
260,135,94402,2,0,B|254:211|286:189|278:273,2,135,6|4|8,3:2|0:3|0:3,0:0:0:0:
310,60,95773,2,0,P|390:38|430:114,1,180,6|0,3:2|1:2,0:0:0:0:
378,284,97145,6,0,P|330:292|283:287,1,90,4|8,3:2|1:2,0:0:0:0:
210,243,97830,1,4,0:3:0:0:
145,305,98173,1,8,1:2:0:0:
68,257,98516,2,0,P|58:204|65:160,1,90,0|8,3:2|1:2,0:0:0:0:
84,80,99202,1,4,0:3:0:0:
258,35,99887,6,0,P|299:18|344:14,2,90,6|8|4,3:2|1:2|0:3,0:0:0:0:
189,93,100916,1,10,1:2:0:0:
227,174,101259,2,0,P|217:222|215:268,1,90,2|10,3:2|1:2,0:0:0:0:
259,341,101945,1,4,0:3:0:0:
344,366,102287,1,8,1:2:0:0:
391,289,102630,6,0,P|462:274|530:273,2,135,4|2|8,3:2|0:0|1:2,0:0:0:0:
330,221,104002,2,0,P|321:166|333:123,1,90,0|8,3:2|1:2,0:0:0:0:
363,50,104687,1,4,0:3:0:0:
279,16,105030,1,10,1:2:0:0:
205,68,105373,6,0,P|161:57|107:57,2,90,6|8|4,3:2|1:2|0:3,0:0:0:0:
246,243,106745,2,0,P|246:288|233:336,1,90,2|8,3:2|1:2,0:0:0:0:
148,356,107430,1,4,0:3:0:0:
63,326,107773,1,8,1:2:0:0:
49,237,108116,6,0,P|36:191|41:148,2,90,4|0|0,3:2|0:0|1:2,0:0:0:0:
180,266,109316,2,0,P|252:269|314:291,1,135,4|4,2:3|2:3,0:0:0:0:
393,324,110173,1,4,3:2:0:0:
481,222,110687,6,0,P|484:168|492:129,1,90,4|4,3:2|2:3,0:0:0:0:
468,45,111373,1,4,2:3:0:0:
385,81,111716,1,4,2:3:0:0:
307,35,112059,2,0,P|259:37|208:28,1,90,4|4,2:3|1:3,0:0:0:0:
143,80,112745,2,0,B|156:163|117:126|134:226,1,135,4|8,2:3|2:3,0:0:0:0:
