osu file format v14

[General]
AudioFilename: audio.mp3
AudioLeadIn: 0
PreviewTime: 79751
Countdown: 0
SampleSet: Soft
StackLeniency: 0.5
Mode: 0
LetterboxInBreaks: 0
WidescreenStoryboard: 1

[Editor]
DistanceSpacing: 0.9
BeatDivisor: 2
GridSize: 32
TimelineZoom: 3.499999

[Metadata]
Title:Fuzzy Future
TitleUnicode:ファジィフューチャー
Artist:yuikonnu x sana
ArtistUnicode:ゆいこんぬ × 鎖那
Creator:Aeril
Version:Another
Source:
Tags:gumi last note. setsuna trip a split second kwk meg cappu rvmathew shanipika lasse
BeatmapID:1526485
BeatmapSetID:545956

[Difficulty]
HPDrainRate:5
CircleSize:4
OverallDifficulty:8
ApproachRate:9
SliderMultiplier:3
SliderTickRate:1

[Events]
//Background and Video events
0,0,"bg.jpg",0,0
//Break Periods
2,192709,198530
//Storyboard Layer 0 (Background)
//Storyboard Layer 1 (Fail)
//Storyboard Layer 2 (Pass)
//Storyboard Layer 3 (Foreground)
//Storyboard Sound Samples

[TimingPoints]
12096,413.793103448276,4,2,1,60,1,0
12509,-133.333333333333,4,2,1,60,0,0
13751,-100,4,2,1,80,0,1
26992,-133.333333333333,4,2,1,60,0,0
28130,-133.333333333333,4,2,1,40,0,0
28233,-133.333333333333,4,2,1,60,0,0
29785,-133.333333333333,4,2,1,40,0,0
29889,-133.333333333333,4,2,1,60,0,0
31440,-133.333333333333,4,2,1,40,0,0
31544,-133.333333333333,4,2,1,60,0,0
36406,-133.333333333333,4,2,1,40,0,0
36509,-133.333333333333,4,2,1,60,0,0
38061,-133.333333333333,4,2,1,40,0,0
38164,-133.333333333333,4,2,1,60,0,0
40233,-100,4,2,1,80,0,1
52647,-133.333333333333,4,2,1,80,0,0
53475,-133.333333333333,4,2,1,60,0,0
66716,-200,4,2,2,60,0,0
71682,-100,4,2,1,80,0,0
72716,-133.333333333333,4,2,1,80,0,0
73337,-133.333333333333,4,2,1,70,0,0
78302,-117.647058823529,4,2,1,70,0,0
79958,-100,4,2,1,80,0,1
92371,-100,4,2,1,80,0,0
93199,-100,4,2,1,80,0,1
105613,-200,4,2,2,80,0,0
106440,-133.333333333333,4,2,1,70,0,0
113061,-400,4,2,2,60,0,0
116371,-200,4,2,2,60,0,0
118027,-166.666666666667,4,2,1,60,0,0
119682,-133.333333333333,4,2,1,70,0,0
126302,-200,4,2,2,60,0,0
131268,-100,4,2,1,80,0,0
132096,-133.333333333333,4,2,1,80,0,0
132923,-133.333333333333,4,2,1,70,0,0
137889,-117.647058823529,4,2,1,70,0,0
139544,-100,4,2,1,80,0,1
151958,-100,4,2,1,80,0,0
152785,-100,4,2,1,80,0,1
165199,-200,4,2,2,70,0,0
166027,-100,4,2,1,80,0,0
179268,-100,4,2,1,70,0,0
191475,-200,4,2,2,60,0,0
204096,-133.333333333333,4,2,1,70,0,0
205751,-100,4,2,1,80,0,1
218164,-100,4,2,1,80,0,0
218992,-400,4,2,1,60,0,0
220647,-200,4,2,1,60,0,0
221889,-133.333333333333,4,2,1,70,0,0
222302,-100,4,2,1,80,0,1
235544,-83.3333333333333,4,2,1,80,0,1
236164,-100,4,2,1,80,0,0
236578,-100,4,2,1,75,0,0
236992,-100,4,2,1,70,0,0
237406,-100,4,2,1,65,0,0
237820,-100,4,2,1,60,0,0
238233,-100,4,2,1,55,0,0
238647,-100,4,2,1,50,0,0
239061,-100,4,2,1,45,0,0
239475,-100,4,2,1,40,0,0
239889,-100,4,2,1,35,0,0
240302,-100,4,2,1,30,0,0
240509,-100,4,2,1,20,0,0
240716,-100,4,2,1,10,0,0
240923,-100,4,2,1,5,0,0

[Colours]
Combo1 : 189,158,254
Combo2 : 255,247,185
Combo3 : 255,140,198
Combo4 : 254,166,129

[HitObjects]
214,99,12096,5,12,0:0:0:0:
190,229,12302,1,2,0:0:0:0:
175,213,12405,1,2,0:0:0:0:
155,204,12509,2,0,P|119:198|83:211,1,56.2500021457673,8|8,0:0|0:0,0:0:0:0:
172,315,12716,2,0,P|202:322|233:316,1,56.2500021457673,2|2,0:0|0:0,0:0:0:0:
280,239,12923,5,8,0:0:0:0:
280,239,13130,2,0,L|276:172,1,56.2500021457673,2|2,0:0|0:0,0:0:0:0:
328,85,13337,2,0,P|341:64|408:47,2,56.2500021457673,8|2|2,0:0|0:0|0:0,0:0:0:0:
427,221,13647,1,8,0:0:0:0:
406,132,13751,6,0,P|443:132|478:146,1,75,6|0,0:0|0:0,0:0:0:0:
448,308,13958,2,0,P|411:308|377:295,1,75,8|0,0:0|0:0,0:0:0:0:
276,175,14164,2,0,B|213:162|209:221|128:201,1,150,2|8,0:0|0:0,0:0:0:0:
70,135,14475,6,0,P|78:85|182:43,1,150,2|2,0:0|0:0,0:0:0:0:
276,175,14785,1,8,0:0:0:0:
217,243,14889,1,0,0:0:0:0:
247,329,14992,2,0,P|319:362|364:342,1,75,2|0,0:0|0:0,0:0:0:0:
165,369,15199,5,8,0:0:0:0:
165,369,15302,1,8,0:0:0:0:
165,369,15406,2,0,P|123:375|62:341,1,75,6|0,0:0|0:0,0:0:0:0:
49,256,15613,2,0,P|85:246|121:253,1,75,8|8,0:0|0:0,0:0:0:0:
0,326,15820,2,0,B|1:266|1:266|17:238|17:238|17:140,1,150,2|8,0:0|0:0,0:0:0:0:
78,79,16130,6,0,P|76:156|7:178,1,150,2|2,0:0|0:0,0:0:0:0:
0,0,16440,1,8,0:0:0:0:
30,6,16544,1,0,0:0:0:0:
78,79,16647,2,0,P|122:83|160:60,1,75,2|8,0:0|0:0,0:0:0:0:
270,26,16854,2,0,P|314:22|352:45,1,75,2|8,0:0|0:0,0:0:0:0:
233,112,17061,6,0,L|237:187,1,75,6|0,0:0|0:0,0:0:0:0:
349,131,17268,2,0,L|353:57,1,75,8|0,0:0|0:0,0:0:0:0:
280,267,17475,2,0,B|211:250|209:317|122:293,1,150,2|8,0:0|0:0,0:0:0:0:
66,352,17785,6,0,P|143:336|204:399,1,150,6|2,0:0|0:0,0:0:0:0:
285,360,18096,2,0,P|331:349|362:310,1,75,8|0,0:0|0:0,0:0:0:0:
189,296,18302,2,0,P|183:259|197:224,1,75,2|0,0:0|0:0,0:0:0:0:
334,186,18509,5,8,0:0:0:0:
334,186,18613,1,8,0:0:0:0:
280,267,18716,2,0,B|354:246|354:304|431:269,2,150,6|8|2,0:0|0:0|0:0,0:0:0:0:
197,224,19233,1,2,0:0:0:0:
213,132,19337,1,8,0:0:0:0:
197,224,19440,6,0,P|109:245|72:200,1,150,2|2,0:0|0:0,0:0:0:0:
31,127,19751,2,0,P|57:77|104:54,1,75,8|8,0:0|0:0,0:0:0:0:
213,132,19957,2,0,P|248:142|285:136,2,75,2|2|2,0:0|0:0|0:0,0:0:0:0:
254,50,20268,1,2,0:0:0:0:
373,167,20371,6,0,L|478:172,1,75,6|0,0:0|0:0,0:0:0:0:
328,47,20578,2,0,L|253:50,1,75,8|0,0:0|0:0,0:0:0:0:
275,245,20785,2,0,B|328:250|328:250|371:273|371:273|441:278,1,150,2|8,0:0|0:0,0:0:0:0:
279,374,21096,6,0,P|247:326|297:231,1,150,2|2,0:0|0:0,0:0:0:0:
328,46,21406,1,8,0:0:0:0:
295,129,21509,1,0,0:0:0:0:
207,142,21613,2,0,P|161:139|131:110,1,75,2|0,0:0|0:0,0:0:0:0:
18,38,21820,5,8,0:0:0:0:
18,38,21923,1,8,0:0:0:0:
18,38,22027,2,0,P|69:37|107:66,1,75,6|0,0:0|0:0,0:0:0:0:
119,224,22233,2,0,P|84:237|47:233,1,75,8|0,0:0|0:0,0:0:0:0:
207,142,22440,2,0,L|213:323,1,150,2|8,0:0|0:0,0:0:0:0:
328,251,22751,6,0,P|266:235|210:299,1,150,2|2,0:0|0:0,0:0:0:0:
365,360,23061,1,8,0:0:0:0:
367,330,23164,1,8,0:0:0:0:
416,257,23268,2,0,P|425:220|404:169,1,75,2|8,0:0|0:0,0:0:0:0:
324,84,23475,2,0,P|315:47|336:-4,1,75,2|8,0:0|0:0,0:0:0:0:
495,100,23682,6,0,L|382:96,1,75,6|0,0:0|0:0,0:0:0:0:
231,183,23889,2,0,L|305:180,1,75,8|0,0:0|0:0,0:0:0:0:
324,12,24096,2,0,P|256:12|212:95,1,150,2|8,0:0|0:0,0:0:0:0:
242,159,24406,6,0,B|166:131|163:199|76:156,1,150,6|2,0:0|0:0,0:0:0:0:
22,111,24716,2,0,P|11:74|21:32,1,75,8|0,0:0|0:0,0:0:0:0:
13,201,24923,2,0,P|2:238|12:280,1,75,2|0,0:0|0:0,0:0:0:0:
187,377,25130,5,8,0:0:0:0:
187,377,25233,1,8,0:0:0:0:
207,289,25337,2,0,P|126:276|78:333,2,150,6|8|2,0:0|0:0|0:0,0:0:0:0:
290,324,25854,1,2,0:0:0:0:
378,307,25958,1,8,0:0:0:0:
290,324,26061,6,0,B|318:245|251:243|290:153,1,150,2|2,0:0|0:0,0:0:0:0:
340,109,26371,2,0,L|418:100,1,75,8|8,0:0|0:0,0:0:0:0:
446,207,26578,2,0,L|368:198,1,75,8|8,0:0|0:0,0:0:0:0:
312,22,26785,5,8,0:0:0:0:
340,109,26889,1,8,0:0:0:0:
247,89,26992,2,0,P|171:85|121:126,1,112.500004291535,6|2,0:0|0:0,0:0:0:0:
119,141,27302,1,2,0:0:0:0:
119,141,27406,1,8,0:0:0:0:
65,68,27613,1,0,0:3:0:0:
16,212,27820,2,0,L|84:219,1,56.2500021457673,2|8,0:0|0:0,0:0:0:0:
106,246,28027,2,0,P|102:316|60:348,2,112.500004291535,2|8|2,0:0|0:2|0:0,0:0:0:0:
186,205,28647,6,0,B|243:190|243:230|310:207,1,112.500004291535,2|2,0:0|0:0,0:0:0:0:
334,185,28958,1,2,0:0:0:0:
334,185,29061,1,8,0:0:0:0:
368,268,29268,1,2,0:0:0:0:
409,125,29475,2,0,P|433:132|478:129,2,56.2500021457673,2|8|2,0:0|0:0|0:0,0:0:0:0:
350,55,29889,1,8,0:0:0:0:
350,55,30096,1,2,0:0:0:0:
266,88,30302,6,0,P|193:63|133:96,1,112.500004291535,2|2,0:0|0:0,0:0:0:0:
128,104,30613,1,2,0:0:0:0:
128,104,30716,2,0,P|55:129|-5:96,1,112.500004291535,8|0,0:0|0:0,0:0:0:0:
4,207,31130,2,0,L|11:276,1,56.2500021457673,2|8,0:0|0:0,0:0:0:0:
34,300,31337,2,0,B|93:334|93:277|174:323,1,112.500004291535,2|8,0:0|0:0,0:0:0:0:
258,218,31751,1,2,0:0:0:0:
258,218,31854,1,8,0:0:0:0:
258,218,31958,5,2,0:0:0:0:
236,304,32164,2,0,L|241:368,2,56.2500021457673,2|2|8,0:0|0:0|0:0,0:0:0:0:
182,161,32578,1,2,0:0:0:0:
182,161,32682,2,0,P|227:130|287:134,1,112.500004291535,8|8,0:0|0:0,0:0:0:0:
322,154,32992,1,2,0:0:0:0:
348,240,33199,2,0,P|416:272|482:236,1,112.500004291535,8|2,0:0|0:0,0:0:0:0:
500,82,33613,6,0,B|448:67|442:114|372:86,1,112.500004291535,6|2,0:0|0:0,0:0:0:0:
360,58,33923,1,2,0:0:0:0:
360,58,34027,1,8,0:0:0:0:
272,79,34233,1,0,0:0:0:0:
115,27,34440,2,0,P|79:21|47:33,2,56.2500021457673,2|8|2,0:0|0:0|0:0,0:0:0:0:
178,90,34854,2,0,P|191:146|145:210,1,112.500004291535,8|2,0:0|0:0,0:0:0:0:
91,242,35268,6,0,P|159:248|196:303,1,112.500004291535,2|2,0:0|0:0,0:0:0:0:
203,320,35578,1,2,0:0:0:0:
203,320,35682,1,8,0:0:0:0:
283,361,35889,2,0,P|318:367|356:356,1,56.2500021457673,2|2,0:0|0:0,0:0:0:0:
395,240,36096,2,0,P|429:233|467:245,2,56.2500021457673,2|8|2,0:0|0:0|0:0,0:0:0:0:
312,272,36509,2,0,B|318:126,1,112.500004291535,8|2,0:0|0:0,0:0:0:0:
416,130,36923,6,0,P|365:164|294:144,1,112.500004291535,6|2,0:0|0:0,0:0:0:0:
278,133,37233,1,2,0:0:0:0:
278,133,37337,2,0,P|227:99|156:119,1,112.500004291535,2|0,0:0|0:0,0:0:0:0:
99,148,37751,2,0,L|28:138,2,56.2500021457673,2|8|2,0:0|0:0|0:0,0:0:0:0:
141,227,38164,2,0,B|182:235|182:235|207:256|207:256|255:266,1,112.500004291535,8|2,0:0|0:0,0:0:0:0:
288,274,38475,1,2,0:0:0:0:
331,285,38578,1,6,0:0:0:0:
454,330,38785,6,0,P|463:372|456:393,2,56.2500021457673,2|2|12,0:0|0:0|0:0,0:0:0:0:
418,246,39199,1,2,0:0:0:0:
418,246,39302,2,0,B|409:194|409:194|453:124,1,112.500004291535,8|2,0:0|0:0,0:0:0:0:
471,109,39613,1,2,0:0:0:0:
393,20,39820,5,8,0:0:0:0:
393,20,39923,1,8,0:0:0:0:
393,20,40027,1,8,0:0:0:0:
393,20,40130,1,8,0:0:0:0:
393,20,40233,6,0,P|345:24|299:66,1,75,6|0,0:0|0:0,0:0:0:0:
197,114,40440,2,0,P|230:130|267:130,1,75,8|0,0:0|0:0,0:0:0:0:
139,41,40647,2,0,P|65:48|17:151,1,150,2|8,0:0|0:0,0:0:0:0:
108,125,40958,6,0,B|183:121|182:169|263:157,1,150,2|2,0:0|0:0,0:0:0:0:
467,81,41268,1,8,0:0:0:0:
495,166,41371,1,2,0:0:0:0:
454,247,41475,2,0,P|411:270|368:264,1,75,2|0,0:0|0:0,0:0:0:0:
251,158,41682,5,8,0:0:0:0:
251,158,41785,1,8,0:0:0:0:
251,158,41889,2,0,P|288:160|319:180,1,75,6|0,0:0|0:0,0:0:0:0:
274,328,42096,2,0,P|237:326|206:306,1,75,8|8,0:0|0:0,0:0:0:0:
56,293,42302,2,0,L|206:305,1,150,2|8,0:0|0:0,0:0:0:0:
144,187,42613,6,0,B|75:172|74:226|-11:210,1,150,2|2,0:0|0:0,0:0:0:0:
21,21,42923,1,8,0:0:0:0:
50,27,43027,1,0,0:0:0:0:
118,86,43130,2,0,P|160:93|213:67,1,75,2|8,0:0|0:0,0:0:0:0:
266,31,43337,2,0,P|308:24|361:50,1,75,2|8,0:0|0:0,0:0:0:0:
295,139,43544,6,0,L|303:246,1,75,6|0,0:0|0:0,0:0:0:0:
380,345,43751,2,0,L|388:238,1,75,8|0,0:0|0:0,0:0:0:0:
396,106,43958,2,0,L|410:295,1,150,2|8,0:0|0:0,0:0:0:0:
238,263,44268,6,0,B|313:239|313:302|417:259,1,150,6|2,0:0|0:0,0:0:0:0:
457,321,44578,2,0,P|489:339|513:381,1,75,8|0,0:0|0:0,0:0:0:0:
460,234,44785,2,0,P|492:216|516:174,1,75,2|0,0:0|0:0,0:0:0:0:
411,84,44992,5,8,0:0:0:0:
411,84,45096,1,8,0:0:0:0:
368,163,45199,2,0,B|445:145|444:204|523:182,2,150,6|8|2,0:0|0:0|0:0,0:0:0:0:
280,141,45716,1,2,0:0:0:0:
256,53,45820,1,8,0:0:0:0:
280,141,45923,2,0,P|216:184|138:145,1,150,2|2,0:0|0:0,0:0:0:0:
87,98,46233,6,0,P|77:50|91:11,1,75,8|8,0:0|0:0,0:0:0:0:
222,218,46440,2,0,P|228:254|218:290,2,75,2|2|2,0:0|0:0|0:0,0:0:0:0:
151,162,46751,1,2,0:0:0:0:
178,366,46854,6,0,P|216:374|285:350,1,75,6|0,0:0|0:0,0:0:0:0:
381,294,47061,2,0,P|344:288|307:296,1,75,8|0,0:0|0:0,0:0:0:0:
428,370,47268,2,0,B|422:312|422:312|435:273|435:273|425:167,1,150,2|8,0:0|0:0,0:0:0:0:
489,154,47578,2,0,P|426:190|356:164,1,150,2|2,0:0|0:0,0:0:0:0:
222,70,47889,1,8,0:0:0:0:
171,144,47992,1,0,0:0:0:0:
208,226,48096,2,0,P|217:296|202:334,1,75,2|0,0:0|0:0,0:0:0:0:
58,264,48302,5,8,0:0:0:0:
58,264,48406,1,8,0:0:0:0:
58,264,48509,2,0,L|155:271,1,75,6|0,0:0|0:0,0:0:0:0:
282,221,48716,2,0,L|207:226,1,75,8|0,0:0|0:0,0:0:0:0:
0,137,48923,2,0,B|59:145|59:145|86:168|86:168|175:177,1,150,2|8,0:0|0:0,0:0:0:0:
252,33,49233,6,0,P|171:31|131:95,1,150,2|2,0:0|0:0,0:0:0:0:
305,103,49544,1,8,0:0:0:0:
334,97,49647,1,8,0:0:0:0:
400,35,49751,2,0,P|451:40|484:66,1,75,2|8,0:0|0:0,0:0:0:0:
474,142,49958,2,0,P|440:158|403:158,1,75,2|8,0:0|0:0,0:0:0:0:
347,288,50164,6,0,L|358:381,1,75,6|0,0:0|0:0,0:0:0:0:
441,320,50371,2,0,L|452:227,1,75,8|0,0:0|0:0,0:0:0:0:
267,241,50578,2,0,B|195:228|195:287|89:255,1,150,2|8,0:0|0:0,0:0:0:0:
53,201,50889,6,0,P|122:170|203:223,1,150,6|2,0:0|0:0,0:0:0:0:
267,241,51199,2,0,P|258:314|288:357,1,75,8|0,0:0|0:0,0:0:0:0:
263,151,51406,2,0,P|254:78|284:35,1,75,2|0,0:0|0:0,0:0:0:0:
429,142,51613,5,8,0:0:0:0:
429,142,51716,1,8,0:0:0:0:
353,191,51820,2,0,B|427:173|427:226|530:189,1,150,6|8,0:0|0:0,0:0:0:0:
429,142,52130,5,8,0:0:0:0:
450,54,52233,1,2,0:0:0:0:
364,79,52337,2,0,P|327:87|291:80,2,75,2|2|2,0:0|0:0|0:0,0:0:0:0:
450,54,52647,1,6,0:0:0:0:
500,197,52854,5,0,0:0:0:0:
500,197,53061,1,0,0:0:0:0:
500,197,53268,1,0,0:0:0:0:
443,327,53475,6,0,P|367:331|317:290,1,112.500004291535,6|2,0:0|0:0,0:0:0:0:
315,275,53785,1,2,0:0:0:0:
315,275,53889,1,8,0:0:0:0:
230,305,54096,1,0,0:0:0:0:
54,249,54303,2,0,L|122:256,1,56.2500021457673,2|8,0:0|0:0,0:0:0:0:
144,283,54510,2,0,P|140:353|98:385,2,112.500004291535,2|8|2,0:0|0:0|0:0,0:0:0:0:
188,204,55027,5,8,0:0:0:0:
188,204,55130,2,0,B|203:147|163:147|186:80,1,112.500004291535,2|2,0:0|0:0,0:0:0:0:
201,52,55441,1,2,0:0:0:0:
201,52,55544,1,8,0:0:0:0:
116,19,55751,2,0,L|18:28,1,56.2500021457673,2|8,0:0|0:0,0:0:0:0:
279,13,55958,2,0,L|335:18,2,56.2500021457673,2|8|2,0:0|0:0|0:0,0:0:0:0:
201,52,56372,1,8,0:0:0:0:
306,151,56579,5,2,0:0:0:0:
306,151,56682,1,8,0:0:0:0:
306,151,56785,2,0,P|379:176|439:143,1,112.500004291535,2|2,0:0|0:0,0:0:0:0:
451,146,57096,1,2,0:0:0:0:
451,146,57199,2,0,P|426:219|459:279,1,112.500004291535,8|0,0:0|0:0,0:0:0:0:
362,363,57613,2,0,L|355:294,1,56.2500021457673,2|8,0:0|0:0,0:0:0:0:
332,270,57820,2,0,B|273:236|273:293|192:247,1,112.500004291535,2|8,0:0|0:0,0:0:0:0:
141,130,58234,5,2,0:0:0:0:
141,130,58337,1,8,0:0:0:0:
141,130,58441,1,2,0:0:0:0:
84,199,58647,2,0,L|20:204,2,56.2500021457673,2|2|8,0:0|0:0|0:0,0:0:0:0:
187,53,59061,1,2,0:0:0:0:
187,53,59165,2,0,P|232:22|292:26,1,112.500004291535,8|8,0:0|0:0,0:0:0:0:
321,54,59475,1,2,0:0:0:0:
357,136,59682,2,0,P|302:141|255:112,1,112.500004291535,8|2,0:0|0:0,0:0:0:0:
218,208,59992,5,8,0:0:0:0:
218,208,60096,2,0,P|195:258|204:313,1,112.500004291535,6|2,0:0|0:0,0:0:0:0:
239,343,60406,1,2,0:0:0:0:
239,343,60510,1,8,0:0:0:0:
292,270,60717,1,0,0:0:0:0:
464,351,60924,2,0,L|399:324,1,56.2500021457673,2|8,0:0|0:0,0:0:0:0:
383,295,61131,2,0,P|376:232|407:189,2,112.500004291535,2|8|2,0:0|0:0|0:0,0:0:0:0:
464,262,61647,5,8,0:0:0:0:
464,262,61751,2,0,P|490:211|482:157,1,112.500004291535,2|2,0:0|0:0,0:0:0:0:
459,112,62062,1,2,0:0:0:0:
459,112,62165,1,8,0:0:0:0:
489,32,62371,2,0,P|465:25|420:28,1,56.2500021457673,2|8,0:0|0:0,0:0:0:0:
372,93,62579,2,0,P|348:100|303:97,2,56.2500021457673,2|8|2,0:0|0:0|0:0,0:0:0:0:
333,10,62993,1,8,0:0:0:0:
232,128,63200,5,2,0:0:0:0:
232,128,63302,1,8,0:0:0:0:
232,128,63406,2,0,B|170:149|170:113|99:136,1,112.500004291535,6|2,0:0|0:0,0:0:0:0:
86,159,63717,1,2,0:0:0:0:
86,159,63820,2,0,P|61:232|94:292,1,112.500004291535,8|0,0:0|0:0,0:0:0:0:
144,315,64234,2,0,L|138:370,2,56.2500021457673,2|8|2,0:0|0:0|0:0,0:0:0:0:
231,224,64647,2,0,B|271:217|271:217|301:226|301:226|375:211,1,112.500004291535,8|2,0:0|0:0,0:0:0:0:
385,206,64958,1,8,0:0:0:0:
429,195,65062,1,6,0:0:0:0:
389,114,65268,2,0,L|394:50,2,56.2500021457673,2|2|8,0:0|0:0|0:0,0:0:0:0:
432,284,65682,5,2,0:0:0:0:
432,284,65785,1,8,0:0:0:0:
432,284,65889,2,0,P|426:333|413:353,1,56.2500021457673,2|8,0:0|0:0,0:0:0:0:
343,291,66096,2,0,P|333:264|334:236,1,56.2500021457673,2|2,0:0|0:0,0:0:0:0:
389,114,66302,1,10,0:0:0:0:
344,119,66406,1,2,0:0:0:0:
299,124,66509,1,2,0:0:0:0:
254,129,66613,1,2,0:0:0:0:
209,134,66716,6,0,L|125:110,1,75,6|2,0:0|0:3,0:0:0:0:
136,113,67337,2,0,L|72:94,2,37.5,2|2|8,0:0|0:0|0:0,0:0:0:0:
198,41,67751,1,2,0:0:0:0:
198,41,67958,1,2,0:0:0:0:
198,41,68164,1,8,0:0:0:0:
216,150,68371,6,0,L|132:126,1,75,2|2,0:0|0:0,0:0:0:0:
143,129,68992,2,0,L|79:110,2,37.5,2|2|8,0:0|0:0|0:0,0:0:0:0:
205,57,69406,1,2,0:0:0:0:
205,57,69613,1,2,0:0:0:0:
205,57,69819,1,8,0:0:0:0:
223,166,70027,6,0,L|139:142,1,75,2|2,0:0|0:0,0:0:0:0:
150,145,70648,2,0,L|86:126,2,37.5,2|2|8,0:0|0:0|0:0,0:0:0:0:
212,73,71062,1,2,0:0:0:0:
212,73,71269,1,2,0:0:0:0:
212,73,71475,1,8,0:0:0:0:
239,337,71682,6,0,B|147:362|147:362|87:328,1,150,6|8,0:0|0:0,0:0:0:0:
242,319,71992,2,0,B|150:344|150:344|102:317,1,150,6|8,0:0|0:0,0:0:0:0:
31,260,72302,1,6,0:0:0:0:
285,174,72509,1,8,0:0:0:0:
285,174,72613,1,2,0:0:0:0:
285,174,72716,6,0,P|294:228|285:254,1,56.2500021457673,2|2,0:0|0:0,0:0:0:0:
217,214,72923,2,0,P|165:194|147:173,1,56.2500021457673,2|2,0:0|0:0,0:0:0:0:
216,135,73130,2,0,P|258:100|285:95,1,56.2500021457673,2|8,0:0|0:0,0:0:0:0:
375,197,73337,1,6,0:0:0:0:
375,197,73544,2,0,L|472:202,1,56.2500021457673,2|2,0:0|0:0,0:0:0:0:
492,145,73751,1,8,0:0:0:0:
423,337,73958,5,2,0:0:0:0:
423,337,74061,1,8,0:0:0:0:
423,337,74164,2,0,P|435:292|420:251,2,56.2500021457673,2|8|2,0:0|0:0|0:0,0:0:0:0:
342,282,74578,1,8,0:0:0:0:
342,282,74785,2,0,L|256:291,1,56.2500021457673,2|8,0:0|0:0,0:0:0:0:
204,298,74992,1,2,0:0:0:0:
42,238,75199,1,2,0:0:0:0:
42,238,75406,1,8,0:0:0:0:
121,295,75613,5,2,0:0:0:0:
121,295,75716,1,8,0:0:0:0:
121,295,75820,2,0,P|136:250|137:220,1,56.2500021457673,2|8,0:0|0:0,0:0:0:0:
94,164,76027,1,2,0:0:0:0:
94,164,76233,1,8,0:0:0:0:
199,15,76440,5,2,0:0:0:0:
199,15,76544,1,8,0:0:0:0:
199,15,76647,2,0,L|208:148,1,112.500004291535,6|2,0:0|0:0,0:0:0:0:
288,180,76958,1,2,0:0:0:0:
288,180,77061,2,0,L|297:47,1,112.500004291535,8|2,0:0|0:0,0:0:0:0:
369,13,77371,1,8,0:0:0:0:
369,13,77475,2,0,L|440:2,2,56.2500021457673,2|8|2,0:0|0:0|0:0,0:0:0:0:
295,67,77889,1,8,0:0:0:0:
295,67,78096,1,2,0:0:0:0:
474,224,78302,6,0,P|494:168|450:83,1,127.50000243187,6|2,0:0|0:0,0:0:0:0:
392,100,78613,1,2,0:0:0:0:
392,100,78716,2,0,P|430:92|473:106,1,63.7500012159348,8|0,0:0|0:0,0:0:0:0:
418,290,78923,1,8,0:0:0:0:
418,290,79027,1,8,0:0:0:0:
418,290,79337,6,0,L|329:281,1,63.7500012159348,8|2,0:0|0:0,0:0:0:0:
337,297,79544,2,0,L|248:288,1,63.7500012159348,8|2,0:0|0:0,0:0:0:0:
165,249,79751,5,2,0:0:0:0:
165,249,79854,1,2,0:0:0:0:
165,249,79958,2,0,P|183:328|163:367,1,75,6|0,0:0|0:0,0:0:0:0:
76,376,80164,2,0,P|78:338|95:305,1,75,8|0,0:0|0:0,0:0:0:0:
135,162,80371,2,0,B|209:141|209:200|303:164,1,150,2|8,0:0|0:0,0:0:0:0:
260,7,80682,6,0,P|208:70|223:144,1,150,2|2,0:0|0:0,0:0:0:0:
344,112,80992,2,0,P|384:130|438:119,1,75,10|0,0:0|0:0,0:0:0:0:
470,57,81199,2,0,P|430:39|376:50,1,75,2|0,0:0|0:0,0:0:0:0:
479,204,81406,5,8,0:0:0:0:
479,204,81509,1,8,0:0:0:0:
479,204,81613,2,0,L|458:374,1,150,6|8,0:0|0:0,0:0:0:0:
391,217,81923,2,0,L|375:343,1,75,0|2,0:0|0:0,0:0:0:0:
301,332,82130,1,2,0:0:0:0:
222,288,82233,2,0,B|150:277|150:326|60:299,1,150,8|0,0:0|0:0,0:0:0:0:
122,128,82647,6,0,P|37:154|16:216,2,150,8|2|8,0:0|0:0|0:0,0:0:0:0:
202,169,83164,1,8,0:0:0:0:
284,207,83268,2,0,P|335:215|387:197,1,75,6|0,0:0|0:0,0:0:0:0:
422,55,83475,2,0,P|384:50|348:58,1,75,8|0,0:0|0:0,0:0:0:0:
446,144,83682,2,0,P|497:109|511:25,1,150,2|8,0:0|0:0,0:0:0:0:
446,144,83992,6,0,L|454:299,1,150,0|2,0:0|0:0,0:0:0:0:
412,374,84302,1,8,0:0:0:0:
284,246,84509,2,0,P|215:237|177:260,2,75,2|8|2,0:0|0:0|0:0,0:0:0:0:
360,295,84820,1,8,0:0:0:0:
194,323,84923,6,0,P|163:255|76:250,1,150,6|8,0:0|0:0,0:0:0:0:
0,203,85233,2,0,B|75:228|74:161|200:217,1,150,2|2,0:0|0:0,0:0:0:0:
74,10,85544,2,0,L|78:190,1,150,12|2,0:0|0:0,0:0:0:0:
226,42,85958,6,0,P|276:46|311:77,1,75,12|0,0:0|0:0,0:0:0:0:
186,176,86164,2,0,P|164:130|173:84,1,75,12|0,0:0|0:0,0:0:0:0:
321,144,86371,2,0,P|292:185|248:200,1,75,12|0,0:0|0:0,0:0:0:0:
190,344,86578,1,6,0:0:0:0:
31,270,86785,5,8,0:0:0:0:
31,270,86889,1,0,0:0:0:0:
31,270,86992,2,0,L|157:284,1,75,2|0,0:0|0:0,0:0:0:0:
190,344,87199,1,8,0:0:0:0:
190,344,87302,1,2,0:0:0:0:
190,344,87406,2,0,L|316:330,1,75,0|2,0:0|0:0,0:0:0:0:
428,314,87613,5,8,0:0:0:0:
342,290,87716,1,0,0:0:0:0:
428,314,87820,2,0,P|461:271|456:208,1,75,2|0,0:0|0:0,0:0:0:0:
371,117,88027,2,0,P|382:153|408:180,1,75,8|8,0:0|0:0,0:0:0:0:
413,32,88233,1,6,0:0:0:0:
413,32,88440,6,0,L|280:44,1,75,8|0,0:0|0:0,0:0:0:0:
257,80,88647,2,0,L|124:68,1,75,2|2,0:0|0:0,0:0:0:0:
68,161,88854,5,8,0:0:0:0:
0,100,88958,1,2,0:0:0:0:
68,161,89061,2,0,P|114:166|162:126,1,75,0|2,0:0|0:0,0:0:0:0:
193,222,89268,2,0,L|182:73,2,150,8|2|8,0:0|0:0|0:0,0:0:0:0:
241,298,89785,1,8,0:0:0:0:
241,298,89889,1,6,0:0:0:0:
46,273,90096,5,8,0:0:0:0:
46,273,90199,1,0,0:0:0:0:
46,273,90302,2,0,L|153:280,1,75,2|0,0:0|0:0,0:0:0:0:
191,221,90509,1,8,0:0:0:0:
191,221,90613,1,2,0:0:0:0:
191,221,90716,6,0,P|204:164|193:124,1,75,0|2,0:0|0:0,0:0:0:0:
63,60,90923,2,0,P|88:88|121:106,1,75,8|0,0:0|0:0,0:0:0:0:
265,29,91130,2,0,P|228:36|196:55,1,75,8|2,0:0|0:0,0:0:0:0:
343,118,91337,6,0,P|374:137|411:144,1,75,8|8,0:0|0:0,0:0:0:0:
410,290,91544,2,0,B|428:192|428:192|399:112,1,150,6|8,0:0|0:0,0:0:0:0:
391,304,91854,2,0,B|409:206|409:206|380:126,1,150,6|2,0:0|0:0,0:0:0:0:
353,76,92164,1,12,0:0:0:0:
189,220,92371,5,12,0:0:0:0:
189,220,92475,1,8,0:0:0:0:
189,220,92578,1,8,0:0:0:0:
189,220,92682,1,8,0:0:0:0:
189,220,92785,1,8,0:0:0:0:
189,220,92889,1,8,0:0:0:0:
189,220,92992,1,8,0:0:0:0:
189,220,93096,1,8,0:0:0:0:
189,220,93199,6,0,P|125:215|79:252,1,75,6|0,0:0|0:0,0:0:0:0:
27,314,93406,2,0,P|63:321|99:312,1,75,8|0,0:0|0:0,0:0:0:0:
257,270,93613,2,0,B|330:254|329:308|420:283,1,150,2|8,0:0|0:0,0:0:0:0:
508,352,93923,6,0,P|424:340|403:281,1,150,2|2,0:0|0:0,0:0:0:0:
444,151,94233,2,0,P|462:231|449:262,1,75,8|0,0:0|0:0,0:0:0:0:
354,164,94440,2,0,P|356:126|373:93,1,75,2|0,0:0|0:0,0:0:0:0:
464,21,94647,5,8,0:0:0:0:
464,21,94751,1,8,0:0:0:0:
464,21,94854,2,0,L|285:40,1,150,6|8,0:0|0:0,0:0:0:0:
97,80,95164,2,0,L|186:89,1,75,0|2,0:0|0:0,0:0:0:0:
240,146,95371,1,2,0:0:0:0:
221,234,95475,2,0,P|150:282|86:265,1,150,8|0,0:0|0:0,0:0:0:0:
306,207,95889,6,0,B|379:196|376:254|486:219,2,150,8|2|8,0:0|0:0|0:0,0:0:0:0:
378,261,96406,1,8,0:0:0:0:
401,174,96509,2,0,P|408:116|383:72,1,75,6|0,0:0|0:0,0:0:0:0:
316,1,96716,2,0,P|309:37|318:73,1,75,8|0,0:0|0:0,0:0:0:0:
403,101,96923,1,2,0:0:0:0:
219,51,97130,5,8,0:0:0:0:
219,51,97233,2,0,L|23:71,1,150,2|2,0:0|0:0,0:0:0:0:
23,144,97544,2,0,L|97:151,1,75,8|0,0:0|0:0,0:0:0:0:
157,219,97751,2,0,P|163:260|144:311,2,75,2|2|8,0:0|0:0|0:0,0:0:0:0:
97,151,98061,1,8,0:0:0:0:
78,327,98164,6,0,P|168:319|221:360,1,150,6|8,0:0|0:0,0:0:0:0:
301,299,98475,2,0,B|227:271|222:327|138:284,1,150,2|2,0:0|0:0,0:0:0:0:
387,216,98785,2,0,L|377:366,1,150,12|2,0:0|0:0,0:0:0:0:
418,137,99199,6,0,P|442:89|439:52,1,75,12|0,0:0|0:0,0:0:0:0:
382,0,99406,2,0,P|328:3|297:24,1,75,12|0,0:0|0:0,0:0:0:0:
282,100,99613,2,0,P|311:144|345:160,1,75,12|0,0:0|0:0,0:0:0:0:
227,33,99820,1,6,0:0:0:0:
24,111,100027,5,8,0:0:0:0:
24,111,100130,1,0,0:0:0:0:
24,111,100233,2,0,L|116:103,1,75,2|0,0:0|0:0,0:0:0:0:
231,180,100440,2,0,P|181:170|155:177,1,75,8|2,0:0|0:0,0:0:0:0:
90,235,100647,2,0,P|80:285|87:311,1,75,0|2,0:0|0:0,0:0:0:0:
158,360,100854,2,0,L|4:343,2,150,8|2|8,0:0|0:0|0:0,0:0:0:0:
239,320,101371,1,8,0:0:0:0:
239,320,101475,1,6,0:0:0:0:
422,363,101682,6,0,P|427:311|411:274,1,75,8|0,0:0|0:0,0:0:0:0:
361,221,101889,2,0,P|308:215|271:231,1,75,2|2,0:0|0:0,0:0:0:0:
460,211,102096,1,8,0:0:0:0:
460,211,102199,1,2,0:0:0:0:
460,211,102302,2,0,P|455:159|471:122,1,75,0|2,0:0|0:0,0:0:0:0:
490,50,102509,6,0,L|371:62,1,75,8|0,0:0|0:0,0:0:0:0:
261,19,102716,2,0,L|380:31,1,75,2|0,0:0|0:0,0:0:0:0:
271,156,102923,2,0,P|208:148|179:124,1,75,8|8,0:0|0:0,0:0:0:0:
142,72,103130,1,6,0:0:0:0:
40,226,103337,5,8,0:0:0:0:
40,226,103440,1,0,0:0:0:0:
40,226,103544,2,0,L|31:136,1,75,2|0,0:0|0:0,0:0:0:0:
170,291,103751,1,8,0:0:0:0:
170,291,103854,1,2,0:0:0:0:
170,291,103958,2,0,L|161:381,1,75,0|2,0:0|0:0,0:0:0:0:
304,63,104164,6,0,P|268:70|239:94,1,75,8|0,0:0|0:0,0:0:0:0:
403,207,104371,2,0,P|415:172|410:136,1,75,8|2,0:0|0:0,0:0:0:0:
229,221,104578,2,0,P|253:249|288:263,1,75,8|2,0:0|0:0,0:0:0:0:
497,348,104785,6,0,B|403:376|403:376|313:338,1,150,6|8,0:0|0:0,0:0:0:0:
403,207,105096,2,0,L|406:304,1,75,6|8,0:0|0:0,0:0:0:0:
231,330,105302,1,8,0:0:0:0:
231,330,105406,2,0,L|234:233,1,75,8|8,0:0|0:0,0:0:0:0:
103,127,105613,1,6,0:0:0:0:
103,127,106440,5,6,0:0:0:0:
61,206,106647,2,0,L|-9:217,2,56.2500021457673,2|2|8,0:0|0:0|0:0,0:0:0:0:
103,127,107061,1,2,0:0:0:0:
132,258,107371,1,8,0:0:0:0:
132,258,107475,2,0,B|172:262|172:262|196:279|196:279|271:286,1,112.500004291535,2|8,0:0|0:0,0:0:0:0:
362,350,107889,6,0,L|366:289,1,56.2500021457673,2|8,0:0|0:0,0:0:0:0:
382,338,108096,2,0,L|391:189,1,112.500004291535,2|2,0:0|0:0,0:0:0:0:
417,190,108406,2,0,L|421:251,1,56.2500021457673,2|8,0:0|0:0,0:0:0:0:
471,101,108716,2,0,P|473:58|459:27,1,56.2500021457673,2|8,0:0|0:0,0:0:0:0:
390,18,108923,2,0,P|384:45|388:73,1,56.2500021457673,2|8,0:0|0:0,0:0:0:0:
195,112,109337,2,0,B|258:95|257:138|333:111,1,112.500004291535,8|2,0:0|0:0,0:0:0:0:
341,145,109647,5,8,0:0:0:0:
341,145,109751,2,0,P|325:205|267:225,1,112.500004291535,6|2,0:0|0:0,0:0:0:0:
244,249,110061,1,2,0:0:0:0:
244,249,110164,2,0,L|156:242,1,56.2500021457673,8|0,0:0|0:0,0:0:0:0:
72,315,110578,2,0,L|15:319,2,56.2500021457673,2|8|2,0:0|0:0|0:0,0:0:0:0:
102,142,110992,1,8,0:0:0:0:
171,83,111199,5,2,0:0:0:0:
171,83,111302,1,8,0:0:0:0:
171,83,111406,2,0,P|109:94|41:65,1,112.500004291535,6|8,0:0|0:0,0:0:0:0:
26,55,111716,2,0,L|15:-3,2,56.2500021457673,8|2|2,0:0|0:0|0:0,0:0:0:0:
3,139,112027,1,2,0:0:0:0:
3,139,112130,1,6,0:0:0:0:
3,139,113061,6,0,L|91:123,2,75,6|2|2,0:0|0:0|0:0,0:0:0:0:
162,108,114302,1,8,0:0:0:0:
300,230,114716,6,0,L|212:214,2,75,2|2|2,0:0|0:0|0:0,0:0:0:0:
141,199,115957,1,8,0:0:0:0:
234,17,116371,6,0,P|216:59|222:118,1,75,6|0,0:0|0:0,0:0:0:0:
311,74,116785,2,0,P|329:116|323:175,1,75,2|0,0:0|0:0,0:0:0:0:
300,230,117199,1,2,0:0:0:0:
300,230,117613,1,8,0:0:0:0:
475,301,118027,5,6,0:0:0:0:
512,21,118440,1,6,0:0:0:0:
416,133,118647,1,2,0:0:0:0:
416,133,118751,2,0,P|362:150|312:135,1,89.9999972534181,8|8,0:0|0:0,0:0:0:0:
300,122,119061,1,2,0:0:0:0:
300,122,119164,2,0,L|294:53,1,44.999998626709,2|8,0:0|0:0,0:0:0:0:
208,28,119371,2,0,L|204:72,2,44.999998626709,8|8|8,0:0|0:0|0:0,0:0:0:0:
122,71,119682,6,0,P|162:110|152:172,1,112.500004291535,6|2,0:0|0:0,0:0:0:0:
124,193,119992,1,2,0:0:0:0:
124,193,120096,1,8,0:0:0:0:
167,271,120302,1,0,0:0:0:0:
338,248,120509,2,0,L|270:255,1,56.2500021457673,2|8,0:0|0:0,0:0:0:0:
246,225,120716,2,0,P|250:155|292:123,2,112.500004291535,2|8|2,0:0|0:0|0:0,0:0:0:0:
338,248,121233,5,8,0:0:0:0:
338,248,121337,2,0,B|395:263|395:223|462:246,1,112.500004291535,2|2,0:0|0:0,0:0:0:0:
489,261,121647,1,2,0:0:0:0:
489,261,121750,1,8,0:0:0:0:
502,172,121957,2,0,L|493:74,1,56.2500021457673,2|8,0:0|0:0,0:0:0:0:
436,0,122164,2,0,L|431:56,2,56.2500021457673,2|8|2,0:0|0:0|0:0,0:0:0:0:
365,109,122578,1,8,0:0:0:0:
241,34,122785,5,2,0:0:0:0:
241,34,122888,1,8,0:0:0:0:
241,34,122992,2,0,B|180:56|180:17|108:42,1,112.500004291535,6|2,0:0|0:0,0:0:0:0:
96,66,123302,1,2,0:0:0:0:
96,66,123406,2,0,P|71:139|104:199,1,112.500004291535,8|0,0:0|0:0,0:0:0:0:
150,227,123819,2,0,L|143:296,1,56.2500021457673,2|8,0:0|0:0,0:0:0:0:
120,320,124026,2,0,B|-20:343,1,112.500004291535,2|8,0:0|0:0,0:0:0:0:
229,348,124440,5,2,0:0:0:0:
229,348,124543,1,8,0:0:0:0:
229,348,124647,1,6,0:0:0:0:
306,303,124854,2,0,L|370:308,1,56.2500021457673,2|2,0:0|0:0,0:0:0:0:
407,315,125061,1,8,0:0:0:0:
511,159,125268,2,0,P|475:159|452:170,1,56.2500021457673,2|8,0:0|0:0,0:0:0:0:
388,213,125475,2,0,P|356:221|331:217,2,56.2500021457673,2|8|2,0:0|0:0|0:0,0:0:0:0:
280,65,125889,5,8,0:0:0:0:
280,65,125992,1,2,0:0:0:0:
280,65,126096,1,2,0:0:0:0:
280,65,126199,1,2,0:0:0:0:
280,65,126302,2,0,L|180:71,1,75,6|2,0:0|0:0,0:0:0:0:
364,63,126923,2,0,L|414:59,2,37.5,2|2|8,0:0|0:0|0:0,0:0:0:0:
280,65,127337,1,2,0:0:0:0:
367,156,127544,1,2,0:0:0:0:
367,156,127751,1,8,0:0:0:0:
275,84,127958,6,0,L|175:90,1,75,2|2,0:0|0:0,0:0:0:0:
359,82,128579,2,0,L|409:78,2,37.5,2|2|8,0:0|0:0|0:0,0:0:0:0:
275,84,128993,1,2,0:0:0:0:
362,175,129200,1,2,0:0:0:0:
362,175,129407,1,8,0:0:0:0:
270,103,129613,6,0,L|170:109,1,75,2|2,0:0|0:0,0:0:0:0:
354,101,130234,2,0,L|404:97,2,37.5,2|2|8,0:0|0:0|0:0,0:0:0:0:
270,103,130648,1,2,0:0:0:0:
357,194,130855,1,2,0:0:0:0:
357,194,131062,1,8,0:0:0:0:
167,314,131268,6,0,B|224:309|224:309|263:328|263:328|326:328,1,150,6|8,0:0|0:0,0:0:0:0:
155,334,131578,2,0,B|212:329|212:329|251:348|251:348|314:348,1,150,2|8,0:0|0:0,0:0:0:0:
391,347,131889,1,6,0:0:0:0:
486,193,132096,5,8,0:0:0:0:
486,193,132199,1,2,0:0:0:0:
486,193,132302,2,0,P|479:145|465:125,1,56.2500021457673,2|2,0:0|0:0,0:0:0:0:
394,115,132509,2,0,P|355:145|345:167,1,56.2500021457673,2|2,0:0|0:0,0:0:0:0:
373,234,132716,2,0,P|418:251|442:249,1,56.2500021457673,2|2,0:0|0:0,0:0:0:0:
459,53,132923,1,6,0:0:0:0:
459,53,133130,2,0,L|370:19,1,56.2500021457673,2|2,0:0|0:0,0:0:0:0:
321,47,133337,1,8,0:0:0:0:
148,22,133544,5,2,0:0:0:0:
148,22,133647,1,8,0:0:0:0:
148,22,133751,2,0,L|72:35,2,56.2500021457673,2|8|2,0:0|0:0|0:0,0:0:0:0:
223,71,134164,1,8,0:0:0:0:
223,71,134371,2,0,P|226:114|209:149,1,56.2500021457673,2|8,0:0|0:0,0:0:0:0:
167,189,134578,1,2,0:0:0:0:
167,189,134785,1,2,0:0:0:0:
223,353,134992,1,8,0:0:0:0:
160,294,135199,5,2,0:0:0:0:
160,294,135302,1,8,0:0:0:0:
160,294,135406,2,0,P|205:268|248:272,1,56.2500021457673,2|8,0:0|0:0,0:0:0:0:
291,295,135613,1,2,0:0:0:0:
476,237,135820,2,0,L|354:246,1,112.500004291535,8|2,0:0|0:0,0:0:0:0:
333,212,136130,5,8,0:0:0:0:
333,212,136233,2,0,P|320:146|351:99,1,112.500004291535,6|2,0:0|0:0,0:0:0:0:
357,25,136544,1,2,0:0:0:0:
357,25,136647,2,0,P|306:69|250:65,1,112.500004291535,8|2,0:0|0:0,0:0:0:0:
187,32,136958,1,8,0:0:0:0:
187,32,137061,2,0,L|122:39,2,56.2500021457673,2|8|2,0:0|0:0|0:0,0:0:0:0:
263,70,137475,5,8,0:0:0:0:
263,70,137682,2,0,L|258:145,1,56.2500021457673,2|8,0:0|0:0,0:0:0:0:
200,189,137889,2,0,P|129:194|82:148,1,127.50000243187,6|2,0:0|0:0,0:0:0:0:
102,79,138199,1,2,0:0:0:0:
102,79,138302,2,0,P|109:121|98:148,1,63.7500012159348,8|0,0:0|0:0,0:0:0:0:
22,260,138509,1,8,0:0:0:0:
22,260,138613,1,8,0:0:0:0:
200,189,138923,1,8,0:0:0:0:
200,189,139130,1,8,0:0:0:0:
308,349,139337,5,2,0:0:0:0:
308,349,139440,1,2,0:0:0:0:
308,349,139544,2,0,P|361:359|398:339,1,75,6|0,0:0|0:0,0:0:0:0:
271,185,139751,2,0,P|234:177|199:188,1,75,8|0,0:0|0:0,0:0:0:0:
372,239,139958,2,0,B|441:232|438:285|524:270,1,150,2|8,0:0|0:0,0:0:0:0:
488,83,140268,6,0,P|416:142|348:125,1,150,2|2,0:0|0:0,0:0:0:0:
199,187,140578,2,0,P|194:150|208:110,1,75,8|0,0:0|0:0,0:0:0:0:
283,5,140785,2,0,P|294:40|289:77,1,75,2|0,0:0|0:0,0:0:0:0:
147,52,140992,5,8,0:0:0:0:
147,52,141096,1,8,0:0:0:0:
147,52,141199,2,0,L|-26:83,1,150,6|8,0:0|0:0,0:0:0:0:
109,147,141509,2,0,L|21:162,1,75,0|2,0:0|0:0,0:0:0:0:
11,247,141716,1,2,0:0:0:0:
61,321,141820,2,0,B|138:350|142:296|213:321,1,150,8|0,0:0|0:0,0:0:0:0:
355,216,142233,6,0,P|269:193|219:248,2,150,8|2|8,0:0|0:0|0:0,0:0:0:0:
425,274,142751,1,8,0:0:0:0:
501,227,142854,2,0,L|511:136,1,75,6|0,0:0|0:0,0:0:0:0:
446,8,143061,2,0,L|456:99,1,75,8|0,0:0|0:0,0:0:0:0:
290,143,143268,2,0,P|273:81|328:10,1,150,2|8,0:0|0:0,0:0:0:0:
290,143,143578,6,0,B|232:141|232:141|190:160|190:160|115:156,1,150,2|2,0:0|0:0,0:0:0:0:
52,152,143889,1,8,0:0:0:0:
193,233,144096,2,0,P|202:302|179:340,2,75,2|2|8,0:0|0:0|0:0,0:0:0:0:
144,157,144406,1,8,0:0:0:0:
124,333,144509,6,0,B|199:325|200:367|280:350,1,150,6|8,0:0|0:0,0:0:0:0:
412,211,144820,2,0,P|338:207|290:270,1,150,2|2,0:0|0:0,0:0:0:0:
458,290,145130,2,0,L|462:110,1,150,12|2,0:0|0:0,0:0:0:0:
286,0,145544,6,0,P|336:4|371:35,1,75,12|0,0:0|0:0,0:0:0:0:
246,134,145751,2,0,P|224:88|233:42,1,75,12|0,0:0|0:0,0:0:0:0:
381,102,145958,2,0,P|352:143|308:158,1,75,12|0,0:0|0:0,0:0:0:0:
286,0,146164,1,6,0:0:0:0:
126,15,146371,5,8,0:0:0:0:
126,15,146475,1,0,0:0:0:0:
126,15,146578,2,0,L|140:141,1,75,2|0,0:0|0:0,0:0:0:0:
104,174,146785,1,8,0:0:0:0:
104,174,146889,1,2,0:0:0:0:
104,174,146992,2,0,L|90:300,1,75,0|2,0:0|0:0,0:0:0:0:
99,384,147199,6,0,P|132:341|127:278,1,75,8|0,0:0|0:0,0:0:0:0:
9,256,147406,2,0,P|20:291|45:318,1,75,2|0,0:0|0:0,0:0:0:0:
192,253,147613,1,8,0:0:0:0:
192,253,147716,1,8,0:0:0:0:
192,253,147820,1,6,0:0:0:0:
256,79,148027,5,8,0:0:0:0:
256,79,148130,1,0,0:0:0:0:
256,79,148233,2,0,L|389:67,1,75,2|2,0:0|0:0,0:0:0:0:
444,161,148440,1,8,0:0:0:0:
512,100,148544,1,2,0:0:0:0:
444,161,148647,2,0,P|398:166|350:126,1,75,0|2,0:0|0:0,0:0:0:0:
319,222,148854,6,0,L|330:73,2,150,8|2|8,0:0|0:0|0:0,0:0:0:0:
271,298,149371,1,8,0:0:0:0:
271,298,149475,1,6,0:0:0:0:
46,273,149682,5,8,0:0:0:0:
46,273,149785,1,0,0:0:0:0:
46,273,149889,2,0,L|153:280,1,75,2|0,0:0|0:0,0:0:0:0:
191,221,150096,1,8,0:0:0:0:
191,221,150199,1,2,0:0:0:0:
191,221,150302,2,0,P|204:164|193:124,1,75,0|2,0:0|0:0,0:0:0:0:
63,60,150509,2,0,P|88:88|121:106,1,75,8|0,0:0|0:0,0:0:0:0:
265,29,150716,2,0,P|228:36|196:55,1,75,8|2,0:0|0:0,0:0:0:0:
343,118,150923,6,0,P|374:137|411:144,1,75,8|8,0:0|0:0,0:0:0:0:
512,316,151130,2,0,B|464:298|464:298|366:316,1,150,6|8,0:0|0:0,0:0:0:0:
498,334,151440,2,0,B|450:316|450:316|352:334,1,150,6|2,0:0|0:0,0:0:0:0:
264,353,151751,1,12,0:0:0:0:
26,231,151958,5,12,0:0:0:0:
26,231,152061,1,8,0:0:0:0:
26,231,152164,1,8,0:0:0:0:
26,231,152268,1,8,0:0:0:0:
26,231,152371,1,8,0:0:0:0:
26,231,152475,1,8,0:0:0:0:
26,231,152578,1,8,0:0:0:0:
26,231,152682,1,8,0:0:0:0:
26,231,152785,6,0,P|90:236|136:199,1,75,6|0,0:0|0:0,0:0:0:0:
162,96,152992,2,0,P|125:89|89:98,1,75,8|0,0:0|0:0,0:0:0:0:
229,165,153199,2,0,B|302:149|301:203|392:178,1,150,2|8,0:0|0:0,0:0:0:0:
451,33,153509,6,0,P|367:45|346:104,1,150,2|2,0:0|0:0,0:0:0:0:
457,215,153820,2,0,P|475:295|462:326,1,75,8|0,0:0|0:0,0:0:0:0:
371,342,154027,2,0,P|373:304|390:271,1,75,2|0,0:0|0:0,0:0:0:0:
495,123,154233,5,8,0:0:0:0:
495,123,154337,1,8,0:0:0:0:
495,123,154440,2,0,L|316:142,1,150,6|8,0:0|0:0,0:0:0:0:
451,33,154751,2,0,L|362:42,1,75,0|2,0:0|0:0,0:0:0:0:
289,14,154958,1,2,0:0:0:0:
258,99,155061,2,0,P|187:147|123:130,1,150,8|0,0:0|0:0,0:0:0:0:
188,304,155475,6,0,B|115:293|118:351|8:316,2,150,8|2|8,0:0|0:0|0:0,0:0:0:0:
272,335,155992,1,8,0:0:0:0:
351,294,156096,2,0,P|358:236|333:192,1,75,6|0,0:0|0:0,0:0:0:0:
277,94,156302,2,0,P|270:130|279:166,1,75,8|0,0:0|0:0,0:0:0:0:
353,221,156509,1,2,0:0:0:0:
454,37,156716,5,8,0:0:0:0:
454,37,156820,2,0,L|434:233,1,150,2|2,0:0|0:0,0:0:0:0:
360,295,157130,2,0,L|353:221,1,75,8|0,0:0|0:0,0:0:0:0:
301,145,157337,2,0,P|259:130|211:139,2,75,2|2|8,0:0|0:0|0:0,0:0:0:0:
352,220,157647,1,8,0:0:0:0:
235,357,157751,6,0,P|243:267|202:214,1,150,6|8,0:0|0:0,0:0:0:0:
88,364,158061,2,0,B|162:336|167:392|251:349,1,150,2|2,0:0|0:0,0:0:0:0:
115,116,158371,2,0,L|125:266,1,150,12|2,0:0|0:0,0:0:0:0:
301,145,158785,6,0,P|349:169|386:166,1,75,12|0,0:0|0:0,0:0:0:0:
438,109,158992,2,0,P|435:55|414:24,1,75,12|0,0:0|0:0,0:0:0:0:
338,9,159199,2,0,P|294:38|278:72,1,75,12|0,0:0|0:0,0:0:0:0:
456,194,159406,1,6,0:0:0:0:
210,111,159613,5,8,0:0:0:0:
210,111,159716,1,0,0:0:0:0:
210,111,159820,2,0,L|118:119,1,75,2|0,0:0|0:0,0:0:0:0:
88,21,160027,1,8,0:0:0:0:
88,21,160130,1,2,0:0:0:0:
88,21,160233,2,0,L|180:29,1,75,0|2,0:0|0:0,0:0:0:0:
129,234,160440,6,0,P|214:216|281:272,2,150,8|2|8,0:0|0:0|0:0,0:0:0:0:
103,320,160958,1,8,0:0:0:0:
103,320,161061,1,6,0:0:0:0:
325,384,161268,5,8,0:0:0:0:
325,384,161371,1,0,0:0:0:0:
325,384,161475,2,0,P|330:332|314:295,1,75,2|2,0:0|0:0,0:0:0:0:
264,247,161682,1,8,0:0:0:0:
264,247,161785,1,2,0:0:0:0:
264,247,161889,2,0,P|259:195|275:158,1,75,0|2,0:0|0:0,0:0:0:0:
420,119,162096,6,0,L|301:131,1,75,8|0,0:0|0:0,0:0:0:0:
438,206,162302,2,0,L|557:218,1,75,2|0,0:0|0:0,0:0:0:0:
512,18,162509,2,0,P|449:26|420:50,1,75,8|8,0:0|0:0,0:0:0:0:
420,119,162716,1,6,0:0:0:0:
254,79,162923,5,8,0:0:0:0:
254,79,163027,1,0,0:0:0:0:
254,79,163130,2,0,L|245:-11,1,75,2|0,0:0|0:0,0:0:0:0:
137,127,163337,1,8,0:0:0:0:
137,127,163440,1,2,0:0:0:0:
137,127,163544,2,0,L|128:217,1,75,0|2,0:0|0:0,0:0:0:0:
127,365,163751,6,0,P|163:358|192:334,1,75,8|0,0:0|0:0,0:0:0:0:
270,284,163958,2,0,P|245:256|210:243,1,75,8|2,0:0|0:0,0:0:0:0:
129,201,164164,2,0,P|117:235|123:272,1,75,8|2,0:0|0:0,0:0:0:0:
305,185,164371,6,0,B|357:181|357:181|405:204|405:204|498:194,1,150,6|8,0:0|0:0,0:0:0:0:
415,37,164682,2,0,L|418:134,1,75,6|8,0:0|0:0,0:0:0:0:
302,259,164888,1,8,0:0:0:0:
302,259,164992,2,0,L|305:162,1,75,8|8,0:0|0:0,0:0:0:0:
432,343,165199,1,6,0:0:0:0:
432,343,166027,6,0,P|434:282|522:239,2,150,6|8|2,0:0|0:0|0:0,0:0:0:0:
268,266,166647,1,8,0:0:0:0:
268,266,166751,2,0,B|196:251|196:309|103:273,1,150,2|2,0:0|0:0,0:0:0:0:
42,237,167061,2,0,P|101:191|183:213,2,150,8|2|8,0:0|0:0|0:0,0:0:0:0:
45,327,167578,5,8,0:0:0:0:
125,368,167682,1,6,0:0:0:0:
170,203,167889,1,8,0:0:0:0:
125,38,168096,2,0,P|93:24|43:30,1,75,2|0,0:0|0:0,0:0:0:0:
78,112,168302,1,8,0:0:0:0:
214,52,168406,6,0,B|291:23|294:79|379:47,1,150,2|2,0:0|0:0,0:0:0:0:
445,83,168716,2,0,L|438:183,1,75,8|0,0:0|0:0,0:0:0:0:
353,220,168923,2,0,L|346:120,1,75,2|8,0:0|0:0,0:0:0:0:
492,235,169130,2,0,L|480:395,1,150,2|4,0:0|0:0,0:0:0:0:
255,221,169544,6,0,P|214:211|173:222,1,75,8|0,0:0|0:0,0:0:0:0:
214,365,169751,2,0,P|255:375|296:364,1,75,2|0,0:0|0:0,0:0:0:0:
339,278,169958,2,0,L|370:355,1,75,8|2,0:0|0:0,0:0:0:0:
357,273,170164,2,0,L|367:355,1,75,0|2,0:0|0:0,0:0:0:0:
375,272,170371,2,0,L|363:354,1,75,8|0,0:0|0:0,0:0:0:0:
252,269,170578,1,2,0:0:0:0:
252,269,170682,1,0,0:0:0:0:
252,269,170785,2,0,P|234:197|284:136,1,150,8|6,0:0|0:0,0:0:0:0:
276,139,171199,6,0,B|225:135|225:135|180:152|180:152|82:139,1,150,8|2,0:0|0:0,0:0:0:0:
73,74,171509,1,0,0:0:0:0:
129,145,171613,2,0,P|125:190|101:229,1,75,8|2,0:0|0:0,0:0:0:0:
22,201,171820,2,0,P|26:246|50:285,2,75,0|2|8,0:0|0:0|0:0,0:0:0:0:
111,216,172130,1,2,0:0:0:0:
214,246,172233,5,8,0:0:0:0:
214,246,172337,1,2,0:0:0:0:
214,246,172440,1,2,0:0:0:0:
214,246,172544,1,2,0:0:0:0:
214,246,172647,2,0,P|202:305|219:339,1,75,6|0,0:0|0:0,0:0:0:0:
299,362,172854,2,0,P|303:325|290:290,1,75,8|0,0:0|0:0,0:0:0:0:
296,200,173061,2,0,P|327:266|420:283,1,150,2|8,0:0|0:0,0:0:0:0:
464,205,173371,5,2,0:0:0:0:
464,205,173475,2,0,L|390:198,1,75,0|2,0:0|0:0,0:0:0:0:
352,20,173682,2,0,L|426:12,1,75,8|0,0:0|0:0,0:0:0:0:
408,106,173889,2,0,L|258:91,1,150,6|8,0:0|0:0,0:0:0:0:
168,82,174199,5,8,0:0:0:0:
112,152,174302,2,0,P|154:172|202:163,1,75,6|0,0:0|0:0,0:0:0:0:
82,68,174509,2,0,P|44:68|12:86,1,75,8|0,0:0|0:0,0:0:0:0:
0,273,174716,2,0,B|70:298|80:243|145:262,1,150,2|8,0:0|0:0,0:0:0:0:
229,296,175027,5,2,0:0:0:0:
229,296,175130,2,0,L|238:385,1,75,0|2,0:0|0:0,0:0:0:0:
403,253,175337,2,0,L|394:342,1,75,8|0,0:0|0:0,0:0:0:0:
238,153,175544,6,0,P|273:180|348:179,1,75,6|8,0:0|0:0,0:0:0:0:
426,0,175751,2,0,P|390:10|361:34,1,75,6|8,0:0|0:0,0:0:0:0:
512,129,175958,2,0,B|442:97|439:165|333:107,2,150,6|0|2,0:0|0:0|0:0,0:0:0:0:
400,367,176578,5,8,0:0:0:0:
400,367,176682,1,2,0:0:0:0:
400,367,176785,2,0,L|390:207,1,150,0|8,0:0|0:0,0:0:0:0:
310,348,177096,2,0,L|304:267,1,75,0|2,0:0|0:0,0:0:0:0:
236,215,177302,1,0,0:0:0:0:
220,300,177406,2,0,L|225:375,2,75,8|8|6,0:0|0:0|0:0,0:0:0:0:
86,268,177716,6,0,P|148:309|233:292,1,150,0|0,0:0|0:0,0:0:0:0:
152,123,178027,2,0,P|132:183|147:225,1,75,2|2,0:0|0:0,0:0:0:0:
247,146,178233,2,0,P|245:108|228:75,1,75,8|0,0:0|0:0,0:0:0:0:
73,25,178440,2,0,L|165:39,1,75,6|0,0:0|0:0,0:0:0:0:
404,163,178647,2,0,L|312:177,1,75,12|8,0:0|0:0,0:0:0:0:
227,347,178854,5,12,0:0:0:0:
227,256,178958,1,8,0:0:0:0:
228,166,179061,1,8,0:0:0:0:
229,76,179164,1,8,0:0:0:0:
152,123,179268,2,0,B|80:108|80:170|-8:141,1,150,14|8,0:0|0:0,0:0:0:0:
6,276,179578,2,0,P|75:242|64:150,1,150,0|0,0:0|0:0,0:0:0:0:
74,25,179889,2,0,L|82:209,1,150,8|0,0:0|0:0,0:0:0:0:
226,280,180302,6,0,P|253:288|309:274,1,75,8|0,0:0|0:0,0:0:0:0:
259,198,180509,2,0,P|252:170|212:129,1,75,2|0,0:0|0:0,0:0:0:0:
160,340,180716,1,8,0:0:0:0:
160,340,180820,1,8,0:0:0:0:
78,305,180923,2,0,L|245:276,1,150,6|8,0:0|0:0,0:0:0:0:
395,342,181337,5,2,0:0:0:0:
395,342,181440,1,2,0:0:0:0:
395,342,181544,2,0,P|419:295|417:268,1,75,8|2,0:0|0:0,0:0:0:0:
353,212,181751,2,0,L|501:238,2,150,0|8|6,0:0|0:0|0:0,0:0:0:0:
301,138,182268,1,8,0:0:0:0:
301,138,182371,6,0,P|285:85|301:46,1,75,2|8,0:0|0:0,0:0:0:0:
491,45,182578,2,0,P|426:105|371:87,1,150,6|8,0:0|0:0,0:0:0:0:
214,58,182889,1,0,0:0:0:0:
214,58,182992,2,0,L|335:73,1,75,2|0,0:0|0:0,0:0:0:0:
199,156,183199,2,0,L|25:177,1,150,8|0,0:0|0:0,0:0:0:0:
112,343,183613,6,0,P|73:281|-19:280,2,150,8|2|8,0:0|0:0|0:0,0:0:0:0:
197,372,184130,1,8,0:0:0:0:
278,333,184233,2,0,B|352:316|351:370|443:345,1,150,6|8,0:0|0:0,0:0:0:0:
481,177,184647,6,0,P|423:210|408:251,1,75,0|2,0:0|0:0,0:0:0:0:
378,92,184854,2,0,P|344:149|351:192,1,75,8|2,0:0|0:0,0:0:0:0:
336,245,185061,2,0,P|297:187|213:183,1,150,0|8,0:0|0:0,0:0:0:0:
140,218,185371,1,2,0:0:0:0:
80,149,185475,2,0,L|1:157,2,75,8|2|2,0:0|0:0|0:0,0:0:0:0:
143,85,185785,5,2,0:0:0:0:
143,85,185889,2,0,P|217:96|275:21,1,150,6|8,0:0|0:0,0:0:0:0:
316,125,186199,2,0,P|370:173|441:161,1,150,0|0,0:0|0:0,0:0:0:0:
489,84,186509,1,8,0:0:0:0:
489,84,186613,1,0,0:0:0:0:
508,376,186820,5,2,0:0:0:0:
508,376,186923,2,0,L|499:287,1,75,8|0,0:0|0:0,0:0:0:0:
412,249,187130,2,0,L|404:323,1,75,2|0,0:0|0:0,0:0:0:0:
243,357,187337,1,8,0:0:0:0:
243,357,187440,1,8,0:0:0:0:
243,357,187544,1,6,0:0:0:0:
143,207,187751,6,0,P|56:219|13:299,1,150,8|2,0:0|0:0,0:0:0:0:
36,353,188061,1,2,0:0:0:0:
36,353,188164,2,0,P|41:305|29:273,1,75,8|2,0:0|0:0,0:0:0:0:
191,135,188371,2,0,L|173:296,2,150,0|8|6,0:0|0:0|0:0,0:0:0:0:
133,64,188889,1,8,0:0:0:0:
133,64,188992,6,0,P|180:44|216:47,1,75,2|8,0:0|0:0,0:0:0:0:
350,146,189199,2,0,P|398:96|406:0,1,150,6|8,0:0|0:0,0:0:0:0:
424,198,189613,2,0,P|411:248|429:295,2,75,2|2|8,0:0|0:0|0:0,0:0:0:0:
493,291,189923,2,0,L|331:316,1,150,2|2,0:0|0:0,0:0:0:0:
344,313,190233,1,8,0:0:0:0:
78,256,190440,5,8,0:0:0:0:
167,241,190544,1,2,0:0:0:0:
209,255,190647,1,2,0:0:0:0:
223,270,190751,1,2,0:0:0:0:
259,352,190854,2,0,P|262:279|293:189,1,150,6|2,0:0|0:0,0:0:0:0:
197,123,191164,2,0,P|200:196|231:286,1,150,12|2,0:0|0:0,0:0:0:0:
339,141,191475,1,12,0:0:0:0:
256,192,191578,12,2,192509,0:0:0:0:
393,329,199130,6,0,P|391:273|474:208,3,150,2|2|2|2,0:0|0:0|0:0|0:0,0:0:0:0:
301,35,200785,2,0,P|299:91|382:156,3,150,2|2|2|2,0:0|0:0|0:0|0:0,0:0:0:0:
189,105,202440,2,0,L|24:118,1,150,2|2,0:0|0:0,0:0:0:0:
125,275,203268,2,0,L|116:340,2,37.5,2|2|8,0:0|0:0|0:0,0:0:0:0:
125,275,203682,1,8,0:0:0:0:
125,275,203889,5,8,0:0:0:0:
9,136,204096,2,0,B|52:117|52:117|140:137,1,112.500004291535,6|8,0:0|0:0,0:0:0:0:
3,157,204406,2,0,B|46:138|46:138|134:158,1,112.500004291535,2|8,0:0|0:0,0:0:0:0:
189,176,204716,1,8,0:0:0:0:
339,52,204923,5,8,0:0:0:0:
339,52,205027,1,8,0:0:0:0:
339,52,205130,1,8,0:0:0:0:
339,52,205233,1,8,0:0:0:0:
339,52,205337,1,8,0:0:0:0:
339,52,205440,1,8,0:0:0:0:
339,52,205544,1,8,0:0:0:0:
339,52,205647,1,8,0:0:0:0:
339,52,205751,6,0,P|316:104|324:156,1,75,6|0,0:0|0:0,0:0:0:0:
455,157,205958,2,0,P|449:120|431:87,1,75,8|0,0:0|0:0,0:0:0:0:
295,239,206164,2,0,P|270:318|303:377,1,150,2|8,0:0|0:0,0:0:0:0:
441,241,206475,6,0,B|380:219|357:269|293:238,1,150,2|2,0:0|0:0,0:0:0:0:
155,183,206785,2,0,P|212:169|261:189,1,75,8|0,0:0|0:0,0:0:0:0:
116,262,206992,2,0,P|78:263|44:250,1,75,2|0,0:0|0:0,0:0:0:0:
0,17,207199,5,8,0:0:0:0:
0,17,207302,1,8,0:0:0:0:
0,17,207406,2,0,L|10:180,1,150,6|8,0:0|0:0,0:0:0:0:
93,46,207716,2,0,L|101:182,1,75,0|2,0:0|0:0,0:0:0:0:
181,154,207923,1,2,0:0:0:0:
256,104,208027,2,0,B|331:86|331:143|418:118,1,150,8|0,0:0|0:0,0:0:0:0:
432,299,208440,6,0,P|437:237|516:182,2,150,8|2|8,0:0|0:0|0:0,0:0:0:0:
357,351,208958,1,8,0:0:0:0:
357,351,209061,2,0,L|261:348,1,75,6|0,0:0|0:0,0:0:0:0:
135,298,209268,2,0,L|231:295,1,75,8|0,0:0|0:0,0:0:0:0:
312,253,209475,2,0,P|236:258|183:204,1,150,2|8,0:0|0:0,0:0:0:0:
39,198,209785,6,0,B|115:173|114:225|192:208,1,150,2|2,0:0|0:0,0:0:0:0:
187,118,210096,2,0,P|136:129|106:162,1,75,8|0,0:0|0:0,0:0:0:0:
269,78,210302,2,0,L|273:-7,2,75,2|2|8,0:0|0:0|0:0,0:0:0:0:
263,169,210613,1,8,0:0:0:0:
395,51,210716,6,0,P|313:36|261:101,1,150,6|8,0:0|0:0,0:0:0:0:
432,148,211027,2,0,L|456:-2,1,150,2|2,0:0|0:0,0:0:0:0:
493,201,211337,2,0,B|415:176|420:231|335:196,1,150,12|2,0:0|0:0,0:0:0:0:
185,372,211751,6,0,P|235:368|270:337,1,75,12|0,0:0|0:0,0:0:0:0:
145,238,211957,2,0,P|123:284|132:330,1,75,12|0,0:0|0:0,0:0:0:0:
280,270,212164,2,0,P|251:229|207:214,1,75,12|0,0:0|0:0,0:0:0:0:
123,306,212371,1,6,0:0:0:0:
16,99,212578,5,8,0:0:0:0:
16,99,212682,1,0,0:0:0:0:
16,99,212785,2,0,L|107:109,1,75,2|0,0:0|0:0,0:0:0:0:
235,81,212992,2,0,P|235:45|203:1,1,75,8|2,0:0|0:0,0:0:0:0:
176,150,213199,2,0,P|208:168|245:168,1,75,0|2,0:0|0:0,0:0:0:0:
370,55,213406,6,0,P|296:43|235:80,2,150,8|2|8,0:0|0:0|0:0,0:0:0:0:
432,120,213923,1,8,0:0:0:0:
432,120,214027,1,6,0:0:0:0:
299,301,214233,5,8,0:0:0:0:
299,301,214337,1,0,0:0:0:0:
299,301,214440,2,0,P|269:238|272:213,1,75,2|2,0:0|0:0,0:0:0:0:
512,264,214647,1,8,0:0:0:0:
491,181,214751,1,2,0:0:0:0:
512,264,214854,2,0,P|504:300|481:330,1,75,0|2,0:0|0:0,0:0:0:0:
291,308,215061,6,0,L|185:319,1,75,8|0,0:0|0:0,0:0:0:0:
304,157,215268,2,0,L|378:164,1,75,2|0,0:0|0:0,0:0:0:0:
202,179,215475,1,8,0:0:0:0:
202,179,215578,1,8,0:0:0:0:
202,179,215682,1,6,0:0:0:0:
11,358,215889,5,8,0:0:0:0:
11,358,215992,1,0,0:0:0:0:
11,358,216096,2,0,P|60:370|94:359,1,75,2|0,0:0|0:0,0:0:0:0:
117,177,216302,1,8,0:0:0:0:
117,177,216406,1,2,0:0:0:0:
117,177,216509,2,0,P|80:171|45:183,1,75,0|2,0:0|0:0,0:0:0:0:
181,285,216716,2,0,P|217:308|266:311,1,75,8|0,0:0|0:0,0:0:0:0:
374,210,216923,2,0,P|375:167|354:123,1,75,8|2,0:0|0:0,0:0:0:0:
212,80,217130,6,0,P|175:100|147:141,1,75,8|8,0:0|0:0,0:0:0:0:
359,344,217337,2,0,B|397:288|397:288|368:189,1,150,6|8,0:0|0:0,0:0:0:0:
336,339,217647,2,0,B|374:283|374:283|345:184,1,150,6|2,0:0|0:0,0:0:0:0:
313,128,217958,2,0,P|306:93|315:50,1,75,12|2,0:0|0:0,0:0:0:0:
477,82,218164,6,0,L|377:92,1,75,12|8,0:0|0:0,0:0:0:0:
186,196,218371,2,0,L|286:206,1,75,8|8,0:0|0:0,0:0:0:0:
93,6,218578,1,8,0:0:0:0:
48,84,218682,1,8,0:0:0:0:
109,148,218785,1,8,0:0:0:0:
189,107,218889,1,8,0:0:0:0:
182,18,218992,1,2,0:0:0:0:
86,221,220647,5,2,0:3:0:0:
86,221,221061,1,2,0:3:0:0:
86,221,221475,5,2,0:3:0:0:
86,221,221682,1,2,0:3:0:0:
181,182,221889,2,0,P|209:173|251:179,1,56.2500021457673,8|2,0:0|0:0,0:0:0:0:
106,132,222096,5,8,0:0:0:0:
106,132,222199,1,8,0:0:0:0:
106,132,222302,2,0,P|69:132|34:146,1,75,6|0,0:0|0:0,0:0:0:0:
64,308,222509,2,0,P|101:308|135:295,1,75,8|0,0:0|0:0,0:0:0:0:
236,175,222716,2,0,B|299:162|303:221|384:201,1,150,2|8,0:0|0:0,0:0:0:0:
351,115,223027,6,0,P|292:87|190:96,1,150,2|2,0:0|0:0,0:0:0:0:
200,362,223337,1,8,0:0:0:0:
141,294,223440,1,0,0:0:0:0:
171,208,223544,2,0,P|243:175|288:195,1,75,2|0,0:0|0:0,0:0:0:0:
324,294,223750,5,8,0:0:0:0:
324,294,223853,1,8,0:0:0:0:
324,294,223958,2,0,P|366:300|427:266,1,75,6|0,0:0|0:0,0:0:0:0:
451,205,224164,2,0,P|415:195|379:202,1,75,8|8,0:0|0:0,0:0:0:0:
456,350,224371,2,0,B|418:278|476:277|449:201,1,150,2|8,0:0|0:0,0:0:0:0:
402,90,224682,6,0,P|424:138|523:145,1,150,2|2,0:0|0:0,0:0:0:0:
402,5,224992,1,8,0:0:0:0:
372,11,225096,1,0,0:0:0:0:
318,83,225199,2,0,P|274:87|236:64,1,75,2|8,0:0|0:0,0:0:0:0:
184,14,225406,2,0,P|140:10|102:33,1,75,2|8,0:0|0:0,0:0:0:0:
22,182,225613,6,0,L|26:257,1,75,6|0,0:0|0:0,0:0:0:0:
156,175,225820,2,0,L|160:101,1,75,8|0,0:0|0:0,0:0:0:0:
103,319,226027,2,0,B|155:321|155:321|186:341|186:341|248:344,1,150,2|8,0:0|0:0,0:0:0:0:
425,269,226337,6,0,P|354:233|279:278,1,150,6|2,0:0|0:0,0:0:0:0:
211,220,226647,2,0,P|169:197|149:151,1,75,8|0,0:0|0:0,0:0:0:0:
320,183,226854,2,0,P|335:148|330:111,1,75,2|0,0:0|0:0,0:0:0:0:
209,39,227061,5,8,0:0:0:0:
209,39,227164,1,8,0:0:0:0:
240,131,227268,2,0,B|173:91|158:147|93:93,2,150,6|8|2,0:0|0:0|0:0,0:0:0:0:
320,183,227785,1,2,0:0:0:0:
304,275,227889,1,8,0:0:0:0:
320,183,227992,6,0,P|408:162|445:207,1,150,2|2,0:0|0:0,0:0:0:0:
502,135,228302,2,0,P|478:106|431:83,1,75,8|8,0:0|0:0,0:0:0:0:
285,93,228509,2,0,P|250:103|213:97,2,75,2|2|2,0:0|0:0|0:0,0:0:0:0:
244,11,228820,1,2,0:0:0:0:
125,128,228923,6,0,L|20:133,1,75,6|0,0:0|0:0,0:0:0:0:
170,7,229130,2,0,L|245:10,1,75,8|0,0:0|0:0,0:0:0:0:
171,220,229337,2,0,B|118:225|118:225|75:248|75:248|5:253,1,150,2|8,0:0|0:0,0:0:0:0:
166,349,229647,6,0,P|198:301|148:206,1,150,2|2,0:0|0:0,0:0:0:0:
184,46,229958,1,8,0:0:0:0:
217,129,230061,1,0,0:0:0:0:
305,142,230164,2,0,P|351:139|381:110,1,75,2|0,0:0|0:0,0:0:0:0:
494,38,230371,5,8,0:0:0:0:
494,38,230475,1,8,0:0:0:0:
494,38,230578,2,0,P|443:37|405:66,1,75,6|0,0:0|0:0,0:0:0:0:
441,202,230785,2,0,P|476:215|513:211,1,75,8|0,0:0|0:0,0:0:0:0:
348,231,230992,2,0,L|342:412,1,150,2|8,0:0|0:0,0:0:0:0:
231,190,231302,6,0,P|293:174|349:238,1,150,2|2,0:0|0:0,0:0:0:0:
153,298,231613,1,8,0:0:0:0:
151,268,231716,1,8,0:0:0:0:
102,195,231820,2,0,P|93:158|114:107,1,75,2|8,0:0|0:0,0:0:0:0:
188,84,232027,2,0,P|197:47|176:-4,1,75,2|8,0:0|0:0,0:0:0:0:
23,41,232233,6,0,L|136:37,1,75,6|0,0:0|0:0,0:0:0:0:
263,172,232440,2,0,L|189:169,1,75,8|0,0:0|0:0,0:0:0:0:
287,48,232647,2,0,P|355:48|399:131,1,150,2|8,0:0|0:0,0:0:0:0:
388,254,232958,6,0,B|312:226|309:294|222:251,1,150,6|2,0:0|0:0,0:0:0:0:
162,201,233268,2,0,P|151:164|161:122,1,75,8|0,0:0|0:0,0:0:0:0:
153,291,233475,2,0,P|142:328|152:370,1,75,2|0,0:0|0:0,0:0:0:0:
137,40,233682,5,8,0:0:0:0:
137,40,233785,1,8,0:0:0:0:
157,128,233889,2,0,P|76:141|28:84,2,150,6|8|2,0:0|0:0|0:0,0:0:0:0:
240,93,234406,1,2,0:0:0:0:
328,110,234509,1,8,0:0:0:0:
240,93,234613,6,0,B|268:172|201:174|240:264,1,150,2|2,0:0|0:0,0:0:0:0:
302,296,234923,1,8,0:0:0:0:
302,296,235027,1,8,0:0:0:0:
389,275,235130,1,8,0:0:0:0:
389,275,235233,1,8,0:0:0:0:
466,321,235337,5,8,0:0:0:0:
466,321,235440,1,8,0:0:0:0:
466,321,235544,2,0,P|482:259|398:178,1,179.999994506836,6|10,0:0|0:0,0:0:0:0:
358,0,235854,2,0,P|374:62|290:143,1,179.999994506836,6|8,0:0|0:0,0:0:0:0:
117,173,236164,1,14,0:0:0:0:
256,192,236268,12,0,240923,0:0:0:0:
