osu file format v14

[General]
AudioFilename: audio.mp3
AudioLeadIn: 0
PreviewTime:49375
Countdown: 0
SampleSet: Soft
StackLeniency: 0.6
Mode: 0
LetterboxInBreaks: 0
WidescreenStoryboard: 1

[Editor]
Bookmarks:49839,108293,168602
DistanceSpacing: 1
BeatDivisor: 4
GridSize: 16
TimelineZoom: 2.299999

[Metadata]
Title:caramel heaven
TitleUnicode:キャラメルへヴン
Artist:yuikonnu
ArtistUnicode:ゆいこんぬ
Creator:Nevo
Version:xChorse & Hooni's Extra
Source:
Tags:keevy Kazarii arc [arc] xchorse hooni amb1d3x Hishiro Chizuru kowari Hitsukuya kibbleru Kyuukai japanese rock utaite female Japanese Rock JRock J-Rock cover GUMI グミ Megpoid メグッポイド Vocaloid ボーカロイド VOCALOID2 Last Note. Nakanishi Irojiro キャラメルヘヴン Kyarameru Hebun Setsuna Code, first trip, VOCAROCK collection 4 feat. Hatsune Miku doorweapon Hojo Karen Mimiliaa Suzuhara Lulu dog food p1twist paul blart
BeatmapID:2438734
BeatmapSetID:1113893

[Difficulty]
HPDrainRate:5
CircleSize:4
OverallDifficulty:8.6
ApproachRate:9.4
SliderMultiplier:1.5
SliderTickRate:1

[Events]
//Background and Video events
0,0,"asdf.jpg",0,0
//Break Periods
2,72307,78990
2,168802,177959
//Storyboard Layer 0 (Background)
//Storyboard Layer 1 (Fail)
//Storyboard Layer 2 (Pass)
//Storyboard Layer 3 (Foreground)
//Storyboard Layer 4 (Overlay)
//Storyboard Sound Samples

[TimingPoints]
355,309.278350515464,4,2,1,50,1,0
509,-133.333333333333,4,2,1,50,0,0
664,-133.333333333333,4,2,1,50,0,0
2829,-133.333333333333,4,2,1,50,0,0
3138,-133.333333333333,4,2,1,50,0,0
5303,-133.333333333333,4,2,1,50,0,0
5612,-133.333333333333,4,2,1,50,0,0
7777,-133.333333333333,4,2,1,50,0,0
8086,-133.333333333333,4,2,1,50,0,0
9014,-66.6666666666667,4,2,1,70,0,0
10251,-100,4,2,1,70,0,0
11334,-100,4,2,1,70,0,0
12571,-80,4,2,1,70,0,0
13035,-100,4,2,1,70,0,0
16282,-100,4,2,1,70,0,0
17519,-80,4,2,1,70,0,0
17983,-100,4,2,1,70,0,0
20148,-100,4,2,1,55,0,0
30045,-100,4,2,1,60,0,0
39942,-100,4,2,1,50,0,0
40561,-100,4,2,1,50,0,0
42416,-100,4,2,1,50,0,0
43963,-100,4,2,1,50,0,0
44891,-100,4,2,1,50,0,0
45509,-100,4,2,1,50,0,0
47365,-100,4,2,1,60,0,0
48602,-100,4,2,1,60,0,0
48757,-100,4,2,1,60,0,0
49220,-100,4,2,1,5,0,0
49375,-100,4,2,1,60,0,0
49839,-66.6666666666667,4,2,4,75,0,1
49916,-66.6666666666667,4,2,1,75,0,1
50922,-66.6666666666667,4,2,1,75,0,1
51385,-83.3333333333333,4,2,1,75,0,1
52159,-66.6666666666667,4,2,1,75,0,1
53396,-76.9230769230769,4,2,1,75,0,1
54014,-76.9230769230769,4,2,1,75,0,1
54478,-83.3333333333333,4,2,1,75,0,1
54787,-66.6666666666667,4,2,1,75,0,1
55870,-66.6666666666667,4,2,1,75,0,1
57107,-66.6666666666667,4,2,1,75,0,1
57571,-83.3333333333333,4,2,1,75,0,1
58963,-76.9230769230769,4,2,1,75,0,1
59736,-83.3333333333333,4,2,4,75,0,1
59813,-83.3333333333333,4,2,1,75,0,1
60818,-66.6666666666667,4,2,1,75,0,1
61282,-83.3333333333333,4,2,1,75,0,1
62056,-76.9230769230769,4,2,1,75,0,1
63293,-83.3333333333333,4,2,1,75,0,1
65767,-66.6666666666667,4,2,1,75,0,1
67468,-76.9230769230769,4,2,1,75,0,1
68241,-66.6666666666667,4,2,1,75,0,1
69169,-100,4,2,1,75,0,1
69633,-100,4,2,1,60,0,1
69710,-100,4,2,1,60,0,0
71952,-100,4,2,1,60,0,0
79530,-100,4,2,1,55,0,0
84478,-100,4,2,1,55,0,0
84787,-100,4,2,1,55,0,0
85406,-100,4,2,1,55,0,0
86179,-100,4,2,1,55,0,0
86952,-100,4,2,1,55,0,0
88190,-100,4,2,1,55,0,0
89427,-100,4,2,1,60,0,0
99324,-100,4,2,1,50,0,0
99787,-100,4,2,1,5,0,0
99942,-100,4,2,1,50,0,0
100406,-83.3333333333333,4,2,1,50,0,0
100870,-100,4,2,1,50,0,0
101720,-100,4,2,1,5,0,0
101798,-100,4,2,1,50,0,0
102262,-100,4,2,1,5,0,0
102416,-100,4,2,1,50,0,0
102880,-83.3333333333333,4,2,1,50,0,0
103344,-100,4,2,1,50,0,0
104272,-100,4,2,1,60,0,0
105355,-83.3333333333333,4,2,1,60,0,0
105818,-100,4,2,1,60,0,0
107983,-142.857142857143,4,2,1,60,0,0
108293,-76.9230769230769,4,2,1,60,0,0
108757,-90.9090909090909,4,2,1,60,0,0
109220,-66.6666666666667,4,2,4,75,0,1
109298,-66.6666666666667,4,2,1,75,0,1
109529,-100,4,2,1,75,0,1
110303,-66.6666666666667,4,2,1,75,0,1
110767,-100,4,2,1,75,0,1
111540,-41.6666666666667,4,2,1,75,0,1
111849,-100,4,2,1,75,0,1
112777,-66.6666666666667,4,2,1,75,0,1
113241,-100,4,2,1,75,0,1
113859,-100,4,2,1,75,0,1
114168,-66.6666666666667,4,2,1,75,0,1
114478,-100,4,2,1,75,0,1
115251,-66.6666666666667,4,2,1,75,0,1
115715,-100,4,2,1,75,0,1
116489,-50,4,2,1,75,0,1
116952,-100,4,2,1,75,0,1
117726,-66.6666666666667,4,2,1,75,0,1
119117,-66.6666666666667,4,2,4,75,0,1
119195,-66.6666666666667,4,2,1,75,0,1
119736,-100,4,2,1,75,0,1
120200,-66.6666666666667,4,2,1,75,0,1
125612,-100,4,2,1,75,0,1
126385,-66.6666666666667,4,2,1,75,0,1
129014,-100,4,2,1,70,0,0
130097,-100,4,2,1,70,0,0
130406,-100,4,2,1,70,0,0
131720,-100,4,2,1,70,0,0
132726,-66.6666666666667,4,2,1,70,0,0
133499,-100,4,2,1,70,0,0
138293,-66.6666666666667,4,2,1,70,0,0
138602,-100,4,2,1,70,0,1
143860,-100,4,2,1,70,0,1
148808,-100,4,2,1,50,0,0
151282,-100,4,2,1,50,0,0
153757,-100,4,2,1,50,0,0
158705,-100,4,2,1,60,0,0
167365,-222.222222222221,4,2,1,60,0,0
167519,-100,4,2,1,60,0,0
167674,-100,4,2,1,5,0,0
167983,-100,4,2,1,5,0,0
168138,-100,4,2,1,30,0,0
168602,-100,4,2,1,40,0,0
178499,-125,4,2,1,45,0,0
180818,-125,4,2,1,45,0,0
183447,-125,4,2,1,45,0,0
184066,-125,4,2,1,45,0,0
187159,-100,4,2,1,45,0,1
188086,-100,4,2,1,45,0,0
188396,-66.6666666666667,4,2,4,75,0,1
188473,-66.6666666666667,4,2,1,75,0,1
189479,-66.6666666666667,4,2,1,75,0,1
189942,-83.3333333333333,4,2,1,75,0,1
190715,-66.6666666666667,4,2,1,75,0,1
191952,-76.9230769230769,4,2,1,75,0,1
192571,-76.9230769230769,4,2,1,75,0,1
193035,-83.3333333333333,4,2,1,75,0,1
193344,-66.6666666666667,4,2,1,75,0,1
194427,-66.6666666666667,4,2,1,75,0,1
195664,-66.6666666666667,4,2,1,75,0,1
196128,-83.3333333333333,4,2,1,75,0,1
197519,-76.9230769230769,4,2,1,75,0,1
198293,-83.3333333333333,4,2,4,75,0,1
198370,-83.3333333333333,4,2,1,75,0,1
199375,-66.6666666666667,4,2,1,75,0,1
199839,-83.3333333333333,4,2,1,75,0,1
200612,-76.9230769230769,4,2,1,75,0,1
201849,-83.3333333333333,4,2,1,75,0,1
204324,-66.6666666666667,4,2,1,75,0,1
204787,-83.3333333333333,4,2,1,75,0,1
206025,-76.9230769230769,4,2,1,75,0,1
206798,-66.6666666666667,4,2,1,75,0,1
207880,-66.6666666666667,4,2,1,75,0,1
208190,-90.9090909090909,4,2,1,70,0,0
209272,-90.9090909090909,4,2,1,70,0,0
210509,-90.9090909090909,4,2,1,70,0,0
212829,-76.9230769230769,4,2,1,70,0,0
213138,-90.9090909090909,4,2,1,70,0,0
214220,-90.9090909090909,4,2,1,70,0,0
215458,-90.9090909090909,4,2,1,70,0,0
217777,-66.6666666666667,4,2,1,70,0,0
218086,-83.3333333333333,4,2,1,70,0,1
220406,-66.6666666666667,4,2,1,70,0,1
220870,-83.3333333333333,4,2,1,70,0,1
225355,-66.6666666666667,4,2,1,70,0,1
225818,-83.3333333333333,4,2,1,70,0,1
226592,-83.3333333333333,4,2,1,70,0,1
226746,-83.3333333333333,4,2,1,70,0,1
227519,-66.6666666666667,4,2,1,70,0,1
227829,-384.615384615385,4,2,1,70,0,0
227906,-384.615384615385,4,2,1,5,0,0
229143,-384.615384615385,4,2,1,5,0,0
229220,-384.615384615385,4,2,1,5,0,0
230458,-384.615384615385,4,2,1,5,0,0
231695,-384.615384615385,4,2,1,5,0,0
232313,-384.615384615385,4,2,1,5,0,0
232623,-384.615384615385,4,2,1,5,0,0
232932,-384.615384615385,4,2,1,5,0,0
233241,-384.615384615385,4,2,1,5,0,0
233550,-384.615384615385,4,2,1,5,0,0
233860,-384.615384615385,4,2,1,5,0,0
234169,-384.615384615385,4,2,1,5,0,0
235406,-384.615384615385,4,2,1,5,0,0
236334,-384.615384615385,4,2,1,5,0,0

[Colours]
Combo1 : 222,152,217
Combo2 : 10,183,192
Combo3 : 255,156,138

[HitObjects]
73,263,355,5,8,0:0:0:0:
73,263,509,2,0,L|66:336,1,56.2500021457673,8|0,0:0|0:0,0:0:0:0:
155,212,818,1,2,0:0:0:0:
155,212,973,2,0,L|155:280,1,56.2500021457673,2|0,0:0|0:0,0:0:0:0:
237,263,1282,1,2,0:0:0:0:
237,263,1437,2,0,L|244:336,1,56.2500021457673,2|0,0:0|0:0,0:0:0:0:
355,193,1746,5,2,0:0:0:0:
286,170,1901,1,2,0:0:0:0:
286,98,2056,1,0,0:0:0:0:
355,75,2210,5,2,0:0:0:0:
289,115,2365,1,0,0:0:0:0:
219,77,2519,1,2,0:0:0:0:
153,117,2674,1,0,0:0:0:0:
390,273,2829,5,8,0:0:0:0:
390,273,2983,2,0,L|397:200,1,56.2500021457673,8|0,0:0|0:0,0:0:0:0:
308,324,3293,1,2,0:0:0:0:
308,324,3447,2,0,L|308:256,1,56.2500021457673,2|0,0:0|0:0,0:0:0:0:
226,273,3757,1,2,0:0:0:0:
226,273,3911,2,0,L|219:200,1,56.2500021457673,0|2,0:0|0:0,0:0:0:0:
72,91,4220,5,2,0:0:0:0:
147,116,4375,1,2,0:0:0:0:
147,195,4530,1,0,0:0:0:0:
72,219,4684,5,2,0:0:0:0:
143,176,4839,1,0,0:0:0:0:
220,217,4994,1,2,0:0:0:0:
291,174,5148,1,0,0:0:0:0:
466,194,5303,5,8,0:0:0:0:
466,194,5458,2,0,P|470:228|485:271,1,56.2500021457673,8|0,0:0|0:0,0:0:0:0:
384,143,5767,1,2,0:0:0:0:
384,143,5922,2,0,L|384:211,1,56.2500021457673,2|0,0:0|0:0,0:0:0:0:
302,194,6231,1,2,0:0:0:0:
302,194,6385,2,0,P|298:228|283:271,1,56.2500021457673,2|0,0:0|0:0,0:0:0:0:
207,67,6695,5,2,0:0:0:0:
158,138,6849,1,2,0:0:0:0:
74,116,7004,1,0,0:0:0:0:
70,31,7159,5,2,0:0:0:0:
96,118,7313,1,0,0:0:0:0:
30,187,7468,1,2,0:0:0:0:
56,275,7623,1,0,0:0:0:0:
207,67,7777,5,8,0:0:0:0:
269,144,7932,2,0,L|370:129,1,56.2500021457673,8|0,0:0|0:0,0:0:0:0:
403,196,8241,1,2,0:0:0:0:
441,49,8396,2,0,P|419:78|413:134,1,56.2500021457673,2|0,3:0|0:0,0:0:0:0:
512,206,8705,2,0,P|501:179|483:158,1,56.2500021457673,2|0,3:0|0:0,0:0:0:0:
173,242,9014,5,14,0:0:0:0:
382,347,9169,1,8,3:0:0:0:
382,347,9246,1,8,3:0:0:0:
382,347,9324,2,0,L|394:251,1,56.2500021457673,4|4,3:0|3:0,0:0:0:0:
403,196,9478,1,14,0:0:0:0:
202,338,9633,1,8,3:0:0:0:
146,338,9710,1,8,3:0:0:0:
99,308,9787,1,4,3:0:0:0:
75,258,9865,1,4,3:0:0:0:
80,203,9942,2,0,B|85:162|85:162|100:142|100:142|108:76,1,112.500004291535,14|0,0:0|0:0,0:0:0:0:
374,163,10251,5,6,1:2:0:0:
374,163,10329,1,2,0:0:0:0:
374,163,10406,1,2,1:2:0:0:
166,200,10561,1,10,0:0:0:0:
239,17,10715,1,2,0:0:0:0:
288,266,10870,1,2,1:2:0:0:
232,11,11025,2,0,L|126:-2,1,75,2|0,1:2|0:0,0:0:0:0:
48,149,11334,1,2,1:2:0:0:
224,154,11489,5,2,0:0:0:0:
137,293,11643,1,2,1:2:0:0:
53,43,11798,1,10,0:0:0:0:
237,145,11952,1,2,1:2:0:0:
17,255,12107,1,2,0:0:0:0:
288,266,12262,1,2,1:2:0:0:
307,262,12339,1,2,1:2:0:0:
325,257,12416,1,10,0:0:0:0:
53,43,12571,6,0,B|11:93|36:164|36:164|43:122|96:92,1,187.5,6|2,1:2|1:2,0:0:0:0:
133,187,13035,1,10,0:0:0:0:
8,312,13190,1,2,1:2:0:0:
195,340,13344,1,2,0:0:0:0:
191,321,13422,1,2,0:0:0:0:
186,303,13499,1,2,1:2:0:0:
237,145,13653,1,10,0:0:0:0:
21,201,13808,1,6,1:0:0:0:
274,245,13963,6,0,P|306:227|336:184,1,75,0|2,0:0|1:2,0:0:0:0:
229,70,14272,2,0,L|240:176,1,75,10|14,0:0|0:0,0:0:0:0:
126,321,14581,1,2,0:0:0:0:
88,151,14736,1,2,1:2:0:0:
353,317,14891,1,8,3:0:0:0:
409,317,14968,1,8,3:0:0:0:
456,287,15045,1,4,3:0:0:0:
480,237,15123,1,4,3:0:0:0:
475,182,15200,5,6,1:2:0:0:
456,180,15277,1,2,0:0:0:0:
437,185,15355,1,2,1:2:0:0:
270,326,15509,1,10,0:0:0:0:
314,80,15664,1,2,0:0:0:0:
197,214,15818,1,2,1:2:0:0:
322,69,15973,2,0,L|396:59,1,75,2|10,1:2|0:0,0:0:0:0:
437,185,16282,1,6,1:2:0:0:
212,38,16437,5,2,0:0:0:0:
164,307,16592,1,2,1:2:0:0:
129,107,16746,5,10,0:0:0:0:
283,241,16901,1,2,1:2:0:0:
322,69,17056,5,2,0:0:0:0:
126,218,17210,1,0,1:2:0:0:
107,214,17287,1,2,1:2:0:0:
89,209,17365,1,10,0:0:0:0:
405,347,17519,6,0,B|455:344|474:303|474:303|436:184,1,187.5,6|2,1:2|1:2,0:0:0:0:
283,241,17983,1,10,0:0:0:0:
435,74,18138,1,2,1:2:0:0:
198,51,18293,1,2,0:0:0:0:
179,55,18370,1,2,0:0:0:0:
161,60,18447,1,2,1:2:0:0:
436,184,18602,1,10,0:0:0:0:
302,0,18757,1,6,1:0:0:0:
228,240,18911,5,0,0:0:0:0:
332,98,19066,1,2,1:2:0:0:
89,209,19220,1,10,0:0:0:0:
332,350,19375,2,0,L|423:340,1,75,14|0,0:0|0:0,0:0:0:0:
435,74,19684,1,2,1:2:0:0:
176,153,19839,1,10,0:0:0:0:
149,141,19916,1,8,0:0:0:0:
126,124,19994,1,10,0:0:0:0:
112,100,20071,1,8,0:0:0:0:
106,74,20148,6,0,L|121:-29,1,75,6|2,1:2|1:2,0:0:0:0:
334,151,20458,2,0,P|300:166|263:163,1,75,10|2,0:0|1:2,0:0:0:0:
78,283,20767,2,0,L|93:180,1,75,2|0,0:0|1:2,0:0:0:0:
88,208,20999,1,0,0:0:0:0:
88,208,21076,1,10,0:0:0:0:
201,261,21231,1,0,1:2:0:0:
165,78,21385,6,0,L|175:152,1,75,2|0,0:1|0:0,0:0:0:0:
317,259,21695,2,0,L|327:185,1,75,10|2,0:1|1:1,0:0:0:0:
512,115,22004,2,0,P|455:120|423:63,1,112.5,2|0,0:0|0:0,0:0:0:0:
440,62,22313,1,10,0:0:0:0:
334,151,22468,1,8,0:0:0:0:
247,41,22623,6,0,P|201:16|145:15,1,75,6|2,1:2|1:2,0:0:0:0:
115,179,22932,2,0,P|151:170|182:150,1,75,10|2,0:0|1:2,0:0:0:0:
0,34,23241,2,0,L|15:137,1,75,2|0,0:0|1:2,0:0:0:0:
10,109,23473,1,0,0:0:0:0:
10,109,23550,1,10,0:0:0:0:
0,232,23705,1,2,1:2:0:0:
110,290,23860,6,0,P|146:281|177:261,1,75,2|0,0:1|0:0,0:0:0:0:
320,361,24169,2,0,P|288:341|252:332,1,75,10|2,0:1|1:1,0:0:0:0:
386,173,24478,2,0,B|416:161|416:161|409:240,1,112.5,2|0,0:0|0:0,0:0:0:0:
398,249,24787,1,10,0:0:0:0:
480,308,24942,1,8,0:0:0:0:
499,91,25097,6,0,L|395:67,1,75,6|2,1:2|1:2,0:0:0:0:
259,16,25406,2,0,L|363:-8,1,75,10|2,0:0|1:2,0:0:0:0:
204,120,25715,2,0,P|166:91|130:86,1,75,2|2,0:0|1:2,0:0:0:0:
129,94,25947,1,2,1:2:0:0:
129,94,26025,1,10,0:0:0:0:
182,279,26179,6,0,B|278:298|233:217|351:238,1,150,2|2,1:2|1:1,0:0:0:0:
482,241,26643,2,0,L|468:341,1,75,10|2,0:1|1:1,0:0:0:0:
395,163,26952,2,0,L|384:88,1,75,2|2,0:0|1:1,0:0:0:0:
325,332,27262,1,10,0:0:0:0:
484,149,27416,1,10,0:0:0:0:
325,332,27571,6,0,B|236:347|236:347|201:336|194:307,1,150,6|8,1:2|0:0,0:0:0:0:
150,188,28035,2,0,B|239:173|239:173|274:184|281:213,1,150,2|0,1:2|1:2,0:0:0:0:
276,222,28422,1,0,1:2:0:0:
271,232,28499,1,10,0:0:0:0:
335,117,28653,1,0,1:2:0:0:
325,332,28808,5,10,0:1:0:0:
150,188,28963,1,10,0:1:0:0:
459,234,29117,1,10,0:1:0:0:
101,277,29272,5,6,1:1:0:0:
347,102,29581,1,6,1:1:0:0:
20,25,29891,1,4,3:0:0:0:
20,25,29968,1,0,0:0:0:0:
20,25,30045,6,0,P|4:66|3:118,1,75,6|2,1:2|1:2,0:0:0:0:
188,181,30355,2,0,P|183:143|168:109,1,75,10|2,0:0|1:2,0:0:0:0:
0,249,30664,2,0,P|38:278|74:283,1,75,2|0,0:0|1:2,0:0:0:0:
75,275,30896,1,0,1:2:0:0:
75,275,30973,1,10,0:0:0:0:
175,322,31128,1,2,1:2:0:0:
322,174,31282,6,0,L|307:261,1,75,2|0,0:1|0:0,0:0:0:0:
175,107,31592,2,0,L|190:194,1,75,10|2,0:0|1:1,0:0:0:0:
477,114,31901,2,0,P|426:105|412:26,1,112.5,2|0,0:0|0:0,0:0:0:0:
418,37,32210,1,10,0:0:0:0:
322,174,32365,1,8,0:0:0:0:
192,78,32519,6,0,P|164:69|109:59,1,75,6|2,1:2|1:2,0:0:0:0:
0,191,32829,2,0,P|28:182|83:172,1,75,10|2,0:0|1:2,0:0:0:0:
118,351,33138,2,0,L|133:248,1,75,2|0,0:0|0:0,0:0:0:0:
128,276,33370,1,0,0:0:0:0:
128,276,33447,1,10,0:0:0:0:
195,185,33602,1,2,1:2:0:0:
272,309,33757,6,0,P|309:303|355:265,1,75,2|0,0:1|0:0,0:0:0:0:
405,165,34066,2,0,P|373:145|336:139,1,75,10|2,0:0|1:1,0:0:0:0:
484,372,34375,2,0,L|502:252,1,112.5,2|0,0:0|0:0,0:0:0:0:
512,251,34684,1,10,0:0:0:0:
454,94,34839,1,8,0:0:0:0:
233,227,34994,6,0,P|223:192|212:142,1,75,6|2,1:2|1:2,0:0:0:0:
88,136,35303,2,0,P|98:101|109:51,1,75,10|2,0:0|1:2,0:0:0:0:
369,39,35612,2,0,P|315:55|275:44,1,75,2|2,0:0|1:2,0:0:0:0:
279,39,35844,1,2,1:2:0:0:
279,39,35922,1,10,0:0:0:0:
97,271,36076,6,0,B|193:290|148:209|266:230,1,150,2|2,1:2|1:2,0:0:0:0:
315,328,36540,1,10,0:0:0:0:
383,180,36695,1,2,1:1:0:0:
497,310,36849,2,0,P|510:267|509:206,1,75,2|2,0:0|1:1,0:0:0:0:
269,148,37159,5,10,0:0:0:0:
463,84,37313,1,10,0:0:0:0:
267,233,37468,6,0,P|204:202|190:115,1,150,6|8,1:2|0:0,0:0:0:0:
271,63,37932,2,0,P|336:96|353:167,1,150,2|0,1:1|1:2,0:0:0:0:
359,259,38318,1,0,0:0:0:0:
359,259,38396,2,0,L|341:366,1,75,10|0,0:1|1:2,0:0:0:0:
229,140,38705,6,0,P|176:127|129:144,1,75,2|0,1:2|1:2,0:0:0:0:
138,285,39014,2,0,P|175:245|184:196,1,75,10|0,0:0|1:2,0:0:0:0:
57,133,39324,1,8,0:0:0:0:
57,142,39401,1,8,0:0:0:0:
58,151,39478,1,8,0:0:0:0:
60,160,39556,1,8,0:0:0:0:
63,169,39633,1,8,3:0:0:0:
67,178,39710,1,8,3:0:0:0:
72,186,39787,1,4,3:0:0:0:
78,193,39865,1,4,3:0:0:0:
84,200,39942,6,0,B|122:206|142:183|142:183|164:194|178:209|178:209|206:176|240:170,1,150,6|0,1:2|0:0,0:0:0:0:
263,267,40406,1,0,1:2:0:0:
367,92,40561,6,0,P|383:125|393:161,2,75,14|0|2,0:0|0:0|1:2,0:0:0:0:
501,237,41025,2,0,B|491:215|454:219|454:219|410:265|340:230,1,150,14|2,0:0|1:2,0:0:0:0:
277,166,41489,1,2,0:0:0:0:
170,270,41643,1,2,1:2:0:0:
165,251,41720,1,0,0:0:0:0:
161,233,41798,2,0,L|169:133,1,75,14|2,0:0|0:0,0:0:0:0:
315,86,42107,1,6,1:2:0:0:
132,40,42262,1,10,0:0:0:0:
363,234,42416,6,0,B|367:195|367:195|364:185|364:185|367:178|367:178|356:161|356:161|393:143|399:103,1,150,6|0,1:2|1:2,0:0:0:0:
380,7,42880,1,0,1:2:0:0:
243,112,43035,2,0,B|208:93|208:93|253:66|322:88,1,150,14|2,0:0|1:2,0:0:0:0:
297,293,43499,6,0,B|290:320|255:331|255:331|166:316,1,150,14|2,0:0|1:2,0:0:0:0:
136,294,43885,1,0,0:0:0:0:
136,294,43963,1,2,0:0:0:0:
54,193,44117,1,2,1:2:0:0:
172,150,44272,2,0,P|186:109|184:43,1,75,14|0,0:0|1:0,0:0:0:0:
260,285,44581,1,14,0:0:0:0:
297,293,44659,1,8,0:0:0:0:
331,280,44736,1,0,1:2:0:0:
354,251,44813,1,0,1:2:0:0:
357,214,44891,6,0,B|397:197|433:220|433:220|455:211|462:201|462:201|478:205|507:222,1,150,6|0,1:2|0:0,0:0:0:0:
379,84,45355,1,0,1:2:0:0:
235,186,45509,6,0,L|226:107,1,75,14|0,0:0|0:0,0:0:0:0:
116,142,45818,1,2,1:2:0:0:
115,57,45973,2,0,L|106:131,1,75,14|0,0:0|0:0,0:0:0:0:
31,283,46282,2,0,B|116:300|84:225|183:245,1,150,2|2,1:2|1:2,0:0:0:0:
248,282,46669,1,0,0:0:0:0:
248,282,46746,2,0,P|293:295|345:278,1,75,14|2,0:0|0:0,0:0:0:0:
414,121,47056,1,6,1:2:0:0:
294,194,47210,1,10,0:0:0:0:
432,300,47365,5,14,0:0:0:0:
301,82,47519,1,2,1:2:0:0:
512,214,47674,1,10,0:0:0:0:
166,233,47829,2,0,L|92:220,1,75,2|8,1:2|0:0,0:0:0:0:
213,87,48138,1,2,1:2:0:0:
213,87,48215,1,0,0:0:0:0:
213,87,48293,1,8,0:0:0:0:
99,347,48447,1,2,1:2:0:0:
17,119,48602,1,14,0:0:0:0:
497,126,49375,5,10,0:0:0:0:
475,85,49452,1,8,0:0:0:0:
434,65,49530,1,8,3:0:0:0:
389,74,49607,1,8,3:0:0:0:
358,108,49684,1,8,3:0:0:0:
344,121,49762,1,8,3:0:0:0:
332,128,49839,6,0,B|300:112|264:121|264:121|234:142|234:142|197:151|163:130,1,168.750006437302,6|0,1:1|0:0,0:0:0:0:
140,117,50148,1,10,0:0:0:0:
307,232,50303,1,2,0:1:0:0:
208,21,50458,1,2,1:2:0:0:
137,241,50612,1,2,1:1:0:0:
332,128,50767,1,10,0:0:0:0:
37,176,50922,6,0,B|28:128|28:128|9:99|9:99|18:65|18:65|9:14|9:14|54:54,1,225.000008583069,6|2,1:2|1:2,0:0:0:0:
98,283,51385,2,0,B|57:304|57:304|14:296,1,89.9999972534181,10|2,0:0|1:2,0:0:0:0:
140,117,51695,1,2,0:0:0:0:
256,334,51849,1,2,1:2:0:0:
256,334,51927,1,0,1:2:0:0:
256,334,52004,1,8,0:0:0:0:
512,149,52159,6,0,B|481:180|434:182|434:182|392:163|374:127,1,168.750006437302,6|0,1:2|0:0,0:0:0:0:
350,95,52468,6,0,L|337:164,1,56.2500021457673,2|2,1:2|0:0,0:0:0:0:
310,298,52623,1,10,0:0:0:0:
265,32,52777,6,0,L|252:101,1,56.2500021457673,2|2,1:2|0:0,0:0:0:0:
225,235,52932,1,2,0:0:0:0:
167,60,53086,6,0,L|154:129,1,56.2500021457673,2|2,1:2|0:0,0:0:0:0:
126,263,53241,1,10,0:0:0:0:
65,0,53396,6,0,B|57:45|57:45|41:71|41:71|48:101|48:101|42:139,1,146.249993305207,6|0,1:2|0:0,0:0:0:0:
36,184,53705,1,2,1:2:0:0:
167,60,53860,1,10,0:0:0:0:
213,327,54014,2,0,B|245:368|312:367|341:322|341:322|331:299|301:288,1,194.999991073609,14|2,0:0|1:2,0:0:0:0:
146,207,54478,5,10,0:2:0:0:
119,171,54556,1,4,3:0:0:0:
113,127,54633,1,4,3:0:0:0:
131,86,54710,1,4,3:0:0:0:
167,60,54787,6,0,B|197:42|230:54|230:54|254:30|254:30|289:42|325:24,1,168.750006437302,6|0,1:2|0:0,0:0:0:0:
349,13,55097,1,10,0:0:0:0:
207,140,55251,1,2,0:1:0:0:
411,224,55406,1,2,1:2:0:0:
192,145,55561,1,2,1:1:0:0:
451,97,55715,1,10,0:0:0:0:
230,294,55870,6,0,B|185:336|116:318|91:261|91:261|119:283|166:265,1,225.000008583069,6|0,1:2|1:2,0:0:0:0:
287,177,56334,1,10,0:0:0:0:
339,384,56489,1,2,1:2:0:0:
475,222,56643,1,2,0:0:0:0:
230,294,56798,1,2,1:2:0:0:
230,294,56875,1,0,1:2:0:0:
230,294,56952,1,8,0:0:0:0:
408,75,57107,6,0,B|365:86|328:61|328:61|297:61|274:80|274:80|242:49|195:62,1,225.000008583069,6|0,1:2|1:2,0:0:0:0:
49,229,57571,1,10,0:0:0:0:
62,3,57726,1,2,1:2:0:0:
209,185,57880,1,2,0:0:0:0:
209,185,57958,1,0,0:0:0:0:
209,185,58035,1,2,1:2:0:0:
0,110,58190,1,10,0:0:0:0:
162,302,58344,6,0,B|227:319|227:319|284:284,1,134.999995880127,6|0,1:2|0:0,0:0:0:0:
314,262,58653,1,2,1:2:0:0:
86,206,58808,1,10,0:0:0:0:
291,83,58963,2,0,B|344:45|387:93|381:93|423:136|473:98,1,194.999991073609,14|2,0:0|1:2,0:0:0:0:
232,235,59427,5,10,0:0:0:0:
194,260,59504,1,8,0:0:0:0:
150,263,59581,1,8,0:0:0:0:
110,243,59659,1,8,0:0:0:0:
86,206,59736,6,0,B|95:150|95:150|80:123|80:123|88:77,1,134.999995880127,6|0,1:1|0:0,0:0:0:0:
95,41,60045,1,10,0:0:0:0:
278,129,60200,1,2,0:1:0:0:
86,206,60355,1,2,1:2:0:0:
219,26,60509,1,2,1:1:0:0:
257,248,60664,1,10,0:0:0:0:
452,63,60818,6,0,B|441:122|441:122|459:163|459:163|444:236|444:236|423:196,1,225.000008583069,6|2,1:2|1:2,0:0:0:0:
303,38,61282,2,0,B|262:17|262:17|219:25,1,89.9999972534181,10|0,0:0|1:2,0:0:0:0:
114,216,61592,1,2,0:0:0:0:
82,3,61746,1,2,1:2:0:0:
82,3,61824,1,0,1:2:0:0:
82,3,61901,1,10,0:0:0:0:
36,293,62056,6,0,B|90:333|90:333|216:311,1,194.999991073609,6|2,1:2|1:2,0:0:0:0:
418,285,62519,1,10,0:0:0:0:
418,285,62597,1,2,0:0:0:0:
418,285,62674,1,2,1:2:0:0:
207,169,62829,1,2,0:0:0:0:
326,358,62983,1,2,1:2:0:0:
373,139,63138,1,10,0:0:0:0:
182,355,63293,6,0,B|156:375|123:382|123:382|88:368|67:335,1,134.999995880127,6|0,1:2|0:0,0:0:0:0:
54,306,63602,1,2,1:2:0:0:
275,260,63757,1,10,0:0:0:0:
63,143,63911,2,0,B|19:120|9:58|46:24|46:24|69:29|84:55,1,179.999994506836,14|2,0:0|1:2,0:0:0:0:
193,232,64375,5,10,0:0:0:0:
231,257,64452,1,8,0:0:0:0:
275,260,64530,1,4,3:0:0:0:
315,240,64607,1,4,3:0:0:0:
339,203,64684,6,0,B|330:147|330:147|345:120|345:120|337:74,1,134.999995880127,6|0,1:2|0:0,0:0:0:0:
328,37,64994,2,0,B|284:30|284:30|244:50,1,89.9999972534181,8|0,0:0|0:0,0:0:0:0:
193,232,65303,1,2,1:2:0:0:
83,35,65458,1,2,1:2:0:0:
23,251,65612,1,10,0:0:0:0:
299,123,65767,6,0,B|340:108|374:142|374:142|397:123|428:123|428:123|463:150|508:137,1,225.000008583069,6|2,1:2|1:2,0:0:0:0:
303,233,66231,1,10,0:0:0:0:
382,5,66385,1,2,1:2:0:0:
483,225,66540,1,2,0:0:0:0:
287,91,66695,1,2,1:2:0:0:
287,91,66772,1,0,1:2:0:0:
287,91,66849,1,8,0:0:0:0:
188,343,67004,6,0,B|139:335|139:335|106:342|106:342|77:322|77:322|26:313|26:313|79:285,1,225.000008583069,6|2,1:2|1:2,0:0:0:0:
309,191,67468,2,0,P|314:238|293:281,1,97.4999955368044,10|2,0:0|1:1,0:0:0:0:
173,110,67777,1,2,0:0:0:0:
173,110,67855,1,2,0:0:0:0:
173,110,67932,1,2,1:1:0:0:
411,60,68086,1,10,0:0:0:0:
79,71,68241,6,0,B|69:21|-3:29|4:89|4:89|-6:112|-6:112|11:133|11:133|25:210,1,225.000008583069,6|2,1:2|1:2,0:0:0:0:
164,343,68705,1,10,0:0:0:0:
283,132,68860,1,2,1:2:0:0:
409,345,69014,1,10,0:0:0:0:
381,100,69169,5,8,0:0:0:0:
357,69,69246,1,8,0:0:0:0:
326,49,69324,1,10,0:0:0:0:
290,40,69401,1,8,0:0:0:0:
253,43,69478,1,8,0:0:0:0:
219,59,69556,1,8,0:0:0:0:
192,85,69633,1,6,1:2:0:0:
256,192,69710,12,6,72107,1:2:0:0:
44,45,79530,5,6,1:1:0:0:
228,75,79684,1,2,1:1:0:0:
118,132,79839,2,0,L|101:224,1,75,2|2,1:2|3:2,0:0:0:0:
24,252,80071,1,0,0:0:0:0:
24,252,80148,2,0,L|40:344,1,75,10|0,0:0|0:0,0:0:0:0:
195,379,80458,5,2,1:1:0:0:
225,195,80612,1,2,1:1:0:0:
297,295,80767,2,0,P|330:311|367:307,1,75,2|10,1:2|0:0,0:0:0:0:
471,239,81076,1,2,1:2:0:0:
504,98,81231,5,2,3:2:0:0:
504,98,81308,1,0,3:2:0:0:
504,98,81385,1,10,0:1:0:0:
364,66,81540,1,2,0:1:0:0:
331,206,81695,1,2,0:1:0:0:
471,239,81849,1,2,1:1:0:0:
239,132,82004,5,6,1:1:0:0:
282,315,82159,1,2,0:1:0:0:
190,239,82313,2,0,B|153:234|153:234|119:250,1,75,2|2,1:2|3:2,0:0:0:0:
70,328,82545,1,0,0:0:0:0:
70,328,82623,2,0,B|35:345|35:345|-2:338,1,75,10|0,0:0|0:0,0:0:0:0:
190,239,82932,5,2,1:1:0:0:
147,56,83086,1,10,0:1:0:0:
252,127,83241,2,0,P|289:132|323:116,1,75,2|10,1:2|0:0,0:0:0:0:
385,5,83550,1,0,1:2:0:0:
462,162,83705,5,0,3:2:0:0:
462,162,83782,1,0,3:2:0:0:
462,162,83860,2,0,B|454:207|454:207|465:226|465:226|454:288,1,112.5,10|0,0:1|0:0,0:0:0:0:
451,308,84169,2,0,B|417:292|417:292|380:297,1,75,2|0,1:1|0:0,0:0:0:0:
257,384,84478,5,2,1:1:0:0:
227,200,84633,1,2,0:1:0:0:
165,303,84787,2,0,L|73:320,1,75,2|2,1:2|3:2,0:0:0:0:
25,251,85019,1,0,3:2:0:0:
25,251,85097,2,0,L|42:159,1,75,10|2,0:0|0:0,0:0:0:0:
152,27,85406,5,2,1:1:0:0:
227,200,85561,2,0,B|288:239|288:239|365:224,1,150,10|10,0:1|0:0,0:0:0:0:
494,201,86025,1,2,1:2:0:0:
470,47,86179,5,2,3:2:0:0:
470,47,86257,1,0,3:2:0:0:
470,47,86334,1,10,0:1:0:0:
346,3,86489,1,2,3:1:0:0:
246,87,86643,1,2,3:1:0:0:
123,40,86798,1,10,0:1:0:0:
40,164,86952,6,0,B|48:213|48:213|33:260|33:260|42:310,1,150,6|0,1:1|1:2,0:0:0:0:
194,359,87416,1,6,3:0:0:0:
194,359,87494,1,0,0:0:0:0:
193,359,87571,2,0,P|160:376|123:373,1,75,8|0,0:0|1:2,0:0:0:0:
289,249,87880,5,8,3:0:0:0:
322,233,87958,1,8,3:0:0:0:
359,231,88035,1,4,3:0:0:0:
394,245,88112,1,4,3:0:0:0:
420,271,88190,5,10,0:0:0:0:
260,112,88344,1,10,0:0:0:0:
342,346,88499,1,10,0:0:0:0:
458,91,88653,1,6,1:1:0:0:
232,342,88963,1,6,1:1:0:0:
77,98,89272,5,4,3:0:0:0:
77,98,89349,1,0,0:0:0:0:
77,98,89427,2,0,L|63:24,1,75,6|2,1:2|1:2,0:0:0:0:
198,156,89736,1,10,0:0:0:0:
0,199,89891,1,2,1:2:0:0:
180,271,90045,2,0,P|216:277|249:261,1,75,2|0,0:0|0:0,0:0:0:0:
315,193,90277,1,0,0:0:0:0:
315,193,90355,2,0,P|351:186|384:202,1,75,10|2,0:0|1:2,0:0:0:0:
494,327,90664,5,2,0:1:0:0:
457,128,90818,1,2,1:2:0:0:
335,291,90973,1,10,0:0:0:0:
512,221,91128,1,2,1:1:0:0:
318,298,91282,2,0,L|331:371,1,75,2|2,0:0|1:1,0:0:0:0:
299,177,91592,1,10,0:0:0:0:
206,360,91746,1,8,0:0:0:0:
159,159,91901,6,0,P|125:142|89:149,1,75,6|2,1:2|1:2,0:0:0:0:
214,269,92210,1,10,0:0:0:0:
240,75,92365,1,2,1:2:0:0:
352,234,92519,2,0,L|426:248,1,75,2|0,0:0|1:2,0:0:0:0:
498,187,92751,1,0,0:0:0:0:
498,187,92829,2,0,L|484:113,1,75,10|2,0:0|1:2,0:0:0:0:
466,2,93138,5,2,0:1:0:0:
377,114,93293,1,2,1:2:0:0:
240,75,93447,1,10,0:0:0:0:
384,130,93602,1,2,1:1:0:0:
211,238,93757,2,0,P|193:206|198:170,1,75,2|2,0:0|1:1,0:0:0:0:
332,303,94066,1,8,0:0:0:0:
130,344,94220,1,8,0:0:0:0:
365,295,94375,6,0,L|379:369,1,75,6|2,1:2|1:2,0:0:0:0:
466,224,94684,2,0,L|480:150,1,75,10|2,0:0|1:2,0:0:0:0:
397,52,94994,1,2,0:0:0:0:
290,115,95148,1,2,1:2:0:0:
290,115,95226,1,2,1:2:0:0:
290,115,95303,1,10,0:0:0:0:
164,19,95458,6,0,B|156:68|156:68|171:115|171:115|162:165,1,150,2|2,1:2|1:2,0:0:0:0:
61,296,95922,1,10,0:0:0:0:
51,132,96076,1,2,1:1:0:0:
184,275,96231,2,0,B|218:292|218:292|254:285,1,75,2|2,0:0|1:1,0:0:0:0:
416,251,96540,1,10,0:0:0:0:
294,384,96695,1,10,0:0:0:0:
495,303,96849,6,0,P|511:232|468:173,1,150,6|8,1:2|0:0,0:0:0:0:
337,199,97313,2,0,P|321:270|364:329,1,150,2|0,1:1|1:2,0:0:0:0:
468,173,97777,2,0,P|467:137|454:99,1,75,10|0,0:1|1:2,0:0:0:0:
292,39,98086,6,0,L|366:25,1,75,2|0,1:2|1:2,0:0:0:0:
225,140,98396,2,0,L|151:126,1,75,10|0,0:0|1:2,0:0:0:0:
67,51,98705,5,8,0:0:0:0:
38,74,98782,1,8,0:0:0:0:
23,108,98860,1,8,0:0:0:0:
26,145,98937,1,8,0:0:0:0:
50,185,99014,1,8,3:0:0:0:
71,216,99092,1,8,3:0:0:0:
74,253,99169,1,4,3:0:0:0:
59,287,99246,1,4,3:0:0:0:
22,315,99324,5,10,0:1:0:0:
151,126,99478,1,10,0:1:0:0:
151,126,100097,6,0,L|225:140,1,75,10|0,0:1|0:0,0:0:0:0:
420,27,100406,2,0,B|379:34|379:34|351:27|351:27|328:43|328:43|288:51|288:51|331:74,1,179.999994506836,14|10,0:1|0:1,0:0:0:0:
494,124,101334,5,14,0:1:0:0:
276,243,101489,1,14,0:1:0:0:
453,279,101798,5,10,0:1:0:0:
323,70,101952,1,10,0:1:0:0:
323,70,102571,6,0,L|397:56,1,75,10|0,0:1|0:0,0:0:0:0:
245,170,102880,2,0,B|207:181|177:155|177:155|160:160|148:174|148:174|122:146|83:154,1,179.999994506836,14|10,0:1|0:1,0:0:0:0:
228,321,103499,5,2,1:2:0:0:
228,321,103576,1,0,0:0:0:0:
228,321,103653,2,0,L|302:307,1,75,14|0,0:0|1:2,0:0:0:0:
433,249,103963,5,8,3:0:0:0:
448,215,104040,1,8,3:0:0:0:
448,177,104117,1,4,3:0:0:0:
433,143,104195,1,4,3:0:0:0:
406,119,104272,6,0,L|332:133,1,75,6|2,1:2|1:1,0:0:0:0:
198,36,104581,2,0,L|272:50,1,75,8|2,0:0|0:1,0:0:0:0:
164,182,104891,1,0,1:2:0:0:
94,23,105045,1,2,1:1:0:0:
94,23,105123,1,0,0:0:0:0:
94,23,105200,1,8,0:0:0:0:
36,279,105355,6,0,B|93:269|93:269|153:294|153:294|213:284,1,179.999994506836,6|2,1:2|1:2,0:0:0:0:
390,257,105818,1,10,0:0:0:0:
277,135,105973,1,2,1:1:0:0:
311,335,106128,1,2,0:0:0:0:
395,132,106282,1,2,1:1:0:0:
395,132,106360,1,0,1:2:0:0:
395,132,106437,2,0,B|431:125|431:125|465:142,1,75,10|2,0:0|1:2,0:0:0:0:
253,239,106746,5,6,1:2:0:0:
150,47,106901,1,0,1:2:0:0:
110,279,107056,5,10,0:0:0:0:
250,89,107210,1,2,1:2:0:0:
26,141,107365,5,8,0:0:0:0:
201,318,107519,1,2,1:2:0:0:
250,89,107674,5,10,0:0:0:0:
24,238,107829,1,2,1:2:0:0:
296,332,107983,6,0,L|385:347,1,78.7499975967408,14|0,0:0|0:0,0:0:0:0:
447,298,108293,6,0,L|455:249,3,48.7499977684022,10|8|8|8,0:0|0:0|3:0|3:0,0:0:0:0:
512,192,108602,2,0,L|504:143,1,48.7499977684022,4|0,3:0|0:0,0:0:0:0:
359,61,108757,5,10,0:0:0:0:
328,33,108834,1,8,0:0:0:0:
290,18,108911,1,10,0:0:0:0:
249,18,108989,1,8,0:0:0:0:
211,33,109066,1,10,0:0:0:0:
181,61,109143,1,8,0:0:0:0:
163,98,109220,6,0,B|142:130|154:168|154:168|173:181|176:202|176:202|140:223|128:281,1,168.750006437302,6|0,1:1|0:0,0:0:0:0:
148,268,109530,1,10,0:0:0:0:
26,208,109684,1,2,0:1:0:0:
260,163,109839,2,0,P|267:202|259:236,1,75,2|2,1:2|1:1,0:0:0:0:
49,320,110148,1,10,0:0:0:0:
191,78,110303,6,0,B|235:72|235:72|252:65|260:55|260:55|282:60|288:74|288:74|319:59|354:70|354:70|328:88|315:123,1,225.000008583069,6|2,1:2|1:2,0:0:0:0:
419,228,110767,2,0,P|425:197|406:154,1,75,10|2,0:0|1:2,0:0:0:0:
259,235,111076,1,2,0:0:0:0:
418,356,111231,2,0,P|447:345|475:307,1,75,2|8,1:2|0:0,0:0:0:0:
192,279,111540,6,0,B|98:322|67:144|226:177|263:241,1,269.999991760254,6|0,1:2|0:0,0:0:0:0:
419,228,111849,6,0,L|429:166,1,37.5,2|2,1:2|0:0,0:0:0:0:
443,91,112004,1,10,0:0:0:0:
296,161,112159,6,0,L|296:113,1,37.5,2|2,1:2|0:0,0:0:0:0:
296,19,112313,1,2,0:0:0:0:
174,228,112468,6,0,L|164:166,1,37.5,2|2,1:2|0:0,0:0:0:0:
149,92,112623,1,10,0:0:0:0:
88,310,112777,6,0,B|148:321|203:298|175:248|237:220|323:241,1,225.000008583069,6|2,1:2|1:2,0:0:0:0:
472,344,113241,1,10,0:0:0:0:
444,88,113396,6,0,P|399:101|358:41,1,112.5,14|0,0:0|0:0,0:0:0:0:
376,37,113705,1,2,1:2:0:0:
174,228,113860,1,10,0:2:0:0:
138,237,113937,1,4,3:0:0:0:
102,228,114014,1,4,3:0:0:0:
75,203,114092,1,4,3:0:0:0:
64,167,114169,6,0,B|42:77|42:77|68:37|139:56,1,168.750006437302,6|0,1:2|0:0,0:0:0:0:
132,65,114478,1,10,0:0:0:0:
174,228,114633,1,2,0:1:0:0:
306,46,114787,2,0,P|234:22|215:22,1,75,2|2,1:2|1:1,0:0:0:0:
167,240,115097,1,10,0:0:0:0:
399,195,115251,6,0,B|434:118|397:38|397:38|400:77|376:103,1,225.000008583069,6|0,1:2|1:2,0:0:0:0:
331,315,115715,2,0,P|367:307|401:291,1,75,10|2,0:0|1:2,0:0:0:0:
259,125,116025,1,2,0:0:0:0:
234,342,116179,1,2,1:2:0:0:
234,342,116257,1,0,1:2:0:0:
234,342,116334,1,8,0:0:0:0:
98,79,116489,6,0,B|61:88|40:124|40:124|45:171|45:171|39:193|39:193|50:212|50:212|61:298,1,225,6|0,1:2|0:0,0:0:0:0:
75,286,116798,1,0,1:2:0:0:
197,43,116952,1,10,0:0:0:0:
312,204,117107,1,2,1:2:0:0:
198,26,117262,5,2,0:0:0:0:
415,194,117416,1,2,1:2:0:0:
161,297,117571,1,10,0:0:0:0:
324,46,117726,6,0,B|397:28|419:89|412:96|436:161|523:131,1,225.000008583069,6|2,1:2|1:2,0:0:0:0:
412,301,118190,1,10,0:0:0:0:
507,46,118344,2,0,B|433:28|411:89|418:96|394:161|307:131,1,225.000008583069,14|2,0:0|1:2,0:0:0:0:
74,34,118808,1,10,0:0:0:0:
37,54,118885,1,4,3:0:0:0:
22,92,118963,1,4,3:0:0:0:
33,132,119040,1,8,2:0:0:0:
67,156,119117,6,0,B|107:158|134:182|134:182|132:200|134:218|134:218|125:233|125:233|99:306,1,168.750006437302,6|0,1:1|0:0,0:0:0:0:
99,288,119427,1,10,0:0:0:0:
314,157,119581,1,2,0:1:0:0:
83,370,119736,2,0,P|49:356|25:327,1,75,2|2,1:2|1:1,0:0:0:0:
253,284,120045,1,10,0:0:0:0:
116,67,120200,6,0,B|113:98|113:98|110:103|110:103|106:168|106:168|110:178|110:178|106:255|106:255|102:259|102:259|98:297,1,225.000008583069,6|2,1:2|1:2,0:0:0:0:
314,157,120664,1,10,0:0:0:0:
175,361,120818,1,0,1:2:0:0:
409,353,120973,1,2,0:0:0:0:
232,98,121128,1,2,1:2:0:0:
214,126,121205,1,0,1:2:0:0:
211,159,121282,1,10,0:0:0:0:
492,243,121437,6,0,B|450:227|407:253|407:253|385:244|373:220|373:220|335:254|283:237,1,225.000008583069,6|2,1:2|1:2,0:0:0:0:
80,146,121901,1,10,0:0:0:0:
314,157,122056,1,2,1:2:0:0:
49,311,122210,1,2,0:0:0:0:
43,283,122287,1,2,0:0:0:0:
37,255,122365,1,2,1:2:0:0:
203,68,122519,1,10,0:0:0:0:
413,308,122674,6,0,B|451:257|451:257|244:234,1,225.000008583069,6|2,1:2|1:2,0:0:0:0:
192,84,123138,1,10,0:0:0:0:
450,118,123293,2,0,B|475:176|475:176|268:152,1,225.000008583069,14|2,0:0|1:2,0:0:0:0:
50,253,123757,1,10,0:0:0:0:
74,287,123834,1,8,0:0:0:0:
113,298,123911,1,4,3:0:0:0:
152,284,123989,1,4,3:0:0:0:
172,248,124066,6,0,B|179:191|179:191|173:169|173:169|183:152|183:152|192:84,1,168.750006437302,6|0,1:2|0:0,0:0:0:0:
212,65,124375,2,0,B|197:182,1,112.500004291535,8|0,0:0|0:0,0:0:0:0:
67,117,124684,1,2,1:2:0:0:
310,208,124839,1,2,1:2:0:0:
50,253,124994,1,10,0:0:0:0:
305,123,125148,6,0,B|341:122|368:147|368:147|402:127|402:127|435:120|468:131|468:131|432:132|414:161,1,225.000008583069,6|2,1:2|1:2,0:0:0:0:
464,290,125612,2,0,L|475:205,1,75,10|2,0:0|1:2,0:0:0:0:
258,279,125922,1,2,0:0:0:0:
364,55,126076,1,2,1:2:0:0:
364,55,126153,1,0,1:2:0:0:
364,55,126231,1,8,0:0:0:0:
75,30,126385,6,0,B|34:33|13:68|13:68|24:132|24:132|27:137|27:137|50:240,1,225.000008583069,6|2,1:2|1:2,0:0:0:0:
235,262,126849,1,10,0:0:0:0:
207,105,127004,1,2,1:1:0:0:
361,273,127159,1,2,0:0:0:0:
118,303,127313,1,2,1:1:0:0:
118,303,127391,1,0,0:0:0:0:
118,303,127468,1,10,0:0:0:0:
322,95,127623,6,0,B|262:84|207:107|235:157|173:185|87:152,1,225.000008583069,6|2,1:2|1:2,0:0:0:0:
69,52,128086,5,10,0:0:0:0:
235,262,128241,1,2,1:2:0:0:
207,105,128396,5,10,0:0:0:0:
30,321,128550,1,8,0:0:0:0:
283,358,128705,1,10,0:0:0:0:
322,344,128782,1,8,0:0:0:0:
351,313,128860,1,8,0:0:0:0:
361,273,128937,1,8,0:0:0:0:
352,232,129014,6,0,L|261:218,1,75,6|0,1:2|1:2,0:0:0:0:
113,60,129324,2,0,L|204:46,1,75,10|0,0:0|0:0,0:0:0:0:
196,279,129633,1,2,1:2:0:0:
134,166,129787,1,2,1:2:0:0:
196,279,129942,1,8,0:0:0:0:
349,108,130097,6,0,B|369:67|369:67|255:83,1,150,6|0,1:2|1:2,0:0:0:0:
443,313,130561,2,0,P|461:266|465:221,1,75,10|2,0:0|1:2,0:0:0:0:
203,181,130870,1,2,0:0:0:0:
268,338,131025,1,0,1:2:0:0:
372,204,131179,1,8,0:0:0:0:
100,290,131334,6,0,B|70:287|55:263|55:263|76:153,1,150,6|2,1:2|1:2,0:0:0:0:
349,108,131798,6,0,P|348:60|358:25,2,50,10|2|2,0:0|0:0|0:0,0:0:0:0:
252,75,132107,2,0,L|243:-21,2,50,2|2|2,0:0|0:0|0:0,0:0:0:0:
162,124,132416,2,0,P|154:77|137:44,2,50,10|2|2,0:0|0:0|0:0,0:0:0:0:
225,217,132726,6,0,B|180:225|140:208|160:171|115:150|51:174,1,168.750006437302,2|0,0:0|0:0,0:0:0:0:
60,183,133035,1,10,0:0:0:0:
276,290,133190,2,0,P|311:242|303:180,1,112.500004291535,14|0,0:0|0:0,0:0:0:0:
153,74,133499,1,2,1:2:0:0:
411,83,133653,2,0,L|479:70,1,37.5,10|8,0:0|0:0,0:0:0:0:
308,191,133808,2,0,L|239:178,1,37.5,2|0,1:2|1:2,0:0:0:0:
410,285,133963,6,0,L|506:266,1,75,6|2,1:1|0:0,0:0:0:0:
302,178,134272,2,0,L|205:159,1,75,14|2,0:0|0:0,0:0:0:0:
416,69,134581,2,0,L|512:50,1,75,2|0,1:2|1:2,0:0:0:0:
276,290,134891,1,10,0:0:0:0:
103,47,135045,6,0,B|75:61|64:88|64:88|82:188,1,150,6|0,1:1|1:2,0:0:0:0:
276,290,135509,1,8,0:0:0:0:
60,334,135664,1,0,1:2:0:0:
189,151,135818,1,0,0:0:0:0:
393,284,135973,1,0,1:2:0:0:
420,281,136050,1,0,1:2:0:0:
443,265,136128,1,8,0:0:0:0:
279,2,136282,6,0,B|266:102|266:102|247:78|218:67,1,150,6|0,1:2|1:2,0:0:0:0:
119,171,136746,2,0,P|151:153|189:151,1,75,10|2,0:0|1:2,0:0:0:0:
339,217,136978,1,2,0:0:0:0:
339,217,137056,2,0,P|301:214|269:196,1,75,2|2,0:0|1:2,0:0:0:0:
29,279,137365,1,10,0:0:0:0:
66,43,137519,1,6,1:2:0:0:
66,43,137597,1,0,0:0:0:0:
66,43,137674,6,0,B|45:76|45:76|60:132,1,75,0|0,0:0|1:2,0:0:0:0:
119,171,137906,1,0,0:0:0:0:
119,171,137983,2,0,B|128:205|128:205|107:238,1,75,0|14,0:0|0:0,0:0:0:0:
373,303,138293,6,0,B|322:327|322:327|342:187,1,168.750006437302,2|0,0:0|0:0,0:0:0:0:
453,127,138602,1,8,0:0:0:0:
417,138,138679,1,8,0:0:0:0:
381,132,138757,1,8,0:0:0:0:
351,110,138834,1,8,0:0:0:0:
336,76,138911,6,0,P|298:60|233:69,1,75,14|2,0:0|1:2,0:0:0:0:
131,282,139220,1,10,0:0:0:0:
89,113,139375,1,2,1:2:0:0:
205,197,139530,5,10,0:0:0:0:
19,245,139684,1,2,1:2:0:0:
192,16,139839,5,10,0:0:0:0:
130,295,139994,1,2,1:2:0:0:
264,92,140148,6,0,P|302:76|367:85,1,75,10|2,0:0|1:2,0:0:0:0:
393,363,140458,1,10,0:0:0:0:
445,151,140612,1,2,1:2:0:0:
512,309,140767,5,10,0:0:0:0:
302,267,140922,1,2,1:2:0:0:
438,125,141076,5,10,0:0:0:0:
293,367,141231,1,2,1:2:0:0:
218,50,141385,5,14,0:0:0:0:
288,279,141540,1,0,1:2:0:0:
327,104,141695,5,10,0:0:0:0:
167,247,141849,1,0,1:2:0:0:
207,44,142004,5,10,0:0:0:0:
304,306,142159,1,0,1:2:0:0:
337,109,142313,5,10,0:0:0:0:
146,264,142468,1,0,1:2:0:0:
422,205,142623,5,10,0:1:0:0:
106,121,142777,1,0,1:2:0:0:
412,219,142932,5,10,0:1:0:0:
206,347,143086,1,0,1:2:0:0:
367,147,143241,5,10,0:1:0:0:
51,231,143396,1,0,1:2:0:0:
241,20,143550,1,10,0:1:0:0:
238,48,143628,1,8,0:1:0:0:
236,76,143705,1,8,0:1:0:0:
234,104,143782,1,8,0:1:0:0:
232,132,143860,6,0,L|221:241,1,75,14|0,0:0|1:2,0:0:0:0:
422,101,144169,2,0,L|433:210,1,75,8|0,0:0|1:2,0:0:0:0:
218,153,144478,2,0,L|207:262,1,75,8|0,0:0|1:2,0:0:0:0:
436,122,144787,2,0,L|447:231,1,75,8|0,0:0|1:2,0:0:0:0:
99,319,145097,6,0,L|88:210,1,75,10|0,0:0|1:2,0:0:0:0:
337,372,145406,2,0,L|348:263,1,75,8|2,0:2|1:2,0:0:0:0:
85,298,145715,2,0,L|74:189,1,75,10|0,0:0|1:2,0:0:0:0:
351,351,146025,2,0,L|362:242,1,75,8|2,0:0|1:2,0:0:0:0:
414,26,146334,6,0,L|425:135,1,75,14|0,0:1|1:2,0:0:0:0:
98,26,146643,2,0,L|87:135,1,75,10|0,0:0|1:2,0:0:0:0:
428,47,146952,2,0,L|439:156,1,75,10|0,0:0|1:2,0:0:0:0:
84,47,147262,2,0,L|73:156,1,75,10|0,0:0|1:2,0:0:0:0:
358,193,147571,5,8,0:0:0:0:
85,298,147726,1,0,1:2:0:0:
315,274,147880,5,8,0:0:0:0:
76,121,148035,1,2,1:1:0:0:
286,60,148190,2,8,P|294:43|296:11,2,37.5,8|8|10,0:2|0:2|1:2,0:2:0:0:
452,225,148499,1,8,3:0:0:0:
435,202,148576,1,8,3:0:0:0:
411,188,148653,1,4,3:0:0:0:
384,184,148731,1,4,3:0:0:0:
358,193,148808,6,0,B|329:214|300:208|300:208|257:177|206:202,1,150,6|4,1:2|1:1,0:0:0:0:
249,276,149272,1,0,1:1:0:0:
97,198,149427,6,0,B|88:153|88:153|61:173,2,75,8|0|4,0:0|0:0|1:2,0:0:0:0:
205,95,149891,2,0,B|179:78|179:78|151:92|151:92|107:46|37:81,1,150,8|2,0:0|1:2,0:0:0:0:
0,117,150355,1,6,0:2:0:0:
57,287,150509,1,2,1:2:0:0:
76,292,150586,1,0,0:0:0:0:
94,296,150664,2,0,L|194:288,1,75,4|0,1:1|0:0,0:0:0:0:
229,199,150973,1,6,1:2:0:0:
242,360,151128,1,10,0:2:0:0:
306,165,151282,6,0,P|251:117|180:129,1,150,4|4,1:2|1:1,0:0:0:0:
229,199,151746,1,0,1:0:0:0:
340,243,151901,2,0,P|387:188|375:116,1,150,8|4,0:0|0:2,0:0:0:0:
262,276,152365,6,0,P|316:323|388:311,1,150,0|2,1:0|1:2,0:0:0:0:
388,311,152751,1,0,0:0:0:0:
388,311,152829,1,6,0:2:0:0:
306,165,152983,1,2,1:2:0:0:
179,267,153138,2,0,P|160:312|157:363,1,75,14|0,0:0|1:0,0:0:0:0:
21,146,153447,1,8,3:0:0:0:
58,154,153525,1,8,3:0:0:0:
92,141,153602,1,4,3:0:0:0:
115,112,153679,1,4,3:0:0:0:
118,74,153757,6,0,B|181:78|181:78|203:61|203:61|293:66,1,150,6|0,1:2|0:0,0:0:0:0:
352,218,154220,1,0,1:0:0:0:
455,135,154375,2,0,P|457:98|443:64,1,75,8|0,0:0|0:0,0:0:0:0:
353,204,154684,1,4,1:2:0:0:
261,64,154839,2,0,P|246:98|248:135,1,75,8|0,0:0|0:0,0:0:0:0:
13,256,155148,6,0,B|99:267|68:204|148:206,1,150,2|2,1:2|1:2,0:0:0:0:
206,268,155535,1,0,1:2:0:0:
206,268,155612,2,0,B|225:283|225:283|303:273,1,75,10|2,0:2|0:2,0:0:0:0:
370,146,155922,1,4,1:1:0:0:
369,321,156076,1,8,0:1:0:0:
437,103,156231,6,0,B|388:48|388:48|321:84,1,150,6|2,1:2|1:2,0:0:0:0:
241,173,156695,1,2,1:2:0:0:
357,220,156849,2,0,L|370:146,1,75,14|0,0:0|0:0,0:0:0:0:
205,92,157159,2,0,L|218:165,1,75,2|10,1:2|0:2,0:0:0:0:
111,334,157468,5,6,1:2:0:0:
171,270,157623,1,0,1:2:0:0:
108,210,157777,1,2,0:0:0:0:
47,273,157932,2,0,P|28:282|4:292,2,37.5,2|0|12,1:2|0:0|0:2,0:0:0:0:
102,193,158241,1,2,1:2:0:0:
18,102,158396,1,10,0:2:0:0:
61,117,158473,1,8,0:2:0:0:
107,108,158550,1,10,0:2:0:0:
142,78,158628,1,8,0:2:0:0:
157,34,158705,6,0,L|264:25,1,75,4|0,1:2|1:2,0:0:0:0:
311,209,159014,2,0,L|204:199,1,75,10|0,0:2|0:0,0:0:0:0:
354,8,159324,1,0,1:2:0:0:
402,187,159478,1,0,1:2:0:0:
404,224,159556,1,0,1:2:0:0:
391,259,159633,1,10,0:2:0:0:
164,231,159787,6,0,B|134:194|134:194|236:202,1,150,6|2,1:1|1:2,0:0:0:0:
294,319,160251,1,8,0:2:0:0:
323,120,160406,1,2,0:2:0:0:
164,231,160561,1,2,1:2:0:0:
391,259,160715,2,0,L|442:258,2,37.5,2|0|10,1:2|1:2|0:2,0:0:0:0:
299,327,161025,1,0,1:2:0:0:
427,74,161179,5,4,1:2:0:0:
320,128,161334,1,0,1:2:0:0:
225,59,161489,1,8,0:2:0:0:
118,113,161643,1,0,0:0:0:0:
207,272,161798,5,0,1:2:0:0:
323,120,161952,2,0,L|333:67,2,37.5,0|0|8,1:2|0:0|0:2,0:0:0:0:
262,327,162262,6,0,B|163:327|221:271|108:271,1,150,6|2,1:1|1:2,0:0:0:0:
37,205,162726,1,8,0:2:0:0:
196,169,162880,1,2,1:2:0:0:
103,31,163035,2,0,P|90:88|93:117,1,75,2|0,0:2|1:2,0:0:0:0:
90,104,163267,1,0,1:2:0:0:
90,104,163344,1,8,0:2:0:0:
278,218,163499,1,8,0:2:0:0:
291,183,163576,1,0,0:0:0:0:
288,145,163653,6,0,P|250:141|201:152,1,75,6|2,1:2|1:2,0:0:0:0:
414,72,163963,2,0,P|376:68|341:54,1,75,8|0,0:2|0:0,0:0:0:0:
512,150,164272,2,0,P|477:165|440:199,1,75,0|0,1:2|1:2,0:0:0:0:
444,196,164504,1,0,1:2:0:0:
442,205,164581,1,8,0:2:0:0:
241,324,164736,6,0,B|278:334|278:334|276:242,1,112.5,6|0,1:1|0:0,0:0:0:0:
315,194,165045,2,0,P|283:184|239:193,1,75,2|10,1:2|0:2,0:0:0:0:
151,257,165355,1,2,1:2:0:0:
165,108,165509,1,2,0:2:0:0:
43,234,165664,1,2,1:2:0:0:
41,271,165741,1,0,1:2:0:0:
54,306,165818,1,10,0:2:0:0:
276,261,165973,5,10,0:2:0:0:
63,132,166128,1,6,1:2:0:0:
208,334,166282,5,2,1:2:0:0:
255,83,166437,1,10,0:2:0:0:
377,258,166592,5,2,1:2:0:0:
178,173,166746,1,8,0:2:0:0:
381,103,166901,5,2,1:2:0:0:
317,353,167056,1,8,0:2:0:0:
245,72,167210,1,2,1:2:0:0:
70,232,167365,6,0,B|69:248|69:248|60:259|60:259|66:265|66:265|66:275|70:288|70:288|61:295|61:305,1,67.4999979400635,6|0,1:0|0:0,0:0:0:0:
412,82,168602,5,6,1:2:0:0:
62,152,178499,6,0,L|51:92,1,60,6|0,1:1|0:0,0:0:0:0:
153,104,178808,2,0,L|162:44,1,60,2|2,3:2|0:2,0:0:0:0:
223,181,179117,1,2,3:2:0:0:
223,181,179272,2,0,L|252:128,1,60,2|2,0:2|3:2,0:0:0:0:
399,82,179581,6,0,B|405:121|405:121|431:150|431:150|438:191,1,120,2|0,1:2|0:0,0:0:0:0:
432,296,180045,2,0,P|461:296|489:284,1,60,2|0,3:2|0:0,0:0:0:0:
351,236,180355,1,2,3:2:0:0:
351,236,180509,2,0,P|321:235|293:247,1,60,2|0,1:1|3:2,0:0:0:0:
157,334,180818,6,0,P|156:274|136:218,1,120,2|2,1:2|0:2,0:0:0:0:
57,154,181282,1,2,3:2:0:0:
57,154,181360,1,2,0:2:0:0:
57,154,181437,1,2,0:2:0:0:
135,83,181592,1,0,3:2:0:0:
135,83,181746,2,0,P|162:71|192:72,1,60,2|0,1:2|3:2,0:0:0:0:
309,151,182056,6,0,B|299:92|299:92|331:36,1,120,2|2,1:2|0:2,0:0:0:0:
450,65,182519,1,2,3:2:0:0:
450,65,182674,2,0,B|459:123|459:123|427:179,1,120,2|2,0:2|1:2,0:0:0:0:
351,265,183138,2,0,P|380:263|407:276,1,60,2|0,3:2|0:0,0:0:0:0:
240,345,183447,6,0,B|203:379|145:369|119:321|119:321|131:294|160:287,1,180,2|0,3:1|0:0,0:0:0:0:
234,231,184066,1,2,3:2:0:0:
234,231,184220,2,0,L|244:171,1,60,2|2,1:2|3:2,0:0:0:0:
323,72,184530,6,0,B|288:65|288:65|265:51|265:51|238:57|238:57|204:51,1,120,2|2,1:2|0:2,0:0:0:0:
104,57,184994,2,0,B|102:28|102:28|115:1,1,60,2|2,3:2|0:2,0:0:0:0:
159,149,185303,1,2,3:2:0:0:
159,149,185458,2,0,B|161:178|161:178|147:205,1,60,2|0,1:1|0:0,0:0:0:0:
71,321,185767,6,0,P|123:348|181:337,1,120,2|2,1:2|1:2,0:0:0:0:
280,269,186231,2,0,L|270:209,1,60,2|2,3:2|0:0,0:0:0:0:
383,324,186540,1,2,3:2:0:0:
383,324,186617,1,2,0:0:0:0:
383,324,186695,2,0,L|373:384,1,60,2|2,0:0|3:2,0:0:0:0:
463,237,187004,1,2,0:0:0:0:
444,65,187159,5,10,0:0:0:0:
280,269,187313,1,10,0:0:0:0:
208,152,187623,5,10,0:0:0:0:
463,237,187777,1,10,0:0:0:0:
233,30,188086,5,10,0:2:0:0:
193,5,188164,1,8,0:2:0:0:
147,1,188241,1,10,0:2:0:0:
105,20,188318,1,8,0:2:0:0:
75,58,188396,6,0,B|90:81|81:118|81:118|60:148|60:148|51:184|67:216,1,168.750006437302,6|0,1:1|0:0,0:0:0:0:
85,248,188705,1,10,0:0:0:0:
296,140,188860,1,2,3:1:0:0:
75,58,189014,1,2,3:2:0:0:
192,265,189169,1,2,3:1:0:0:
233,30,189324,1,10,0:0:0:0:
453,245,189478,6,0,B|501:213|509:150|459:103|459:103|418:115|396:165,1,225.000008583069,6|2,1:2|1:2,0:0:0:0:
320,334,189942,2,0,B|360:357|360:357|411:345,1,89.9999972534181,10|2,0:0|1:2,0:0:0:0:
296,140,190251,1,2,0:0:0:0:
193,351,190406,1,2,1:2:0:0:
193,351,190483,1,0,1:2:0:0:
193,351,190561,1,8,0:0:0:0:
0,104,190715,6,0,B|31:135|78:137|78:137|120:118|138:82,1,168.750006437302,6|0,1:2|0:0,0:0:0:0:
162,50,191025,6,0,L|175:119,1,56.2500021457673,2|2,1:2|0:0,0:0:0:0:
199,236,191179,1,10,0:0:0:0:
323,8,191334,6,0,L|310:77,1,56.2500021457673,2|2,1:2|0:0,0:0:0:0:
288,191,191489,1,2,0:0:0:0:
460,103,191643,6,0,L|424:163,1,56.2500021457673,2|2,1:2|0:0,0:0:0:0:
365,255,191797,1,10,0:0:0:0:
162,50,191952,6,0,B|92:31|92:31|27:70,1,146.249993305207,6|0,1:2|0:0,0:0:0:0:
0,90,192262,1,2,1:2:0:0:
211,145,192416,1,10,0:0:0:0:
35,322,192571,2,0,B|-10:297|-21:231|17:195|17:195|25:227|58:239,1,194.999991073609,14|2,0:0|1:2,0:0:0:0:
241,300,193035,5,10,0:2:0:0:
107,119,193190,1,4,3:3:0:0:
420,95,193344,6,0,B|402:125|414:158|414:158|404:172|390:182|390:182|402:217|385:249,1,168.750006437302,6|0,1:2|0:0,0:0:0:0:
372,284,193653,1,10,0:0:0:0:
282,89,193808,1,2,0:1:0:0:
494,222,193963,1,2,1:2:0:0:
249,250,194117,1,2,1:1:0:0:
420,95,194272,1,10,0:0:0:0:
119,168,194427,6,0,B|110:120|110:120|91:91|91:91|100:57|100:57|91:6|91:6|136:46,1,225.000008583069,6|0,1:2|1:2,0:0:0:0:
249,250,194891,1,10,0:0:0:0:
27,280,195045,1,2,1:2:0:0:
233,142,195200,1,2,0:0:0:0:
148,375,195355,1,2,1:2:0:0:
148,375,195432,1,0,1:2:0:0:
148,375,195509,1,8,0:0:0:0:
413,322,195664,6,0,B|397:275|433:243|433:243|436:212|419:188|419:188|457:161|444:110,1,225.000008583069,6|0,1:2|1:2,0:0:0:0:
197,26,196128,1,10,0:0:0:0:
302,224,196282,1,2,1:2:0:0:
350,1,196437,1,2,0:0:0:0:
350,1,196514,1,0,0:0:0:0:
350,1,196592,1,2,1:2:0:0:
173,173,196746,1,10,0:0:0:0:
445,117,196901,6,0,B|453:163|453:163|438:190|438:190|447:246,1,134.999995880127,6|0,1:2|0:0,0:0:0:0:
452,278,197210,1,2,1:2:0:0:
308,104,197365,1,10,0:0:0:0:
269,343,197519,2,0,B|228:296|176:327|182:329|130:363|85:300,1,194.999991073609,14|2,0:0|1:2,0:0:0:0:
31,158,197983,5,10,0:0:0:0:
6,120,198060,1,4,3:0:0:0:
3,76,198137,1,4,3:0:0:0:
23,36,198215,1,8,0:0:0:0:
60,12,198293,6,0,B|116:21|116:21|143:6|143:6|189:14,1,134.999995880127,6|0,1:1|0:0,0:0:0:0:
222,21,198602,1,10,0:0:0:0:
31,158,198757,1,2,0:1:0:0:
251,201,198911,1,2,1:2:0:0:
60,12,199066,1,2,1:1:0:0:
127,254,199220,1,10,0:0:0:0:
338,50,199375,6,0,B|383:8|452:26|477:83|477:83|451:124|398:115,1,225.000008583069,6|2,1:2|1:2,0:0:0:0:
234,105,199839,2,0,B|213:64|213:64|221:21,1,89.9999972534181,10|0,0:0|1:2,0:0:0:0:
341,222,200148,1,2,0:0:0:0:
110,180,200303,1,2,1:2:0:0:
110,180,200380,1,0,1:2:0:0:
110,180,200458,1,10,0:0:0:0:
280,346,200612,6,0,P|371:373|450:319,1,194.999991073609,6|2,1:2|1:2,0:0:0:0:
490,96,201076,1,10,0:0:0:0:
341,222,201231,1,2,1:2:0:0:
307,11,201385,1,2,0:0:0:0:
307,11,201463,1,2,0:0:0:0:
307,11,201540,1,2,1:2:0:0:
472,217,201695,1,10,0:0:0:0:
230,88,201849,6,0,B|187:95|187:95|158:89|158:89|132:106|132:106|94:113,1,134.999995880127,6|0,1:2|0:0,0:0:0:0:
63,124,202159,1,2,1:2:0:0:
272,204,202313,1,10,0:0:0:0:
83,343,202468,2,0,B|39:320|29:258|66:224|66:224|89:229|104:255,1,179.999994506836,14|2,0:0|1:2,0:0:0:0:
258,347,202932,5,10,0:0:0:0:
296,372,203009,1,8,0:0:0:0:
340,375,203087,1,4,3:0:0:0:
380,355,203164,1,4,3:0:0:0:
404,318,203241,6,0,B|395:262|395:262|410:235|410:235|402:189,1,134.999995880127,6|0,1:2|0:0,0:0:0:0:
395,148,203550,2,0,B|351:141|351:141|311:161,1,89.9999972534181,8|0,0:0|0:0,0:0:0:0:
203,361,203860,1,2,1:2:0:0:
159,141,204014,1,2,1:2:0:0:
326,293,204169,1,10,0:0:0:0:
54,184,204324,6,0,B|42:149|44:124|44:124|13:92|13:92|14:55|2:18|2:18|18:37|40:45,1,225.000008583069,6|2,1:2|1:2,0:0:0:0:
219,244,204787,2,0,B|179:264|179:264|134:258,1,89.9999972534181,10|2,0:0|1:2,0:0:0:0:
267,86,205097,1,2,0:0:0:0:
326,293,205251,1,2,1:2:0:0:
326,293,205329,1,0,1:2:0:0:
326,293,205406,1,8,0:0:0:0:
397,60,205561,6,0,B|435:26|501:38|522:86|522:86|489:83|471:103,1,179.999994506836,6|0,1:2|0:0,0:0:0:0:
426,270,206025,1,10,0:0:0:0:
267,86,206179,1,2,1:1:0:0:
225,317,206334,1,2,0:0:0:0:
225,317,206411,1,2,0:0:0:0:
225,317,206489,1,2,1:1:0:0:
380,156,206643,1,10,0:0:0:0:
94,219,206798,6,0,B|46:187|38:124|88:77|88:77|129:89|151:139,1,225.000008583069,6|2,1:2|1:2,0:0:0:0:
225,317,207262,5,10,0:0:0:0:
380,156,207416,1,2,1:2:0:0:
135,111,207571,5,10,0:0:0:0:
338,263,207726,1,8,0:0:0:0:
292,44,207880,6,0,L|236:53,1,56.2500021457673,10|8,0:0|0:0,0:0:0:0:
108,223,208035,2,0,L|163:232,1,56.2500021457673,8|8,0:0|0:0,0:0:0:0:
338,263,208190,5,6,1:0:0:0:
359,267,208267,1,2,0:0:0:0:
380,271,208344,1,2,1:2:0:0:
512,152,208499,2,0,P|518:192|499:227,1,82.5000025177003,14|2,0:2|0:0,0:0:0:0:
270,167,208808,1,2,0:0:0:0:
449,58,208963,1,2,1:2:0:0:
380,271,209117,1,0,0:0:0:0:
210,51,209272,6,0,B|261:-5|327:35|327:35|315:69|280:77,1,165.000005035401,2|2,1:2|1:2,0:0:0:0:
192,182,209736,1,10,0:0:0:0:
78,9,209891,1,2,1:2:0:0:
44,211,210045,1,2,0:0:0:0:
210,51,210200,1,0,1:2:0:0:
210,51,210277,1,0,1:2:0:0:
210,51,210354,1,8,0:2:0:0:
139,310,210509,6,0,B|174:297|200:314|200:314|217:301|238:297|238:297|273:317|311:291,1,165.000005035401,6|2,1:0|1:2,0:0:0:0:
494,245,210973,1,14,0:0:0:0:
297,180,211128,1,2,1:2:0:0:
461,43,211282,1,2,1:2:0:0:
458,63,211359,1,2,0:0:0:0:
455,80,211437,2,0,L|438:172,1,82.5000025177003,2|10,1:2|0:0,0:0:0:0:
326,308,211746,1,6,1:1:0:0:
162,157,211901,6,0,L|80:142,1,82.5000025177003,0|2,0:0|1:2,0:0:0:0:
269,30,212210,1,10,0:0:0:0:
238,255,212365,1,14,0:0:0:0:
413,111,212519,1,2,0:0:0:0:
162,157,212674,1,2,1:2:0:0:
385,279,212829,6,0,L|398:205,1,48.7499977684022,8|8,0:2|0:0,0:0:0:0:
269,30,212983,2,0,L|278:79,1,48.7499977684022,0|0,1:2|1:2,0:0:0:0:
238,255,213138,5,6,1:0:0:0:
217,259,213215,1,0,0:0:0:0:
196,263,213292,1,2,1:2:0:0:
46,133,213447,2,0,B|40:173|40:173|59:214,1,82.5000025177003,14|2,0:0|0:0,0:0:0:0:
274,140,213757,1,2,1:2:0:0:
98,19,213911,1,2,1:2:0:0:
166,235,214066,1,0,0:0:0:0:
268,29,214220,6,0,B|320:19|320:19|370:35|370:35|437:23,1,165.000005035401,6|2,1:2|1:2,0:0:0:0:
465,245,214684,1,10,0:0:0:0:
274,140,214839,1,2,1:2:0:0:
326,354,214994,1,2,0:0:0:0:
411,136,215148,1,2,1:2:0:0:
411,136,215225,1,2,1:2:0:0:
411,136,215302,1,10,0:2:0:0:
215,291,215458,6,0,B|173:315|173:315|99:302|99:302|73:269,1,165.000005035401,6|2,1:1|1:2,0:0:0:0:
274,140,215922,1,10,0:2:0:0:
326,354,216076,1,2,1:2:0:0:
156,203,216231,1,2,0:0:0:0:
160,182,216308,1,2,0:0:0:0:
165,159,216385,2,0,L|184:61,1,82.5000025177003,2|10,1:2|0:2,0:0:0:0:
409,0,216695,5,6,1:0:0:0:
386,113,216849,1,0,0:0:0:0:
478,183,217004,1,2,1:2:0:0:
455,296,217158,1,10,0:0:0:0:
164,313,217313,5,14,0:2:0:0:
265,268,217468,1,0,0:0:0:0:
349,342,217623,1,2,1:2:0:0:
83,225,217777,5,8,0:2:0:0:
46,183,217854,1,8,0:2:0:0:
36,128,217931,1,8,0:2:0:0:
56,77,218008,1,8,0:2:0:0:
101,43,218086,6,0,L|189:27,1,89.9999972534181,6|2,1:1|1:2,0:0:0:0:
371,230,218396,5,14,0:0:0:0:
465,7,218550,1,2,1:2:0:0:
455,296,218705,5,8,0:1:0:0:
370,58,218860,1,2,1:2:0:0:
265,268,219014,5,10,0:2:0:0:
465,114,219169,1,2,1:2:0:0:
196,146,219324,5,8,0:2:0:0:
357,338,219478,1,2,1:2:0:0:
370,58,219633,5,14,0:0:0:0:
265,268,219787,1,0,1:2:0:0:
279,7,219942,5,10,0:2:0:0:
371,230,220097,1,2,1:2:0:0:
371,230,220174,1,0,1:2:0:0:
371,230,220251,1,10,0:2:0:0:
163,32,220406,6,0,B|114:39|114:39|81:32|81:32|52:52|52:52|1:61|1:61|54:89,1,225.000008583069,6|2,1:2|1:2,0:0:0:0:
265,268,220870,5,10,0:2:0:0:
370,58,221024,1,2,1:2:0:0:
455,296,221179,5,10,0:2:0:0:
455,296,221257,1,0,0:0:0:0:
455,296,221334,1,2,1:2:0:0:
207,148,221489,6,0,P|246:128|290:133,1,89.9999972534181,10|6,0:2|1:2,0:0:0:0:
78,341,221798,5,0,0:0:0:0:
19,106,221952,1,0,1:2:0:0:
169,306,222107,5,8,0:2:0:0:
217,45,222261,1,6,1:2:0:0:
233,379,222416,5,8,0:2:0:0:
394,198,222570,1,2,1:2:0:0:
169,306,222726,5,10,0:0:0:0:
132,281,222804,1,8,0:0:0:0:
112,241,222881,1,4,3:0:0:0:
114,197,222958,1,4,3:0:0:0:
138,158,223035,6,0,L|119:52,1,89.9999972534181,14|2,0:1|1:2,0:0:0:0:
390,91,223344,5,14,0:0:0:0:
206,221,223499,1,2,1:2:0:0:
261,0,223653,5,10,0:1:0:0:
305,267,223808,1,2,1:2:0:0:
122,69,223963,5,10,0:2:0:0:
394,198,224117,1,2,1:2:0:0:
116,275,224272,5,10,0:2:0:0:
294,85,224427,1,2,1:2:0:0:
212,332,224581,5,10,0:2:0:0:
122,69,224736,1,2,1:2:0:0:
25,338,224891,5,10,0:2:0:0:
206,129,225045,1,2,1:2:0:0:
206,129,225123,1,0,1:2:0:0:
206,129,225200,1,10,0:0:0:0:
435,305,225355,6,0,B|463:274|472:238|472:238|449:202|441:163|441:163|430:198|397:221,1,225.000008583069,2|2,1:2|1:2,0:0:0:0:
303,364,225818,5,14,0:2:0:0:
206,129,225973,1,2,1:2:0:0:
114,364,226128,5,10,0:2:0:0:
114,364,226206,1,0,0:0:0:0:
114,364,226283,1,2,1:2:0:0:
321,257,226437,1,10,0:2:0:0:
39,195,226592,6,0,L|21:91,1,89.9999972534181,10|8,0:1|0:2,0:0:0:0:
74,43,226824,1,4,3:0:0:0:
108,9,226901,1,8,0:2:0:0:
155,2,226978,1,4,3:0:0:0:
198,24,227055,1,8,0:2:0:0:
219,68,227133,1,4,3:1:0:0:
241,123,227210,5,8,0:2:0:0:
285,165,227287,1,4,3:0:0:0:
344,174,227364,1,8,2:0:0:0:
396,145,227441,1,8,2:0:0:0:
424,91,227519,2,0,L|409:6,1,56.2500021457673,8|8,0:2|0:2,0:0:0:0:
512,192,227674,2,0,L|503:247,1,56.2500021457673,8|8,0:2|0:2,0:0:0:0:
358,305,227829,6,0,B|290:283|270:216|270:216|238:186|261:137|308:130|337:189|291:223|270:216|270:216|193:247|131:223|131:223|55:199|-40:187|-1:45|90:88|90:88|120:2|248:68|193:154|136:222|136:222|92:285|115:337,1,1111.49999321594,12|0,1:1|0:0,0:0:0:0:
