osu file format v14

[General]
AudioFilename: audio.mp3
AudioLeadIn: 0
PreviewTime:49375
Countdown: 0
SampleSet: Soft
StackLeniency: 0.3
Mode: 0
LetterboxInBreaks: 0
WidescreenStoryboard: 1

[Editor]
Bookmarks: 79530,129014,236489
DistanceSpacing: 0.5
BeatDivisor: 4
GridSize: 32
TimelineZoom: 1.799999

[Metadata]
Title:caramel heaven
TitleUnicode:キャラメルへヴン
Artist:yuikonnu
ArtistUnicode:ゆいこんぬ
Creator:Nevo
Version:amb1 & Kibb's Collab Extra Starring Kyuukai
Source:
Tags:keevy Kazarii arc [arc] xchorse hooni amb1d3x Hishiro Chizuru kowari Hitsukuya kibbleru Kyuukai japanese rock utaite female Japanese Rock JRock J-Rock cover GUMI グミ Megpoid メグッポイド Vocaloid ボーカロイド VOCALOID2 Last Note. Nakanishi Irojiro キャラメルヘヴン Kyarameru Hebun Setsuna Code, first trip, VOCAROCK collection 4 feat. Hatsune Miku doorweapon Hojo Karen Mimiliaa Suzuhara Lulu dog food p1twist paul blart
BeatmapID:2415410
BeatmapSetID:1113893

[Difficulty]
HPDrainRate:5.7
CircleSize:3.8
OverallDifficulty:8.8
ApproachRate:9.4
SliderMultiplier:1.6
SliderTickRate:1

[Events]
//Background and Video events
0,0,"asdf.jpg",0,0
//Break Periods
2,72416,78930
//Storyboard Layer 0 (Background)
//Storyboard Layer 1 (Fail)
//Storyboard Layer 2 (Pass)
//Storyboard Layer 3 (Foreground)
//Storyboard Layer 4 (Overlay)
//Storyboard Sound Samples

[TimingPoints]
355,309.278350515464,4,2,1,50,1,0
355,-133.333333333333,4,2,1,50,0,0
9014,-76.9230769230769,4,2,1,70,0,0
10251,-86.9565217391304,4,2,1,70,0,0
20148,-111.111111111111,4,2,1,55,0,0
30045,-111.111111111111,4,2,1,60,0,0
39942,-133.333333333333,4,2,1,50,0,0
47365,-133.333333333333,4,2,1,60,0,0
49375,-76.9230769230769,4,2,1,60,0,0
49839,-76.9230769230769,4,2,4,75,0,0
49916,-76.9230769230769,4,2,1,75,0,0
59736,-76.9230769230769,4,2,4,75,0,0
59813,-76.9230769230769,4,2,1,75,0,0
69633,-76.9230769230769,4,2,1,60,0,0
72416,-76.9230769230769,4,2,1,60,0,0
78911,-76.9230769230769,4,2,1,60,0,0
79530,-125,4,2,1,55,0,0
86952,-111.111111111111,4,2,1,55,0,0
89427,-111.111111111111,4,2,1,60,0,0
99324,-90.9090909090908,4,2,1,50,0,0
102880,-142.857142857143,4,2,1,50,0,0
104272,-100,4,2,1,60,0,0
105355,-90.9090909090909,4,2,1,60,0,0
109220,-76.9230769230769,4,2,4,75,0,0
109298,-76.9230769230769,4,2,1,75,0,0
119117,-76.9230769230769,4,2,4,75,0,0
119195,-76.9230769230769,4,2,1,75,0,0
129014,-66.6666666666667,4,2,1,70,0,0
131334,-100,4,2,1,70,0,0
131798,-76.9230769230769,4,2,1,70,0,0
133653,-66.6666666666667,4,2,1,70,0,0
136282,-76.9230769230769,4,2,1,70,0,0
137674,-58.8235294117647,4,2,1,70,0,0
138911,-66.6666666666667,4,2,1,70,0,0
148808,-125,4,2,1,50,0,0
158705,-100,4,2,1,60,0,0
167365,-66.6666666666667,4,2,1,60,0,0
168138,-66.6666666666667,4,2,1,30,0,0
168602,-200,4,2,1,40,0,0
178499,-142.857142857143,4,2,1,45,0,0
187159,-100,4,2,1,45,0,0
188086,-66.6666666666667,4,2,1,45,0,0
188396,-76.9230769230769,4,2,4,75,0,0
188473,-76.9230769230769,4,2,1,75,0,0
191025,-66.6666666666667,4,2,1,75,0,0
191952,-76.9230769230769,4,2,1,75,0,0
193035,-66.6666666666667,4,2,1,75,0,0
193344,-76.9230769230769,4,2,1,75,0,0
197983,-66.6666666666667,4,2,1,75,0,0
198293,-76.9230769230769,4,2,4,75,0,0
198370,-76.9230769230769,4,2,1,75,0,0
202932,-66.6666666666667,4,2,1,75,0,0
203241,-100,4,2,1,75,0,0
207880,-66.6666666666667,4,2,1,75,0,0
208190,-90.9090909090909,4,2,1,70,0,0
212829,-76.9230769230769,4,2,1,70,0,0
213138,-90.9090909090909,4,2,1,70,0,0
217777,-66.6666666666667,4,2,1,70,0,0
218086,-76.9230769230769,4,2,1,70,0,0
222726,-66.6666666666667,4,2,1,70,0,0
223035,-76.9230769230769,4,2,1,70,0,0
227829,-666.666666666667,4,2,1,70,0,0
227906,-1000,4,2,1,5,0,0
236334,-1000,4,2,1,5,0,0
236489,-1000,4,2,1,70,0,0

[Colours]
Combo1 : 222,152,217
Combo2 : 10,183,192
Combo3 : 255,156,138

[HitObjects]
54,65,355,5,8,0:0:0:0:
118,170,509,2,0,L|123:106,1,60.0000022888184,8|0,0:0|0:0,0:0:0:0:
38,212,818,5,2,0:0:0:0:
138,246,973,2,0,P|69:202|24:221,1,120.000004577637,2|2,0:0|0:0,0:0:0:0:
199,322,1437,6,0,P|268:278|313:297,1,120.000004577637,2|2,0:0|0:0,0:0:0:0:
376,349,1901,1,2,0:0:0:0:
376,349,2056,1,0,0:0:0:0:
441,241,2210,6,0,P|411:245|385:260,1,60.0000022888184,2|0,0:0|0:0,0:0:0:0:
506,189,2519,2,0,P|487:165|461:150,1,60.0000022888184,2|0,0:0|0:0,0:0:0:0:
267,36,2829,5,8,0:0:0:0:
225,117,2983,2,0,L|304:110,1,60.0000022888184,8|2,0:0|0:0,0:0:0:0:
415,65,3293,5,2,0:0:0:0:
415,65,3447,2,0,L|335:58,1,60.0000022888184,2|0,0:0|0:0,0:0:0:0:
289,201,3757,2,0,L|348:195,1,60.0000022888184,2|0,0:0|0:0,0:0:0:0:
267,36,4066,5,2,0:0:0:0:
197,86,4220,2,0,L|191:149,1,60.0000022888184,2|2,0:0|0:0,0:0:0:0:
191,145,4530,1,0,0:0:0:0:
20,124,4684,6,0,L|25:183,1,60.0000022888184,2|0,0:0|0:0,0:0:0:0:
89,282,4994,2,0,L|94:222,1,60.0000022888184,2|0,0:0|0:0,0:0:0:0:
51,374,5303,5,8,0:0:0:0:
167,304,5458,2,0,L|103:298,1,60.0000022888184,8|0,0:0|0:0,0:0:0:0:
228,380,5767,5,2,0:0:0:0:
251,275,5922,2,0,P|215:329|229:382,1,120.000004577637,2|2,0:0|0:0,0:0:0:0:
344,275,6385,2,0,P|337:242|316:208,1,60.0000022888184,2|0,0:0|0:0,0:0:0:0:
324,219,6695,1,2,0:0:0:0:
390,355,6849,6,0,L|453:349,1,60.0000022888184,2|0,0:0|0:0,0:0:0:0:
452,266,7159,2,0,L|515:260,1,60.0000022888184,2|0,0:0|0:0,0:0:0:0:
406,183,7468,1,2,0:0:0:0:
406,183,7623,1,0,0:0:0:0:
492,9,7777,5,8,0:0:0:0:
439,76,7932,2,0,L|359:69,1,60.0000022888184,8|0,0:0|0:0,0:0:0:0:
379,70,8241,1,2,0:0:0:0:
270,11,8396,6,0,P|232:34|217:65,1,60.0000022888184,2|0,3:0|0:0,0:0:0:0:
145,89,8705,2,0,P|142:118|152:146,1,60.0000022888184,2|0,3:0|0:0,0:0:0:0:
442,222,9014,6,0,P|391:221|342:243,1,103.999995239258,14|8,0:0|3:0,0:0:0:0:
295,315,9246,1,8,3:0:0:0:
295,315,9324,2,0,P|263:315|236:309,1,51.999997619629,4|4,3:0|3:0,0:0:0:0:
2,144,9478,6,0,P|53:142|102:164,1,103.999995239258,14|8,0:0|3:0,0:0:0:0:
149,236,9710,1,8,3:0:0:0:
149,236,9788,2,0,P|180:236|208:230,1,51.999997619629,4|4,3:0|3:0,0:0:0:0:
382,45,9942,5,14,0:0:0:0:
432,215,10097,1,0,1:2:0:0:
234,108,10251,5,6,1:2:0:0:
224,67,10329,1,2,0:0:0:0:
240,29,10406,1,2,1:2:0:0:
329,158,10561,2,0,L|319:261,1,92.0000017547608,10|2,0:0|0:0,0:0:0:0:
125,339,10870,5,2,1:2:0:0:
224,362,11025,2,0,L|215:270,1,92.0000017547608,2|10,1:2|0:0,0:0:0:0:
56,136,11334,6,0,P|107:152|160:134,1,92.0000017547608,2|2,1:2|0:0,0:0:0:0:
177,120,11566,1,0,1:0:0:0:
214,103,11643,1,2,1:2:0:0:
255,100,11720,1,0,1:0:0:0:
295,110,11798,1,10,0:0:0:0:
376,190,11952,1,2,1:2:0:0:
460,25,12107,5,2,0:0:0:0:
512,108,12262,1,2,1:2:0:0:
509,143,12339,1,2,1:2:0:0:
507,179,12416,1,10,0:0:0:0:
450,295,12571,6,0,P|362:278|296:337,1,184.000003509522,6|2,1:2|1:2,0:0:0:0:
140,255,13035,1,10,0:0:0:0:
85,343,13190,2,0,L|188:333,1,92.0000017547608,2|2,1:2|0:0,0:0:0:0:
192,347,13422,1,2,0:0:0:0:
206,359,13499,1,2,1:2:0:0:
367,192,13653,1,10,0:0:0:0:
278,152,13808,6,0,L|269:247,1,92.0000017547608,6|0,1:0|0:0,0:0:0:0:
322,335,14117,1,2,1:2:0:0:
170,218,14272,5,10,0:0:0:0:
88,235,14427,1,14,0:0:0:0:
230,326,14581,1,2,0:0:0:0:
312,343,14736,1,2,1:2:0:0:
467,181,14891,5,8,3:0:0:0:
416,156,14968,1,8,3:0:0:0:
377,195,15045,1,4,3:0:0:0:
403,244,15123,1,4,3:0:0:0:
457,235,15200,6,0,L|512:239,2,46.0000008773804,6|2|2,1:2|0:0|1:2,0:0:0:0:
319,133,15509,2,0,L|227:141,1,92.0000017547608,10|2,0:0|0:0,0:0:0:0:
45,216,15818,5,2,1:2:0:0:
121,153,15973,2,0,L|129:57,1,92.0000017547608,2|10,1:2|0:0,0:0:0:0:
235,235,16282,6,0,P|189:230|148:249,1,92.0000017547608,6|2,1:2|0:0,0:0:0:0:
124,283,16514,1,0,1:0:0:0:
90,308,16592,1,2,1:2:0:0:
48,308,16669,1,0,1:0:0:0:
9,292,16746,1,10,0:0:0:0:
61,201,16901,1,2,1:2:0:0:
184,342,17056,6,0,L|295:332,1,92.0000017547608,2|0,0:0|1:2,0:0:0:0:
289,315,17287,1,2,1:2:0:0:
301,297,17365,1,10,0:0:0:0:
467,353,17519,6,0,P|393:304|399:216,1,184.000003509522,6|2,1:2|1:2,0:0:0:0:
505,132,17983,1,10,0:0:0:0:
505,132,18138,1,2,1:2:0:0:
419,34,18293,1,2,0:0:0:0:
379,37,18370,1,2,0:0:0:0:
339,40,18447,1,2,1:2:0:0:
191,179,18602,5,10,0:0:0:0:
161,91,18757,2,0,L|264:100,1,92.0000017547608,6|2,1:0|0:0,0:0:0:0:
150,102,19066,1,2,1:2:0:0:
394,243,19220,5,10,0:0:0:0:
336,139,19375,1,14,0:0:0:0:
276,242,19530,1,0,0:0:0:0:
142,111,19684,5,2,1:2:0:0:
63,176,19839,1,10,0:0:0:0:
60,207,19916,1,8,0:0:0:0:
57,239,19994,1,10,0:0:0:0:
54,271,20071,1,8,0:0:0:0:
51,303,20148,6,0,L|154:293,1,71.9999978027344,6|2,1:2|1:2,0:0:0:0:
288,373,20458,1,10,0:0:0:0:
288,373,20612,1,2,1:2:0:0:
216,304,20767,2,0,L|224:208,1,71.9999978027344,2|0,0:0|1:2,0:0:0:0:
234,221,20999,1,0,1:2:0:0:
244,212,21076,2,0,L|250:132,1,71.9999978027344,10|0,0:0|1:2,0:0:0:0:
139,17,21385,6,0,L|147:112,1,71.9999978027344,2|2,0:1|1:1,0:0:0:0:
105,175,21695,2,0,L|113:270,1,71.9999978027344,10|2,0:1|1:1,0:0:0:0:
240,367,22004,2,0,P|247:318|167:337,1,143.999995605469,2|10,0:0|0:0,0:0:0:0:
254,380,22468,1,8,0:0:0:0:
373,309,22623,5,6,1:2:0:0:
457,324,22777,1,2,1:2:0:0:
329,210,22932,5,10,0:0:0:0:
244,225,23086,1,2,1:2:0:0:
469,316,23241,6,0,L|475:236,1,71.9999978027344,2|0,0:0|1:2,0:0:0:0:
411,127,23550,1,10,0:0:0:0:
411,127,23705,1,2,1:2:0:0:
336,200,23860,5,2,0:1:0:0:
251,185,24014,1,2,1:1:0:0:
90,138,24169,5,10,0:1:0:0:
175,123,24323,1,2,1:1:0:0:
340,211,24478,6,0,L|331:306,1,71.9999978027344,2|2,0:0|1:1,0:0:0:0:
108,145,24787,5,10,0:0:0:0:
193,130,24941,1,8,0:0:0:0:
345,225,25097,6,0,L|340:280,2,35.9999989013672,6|0|2,1:2|0:0|1:2,0:0:0:0:
216,304,25406,2,0,L|220:359,2,35.9999989013672,10|0|2,0:0|0:0|1:2,0:0:0:0:
66,229,25715,6,0,L|73:141,1,71.9999978027344,2|2,0:0|1:2,0:0:0:0:
86,143,25947,1,2,1:2:0:0:
101,130,26025,1,10,0:0:0:0:
27,14,26179,6,0,P|71:43|166:8,1,143.999995605469,2|2,1:2|1:1,0:0:0:0:
299,133,26643,1,10,0:1:0:0:
299,133,26798,1,2,1:1:0:0:
325,46,26952,5,2,0:0:0:0:
240,62,27107,1,2,1:1:0:0:
392,120,27262,5,10,0:0:0:0:
477,136,27417,1,10,0:0:0:0:
313,294,27571,6,0,L|306:214,1,71.9999978027344,6|0,1:2|1:2,0:0:0:0:
327,306,27880,1,8,0:0:0:0:
228,363,28035,2,0,P|178:370|113:346,1,107.999996704102,2|0,1:2|0:0,0:0:0:0:
106,332,28344,1,0,1:2:0:0:
85,317,28422,1,0,1:2:0:0:
60,312,28499,2,0,L|53:391,1,71.9999978027344,10|0,0:0|1:2,0:0:0:0:
179,261,28808,5,10,0:1:0:0:
168,174,28963,1,10,0:1:0:0:
158,88,29117,1,10,0:1:0:0:
357,33,29272,6,0,L|345:160,1,107.999996704102,6|0,1:1|0:0,0:0:0:0:
369,171,29581,2,0,L|357:298,1,107.999996704102,6|0,1:1|0:0,0:0:0:0:
374,303,29891,1,4,3:0:0:0:
401,311,29968,1,4,3:0:0:0:
429,304,30045,6,0,L|423:225,1,71.9999978027344,6|2,1:2|1:2,0:0:0:0:
268,148,30355,1,10,0:0:0:0:
268,148,30509,1,2,1:2:0:0:
199,215,30664,1,2,0:0:0:0:
71,121,30818,1,0,1:2:0:0:
71,121,30896,1,0,1:2:0:0:
71,121,30973,2,0,L|150:114,1,71.9999978027344,10|2,0:0|1:2,0:0:0:0:
303,4,31282,5,2,0:1:0:0:
323,84,31437,1,2,1:2:0:0:
379,209,31592,5,10,0:0:0:0:
399,129,31747,1,2,1:1:0:0:
281,227,31901,6,0,L|287:306,1,71.9999978027344,2|2,0:0|1:1,0:0:0:0:
393,376,32210,1,10,0:0:0:0:
393,376,32365,1,8,0:0:0:0:
296,307,32519,5,6,1:2:0:0:
215,332,32674,1,2,1:2:0:0:
54,347,32829,5,10,0:0:0:0:
135,372,32984,1,2,1:2:0:0:
305,314,33138,6,0,L|311:242,1,71.9999978027344,2|0,0:0|1:2,0:0:0:0:
302,229,33370,1,0,1:2:0:0:
292,218,33447,1,10,0:0:0:0:
174,261,33602,1,2,1:2:0:0:
32,163,33757,5,2,0:1:0:0:
112,138,33911,1,2,1:2:0:0:
233,36,34066,5,10,0:0:0:0:
153,61,34220,1,2,1:1:0:0:
285,144,34375,6,0,P|346:143|370:118,1,71.9999978027344,2|2,0:0|1:1,0:0:0:0:
447,33,34684,1,10,0:0:0:0:
447,33,34839,1,8,0:0:0:0:
363,146,34994,6,0,L|367:201,2,35.9999989013672,6|0|2,1:2|0:0|1:2,0:0:0:0:
461,252,35303,2,0,L|456:307,2,35.9999989013672,10|0|2,0:0|0:0|1:2,0:0:0:0:
361,355,35612,1,2,0:0:0:0:
284,302,35767,1,2,1:2:0:0:
255,304,35844,1,2,1:2:0:0:
226,306,35922,1,10,0:0:0:0:
120,377,36076,6,0,P|142:321|95:240,1,143.999995605469,2|2,1:2|1:2,0:0:0:0:
0,189,36540,1,10,0:0:0:0:
81,161,36695,1,2,1:1:0:0:
238,128,36849,5,2,0:0:0:0:
157,100,37004,1,2,1:1:0:0:
113,252,37159,1,10,0:0:0:0:
113,252,37313,1,10,0:0:0:0:
5,88,37468,6,0,L|92:80,2,71.9999978027344,6|0|8,1:2|1:2|0:0,0:0:0:0:
133,21,37932,2,0,L|276:33,1,143.999995605469,2|0,1:1|1:2,0:0:0:0:
292,49,38318,1,0,1:2:0:0:
306,61,38396,2,0,L|385:54,1,71.9999978027344,10|0,0:1|1:2,0:0:0:0:
503,162,38705,6,0,P|469:154|433:154,1,71.9999978027344,2|0,1:2|1:2,0:0:0:0:
290,217,39014,2,0,P|324:225|360:225,1,71.9999978027344,10|0,0:0|1:2,0:0:0:0:
208,133,39324,5,8,0:0:0:0:
173,142,39401,1,8,0:0:0:0:
145,165,39478,1,8,0:0:0:0:
133,199,39556,1,8,0:0:0:0:
131,234,39633,5,8,3:0:0:0:
120,256,39710,1,8,3:0:0:0:
101,273,39787,1,4,3:0:0:0:
78,284,39865,1,4,3:0:0:0:
53,279,39942,6,0,L|42:160,1,120.000004577637,6|0,1:2|1:2,0:0:0:0:
41,289,40406,1,0,1:2:0:0:
94,354,40561,2,0,L|165:360,1,60.0000022888184,14|0,0:0|0:0,0:0:0:0:
239,309,40870,1,2,1:2:0:0:
239,309,41025,6,0,L|374:297,1,120.000004577637,14|2,0:0|1:2,0:0:0:0:
449,352,41489,1,2,0:0:0:0:
498,288,41643,1,2,1:2:0:0:
498,288,41720,1,0,1:2:0:0:
498,288,41798,2,0,L|490:200,1,60.0000022888184,14|2,0:0|0:0,0:0:0:0:
436,158,42107,1,6,1:2:0:0:
436,158,42262,1,10,0:0:0:0:
496,36,42416,6,0,P|469:60|369:54,1,120.000004577637,6|0,1:2|1:2,0:0:0:0:
388,65,42880,1,0,1:2:0:0:
259,0,43035,2,0,L|247:135,1,120.000004577637,14|2,0:0|1:2,0:0:0:0:
140,162,43499,2,0,L|129:42,1,120.000004577637,14|2,0:0|1:2,0:0:0:0:
127,173,43963,5,2,0:0:0:0:
212,229,44117,1,2,1:2:0:0:
212,229,44195,1,0,1:2:0:0:
212,229,44272,2,0,L|205:300,1,60.0000022888184,14|0,0:0|1:0,0:0:0:0:
64,373,44581,5,14,0:0:0:0:
92,362,44659,1,8,0:0:0:0:
121,357,44736,1,0,1:2:0:0:
149,364,44813,1,0,1:2:0:0:
175,378,44891,6,0,P|224:387|299:369,1,120.000004577637,6|0,1:2|1:2,0:0:0:0:
291,372,45355,1,0,1:2:0:0:
420,314,45509,2,0,L|332:306,1,60.0000022888184,14|0,0:0|0:0,0:0:0:0:
202,236,45818,1,2,1:2:0:0:
202,236,45973,6,0,L|337:224,1,120.000004577637,14|2,0:0|1:2,0:0:0:0:
321,225,46437,1,0,0:0:0:0:
426,135,46592,5,2,1:2:0:0:
426,135,46669,1,0,1:2:0:0:
426,135,46746,2,0,L|354:128,1,60.0000022888184,14|2,0:0|0:0,0:0:0:0:
272,58,47056,1,6,1:2:0:0:
272,58,47210,1,10,0:0:0:0:
57,159,47365,5,14,0:0:0:0:
155,257,47519,1,2,1:2:0:0:
48,171,47674,5,10,0:0:0:0:
213,202,47829,1,2,1:2:0:0:
36,183,47983,5,8,0:0:0:0:
265,153,48138,2,0,L|269:200,1,30.0000011444092,2|0,1:2|1:2,0:0:0:0:
27,196,48293,5,8,0:0:0:0:
319,103,48447,1,2,1:2:0:0:
319,103,48525,1,0,1:2:0:0:
319,103,48602,6,0,B|313:142|313:142|325:177|325:177|317:215|317:215|319:259|319:259|314:282,1,180.000006866455,14|0,0:0|0:0,0:0:0:0:
140,359,49375,5,10,0:0:0:0:
140,359,49452,1,8,0:0:0:0:
140,359,49530,2,0,L|133:295,1,51.999997619629,8|8,3:0|3:0,0:0:0:0:
118,177,49684,2,0,L|111:113,1,51.999997619629,8|8,3:0|3:0,0:0:0:0:
194,241,49839,6,0,B|128:283|128:283|45:254,1,155.999992858887,6|0,1:1|0:0,0:0:0:0:
213,224,50148,2,0,L|332:234,1,103.999995239258,10|2,0:0|0:1,0:0:0:0:
337,247,50380,1,0,0:0:0:0:
352,259,50458,1,2,1:2:0:0:
311,363,50612,1,2,1:1:0:0:
227,212,50767,1,10,0:0:0:0:
493,94,50922,6,0,B|402:83|425:212|298:207,1,207.999990478516,6|2,1:2|1:2,0:0:0:0:
210,107,51385,2,0,L|321:116,1,103.999995239258,10|2,0:0|1:2,0:0:0:0:
198,123,51695,1,2,0:0:0:0:
96,62,51849,2,0,L|91:6,2,51.999997619629,2|0|8,1:2|1:2|0:0,0:0:0:0:
30,193,52159,6,0,L|40:312,1,103.999995239258,6|0,1:2|0:0,0:0:0:0:
164,249,52468,5,2,1:2:0:0:
161,293,52545,1,2,0:0:0:0:
156,337,52623,1,10,0:0:0:0:
144,240,52777,5,2,1:2:0:0:
141,289,52854,1,2,0:0:0:0:
136,338,52931,1,2,0:0:0:0:
120,232,53086,5,2,1:2:0:0:
116,287,53163,1,2,0:0:0:0:
111,341,53240,1,10,0:0:0:0:
177,110,53396,6,0,B|247:100|245:228|372:223,1,207.999990478516,6|2,1:2|1:2,0:0:0:0:
421,152,53860,1,10,0:0:0:0:
255,297,54014,2,0,P|195:307|143:228,1,155.999992858887,14|0,0:0|0:0,0:0:0:0:
152,213,54324,1,2,1:2:0:0:
322,355,54478,6,0,L|393:348,1,51.999997619629,10|8,0:2|0:0,0:0:0:0:
489,270,54633,2,0,L|417:263,1,51.999997619629,4|4,3:0|3:0,0:0:0:0:
272,113,54787,6,0,P|345:101|379:166,1,155.999992858887,6|0,1:2|0:0,0:0:0:0:
255,126,55097,2,0,L|143:116,1,103.999995239258,10|2,0:0|0:1,0:0:0:0:
136,105,55329,1,0,0:0:0:0:
120,95,55406,1,2,1:2:0:0:
28,194,55561,1,2,1:1:0:0:
127,321,55715,1,10,0:0:0:0:
294,105,55870,6,0,B|203:94|226:223|99:218,1,207.999990478516,6|0,1:2|1:2,0:0:0:0:
16,115,56334,2,0,L|135:125,1,103.999995239258,10|2,0:0|1:2,0:0:0:0:
256,290,56643,1,2,0:0:0:0:
333,238,56798,2,0,L|327:174,2,51.999997619629,2|0|8,1:2|1:2|0:0,0:0:0:0:
485,87,57107,6,0,B|444:99|395:79|395:79|382:90|382:90|332:70|277:87,1,207.999990478516,6|0,1:2|1:2,0:0:0:0:
127,205,57571,2,0,L|121:141,1,51.999997619629,10|0,0:0|0:0,0:0:0:0:
110,1,57726,1,2,1:2:0:0:
157,75,57880,5,2,0:0:0:0:
114,79,57957,1,0,0:0:0:0:
71,83,58035,1,2,1:2:0:0:
170,83,58190,1,10,0:0:0:0:
19,181,58344,6,0,B|89:171|87:299|214:294,1,207.999990478516,6|2,1:2|1:2,0:0:0:0:
8,192,58808,1,10,0:0:0:0:
233,363,58963,6,0,P|304:337|331:266,1,155.999992858887,14|0,0:0|0:0,0:0:0:0:
322,237,59272,1,2,1:2:0:0:
143,126,59427,5,10,0:0:0:0:
170,83,59504,1,8,0:0:0:0:
221,96,59581,1,8,0:0:0:0:
223,148,59659,1,8,0:0:0:0:
174,166,59736,5,6,1:1:0:0:
109,33,59891,1,0,0:0:0:0:
42,227,60045,2,0,P|110:251|142:244,1,103.999995239258,10|2,0:0|0:1,0:0:0:0:
376,131,60355,5,2,1:2:0:0:
376,131,60509,1,2,1:1:0:0:
442,196,60664,1,10,0:0:0:0:
463,36,60818,6,0,B|393:26|395:154|268:149,1,207.999990478516,6|2,1:2|1:2,0:0:0:0:
180,39,61282,1,10,0:0:0:0:
283,48,61437,1,0,1:2:0:0:
154,169,61592,6,0,L|50:178,1,103.999995239258,2|2,0:0|1:2,0:0:0:0:
33,166,61824,1,0,1:2:0:0:
18,155,61901,1,10,0:0:0:0:
163,329,62056,6,0,B|232:357|237:300|318:329,1,155.999992858887,6|0,1:2|0:0,0:0:0:0:
336,346,62365,1,2,1:2:0:0:
476,243,62519,5,10,0:0:0:0:
444,240,62597,1,2,0:0:0:0:
412,237,62674,1,2,1:2:0:0:
342,134,62829,1,2,0:0:0:0:
202,201,62983,1,2,1:2:0:0:
233,198,63061,1,2,0:0:0:0:
265,195,63138,1,10,0:0:0:0:
427,4,63293,6,0,B|357:-6|359:122|232:117,1,207.999990478516,6|2,1:2|1:2,0:0:0:0:
443,18,63757,1,10,0:0:0:0:
247,126,63911,2,0,P|141:108|121:41,1,155.999992858887,14|0,0:0|0:0,0:0:0:0:
125,45,64220,1,2,1:2:0:0:
19,148,64375,5,10,0:0:0:0:
24,183,64452,1,8,0:0:0:0:
28,219,64530,1,4,3:0:0:0:
34,254,64607,1,4,3:0:0:0:
40,288,64684,6,0,P|110:320|179:289,1,155.999992858887,6|0,1:2|0:0,0:0:0:0:
201,254,64994,2,0,L|312:263,1,103.999995239258,8|0,0:0|0:0,0:0:0:0:
473,359,65303,1,2,1:2:0:0:
506,249,65458,1,2,1:2:0:0:
344,358,65612,1,10,0:0:0:0:
222,160,65767,6,0,B|322:119|330:201|446:160,1,207.999990478516,6|2,1:2|1:2,0:0:0:0:
213,181,66231,1,10,0:0:0:0:
135,89,66385,1,2,1:2:0:0:
205,197,66540,1,2,0:0:0:0:
268,28,66695,1,2,1:2:0:0:
301,30,66772,1,0,1:2:0:0:
335,33,66849,1,8,0:0:0:0:
428,181,67004,6,0,B|327:221|319:139|203:181,1,207.999990478516,6|2,1:2|1:2,0:0:0:0:
126,293,67468,1,10,0:0:0:0:
72,217,67623,1,2,1:1:0:0:
5,333,67777,2,0,L|0:388,2,51.999997619629,2|2|2,0:0|0:0|1:1,0:0:0:0:
63,205,68086,1,10,0:0:0:0:
194,368,68241,6,0,B|275:397|277:249|396:274,1,207.999990478516,6|2,1:2|1:2,0:0:0:0:
449,342,68705,1,10,0:0:0:0:
229,221,68860,1,2,1:2:0:0:
373,84,69014,5,10,0:0:0:0:
252,304,69169,1,8,0:0:0:0:
19,221,69324,5,10,0:0:0:0:
70,210,69401,1,8,0:0:0:0:
121,220,69478,1,8,0:0:0:0:
171,233,69555,1,8,0:0:0:0:
222,228,69633,5,6,1:2:0:0:
256,192,69710,12,6,72107,1:2:0:0:
167,144,79530,5,6,1:1:0:0:
342,159,79684,1,2,1:1:0:0:
260,231,79839,5,2,1:2:0:0:
246,86,79994,1,2,3:2:0:0:
246,86,80071,1,0,3:2:0:0:
246,86,80148,2,0,L|257:213,1,128,10|2,0:0|1:1,0:0:0:0:
108,355,80612,6,0,P|100:323|97:292,1,64,2|2,1:1|1:2,0:0:0:0:
175,246,80922,1,10,0:0:0:0:
27,226,81076,1,2,1:2:0:0:
93,115,81231,1,2,3:2:0:0:
93,115,81308,1,0,3:2:0:0:
93,115,81385,2,0,L|104:183,1,64,10|2,0:1|0:1,0:0:0:0:
267,150,81695,2,0,L|256:218,1,64,2|2,0:1|1:1,0:0:0:0:
175,246,82004,5,6,1:1:0:0:
191,71,82159,1,2,0:1:0:0:
172,230,82313,1,2,1:2:0:0:
349,187,82468,1,2,3:2:0:0:
349,187,82545,1,0,3:2:0:0:
349,187,82623,2,0,L|480:175,1,128,10|2,0:0|1:1,0:0:0:0:
213,156,83086,6,0,L|122:145,1,64,10|2,0:1|1:2,0:0:0:0:
312,95,83396,2,0,L|403:84,1,64,10|0,0:0|1:2,0:0:0:0:
296,347,83705,1,0,3:2:0:0:
296,347,83782,1,0,3:2:0:0:
296,347,83860,2,0,P|269:304|272:216,1,128,10|2,0:1|1:1,0:0:0:0:
375,175,84324,1,8,0:0:0:0:
124,327,84478,6,0,L|113:261,1,64,2|2,1:1|0:1,0:0:0:0:
194,123,84787,2,0,L|183:186,1,64,2|2,1:2|3:2,0:0:0:0:
181,198,85019,1,0,3:2:0:0:
179,210,85097,1,10,0:0:0:0:
94,184,85251,2,0,L|17:165,1,64,2|2,0:0|1:1,0:0:0:0:
205,316,85561,6,0,B|252:307|252:307|285:290|285:290|341:283,1,128,10|10,0:1|0:0,0:0:0:0:
215,232,86025,1,2,1:2:0:0:
410,323,86179,5,2,3:2:0:0:
411,310,86257,1,0,3:2:0:0:
413,297,86334,1,10,0:1:0:0:
347,150,86489,1,2,3:1:0:0:
333,268,86643,5,2,3:1:0:0:
420,203,86798,1,10,0:1:0:0:
283,79,86952,6,0,P|229:74|138:137,1,143.999995605469,6|0,1:1|1:2,0:0:0:0:
371,118,87416,1,2,3:2:0:0:
371,118,87494,1,0,3:2:0:0:
371,118,87571,2,0,P|394:64|397:30,1,71.9999978027344,10|0,0:0|1:2,0:0:0:0:
219,168,87880,1,8,3:0:0:0:
222,193,87958,1,8,3:0:0:0:
214,216,88035,1,4,3:0:0:0:
217,240,88112,1,4,3:0:0:0:
212,264,88190,5,10,0:0:0:0:
335,216,88344,1,10,0:0:0:0:
113,194,88499,5,10,0:0:0:0:
406,298,88653,1,6,1:1:0:0:
286,99,88963,6,0,L|298:46,2,35.9999989013672,6|0|0,1:1|0:0|0:0,0:0:0:0:
149,324,89272,1,4,3:0:0:0:
149,324,89349,1,4,3:0:0:0:
149,324,89427,6,0,L|47:342,1,71.9999978027344,6|2,1:2|1:2,0:0:0:0:
289,353,89736,1,10,0:0:0:0:
187,245,89891,1,2,1:2:0:0:
309,271,90045,2,0,L|379:258,1,71.9999978027344,2|0,0:0|1:2,0:0:0:0:
394,256,90277,1,0,1:2:0:0:
408,254,90355,1,10,0:0:0:0:
250,166,90509,1,2,1:2:0:0:
370,92,90664,6,0,L|353:186,1,71.9999978027344,2|2,0:1|1:2,0:0:0:0:
229,322,90973,1,10,0:0:0:0:
321,341,91128,2,0,L|304:247,1,71.9999978027344,2|2,1:1|0:0,0:0:0:0:
262,95,91437,2,0,L|245:189,1,71.9999978027344,2|10,1:1|0:0,0:0:0:0:
122,351,91746,1,8,0:0:0:0:
122,351,91824,1,0,0:0:0:0:
122,351,91901,5,6,1:2:0:0:
46,199,92056,2,0,L|-3:182,2,35.9999989013672,2|0|10,1:2|0:0|0:0,0:0:0:0:
180,277,92365,2,0,B|260:269|237:249|320:246,1,143.999995605469,2|0,1:2|1:2,0:0:0:0:
392,280,92751,1,0,1:2:0:0:
404,287,92829,2,0,L|416:212,1,71.9999978027344,10|2,0:0|1:2,0:0:0:0:
185,119,93138,6,0,L|196:190,1,71.9999978027344,2|2,0:1|1:2,0:0:0:0:
243,347,93447,1,10,0:0:0:0:
124,322,93602,2,0,L|179:276,1,71.9999978027344,2|2,1:1|0:0,0:0:0:0:
331,277,93911,2,0,L|263:251,1,71.9999978027344,2|8,1:1|0:0,0:0:0:0:
115,215,94220,1,8,0:0:0:0:
271,159,94375,5,6,1:2:0:0:
243,347,94530,1,2,1:2:0:0:
250,169,94684,5,10,0:0:0:0:
267,339,94839,1,2,1:2:0:0:
356,245,94994,5,2,0:0:0:0:
252,255,95148,1,2,1:2:0:0:
237,256,95226,1,2,1:2:0:0:
222,258,95303,1,10,0:0:0:0:
59,141,95458,6,0,P|113:97|201:100,1,143.999995605469,2|2,1:2|1:2,0:0:0:0:
265,119,95922,2,0,P|269:83|271:47,1,71.9999978027344,10|2,0:0|1:1,0:0:0:0:
183,9,96231,1,2,0:0:0:0:
359,95,96385,1,2,1:1:0:0:
200,189,96540,1,10,0:0:0:0:
379,92,96695,1,10,0:0:0:0:
184,93,96849,6,0,L|84:82,1,71.9999978027344,6|0,1:2|1:2,0:0:0:0:
237,276,97159,1,8,0:0:0:0:
95,295,97313,2,0,L|241:276,1,143.999995605469,2|0,1:1|1:2,0:0:0:0:
332,237,97700,1,0,1:2:0:0:
345,240,97777,2,0,L|440:255,1,71.9999978027344,10|0,0:1|1:2,0:0:0:0:
502,212,98086,5,2,1:2:0:0:
502,212,98241,1,0,1:2:0:0:
390,156,98396,5,10,0:0:0:0:
363,325,98550,1,0,1:2:0:0:
240,309,98705,5,8,0:0:0:0:
237,276,98782,1,8,0:0:0:0:
234,243,98860,2,0,L|230:190,1,35.9999989013672,8|8,0:0|0:0,0:0:0:0:
147,124,99014,5,8,3:0:0:0:
109,131,99092,1,8,3:0:0:0:
79,156,99169,1,4,3:0:0:0:
65,193,99246,1,4,3:0:0:0:
71,231,99324,5,10,0:1:0:0:
363,325,99478,1,10,0:1:0:0:
88,344,100097,5,10,0:1:0:0:
311,233,100406,2,0,B|249:246|249:246|215:287|215:287|156:299,1,176.000005371094,14|10,0:1|0:1,0:0:0:0:
256,76,101334,5,14,0:1:0:0:
82,104,101489,2,0,L|171:92,1,88.000002685547,14|0,0:1|0:0,0:0:0:0:
408,45,101798,5,10,0:1:0:0:
336,314,101952,1,10,0:1:0:0:
416,244,102571,5,10,0:1:0:0:
313,95,102880,2,0,L|334:209,1,111.999996582031,14|10,0:1|0:1,0:0:0:0:
475,357,103344,2,0,L|489:288,1,55.9999982910157,2|2,0:0|1:2,0:0:0:0:
489,288,103576,1,0,1:2:0:0:
492,274,103653,1,14,0:0:0:0:
424,203,103808,1,0,1:2:0:0:
331,236,103963,1,8,3:0:0:0:
297,232,104040,1,8,3:0:0:0:
264,228,104117,1,4,3:0:0:0:
230,225,104195,1,4,3:0:0:0:
197,221,104272,5,6,1:2:0:0:
245,59,104427,2,0,B|256:97|256:97|249:145,1,80,2|8,1:1|0:0,0:0:0:0:
104,171,104736,1,2,0:1:0:0:
127,352,104891,2,0,L|116:252,1,80,0|2,1:2|1:1,0:0:0:0:
106,187,105123,1,0,1:2:0:0:
104,171,105200,1,8,0:0:0:0:
26,253,105355,6,0,B|91:246|91:246|126:227|126:227|196:220,1,176.000005371094,6|2,1:2|1:2,0:0:0:0:
464,268,105818,1,10,0:0:0:0:
291,250,105973,1,2,1:1:0:0:
421,366,106128,1,2,0:0:0:0:
384,196,106282,1,2,1:1:0:0:
384,196,106360,1,0,1:2:0:0:
384,196,106437,1,10,0:0:0:0:
315,355,106592,1,2,1:2:0:0:
441,99,106746,5,6,1:2:0:0:
377,283,106901,1,0,1:2:0:0:
265,63,107056,5,10,0:0:0:0:
291,250,107210,1,2,1:2:0:0:
175,85,107365,5,8,0:0:0:0:
137,321,107519,1,2,1:2:0:0:
137,321,107597,1,0,1:2:0:0:
137,321,107674,1,10,0:0:0:0:
40,57,107829,5,2,1:2:0:0:
30,214,107983,2,0,B|60:206|60:206|79:218|79:218|100:207|100:207|160:202,1,132.00000402832,14|0,0:0|0:0,0:0:0:0:
193,199,108293,1,10,0:0:0:0:
219,198,108370,1,8,0:0:0:0:
385,348,108525,1,8,3:0:0:0:
362,343,108602,2,0,L|307:333,1,44.0000013427735,4|0,3:0|0:0,0:0:0:0:
245,376,108757,5,10,0:0:0:0:
229,335,108834,1,8,0:0:0:0:
240,293,108911,1,10,0:0:0:0:
272,264,108989,1,8,0:0:0:0:
305,234,109066,1,10,0:0:0:0:
315,193,109143,1,8,0:0:0:0:
300,152,109220,6,0,L|292:37,1,103.999995239258,6|0,1:1|0:0,0:0:0:0:
383,97,109530,1,10,0:0:0:0:
219,198,109684,1,2,0:1:0:0:
393,258,109839,5,2,1:2:0:0:
212,106,109994,1,2,1:1:0:0:
439,25,110148,1,10,0:0:0:0:
467,181,110303,2,0,B|393:192|393:192|356:240|356:240|281:253,1,207.999990478516,6|2,1:2|1:2,0:0:0:0:
212,106,110767,1,10,0:0:0:0:
444,269,110922,1,2,1:2:0:0:
293,49,111076,2,0,B|309:98|309:98|300:149,1,103.999995239258,2|2,0:0|1:2,0:0:0:0:
301,150,111308,1,0,1:2:0:0:
301,150,111385,1,8,0:0:0:0:
53,292,111540,6,0,B|102:273|102:273|152:282,1,103.999995239258,6|0,1:2|0:0,0:0:0:0:
133,251,111849,5,2,1:2:0:0:
97,242,111927,1,2,0:0:0:0:
63,256,112004,1,10,0:0:0:0:
142,229,112159,5,2,1:2:0:0:
99,219,112237,1,2,0:0:0:0:
58,235,112314,1,2,0:0:0:0:
151,210,112468,5,2,1:2:0:0:
99,198,112546,1,2,0:0:0:0:
50,217,112623,1,10,0:0:0:0:
109,319,112777,6,0,B|107:242|107:242|85:200|85:200|82:115,1,207.999990478516,6|2,1:2|1:2,0:0:0:0:
24,295,113241,1,10,0:0:0:0:
292,45,113396,2,0,P|318:89|312:162,1,103.999995239258,14|0,0:0|0:0,0:0:0:0:
250,197,113705,1,2,1:2:0:0:
295,23,113860,5,10,0:2:0:0:
332,59,113937,1,8,0:0:0:0:
344,109,114014,1,4,3:0:0:0:
327,158,114092,1,4,3:0:0:0:
250,197,114169,6,0,L|132:179,1,103.999995239258,6|0,1:2|0:0,0:0:0:0:
71,223,114478,1,10,0:0:0:0:
174,104,114633,1,2,0:1:0:0:
64,64,114787,5,2,1:2:0:0:
169,270,114942,1,2,1:1:0:0:
207,18,115097,1,10,0:0:0:0:
95,362,115251,6,0,P|167:291|267:297,1,207.999990478516,6|0,1:2|1:2,0:0:0:0:
131,103,115715,2,0,P|108:168|112:220,1,103.999995239258,10|2,0:0|1:2,0:0:0:0:
305,373,116025,1,2,0:0:0:0:
217,180,116179,1,2,1:2:0:0:
217,180,116257,1,0,1:2:0:0:
217,180,116334,1,8,0:0:0:0:
358,299,116489,6,0,L|465:286,1,103.999995239258,6|0,1:2|0:0,0:0:0:0:
433,41,116798,1,0,1:2:0:0:
397,210,116952,1,10,0:0:0:0:
311,106,117107,1,2,1:2:0:0:
469,132,117262,1,2,0:0:0:0:
433,126,117339,1,0,0:0:0:0:
397,121,117416,1,2,1:2:0:0:
183,49,117571,1,10,0:0:0:0:
79,293,117726,6,0,B|164:286|134:251|225:245,1,155.999992858887,6|0,1:2|0:0,0:0:0:0:
243,218,118035,1,2,1:2:0:0:
162,57,118190,1,10,0:0:0:0:
48,278,118344,2,0,B|163:271|109:219|243:217,1,207.999990478516,14|2,0:0|1:2,0:0:0:0:
411,324,118808,1,10,0:0:0:0:
455,299,118885,1,8,0:0:0:0:
479,253,118962,1,8,0:0:0:0:
473,202,119039,1,8,0:0:0:0:
408,150,119117,6,0,L|292:160,1,103.999995239258,6|0,1:1|0:0,0:0:0:0:
68,253,119427,2,0,L|184:263,1,103.999995239258,10|2,0:0|0:1,0:0:0:0:
393,242,119736,5,2,1:2:0:0:
238,100,119891,1,2,1:1:0:0:
193,337,120045,1,10,0:0:0:0:
453,360,120200,2,0,B|428:287|356:261|356:261|294:280,1,207.999990478516,6|2,1:2|1:2,0:0:0:0:
193,337,120664,1,10,0:0:0:0:
283,189,120818,1,0,1:2:0:0:
169,154,120973,5,2,0:0:0:0:
353,357,121128,1,2,1:2:0:0:
353,357,121205,1,0,1:2:0:0:
353,357,121282,1,10,0:0:0:0:
389,61,121437,6,0,L|371:199,1,103.999995239258,6|0,1:2|0:0,0:0:0:0:
212,287,121746,1,2,1:2:0:0:
445,205,121901,1,10,0:0:0:0:
276,143,122056,1,2,1:2:0:0:
301,305,122210,1,2,0:0:0:0:
298,274,122287,1,2,0:0:0:0:
296,242,122365,1,2,1:2:0:0:
103,340,122519,1,10,0:0:0:0:
36,164,122674,6,0,P|136:164|188:249,1,207.999990478516,6|2,1:2|1:2,0:0:0:0:
207,369,123138,1,10,0:0:0:0:
502,276,123293,2,0,B|379:258|426:320|300:304,1,207.999990478516,14|2,0:0|1:2,0:0:0:0:
103,340,123757,1,10,0:0:0:0:
108,319,123834,1,8,0:0:0:0:
107,298,123911,2,0,P|103:272|99:246,1,51.999997619629,4|4,3:0|3:0,0:0:0:0:
230,50,124066,6,0,L|218:213,1,155.999992858887,6|0,1:2|0:0,0:0:0:0:
218,229,124375,1,8,0:0:0:0:
317,171,124530,1,0,0:0:0:0:
136,114,124684,5,2,1:2:0:0:
318,265,124839,1,2,1:2:0:0:
103,340,124994,1,10,0:0:0:0:
123,211,125148,6,0,B|197:198|197:198|232:162|232:162|314:149,1,207.999990478516,6|2,1:2|1:2,0:0:0:0:
159,17,125612,2,0,P|134:64|137:120,1,103.999995239258,10|2,0:0|1:2,0:0:0:0:
185,307,125922,1,2,0:0:0:0:
284,242,126076,2,0,L|292:293,2,51.999997619629,2|0|8,1:2|1:2|0:0,0:0:0:0:
482,213,126385,6,0,P|433:150|309:152,1,207.999990478516,6|2,1:2|1:2,0:0:0:0:
195,202,126849,1,10,0:0:0:0:
375,265,127004,1,2,1:1:0:0:
270,341,127159,1,2,0:0:0:0:
275,305,127236,1,2,0:0:0:0:
279,269,127313,1,2,1:1:0:0:
146,284,127468,1,10,0:0:0:0:
194,101,127623,6,0,B|181:150|181:150|194:201,1,103.999995239258,6|0,1:2|0:0,0:0:0:0:
409,163,127932,1,2,1:2:0:0:
375,365,128086,2,0,B|388:316|388:316|374:264,1,103.999995239258,10|2,0:0|1:2,0:0:0:0:
310,138,128396,6,0,L|302:189,1,51.999997619629,10|0,0:0|0:0,0:0:0:0:
247,317,128550,2,0,L|254:265,1,51.999997619629,8|8,0:0|0:0,0:0:0:0:
379,233,128705,5,10,0:0:0:0:
332,239,128782,1,8,0:0:0:0:
286,232,128859,1,8,0:0:0:0:
241,223,128936,1,8,0:0:0:0:
194,228,129014,5,6,1:2:0:0:
30,130,129169,1,0,1:2:0:0:
107,328,129324,1,10,0:0:0:0:
150,119,129478,1,0,0:0:0:0:
21,248,129633,1,2,1:2:0:0:
153,101,129787,2,0,L|144:38,2,60.0000022888184,2|0|8,1:2|0:0|0:0,0:0:0:0:
379,233,130097,6,0,B|288:234|318:328|227:328,1,180.000006866455,6|0,1:2|0:0,0:0:0:0:
208,253,130406,2,0,P|263:240|302:281,1,120.000004577637,0|10,1:2|0:0,0:0:0:0:
263,146,130715,1,2,1:2:0:0:
132,326,130870,1,2,0:0:0:0:
107,88,131025,1,0,1:2:0:0:
73,100,131102,1,0,1:2:0:0:
49,126,131179,1,8,0:0:0:0:
132,326,131334,6,0,L|114:143,1,160,6|2,1:2|1:2,0:0:0:0:
293,66,131798,1,10,0:0:0:0:
293,66,131901,2,0,L|283:134,1,69.3333301595054,2|2,0:0|0:0,0:0:0:0:
121,87,132107,1,2,0:0:0:0:
121,87,132210,2,0,L|189:97,1,69.3333301595054,2|2,0:0|0:0,0:0:0:0:
369,224,132416,1,10,0:0:0:0:
369,224,132519,2,0,L|301:234,1,69.3333301595054,2|2,0:0|0:0,0:0:0:0:
179,380,132726,6,0,B|285:405|264:290|389:332,1,207.999990478516,2|10,0:0|0:0,0:0:0:0:
59,139,133190,2,0,B|90:243|179:167|205:296,1,207.999990478516,14|2,0:0|1:2,0:0:0:0:
404,371,133653,6,0,P|383:357|378:286,1,60.0000022888184,10|8,0:0|0:0,0:0:0:0:
300,244,133808,2,0,P|302:215|320:191,1,60.0000022888184,2|0,1:2|1:2,0:0:0:0:
455,294,133963,5,6,1:1:0:0:
200,276,134117,1,2,0:0:0:0:
179,104,134272,5,14,0:0:0:0:
409,215,134426,1,2,0:0:0:0:
466,73,134581,5,2,1:2:0:0:
236,184,134736,1,0,1:2:0:0:
455,294,134891,5,10,0:0:0:0:
364,63,135045,2,0,B|297:62|316:106|244:104,1,120.000004577637,6|0,1:1|0:0,0:0:0:0:
254,336,135355,5,0,1:2:0:0:
364,298,135509,2,0,B|298:298|317:254|245:256,1,120.000004577637,8|0,0:0|1:2,0:0:0:0:
87,183,135818,5,0,0:0:0:0:
98,91,135973,1,0,1:2:0:0:
142,109,136050,1,0,1:2:0:0:
172,146,136128,1,8,0:0:0:0:
157,294,136282,6,0,L|0:276,1,155.999992858887,6|0,1:2|0:0,0:0:0:0:
35,205,136592,2,0,L|138:216,1,103.999995239258,0|10,1:2|0:0,0:0:0:0:
370,234,136901,1,2,1:2:0:0:
267,119,137056,5,2,0:0:0:0:
281,341,137210,1,2,1:2:0:0:
279,105,137365,1,10,0:0:0:0:
435,240,137519,1,6,1:2:0:0:
435,240,137597,1,0,0:0:0:0:
435,240,137674,6,0,B|373:209|373:209|293:227,1,136.000002593994,0|0,0:0|1:2,0:0:0:0:
187,211,137906,2,0,P|151:258|205:284,1,136.000002593994,2|0,0:0|0:0,0:0:0:0:
257,132,138138,2,0,L|238:53,1,68.0000012969971,14|0,0:0|0:0,0:0:0:0:
61,0,138293,6,0,B|37:78|37:78|79:175|79:175|42:281,1,272.000005187988,2|8,0:0|0:0,0:0:0:0:
52,295,138679,1,8,0:0:0:0:
81,324,138757,1,8,0:0:0:0:
119,337,138834,1,8,0:0:0:0:
154,333,138911,5,14,0:0:0:0:
106,135,139066,1,2,1:2:0:0:
106,135,139143,1,0,1:0:0:0:
106,135,139220,1,10,0:0:0:0:
322,193,139375,5,2,1:2:0:0:
128,244,139530,1,10,0:0:0:0:
246,51,139684,1,2,1:2:0:0:
275,315,139839,5,10,0:0:0:0:
45,204,139994,1,2,1:2:0:0:
286,121,140148,5,10,0:0:0:0:
164,357,140303,1,2,1:2:0:0:
164,357,140380,1,0,1:0:0:0:
164,357,140458,1,10,0:0:0:0:
123,99,140612,5,2,1:2:0:0:
275,315,140767,1,10,0:0:0:0:
28,336,140922,1,2,1:2:0:0:
281,217,141076,5,10,0:0:0:0:
28,170,141231,1,2,1:2:0:0:
256,87,141385,5,14,0:0:0:0:
148,277,141540,2,0,L|156:217,1,60.0000022888184,0|0,1:2|1:2,0:0:0:0:
183,29,141695,5,10,0:0:0:0:
317,285,141849,1,0,1:2:0:0:
340,48,142004,5,10,0:0:0:0:
66,172,142159,1,0,1:2:0:0:
290,184,142313,5,10,0:0:0:0:
22,23,142468,1,0,1:2:0:0:
110,311,142623,5,10,0:1:0:0:
183,29,142777,1,0,1:2:0:0:
314,338,142932,5,10,0:1:0:0:
265,11,143086,1,0,1:2:0:0:
480,140,143241,5,10,0:1:0:0:
133,225,143396,1,0,1:2:0:0:
436,301,143550,5,10,0:1:0:0:
422,254,143628,1,8,0:1:0:0:
384,224,143705,1,8,0:1:0:0:
336,225,143782,1,8,0:1:0:0:
298,255,143860,5,14,0:0:0:0:
396,384,144014,1,0,1:2:0:0:
200,323,144169,2,0,L|71:338,1,120.000004577637,8|0,0:0|1:2,0:0:0:0:
264,210,144478,2,0,L|393:225,1,120.000004577637,8|0,0:0|1:2,0:0:0:0:
225,103,144787,1,8,0:0:0:0:
312,318,144942,1,0,1:2:0:0:
452,129,145097,6,0,L|333:116,1,120.000004577637,10|0,0:0|1:2,0:0:0:0:
149,28,145406,1,8,0:0:0:0:
343,0,145561,1,2,1:2:0:0:
209,115,145715,2,0,P|134:134|66:96,1,120.000004577637,10|0,0:0|1:2,0:0:0:0:
24,59,146025,6,0,P|9:85|4:114,1,60.0000022888184,8|0,0:0|0:0,0:0:0:0:
23,205,146179,2,0,P|37:231|60:250,1,60.0000022888184,2|0,1:2|1:2,0:0:0:0:
240,240,146334,6,0,P|184:250|166:305,1,120.000004577637,14|0,0:1|1:2,0:0:0:0:
225,377,146566,1,0,1:2:0:0:
225,377,146643,2,0,P|276:352|356:343,1,120.000004577637,10|0,0:0|1:2,0:0:0:0:
512,362,146952,5,10,0:0:0:0:
359,224,147107,1,0,1:2:0:0:
471,131,147262,5,10,0:0:0:0:
337,342,147416,1,0,1:2:0:0:
350,111,147571,6,0,B|412:98|412:98|464:121,1,120.000004577637,8|0,0:0|1:2,0:0:0:0:
250,178,147880,2,0,B|188:191|188:191|136:168,1,120.000004577637,8|2,0:0|1:1,0:0:0:0:
204,42,148190,1,10,0:0:0:0:
204,42,148267,1,0,0:0:0:0:
204,42,148344,2,0,L|200:102,1,60.0000022888184,2|0,1:2|0:0,0:0:0:0:
355,171,148499,2,0,L|350:111,1,60.0000022888184,8|8,3:0|3:0,0:0:0:0:
189,229,148653,2,0,L|184:288,1,60.0000022888184,4|4,3:0|3:0,0:0:0:0:
295,384,148808,6,0,P|360:371|434:363,1,128,6|4,1:2|1:1,0:0:0:0:
343,273,149272,1,0,1:1:0:0:
343,273,149427,2,0,L|254:260,1,64,8|0,0:0|0:0,0:0:0:0:
201,335,149736,1,4,1:2:0:0:
201,334,149891,6,0,L|74:352,1,128,8|2,0:0|1:2,0:0:0:0:
9,286,150355,1,6,0:2:0:0:
50,203,150509,1,2,1:2:0:0:
50,203,150586,1,0,0:0:0:0:
50,203,150664,2,0,P|83:210|126:207,1,64,4|0,1:1|0:0,0:0:0:0:
197,274,150973,1,6,1:2:0:0:
197,274,151128,1,10,0:2:0:0:
8,376,151282,6,0,P|67:353|131:356,1,128,4|4,1:2|1:1,0:0:0:0:
131,356,151746,1,0,1:0:0:0:
318,281,151901,2,0,B|257:257|257:257|175:279,1,128,8|4,0:0|0:2,0:0:0:0:
402,344,152365,2,0,P|432:289|412:230,1,128,0|2,1:0|1:2,0:0:0:0:
412,230,152829,5,6,0:2:0:0:
496,115,152983,1,2,1:2:0:0:
496,115,153061,1,0,1:2:0:0:
495,114,153138,2,0,L|490:178,1,64,14|0,0:0|1:0,0:0:0:0:
400,71,153447,1,8,3:0:0:0:
370,58,153524,1,8,3:0:0:0:
339,63,153601,1,4,3:0:0:0:
314,82,153678,1,4,3:0:0:0:
302,111,153757,6,0,B|234:104|249:162|169:146,1,128,6|4,1:2|1:1,0:0:0:0:
184,148,154220,1,0,1:0:0:0:
127,38,154375,2,0,P|155:53|187:56,1,64,8|0,0:0|0:0,0:0:0:0:
83,135,154684,1,4,1:2:0:0:
83,135,154839,2,0,P|37:135|47:211,1,128,8|2,0:0|1:2,0:0:0:0:
32,203,155303,5,4,0:0:0:0:
132,271,155458,1,2,1:2:0:0:
132,271,155535,1,0,1:2:0:0:
131,270,155612,2,0,L|141:207,1,64,10|2,0:2|0:2,0:0:0:0:
234,157,155922,1,4,1:1:0:0:
289,322,156076,1,8,0:1:0:0:
368,274,156231,6,0,B|432:260|432:260|500:304,1,128,6|2,1:2|1:2,0:0:0:0:
484,293,156695,1,2,1:2:0:0:
383,378,156849,2,0,L|236:350,1,128,14|2,0:0|1:2,0:0:0:0:
257,354,157313,1,10,0:2:0:0:
110,365,157468,6,0,P|157:328|144:269,1,128,6|2,1:2|0:0,0:0:0:0:
144,269,157932,1,2,1:2:0:0:
55,173,158086,2,0,L|180:149,1,128,12|10,0:2|0:2,0:0:0:0:
185,127,158473,1,8,0:2:0:0:
190,105,158550,1,10,0:2:0:0:
194,82,158628,1,8,0:2:0:0:
199,54,158705,5,4,1:2:0:0:
84,82,158860,1,0,1:2:0:0:
222,34,159014,2,0,L|333:54,1,80,10|0,0:2|0:0,0:0:0:0:
479,162,159324,1,0,1:2:0:0:
425,23,159478,1,0,1:2:0:0:
425,23,159556,1,0,1:2:0:0:
424,22,159633,2,0,L|418:62,1,40,10|0,0:2|0:0,0:0:0:0:
383,218,159787,6,0,P|406:148|479:162,1,160,6|2,1:1|1:2,0:0:0:0:
418,328,160251,1,8,0:2:0:0:
318,283,160406,1,2,0:2:0:0:
148,384,160561,1,2,1:2:0:0:
248,339,160716,1,2,1:2:0:0:
248,339,160793,1,0,1:2:0:0:
248,339,160870,2,0,L|235:273,1,40,10|0,0:2|0:0,0:0:0:0:
158,196,161025,2,0,L|151:236,1,40,0|0,1:2|0:0,0:0:0:0:
61,301,161179,5,4,1:2:0:0:
148,384,161334,1,0,1:2:0:0:
151,235,161489,2,0,L|137:157,1,80,8|0,0:2|0:0,0:0:0:0:
107,10,161798,1,0,1:2:0:0:
34,156,161952,1,0,1:2:0:0:
34,156,162030,1,0,1:2:0:0:
33,155,162107,2,0,L|40:116,1,40,8|0,0:2|0:0,0:0:0:0:
221,64,162262,6,0,B|314:50|280:135|382:114,1,160,6|2,1:1|1:2,0:0:0:0:
495,227,162726,2,0,P|466:201|459:163,1,80,8|2,0:2|1:2,0:0:0:0:
312,254,163035,1,2,0:2:0:0:
363,116,163190,1,0,1:2:0:0:
216,21,163344,1,8,0:2:0:0:
267,159,163499,1,8,0:2:0:0:
120,254,163653,1,6,1:2:0:0:
120,254,163808,1,2,1:2:0:0:
148,77,163963,6,0,P|156:116|162:156,1,80,8|0,0:2|0:0,0:0:0:0:
87,325,164272,1,0,1:2:0:0:
225,242,164427,1,0,1:2:0:0:
225,242,164504,1,0,1:2:0:0:
225,242,164581,2,0,P|209:276|201:306,1,40,8|0,0:2|0:0,0:0:0:0:
274,379,164736,6,0,P|321:328|410:361,1,160,6|2,1:1|1:2,0:0:0:0:
476,274,165200,2,0,L|464:183,1,80,10|2,0:2|1:2,0:0:0:0:
452,77,165509,1,2,0:2:0:0:
302,157,165664,1,2,1:2:0:0:
302,157,165741,1,0,1:2:0:0:
301,156,165818,2,0,L|341:149,1,40,10|0,0:2|0:0,0:0:0:0:
452,77,165973,2,0,L|412:69,1,40,10|0,0:2|0:0,0:0:0:0:
212,24,166128,5,6,1:2:0:0:
307,73,166282,1,2,1:2:0:0:
181,208,166437,5,10,0:2:0:0:
102,67,166592,1,2,1:2:0:0:
26,191,166746,5,8,0:2:0:0:
222,122,166901,1,2,1:2:0:0:
222,122,166978,1,0,1:2:0:0:
222,122,167056,1,8,0:2:0:0:
81,57,167210,5,2,1:2:0:0:
105,300,167365,2,0,B|174:267|224:329|224:329|276:314|276:314|353:340,1,240.000009155274,6|0,1:0|0:0,0:0:0:0:
320,1,168602,6,0,L|330:99,1,80,6|2,1:2|3:2,0:0:0:0:
337,176,169066,1,2,0:2:0:0:
411,121,169220,2,0,L|467:129,1,40,2|2,0:2|0:2,0:0:0:0:
253,213,169530,1,2,3:2:0:0:
253,213,169684,2,0,L|159:226,1,80,2|2,0:2|0:2,0:0:0:0:
221,340,170148,2,0,L|226:301,1,40,2|2,3:2|0:2,0:0:0:0:
208,98,170458,1,2,0:2:0:0:
208,98,170612,2,0,L|203:137,1,40,2|0,0:2|3:2,0:0:0:0:
351,241,170922,6,0,L|340:161,1,80,2|2,0:2|0:2,0:0:0:0:
340,161,171308,1,2,0:2:0:0:
340,161,171385,1,2,3:2:0:0:
423,120,171540,5,2,0:2:0:0:
423,120,171617,1,2,0:2:0:0:
423,120,171695,1,2,0:2:0:0:
340,77,171849,5,2,0:2:0:0:
340,77,171926,1,2,0:2:0:0:
340,77,172004,1,2,3:2:0:0:
438,223,172159,5,2,0:2:0:0:
221,94,172468,1,2,0:2:0:0:
272,171,172623,1,2,3:2:0:0:
272,171,172777,6,0,L|192:182,1,80,2|2,0:2|0:2,0:0:0:0:
244,259,173241,1,2,3:2:0:0:
104,156,173550,6,0,P|93:194|113:227,1,80,2|2,0:2|3:2,0:0:0:0:
164,305,174014,1,2,0:2:0:0:
244,259,174169,1,2,0:2:0:0:
336,273,174324,1,2,0:2:0:0:
392,345,174478,1,2,3:2:0:0:
471,335,174633,6,0,L|391:345,1,80,2|0,0:2|0:0,0:0:0:0:
296,277,175097,2,0,L|335:272,1,40,2|2,3:2|0:2,0:0:0:0:
497,185,175406,1,2,0:2:0:0:
404,175,175561,2,0,L|409:215,1,40,2|0,0:2|3:2,0:0:0:0:
299,121,175870,6,0,L|308:41,1,80,2|0,0:2|0:0,0:0:0:0:
184,1,176334,2,0,L|189:41,1,40,2|2,3:2|0:2,0:0:0:0:
106,195,176643,1,2,0:2:0:0:
87,193,176720,1,0,0:0:0:0:
72,183,176798,1,2,0:2:0:0:
122,104,176952,1,2,3:2:0:0:
177,232,177107,6,0,P|149:263|112:275,1,80,2|2,0:2|0:2,0:0:0:0:
106,195,177571,1,2,3:2:0:0:
263,377,177726,2,0,P|237:348|200:335,1,80,2|2,0:2|0:2,0:0:0:0:
113,367,178190,1,2,3:2:0:0:
274,261,178499,6,0,L|390:271,1,111.999996582031,6|2,1:1|3:2,0:0:0:0:
467,321,178963,1,2,0:2:0:0:
467,321,179117,2,0,P|477:290|479:243,1,55.9999982910157,2|2,3:2|0:2,0:0:0:0:
444,109,179427,1,2,3:2:0:0:
393,187,179581,2,0,L|505:178,1,111.999996582031,2|0,1:2|0:0,0:0:0:0:
319,133,180045,2,0,L|326:63,1,55.9999982910157,2|0,3:2|0:0,0:0:0:0:
255,200,180355,1,2,3:2:0:0:
255,200,180509,2,0,L|185:193,1,55.9999982910157,2|0,1:1|3:2,0:0:0:0:
37,130,180818,6,0,P|73:191|61:237,1,111.999996582031,2|2,1:2|0:2,0:0:0:0:
44,345,181282,1,2,3:2:0:0:
44,345,181360,1,2,0:2:0:0:
44,345,181437,2,0,P|105:309|151:321,1,111.999996582031,2|2,0:2|1:2,0:0:0:0:
300,369,181901,1,0,3:2:0:0:
231,170,182056,6,0,P|240:225|241:281,1,111.999996582031,2|2,1:2|0:2,0:0:0:0:
447,142,182519,1,2,3:2:0:0:
411,227,182674,2,0,P|403:283|402:339,1,111.999996582031,2|2,0:2|1:2,0:0:0:0:
300,369,183138,1,2,3:2:0:0:
300,369,183447,6,0,L|166:346,1,111.999996582031,2|0,3:1|3:2,0:0:0:0:
88,380,183911,1,0,0:0:0:0:
88,380,184066,2,0,L|83:317,1,55.9999982910157,2|2,3:2|1:2,0:0:0:0:
24,189,184375,1,2,3:2:0:0:
24,189,184530,2,0,P|67:223|138:203,1,111.999996582031,2|2,1:2|0:2,0:0:0:0:
196,162,184994,1,2,3:2:0:0:
287,143,185148,1,2,0:2:0:0:
383,232,185303,1,2,3:2:0:0:
382,231,185458,2,0,L|326:226,1,55.9999982910157,2|0,1:1|3:2,0:0:0:0:
396,336,185767,6,0,L|507:326,1,111.999996582031,2|2,1:2|1:2,0:0:0:0:
382,231,186231,1,2,3:2:0:0:
507,326,186385,1,2,0:0:0:0:
329,376,186540,1,2,3:2:0:0:
320,356,186618,1,2,0:0:0:0:
317,334,186695,1,2,0:0:0:0:
389,216,186849,1,2,3:2:0:0:
204,295,187004,1,2,0:0:0:0:
223,67,187159,5,10,0:0:0:0:
298,255,187313,1,10,0:0:0:0:
183,52,187623,5,10,0:0:0:0:
371,127,187777,1,10,0:0:0:0:
143,37,188086,6,0,P|161:76|145:124,1,60.0000022888184,10|8,0:2|0:2,0:0:0:0:
233,324,188241,2,0,P|218:298|218:269,1,60.0000022888184,10|8,0:2|0:2,0:0:0:0:
246,178,188396,6,0,B|145:163|171:232|84:224,1,155.999992858887,6|0,1:1|0:0,0:0:0:0:
88,218,188705,1,10,0:0:0:0:
156,41,188860,1,2,0:1:0:0:
156,41,188937,1,0,0:0:0:0:
155,40,189014,2,0,L|159:91,1,51.999997619629,2|0,1:2|0:0,0:0:0:0:
218,268,189169,1,2,1:1:0:0:
72,212,189324,1,10,0:0:0:0:
223,366,189478,6,0,B|274:353|274:353|302:317|302:317|358:305,1,155.999992858887,6|0,1:2|0:0,0:0:0:0:
376,302,189787,1,2,1:2:0:0:
197,264,189942,1,10,0:0:0:0:
359,117,190097,2,0,L|369:167,1,51.999997619629,2|0,1:2|0:0,0:0:0:0:
396,300,190251,1,2,0:0:0:0:
494,162,190406,1,2,1:2:0:0:
491,174,190484,1,0,1:2:0:0:
488,185,190561,1,8,0:0:0:0:
303,250,190715,6,0,L|159:240,1,103.999995239258,6|0,1:2|0:0,0:0:0:0:
126,107,191025,6,0,P|112:133|111:163,1,60.0000022888184,2|2,1:2|0:0,0:0:0:0:
169,329,191179,1,10,0:0:0:0:
26,281,191334,6,0,L|84:266,1,60.0000022888184,2|2,1:2|0:0,0:0:0:0:
208,151,191489,1,2,0:0:0:0:
315,368,191643,6,0,L|258:353,1,60.0000022888184,2|2,1:2|0:0,0:0:0:0:
84,265,191798,1,10,0:0:0:0:
273,219,191952,6,0,B|331:215|331:215|354:226|354:226|376:211|376:211|435:205,1,155.999992858887,6|0,1:2|0:0,0:0:0:0:
438,205,192262,1,2,1:2:0:0:
423,363,192416,2,0,L|417:312,1,51.999997619629,10|0,0:0|0:0,0:0:0:0:
344,127,192571,1,14,0:0:0:0:
308,322,192726,1,0,0:0:0:0:
511,263,192880,5,2,1:2:0:0:
294,325,193035,2,0,B|234:293|234:293|127:337,1,180.000006866455,10|4,0:2|3:0,0:0:0:0:
130,335,193344,6,0,L|118:212,1,103.999995239258,6|0,1:2|0:0,0:0:0:0:
0,96,193653,1,10,0:0:0:0:
56,21,193808,1,2,0:1:0:0:
56,21,193885,1,0,0:0:0:0:
56,21,193963,2,0,P|82:52|95:88,1,51.999997619629,2|0,1:2|0:0,0:0:0:0:
184,85,194117,2,0,P|176:109|165:133,1,51.999997619629,2|0,1:1|0:0,0:0:0:0:
20,199,194272,1,10,0:0:0:0:
226,220,194427,6,0,B|307:206|307:206|356:232|356:232|428:217,1,207.999990478516,6|0,1:2|1:2,0:0:0:0:
368,35,194891,2,0,B|385:83|385:83|369:134,1,103.999995239258,10|2,0:0|1:2,0:0:0:0:
292,301,195200,1,2,0:0:0:0:
424,217,195355,1,2,1:2:0:0:
435,220,195432,1,0,1:2:0:0:
447,223,195510,1,8,0:0:0:0:
278,309,195664,6,0,L|113:284,1,155.999992858887,6|0,1:2|0:0,0:0:0:0:
115,299,195973,1,0,1:2:0:0:
7,209,196128,6,0,L|59:202,1,51.999997619629,10|0,0:0|0:0,0:0:0:0:
180,113,196282,1,2,1:2:0:0:
180,113,196360,1,0,0:0:0:0:
179,112,196437,2,0,L|128:105,1,51.999997619629,2|0,0:0|0:0,0:0:0:0:
34,32,196592,1,2,1:2:0:0:
184,218,196746,1,10,0:0:0:0:
273,160,196901,6,0,L|408:138,1,103.999995239258,6|0,1:2|0:0,0:0:0:0:
478,126,197210,1,2,1:2:0:0:
344,271,197365,1,10,0:0:0:0:
498,297,197519,6,0,L|344:271,1,155.999992858887,14|0,0:0|0:0,0:0:0:0:
278,315,197829,1,2,1:2:0:0:
109,257,197983,6,0,L|98:197,1,60.0000022888184,10|8,0:0|0:0,0:0:0:0:
262,131,198138,2,0,L|273:191,1,60.0000022888184,8|8,0:0|0:0,0:0:0:0:
200,267,198293,6,0,L|182:164,1,103.999995239258,6|0,1:1|0:0,0:0:0:0:
348,95,198602,1,10,0:0:0:0:
189,73,198757,1,2,0:1:0:0:
189,73,198834,1,0,0:0:0:0:
188,72,198911,2,0,P|163:72|138:81,1,51.999997619629,2|0,1:2|0:0,0:0:0:0:
47,206,199066,2,0,P|72:206|97:197,1,51.999997619629,2|0,1:1|0:0,0:0:0:0:
262,131,199220,1,10,0:0:0:0:
237,360,199375,6,0,P|185:279|98:317,1,207.999990478516,6|2,1:2|1:2,0:0:0:0:
299,231,199839,1,10,0:0:0:0:
159,111,199994,1,0,1:2:0:0:
311,243,200148,2,0,L|460:231,1,103.999995239258,2|2,0:0|1:2,0:0:0:0:
494,227,200380,1,0,1:2:0:0:
512,225,200458,1,10,0:0:0:0:
333,142,200612,6,0,B|206:119|261:214|129:204,1,207.999990478516,6|2,1:2|1:2,0:0:0:0:
0,95,201076,1,10,0:0:0:0:
178,20,201231,1,2,1:2:0:0:
145,204,201385,1,2,0:0:0:0:
145,204,201463,1,2,0:0:0:0:
145,204,201540,2,0,L|132:125,1,51.999997619629,2|2,1:2|0:0,0:0:0:0:
74,18,201695,1,10,0:0:0:0:
38,195,201849,6,0,L|53:297,1,103.999995239258,6|0,1:2|0:0,0:0:0:0:
204,373,202159,1,2,1:2:0:0:
346,255,202313,1,10,0:0:0:0:
378,343,202468,6,0,B|251:366|306:271|174:281,1,207.999990478516,14|2,0:0|1:2,0:0:0:0:
346,197,202932,6,0,B|337:227|337:227|346:255,1,60.0000022888184,10|8,0:0|0:0,0:0:0:0:
465,373,203086,2,0,B|474:343|474:343|465:315,1,60.0000022888184,4|4,3:0|3:0,0:0:0:0:
438,145,203241,5,6,1:2:0:0:
378,343,203396,1,0,0:0:0:0:
257,176,203550,5,8,0:0:0:0:
486,225,203705,1,0,0:0:0:0:
306,38,203860,5,2,1:2:0:0:
345,254,204014,1,2,1:2:0:0:
472,46,204169,5,10,0:0:0:0:
257,176,204324,2,0,L|159:161,1,80,6|0,1:2|0:0,0:0:0:0:
44,223,204633,1,2,1:2:0:0:
203,57,204787,2,0,L|123:69,1,80,10|2,0:0|1:2,0:0:0:0:
204,252,205097,1,2,0:0:0:0:
28,132,205251,1,2,1:2:0:0:
33,116,205329,1,0,1:2:0:0:
37,100,205406,1,8,0:0:0:0:
116,281,205561,6,0,P|152:330|271:314,1,160,6|2,1:2|1:2,0:0:0:0:
229,176,206025,2,0,P|209:211|203:250,1,80,10|2,0:0|1:1,0:0:0:0:
316,376,206334,1,2,0:0:0:0:
323,360,206411,1,2,0:0:0:0:
326,342,206489,1,2,1:1:0:0:
203,250,206643,1,10,0:0:0:0:
394,203,206798,6,0,L|540:227,1,120,6|0,1:2|0:0,0:0:0:0:
507,238,207107,5,2,1:2:0:0:
365,113,207262,2,0,P|331:132|308:164,1,80,10|2,0:0|1:2,0:0:0:0:
326,243,207494,1,0,0:0:0:0:
331,259,207571,5,10,0:0:0:0:
485,108,207726,1,8,0:0:0:0:
271,14,207880,6,0,L|255:72,1,60.0000022888184,10|8,0:0|0:0,0:0:0:0:
202,249,208035,2,0,P|194:220|178:195,1,60.0000022888184,8|8,0:0|0:0,0:0:0:0:
65,67,208190,5,6,1:0:0:0:
65,67,208267,1,2,0:0:0:0:
65,67,208344,1,2,1:2:0:0:
21,241,208499,2,0,L|107:258,1,88.000002685547,14|2,0:0|0:0,0:0:0:0:
237,338,208808,1,2,1:2:0:0:
186,208,208963,2,0,P|197:227|202:249,1,44.0000013427735,2|0,1:2|1:2,0:0:0:0:
156,384,209117,1,10,0:2:0:0:
348,303,209272,5,2,1:2:0:0:
202,249,209427,1,2,0:0:0:0:
333,343,209581,2,0,P|337:322|348:303,1,44.0000013427735,2|0,1:2|0:0,0:0:0:0:
411,230,209736,2,0,P|425:213|444:203,1,44.0000013427735,10|0,0:0|0:0,0:0:0:0:
430,356,209891,1,2,1:2:0:0:
316,215,210045,1,2,0:0:0:0:
316,215,210123,1,0,0:0:0:0:
316,215,210200,2,0,P|301:198|282:188,1,44.0000013427735,0|0,1:2|1:2,0:0:0:0:
181,366,210355,1,8,0:2:0:0:
110,284,210509,6,0,L|242:274,1,132.00000402832,6|0,1:0|0:0,0:0:0:0:
242,274,210818,1,2,1:2:0:0:
107,189,210973,1,14,0:0:0:0:
181,366,211128,6,0,L|284:358,1,88.000002685547,2|2,1:2|1:2,0:0:0:0:
349,351,211360,1,2,0:0:0:0:
349,351,211437,1,2,1:2:0:0:
507,245,211592,1,10,0:0:0:0:
443,383,211746,6,0,B|445:324|445:324|409:272|409:272|414:196,1,176.000005371094,6|2,1:1|1:2,0:0:0:0:
284,117,212210,2,0,L|286:161,1,44.0000013427735,10|0,0:0|0:0,0:0:0:0:
412,218,212365,2,0,L|413:174,1,44.0000013427735,14|0,0:0|0:0,0:0:0:0:
391,51,212519,1,2,0:0:0:0:
286,161,212674,1,2,1:2:0:0:
504,110,212829,6,0,L|452:102,1,51.999997619629,8|8,0:2|0:0,0:0:0:0:
300,23,212983,2,0,L|248:31,1,51.999997619629,0|0,1:2|1:2,0:0:0:0:
115,142,213138,5,6,1:0:0:0:
115,142,213215,1,0,0:0:0:0:
115,142,213293,1,2,1:2:0:0:
293,248,213447,2,0,L|284:146,1,88.000002685547,14|2,0:0|0:0,0:0:0:0:
248,30,213757,1,2,1:2:0:0:
385,122,213911,2,0,L|381:165,1,44.0000013427735,2|0,1:2|1:2,0:0:0:0:
282,263,214066,1,10,0:2:0:0:
449,355,214220,1,6,1:2:0:0:
380,165,214375,1,2,0:0:0:0:
293,347,214530,6,0,L|249:340,1,44.0000013427735,2|0,1:2|0:0,0:0:0:0:
171,285,214684,2,0,L|127:291,1,44.0000013427735,10|0,0:0|0:0,0:0:0:0:
18,377,214839,1,2,1:2:0:0:
29,188,214994,1,2,0:0:0:0:
29,188,215071,1,0,0:0:0:0:
29,188,215148,2,0,L|36:232,1,44.0000013427735,2|2,1:2|1:2,0:0:0:0:
159,380,215303,1,10,0:2:0:0:
191,154,215458,6,0,L|170:284,1,132.00000402832,6|0,1:1|0:0,0:0:0:0:
170,284,215767,1,2,1:2:0:0:
100,124,215922,1,10,0:2:0:0:
267,234,216076,2,0,L|370:249,1,88.000002685547,2|2,1:2|0:0,0:0:0:0:
433,259,216308,1,2,0:0:0:0:
433,259,216385,1,2,1:2:0:0:
297,341,216540,1,10,0:2:0:0:
326,125,216695,5,6,1:0:0:0:
481,323,216849,1,2,0:0:0:0:
267,234,217004,1,2,1:2:0:0:
481,146,217159,5,10,0:0:0:0:
391,358,217313,1,14,0:2:0:0:
326,125,217468,1,0,0:0:0:0:
512,234,217623,5,2,1:2:0:0:
404,22,217777,2,0,L|397:82,1,60.0000022888184,8|8,0:2|0:2,0:0:0:0:
267,234,217932,2,0,L|259:174,1,60.0000022888184,8|8,0:2|0:2,0:0:0:0:
157,33,218086,5,6,1:1:0:0:
65,289,218241,1,2,1:2:0:0:
259,174,218396,5,14,0:0:0:0:
3,82,218551,1,2,1:2:0:0:
177,300,218705,5,8,0:1:0:0:
259,33,218860,1,2,1:2:0:0:
397,158,219014,5,10,0:2:0:0:
80,197,219169,1,2,1:2:0:0:
288,311,219324,5,8,0:2:0:0:
130,58,219478,1,2,1:2:0:0:
65,289,219633,5,14,0:0:0:0:
259,33,219787,1,0,1:2:0:0:
288,311,219942,5,10,0:2:0:0:
61,112,220097,1,2,1:2:0:0:
61,112,220174,1,0,1:2:0:0:
61,112,220251,1,10,0:2:0:0:
328,99,220406,5,6,1:2:0:0:
63,201,220561,1,10,0:2:0:0:
382,295,220715,5,2,1:2:0:0:
161,73,220870,1,10,0:2:0:0:
252,380,221025,5,2,1:2:0:0:
400,172,221179,1,10,0:2:0:0:
400,172,221257,1,0,0:0:0:0:
400,172,221334,1,2,1:2:0:0:
161,73,221489,5,10,0:2:0:0:
252,380,221643,1,6,1:2:0:0:
48,190,221798,6,0,L|60:86,1,103.999995239258,8|0,0:2|1:2,0:0:0:0:
239,276,222107,2,0,L|251:379,1,103.999995239258,8|6,0:2|1:2,0:0:0:0:
400,172,222416,5,8,0:2:0:0:
359,316,222571,1,2,1:2:0:0:
502,279,222726,6,0,L|444:264,1,60.0000022888184,10|8,0:0|0:0,0:0:0:0:
240,173,222880,2,0,L|299:158,1,60.0000022888184,4|4,3:0|3:0,0:0:0:0:
433,53,223035,5,14,0:1:0:0:
359,316,223190,1,2,1:2:0:0:
507,135,223344,5,14,0:0:0:0:
240,64,223499,1,2,1:2:0:0:
266,326,223653,5,10,0:1:0:0:
337,59,223808,1,2,1:2:0:0:
184,270,223963,5,10,0:2:0:0:
451,341,224118,1,2,1:2:0:0:
247,92,224272,5,10,0:2:0:0:
354,384,224427,1,2,1:2:0:0:
240,64,224581,5,10,0:2:0:0:
133,356,224736,1,2,1:2:0:0:
384,194,224891,5,10,0:2:0:0:
62,129,225045,1,2,1:2:0:0:
62,129,225123,1,0,1:2:0:0:
62,129,225200,1,10,0:0:0:0:
266,326,225355,5,2,1:2:0:0:
381,0,225509,1,8,0:2:0:0:
499,241,225664,5,2,1:2:0:0:
169,104,225818,1,14,0:2:0:0:
434,96,225973,5,2,1:2:0:0:
308,384,226127,1,10,0:2:0:0:
308,384,226205,1,0,0:0:0:0:
308,384,226282,1,2,1:2:0:0:
300,102,226437,5,10,0:2:0:0:
512,380,226592,1,10,0:1:0:0:
317,118,226746,6,0,L|266:113,1,51.999997619629,8|0,0:2|1:1,0:0:0:0:
110,304,226901,2,0,L|162:299,1,51.999997619629,8|0,0:2|1:1,0:0:0:0:
333,130,227056,6,0,L|281:126,1,51.999997619629,8|0,0:0|1:1,0:0:0:0:
125,316,227211,2,0,L|176:312,1,51.999997619629,12|0,0:1|1:1,0:0:0:0:
383,228,227365,5,8,0:2:0:0:
361,256,227442,1,8,0:2:0:0:
353,292,227519,1,8,0:2:0:0:
364,326,227596,1,8,0:2:0:0:
389,352,227674,2,0,L|441:348,1,51.999997619629,8|8,0:2|0:2,0:0:0:0:
481,258,227829,6,0,B|414:201|433:111|433:111|367:127|289:101|273:32|334:-47|428:-17|422:71|422:71|471:33|506:45|525:70|537:102|512:125,1,659.999979858399,12|0,1:1|0:0,0:0:0:0:
