osu file format v14

[General]
AudioFilename: audio.mp3
AudioLeadIn: 0
PreviewTime: 108288
Countdown: 0
SampleSet: None
StackLeniency: 0.5
Mode: 0
LetterboxInBreaks: 0
WidescreenStoryboard: 1

[Editor]
Bookmarks: 9009,20143,28803,30040,39937,48597,49834,69628,77978,79525,88185,89422,99319,101793,104267,104576,107978,109215,129009,138906,140143,141380,143855,147566,148803,158700,166123,167360,168597,169679,170917,171380,171690,171999,172154,172772,173545,174628,175865,177102,177721,178494,187154,188391,198288,208185,213133,218081,227824,236329
DistanceSpacing: 1.01
BeatDivisor: 4
GridSize: 4
TimelineZoom: 1.6

[Metadata]
Title:caramel heaven
TitleUnicode:キャラメルへヴン
Artist:yuikonnu
ArtistUnicode:ゆいこんぬ
Creator:Keada
Version:kurwa
Source:
Tags:
BeatmapID:1345051
BeatmapSetID:629231

[Difficulty]
HPDrainRate:5
CircleSize:4
OverallDifficulty:8.7
ApproachRate:9.3
SliderMultiplier:2
SliderTickRate:1

[Events]
//Background and Video events
0,0,"7d56ce1790c214e6.jpg",0,0
//Break Periods
2,69828,71548
//Storyboard Layer 0 (Background)
//Storyboard Layer 1 (Fail)
//Storyboard Layer 2 (Pass)
//Storyboard Layer 3 (Foreground)
//Storyboard Sound Samples

[TimingPoints]
350,309.278350515464,4,2,1,70,1,0
9937,-52.6315789473684,4,2,1,70,0,0
10169,-66.6666666666667,4,2,1,5,0,0
10246,-83.3333333333333,4,2,2,80,0,0
20143,-100,4,2,2,80,0,0
29267,-66.6666666666667,4,2,2,80,0,0
30040,-100,4,2,2,80,0,0
38700,-80,4,2,2,80,0,0
39937,-133.333333333333,4,2,2,80,0,0
49370,-71.4285714285714,4,2,2,80,0,0
49834,-71.4285714285714,4,2,2,90,0,1
54009,-57.1428571428571,4,2,2,90,0,1
54473,-68.9655172413793,4,2,2,90,0,1
54782,-76.9230769230769,4,2,2,90,0,1
58958,-57.1428571428571,4,2,2,90,0,1
59422,-71.4285714285714,4,2,1,90,0,0
59731,-71.4285714285714,4,2,2,90,0,1
60040,-76.9230769230769,4,2,2,90,0,1
63906,-66.6666666666667,4,2,2,90,0,1
64532,-76.9230769230769,4,2,2,90,0,1
69628,-100,4,2,2,90,0,0
79525,-116.279069767442,4,2,2,90,0,0
89422,-100,4,2,2,90,0,0
106123,-76.9230769230769,4,2,2,90,0,0
108288,-76.9230769230769,4,2,2,90,0,0
109215,-58.8235294117647,4,2,2,90,0,1
109525,-71.4285714285714,4,2,2,90,0,1
113391,-58.8235294117647,4,2,2,90,0,1
114164,-71.4285714285714,4,2,2,90,0,1
118339,-55.5555555555556,4,2,2,90,0,1
118803,-66.6666666666667,4,2,2,90,0,1
119112,-62.5,4,2,2,90,0,1
119576,-71.4285714285714,4,2,2,90,0,1
123288,-62.5,4,2,2,90,0,1
124061,-71.4285714285714,4,2,2,90,0,1
129009,-76.9230769230769,4,2,2,85,0,0
132721,-66.6666666666667,4,2,2,85,0,0
132821,-55.5555555555556,4,2,2,85,0,0
137051,-66.6666666666667,4,2,2,85,0,0
137669,-66.6666666666667,4,2,2,85,0,0
137875,-60.6060606060606,4,2,2,85,0,0
138081,-55.5555555555556,4,2,2,85,0,0
138288,-45.4545454545455,4,2,2,85,0,0
143855,-66.6666666666667,4,2,2,85,0,0
146174,-52.6315789473684,4,2,2,85,0,0
148494,-66.6666666666667,4,2,2,85,0,0
148803,-133.333333333333,4,2,2,85,0,0
158700,-100,4,2,2,85,0,0
159782,-71.4285714285714,4,2,2,85,0,0
160246,-100,4,2,2,85,0,0
162257,-71.4285714285714,4,2,2,85,0,0
163030,-100,4,2,2,85,0,0
164731,-71.4285714285714,4,2,2,85,0,0
168133,-133.333333333333,4,2,2,85,0,0
168829,-133.333333333333,4,2,2,5,0,0
168906,-133.333333333333,4,2,2,85,0,0
170839,-133.333333333333,4,2,2,5,0,0
170917,-133.333333333333,4,2,2,85,0,0
188081,-66.6666666666667,4,2,2,85,0,0
188391,-57.1428571428571,4,2,2,90,0,1
188623,-57.1428571428571,4,2,2,5,0,1
188700,-66.6666666666667,4,2,2,90,0,1
192566,-57.1428571428571,4,2,2,90,0,1
193030,-66.6666666666667,4,2,2,90,0,1
193339,-57.1428571428571,4,2,2,90,0,1
193648,-66.6666666666667,4,2,2,90,0,1
197514,-57.1428571428571,4,2,2,90,0,1
198288,-66.6666666666667,4,2,2,90,0,1
202463,-62.5,4,2,2,90,0,1
203236,-66.6666666666667,4,2,2,90,0,1
208185,-76.9230769230769,4,2,2,80,0,0
208185,-83.3333333333333,4,2,2,80,0,0
220401,-66.6666666666667,4,2,2,80,0,0
225350,-55.5555555555556,4,2,2,80,0,0
226432,-66.6666666666667,4,2,2,80,0,0
226587,-55.5555555555556,4,2,2,80,0,0
227824,-200,4,2,2,80,0,0

[Colours]
Combo1 : 240,240,240
Combo2 : 232,193,253
Combo3 : 183,183,219
Combo4 : 223,120,241
Combo5 : 255,190,125
Combo6 : 133,101,54

[HitObjects]
152,152,9009,5,0,0:0:0:0:
197,369,9164,1,0,0:0:0:0:
197,369,9241,1,0,0:0:0:0:
197,369,9319,1,0,0:0:0:0:
365,94,9473,5,0,0:0:0:0:
320,311,9628,1,0,0:0:0:0:
320,311,9705,1,0,0:0:0:0:
320,311,9783,1,0,0:0:0:0:
66,133,9937,6,0,B|73:89|73:89|109:64|109:64|219:81|219:81|245:118|245:118|236:189,1,284.999992389679
220,247,10246,6,0,P|254:250|296:229,2,59.9999981689454
365,94,10556,1,0,0:0:0:0:
320,311,10711,1,0,0:0:0:0:
416,28,10865,2,0,P|359:12|304:40,1,119.999996337891
457,203,11174,1,0,0:0:0:0:
240,158,11329,1,0,0:0:0:0:
500,88,11484,5,0,0:0:0:0:
446,345,11639,1,0,0:0:0:0:
192,88,11793,2,0,P|248:72|304:100,1,119.999996337891
217,329,12102,1,0,0:0:0:0:
240,158,12257,1,0,0:0:0:0:
240,158,12334,1,0,0:0:0:0:
240,158,12411,1,0,0:0:0:0:
295,318,12566,6,0,B|289:355|289:355|258:376|258:376|165:361|165:361|143:330|143:330|151:270,1,239.999992675781
345,248,13030,2,0,P|379:295|372:357,1,119.999996337891
100,224,13339,2,0,P|71:246|64:280,2,59.9999981689454
295,318,13648,1,0,0:0:0:0:
147,298,13803,1,0,0:0:0:0:
480,67,13958,5,0,0:0:0:0:
255,36,14113,1,0,0:0:0:0:
449,292,14267,1,0,0:0:0:0:
480,67,14422,1,0,0:0:0:0:
224,261,14576,5,0,0:0:0:0:
449,292,14731,1,0,0:0:0:0:
255,36,14886,1,0,0:0:0:0:
224,261,15040,1,0,0:0:0:0:
351,163,15195,6,0,P|373:191|371:226,2,59.9999981689454
178,329,15504,2,0,P|144:282|151:220,1,119.999996337891
254,367,15813,1,0,0:0:0:0:
185,143,15968,2,0,P|126:137|79:172,1,119.999996337891
328,328,16277,1,0,0:0:0:0:
149,222,16432,5,0,0:0:0:0:
379,96,16587,1,0,0:0:0:0:
482,337,16741,1,0,0:0:0:0:
276,173,16896,1,0,0:0:0:0:
402,219,17051,1,0,0:0:0:0:
259,54,17205,1,0,0:0:0:0:
259,54,17282,1,0,0:0:0:0:
259,54,17360,1,0,0:0:0:0:
415,296,17514,6,0,B|448:301|448:301|479:279|479:279|494:186|494:186|473:155|473:155|436:149,1,239.999992675781
135,319,17978,1,0,0:0:0:0:
180,168,18133,1,0,0:0:0:0:
223,371,18288,1,0,0:0:0:0:
223,371,18365,1,0,0:0:0:0:
223,371,18442,1,0,0:0:0:0:
60,234,18597,1,0,0:0:0:0:
263,191,18752,6,0,P|260:131|219:90,1,119.999996337891
135,319,19061,1,0,0:0:0:0:
338,276,19215,1,0,0:0:0:0:
144,52,19370,2,0,P|186:11|244:9,1,119.999996337891
218,279,19679,1,0,0:0:0:0:
489,157,19834,1,0,0:0:0:0:
460,126,19911,1,0,0:0:0:0:
422,107,19988,1,0,0:0:0:0:
381,103,20065,1,0,0:0:0:0:
340,112,20143,6,0,L|232:148,1,100
397,203,20453,1,0,0:0:0:0:
341,27,20607,1,0,0:0:0:0:
325,270,20762,2,0,L|433:305,1,100
245,143,21071,1,0,0:0:0:0:
268,329,21226,1,0,0:0:0:0:
228,115,21380,6,0,B|243:188|243:188|226:250|226:250|240:321,1,200
143,172,21844,2,0,B|132:113|132:113|147:59,1,100
325,270,22154,1,0,0:0:0:0:
143,172,22308,1,0,0:0:0:0:
345,109,22463,1,0,0:0:0:0:
209,345,22618,6,0,L|94:351,1,100
228,115,22927,1,0,0:0:0:0:
242,270,23081,1,0,0:0:0:0:
160,57,23236,2,0,B|201:28|201:28|340:45,1,150
345,109,23545,2,0,B|461:101,1,100
172,198,23855,5,0,0:0:0:0:
334,215,24009,1,0,0:0:0:0:
80,287,24164,1,0,0:0:0:0:
242,270,24318,1,0,0:0:0:0:
28,351,24473,2,0,P|1:310|28:222,1,100
181,340,24782,2,0,B|241:354|241:354|309:342,1,100
445,69,25092,6,0,L|435:135,1,50
375,272,25246,1,0,0:0:0:0:
452,81,25401,2,0,L|442:147,1,50
382,284,25555,1,0,0:0:0:0:
458,92,25710,1,0,0:0:0:0:
389,295,25865,1,0,0:0:0:0:
396,307,25943,1,0,0:0:0:0:
403,319,26020,1,0,0:0:0:0:
497,188,26174,6,0,B|472:208|435:212|435:212|400:192|363:189|363:189|328:204|296:200,1,200
41,66,26638,2,0,P|97:47|169:79,1,100
231,256,26947,1,0,0:0:0:0:
98,141,27102,1,0,0:0:0:0:
308,200,27257,2,0,P|327:256|295:328,1,100
76,300,27566,5,0,0:0:0:0:
230,103,27721,1,0,0:0:0:0:
201,341,27875,1,0,0:0:0:0:
209,121,28030,2,0,B|191:201|119:217|100:286,1,200
76,300,28417,1,0,0:0:0:0:
76,300,28494,1,0,0:0:0:0:
230,103,28803,5,0,0:0:0:0:
457,277,28958,1,0,0:0:0:0:
495,13,29112,1,0,0:0:0:0:
364,317,29267,6,0,B|314:320|278:308|278:308|216:339|216:339|182:328|134:333,1,225.000008583069
62,324,29576,2,0,B|112:321|148:333|148:333|210:302|210:302|244:313|292:308,1,225.000008583069
364,317,29886,1,0,0:0:0:0:
279,148,30040,6,0,L|291:44,1,100
358,176,30350,1,0,0:0:0:0:
198,153,30504,1,0,0:0:0:0:
434,135,30659,2,0,L|450:269,1,100
369,275,30891,1,0,0:0:0:0:
369,275,30968,2,0,L|357:171,1,100
176,317,31277,6,0,B|119:334|119:334|76:327,1,100
41,176,31587,1,0,0:0:0:0:
243,250,31741,2,0,B|262:312|262:312|253:349,1,100
64,191,32051,2,0,B|56:156|56:156|75:94,1,100
176,317,32360,1,0,0:0:0:0:
230,115,32514,6,0,L|340:108,1,100
211,197,32824,1,0,0:0:0:0:
402,0,32978,2,0,L|408:49,1,50
417,149,33133,1,0,0:0:0:0:
254,36,33288,1,0,0:0:0:0:
280,263,33442,1,0,0:0:0:0:
329,108,33597,1,0,0:0:0:0:
274,349,33752,6,0,P|322:339|355:303,1,100
417,149,34061,1,0,0:0:0:0:
211,197,34215,2,0,B|141:209|141:209|90:195,1,100
254,36,34525,2,0,B|324:24|324:24|375:38,1,100
280,263,34834,1,0,0:0:0:0:
280,263,34911,1,0,0:0:0:0:
280,263,34989,6,0,L|296:184,1,50
314,104,35143,1,0,0:0:0:0:
178,290,35298,2,0,L|162:211,1,50
144,131,35452,1,0,0:0:0:0:
247,342,35607,1,0,0:0:0:0:
224,78,35762,1,0,0:0:0:0:
224,78,35839,1,0,0:0:0:0:
224,78,35917,1,0,0:0:0:0:
0,218,36071,6,0,B|45:207|45:207|150:222|150:222|206:208,1,200
49,300,36535,1,0,0:0:0:0:
144,131,36690,1,0,0:0:0:0:
403,230,36844,1,0,0:0:0:0:
308,61,36999,1,0,0:0:0:0:
326,176,37154,1,0,0:0:0:0:
399,7,37309,1,0,0:0:0:0:
196,210,37463,6,0,B|150:222|150:222|45:207|45:207|0:218,1,200
288,78,37927,2,0,L|401:84,1,100
403,230,38236,1,0,0:0:0:0:
403,230,38313,1,0,0:0:0:0:
403,230,38391,1,0,0:0:0:0:
460,37,38545,1,0,0:0:0:0:
483,283,38700,6,0,P|441:315|353:308,1,125
176,112,39009,2,0,P|217:79|305:86,1,125
190,249,39319,2,0,L|107:241,1,62.5
31,105,39473,2,0,L|39:188,1,62.5
72,355,39628,1,0,0:0:0:0:
115,349,39705,1,0,0:0:0:0:
158,344,39782,1,0,0:0:0:0:
202,338,39859,1,0,0:0:0:0:
236,332,39937,6,0,L|407:343,1,150.000005722046
480,195,40401,1,0,0:0:0:0:
372,167,40556,1,0,0:0:0:0:
408,252,40710,1,0,0:0:0:0:
444,105,40865,1,0,0:0:0:0:
314,248,41020,6,0,L|143:259,1,150.000005722046
90,193,41484,1,0,0:0:0:0:
198,161,41638,2,0,L|258:169,2,37.5000014305115
126,113,41947,1,0,0:0:0:0:
164,257,42102,1,0,0:0:0:0:
205,73,42257,1,0,0:0:0:0:
49,159,42411,6,0,L|58:308,1,150.000005722046
282,269,42875,1,0,0:0:0:0:
149,305,43030,1,0,0:0:0:0:
231,343,43184,1,0,0:0:0:0:
282,269,43339,1,0,0:0:0:0:
380,352,43494,6,0,L|231:343,1,150.000005722046
418,269,43958,2,0,P|448:288|468:355,1,75.0000028610231
467,193,44267,2,0,L|476:101,1,75.0000028610231
396,49,44576,2,0,L|386:1,2,37.5000014305115
346,173,44886,6,0,L|196:182,1,150.000005722046
115,107,45350,1,0,0:0:0:0:
147,251,45504,2,0,P|199:267|247:251,1,75.0000028610231
199,102,45813,1,0,0:0:0:0:
60,197,45968,6,0,L|50:346,1,150.000005722046
226,345,46432,2,0,L|323:354,1,75.0000028610231
454,220,46741,2,0,L|379:226,1,75.0000028610231
167,87,47051,2,0,L|264:96,1,75.0000028610231
417,320,47360,5,0,0:0:0:0:
447,66,47514,1,0,0:0:0:0:
134,261,47669,1,0,0:0:0:0:
388,291,47823,1,0,0:0:0:0:
68,21,47978,5,0,0:0:0:0:
38,275,48132,1,0,0:0:0:0:
351,80,48287,1,0,0:0:0:0:
97,50,48441,1,0,0:0:0:0:
225,368,48597,5,0,0:0:0:0:
240,340,48906,1,0,0:0:0:0:
244,312,49215,1,0,0:0:0:0:
271,128,49370,6,0,L|284:40,1,69.9999978637696
342,186,49525,1,0,0:0:0:0:
302,213,49602,1,0,0:0:0:0:
254,217,49679,1,0,0:0:0:0:
211,194,49756,1,0,0:0:0:0:
185,153,49834,6,0,B|144:132|95:151|95:151|64:172|28:136|41:99|69:93|94:101|115:123|103:147,1,209.999993591309
136,228,50143,2,0,B|129:327|129:327|154:366,1,139.999995727539
402,237,50453,2,0,B|424:203|424:203|417:104,1,139.999995727539
252,23,50762,1,0,0:0:0:0:
331,295,50917,6,0,P|380:324|476:292,1,139.999995727539
415,70,51226,1,0,0:0:0:0:
157,172,51380,1,0,0:0:0:0:
402,237,51535,1,0,0:0:0:0:
103,101,51690,2,0,P|74:150|106:246,1,139.999995727539
89,228,51922,1,0,0:0:0:0:
89,228,51999,1,0,0:0:0:0:
350,158,52154,6,0,P|356:235|259:206,1,209.999993591309
246,193,52463,2,0,L|260:271,1,69.9999978637696
277,364,52618,1,0,0:0:0:0:
357,89,52772,2,0,L|350:167,1,69.9999978637696
342,262,52927,1,0,0:0:0:0:
495,29,53081,2,0,L|468:103,1,69.9999978637696
435,192,53236,1,0,0:0:0:0:
99,234,53391,6,0,B|54:205|54:205|219:150|219:150|177:244,1,279.999991455078
199,361,53855,1,0,0:0:0:0:
212,161,54009,6,0,B|221:130|221:130|118:125|37:190|37:190|62:211,1,262.500002503395
171,284,54319,1,0,0:0:0:0:
449,229,54473,6,0,P|387:175|387:274,1,217.500006637573
419,352,54782,6,0,B|468:314|468:314|484:181|484:181|412:101,1,259.999988098145
302,217,55246,1,0,0:0:0:0:
413,47,55401,1,0,0:0:0:0:
395,239,55556,1,0,0:0:0:0:
335,10,55710,2,0,L|323:97,1,64.9999970245363
363,264,55865,6,0,B|283:248|283:248|191:272|191:272|95:257,1,259.999988098145
289,343,56329,1,0,0:0:0:0:
184,172,56484,1,0,0:0:0:0:
395,239,56638,1,0,0:0:0:0:
129,289,56793,1,0,0:0:0:0:
129,289,56870,1,0,0:0:0:0:
129,289,56947,1,0,0:0:0:0:
286,139,57102,6,0,B|308:80|284:28|284:28|240:76,1,129.999994049073
254,226,57411,1,0,0:0:0:0:
433,169,57566,1,0,0:0:0:0:
184,172,57721,1,0,0:0:0:0:
184,172,57798,1,0,0:0:0:0:
184,172,57875,1,0,0:0:0:0:
392,247,58030,1,0,0:0:0:0:
349,66,58185,1,0,0:0:0:0:
399,327,58339,6,0,P|472:224|374:168,1,259.999988098145
125,283,58803,1,0,0:0:0:0:
420,143,58958,2,0,P|488:303|304:303,1,350.00000333786
184,167,59422,2,0,P|168:128|169:63,1,69.9999978637696
360,43,59576,2,0,P|354:77|340:109,1,69.9999978637696
104,241,59731,6,0,B|176:208|176:208|336:236,1,209.999993591309
376,307,60040,2,0,B|403:263|403:263|402:183,1,129.999994049073
188,298,60350,1,0,0:0:0:0:
266,141,60504,1,0,0:0:0:0:
305,365,60659,1,0,0:0:0:0:
352,98,60813,6,0,L|218:115,1,129.999994049073
376,307,61123,1,0,0:0:0:0:
351,15,61277,2,0,P|412:40|424:136,1,129.999994049073
300,281,61587,1,0,0:0:0:0:
352,98,61741,1,0,0:0:0:0:
352,98,61819,1,0,0:0:0:0:
352,98,61896,1,0,0:0:0:0:
47,229,62051,6,0,B|78:170|78:170|209:157|209:157|255:212,1,259.999988098145
35,311,62514,1,0,0:0:0:0:
282,281,62669,1,0,0:0:0:0:
135,84,62824,1,0,0:0:0:0:
135,84,62901,1,0,0:0:0:0:
135,84,62978,1,0,0:0:0:0:
166,350,63133,1,0,0:0:0:0:
438,158,63288,6,0,P|326:111|249:205,1,259.999988098145
387,312,63752,1,0,0:0:0:0:
219,180,63906,2,0,B|228:141|228:141|279:90|279:90|346:71|346:71|412:86|412:86|450:119,1,300.000011444092
390,319,64370,1,0,0:0:0:0:
392,325,64447,1,0,0:0:0:0:
395,332,64525,2,0,L|471:337,1,75.0000028610231
315,373,64679,6,0,B|243:353|243:353|144:364,1,129.999994049073
336,160,64989,1,0,0:0:0:0:
398,338,65143,1,0,0:0:0:0:
450,119,65298,1,0,0:0:0:0:
401,345,65453,1,0,0:0:0:0:
371,77,65607,1,0,0:0:0:0:
163,209,65762,6,0,B|76:222|76:222|24:200,1,129.999994049073
226,103,66071,1,0,0:0:0:0:
153,334,66226,2,0,L|72:320,2,64.9999970245363
292,259,66535,1,0,0:0:0:0:
90,140,66690,1,0,0:0:0:0:
90,140,66767,1,0,0:0:0:0:
90,140,66844,1,0,0:0:0:0:
366,331,66999,6,0,B|379:251|379:251|344:170|344:170|370:83,1,259.999988098145
292,259,67463,1,0,0:0:0:0:
446,160,67618,1,0,0:0:0:0:
251,34,67772,1,0,0:0:0:0:
251,34,67850,1,0,0:0:0:0:
251,34,67927,1,0,0:0:0:0:
459,77,68081,1,0,0:0:0:0:
180,175,68236,6,0,P|147:127|251:163,1,259.999988098145
176,347,68700,1,0,0:0:0:0:
125,96,68855,1,0,0:0:0:0:
330,311,69009,1,0,0:0:0:0:
20,373,69164,1,0,0:0:0:0:
375,312,69319,5,0,0:0:0:0:
345,270,69396,1,0,0:0:0:0:
295,286,69474,1,0,0:0:0:0:
295,338,69551,1,0,0:0:0:0:
345,355,69628,1,0,0:0:0:0:
256,192,72102,12,0,74576,0:0:0:0:
256,192,74654,12,0,77051,0:0:0:0:
256,192,77128,12,0,77978,0:0:0:0:
60,104,79525,6,0,P|112:108|164:140,1,86.0000013122559
241,236,79834,1,0,0:0:0:0:
112,259,79989,1,0,0:0:0:0:
112,259,80066,1,0,0:0:0:0:
112,259,80143,2,0,L|102:362,1,86.0000013122559
283,243,80453,2,0,L|228:233,1,43.0000006561279
351,305,80607,2,0,L|406:295,1,43.0000006561279
432,227,80762,5,0,0:0:0:0:
231,312,80917,1,0,0:0:0:0:
477,307,81071,1,0,0:0:0:0:
271,160,81226,1,0,0:0:0:0:
271,160,81303,1,0,0:0:0:0:
271,160,81380,2,0,P|249:106|250:58,1,86.0000013122559
393,297,81690,2,0,P|387:339|369:378,1,86.0000013122559
141,319,81999,5,0,0:0:0:0:
275,273,82154,1,0,0:0:0:0:
129,311,82308,2,0,P|74:301|39:283,1,86.0000013122559
113,90,82618,2,0,L|126:186,1,86.0000013122559
249,300,82927,1,0,0:0:0:0:
322,147,83081,1,0,0:0:0:0:
451,279,83236,6,0,P|403:274|362:257,1,86.0000013122559
212,138,83545,1,0,0:0:0:0:
419,81,83700,1,0,0:0:0:0:
419,81,83777,1,0,0:0:0:0:
419,81,83855,2,0,B|437:120|437:120|429:167,1,86.0000013122559
212,138,84164,2,0,L|341:135,1,129.000001968384
357,123,84473,5,0,0:0:0:0:
204,50,84628,1,0,0:0:0:0:
402,34,84782,1,0,0:0:0:0:
319,226,84937,1,0,0:0:0:0:
319,226,85014,1,0,0:0:0:0:
319,226,85092,2,0,L|225:212,1,86.0000013122559
99,242,85401,1,0,0:0:0:0:
280,348,85556,6,0,B|355:358|355:358|456:312,1,172.000002624512
463,171,86020,1,0,0:0:0:0:
270,220,86174,1,0,0:0:0:0:
270,220,86252,1,0,0:0:0:0:
270,220,86329,1,0,0:0:0:0:
390,255,86484,1,0,0:0:0:0:
345,121,86638,1,0,0:0:0:0:
295,333,86793,1,0,0:0:0:0:
113,253,86947,6,0,L|127:72,1,172.000002624512
40,154,87411,1,0,0:0:0:0:
222,16,87566,6,0,L|233:194,1,172.000002624512
226,324,88030,1,0,0:0:0:0:
372,56,88185,5,0,0:0:0:0:
356,301,88339,1,0,0:0:0:0:
119,195,88494,1,0,0:0:0:0:
378,180,88648,1,0,0:0:0:0:
12,202,88958,1,0,0:0:0:0:
496,173,89267,2,0,L|431:176,1,43.0000006561279
278,185,89422,6,0,L|378:180,1,100
427,83,89731,1,0,0:0:0:0:
436,271,89886,1,0,0:0:0:0:
221,71,90040,2,0,L|365:79,1,100
175,192,90350,1,0,0:0:0:0:
80,37,90504,1,0,0:0:0:0:
121,261,90659,6,0,P|163:279|244:245,1,100
123,117,90968,1,0,0:0:0:0:
290,329,91123,2,0,B|308:278|308:278|292:206,1,100
42,204,91432,2,0,B|24:255|24:255|33:299,1,100
147,371,91741,1,0,0:0:0:0:
147,371,91819,1,0,0:0:0:0:
147,371,91896,5,0,0:0:0:0:
332,254,92051,1,0,0:0:0:0:
175,192,92205,1,0,0:0:0:0:
264,355,92360,1,0,0:0:0:0:
424,236,92514,2,0,L|404:124,1,100
406,137,92746,1,0,0:0:0:0:
406,137,92824,1,0,0:0:0:0:
443,323,92978,1,0,0:0:0:0:
347,80,93133,6,0,P|386:55|458:74,1,100
424,236,93442,1,0,0:0:0:0:
200,130,93597,2,0,B|128:116|128:116|68:128,1,100
185,314,93906,2,0,B|257:328|257:328|283:322,1,100
406,137,94215,1,0,0:0:0:0:
406,137,94293,1,0,0:0:0:0:
406,137,94370,5,0,0:0:0:0:
382,283,94525,1,0,0:0:0:0:
309,55,94679,1,0,0:0:0:0:
323,202,94834,1,0,0:0:0:0:
183,0,94989,1,0,0:0:0:0:
234,138,95144,1,0,0:0:0:0:
234,138,95221,1,0,0:0:0:0:
234,138,95298,1,0,0:0:0:0:
356,22,95453,6,0,B|324:67|324:67|339:216,1,200
132,96,95917,2,0,L|12:84,1,100
329,296,96226,1,0,0:0:0:0:
348,132,96380,1,0,0:0:0:0:
143,326,96535,1,0,0:0:0:0:
115,80,96689,1,0,0:0:0:0:
228,375,96844,6,0,B|237:316|237:316|214:245|214:245|234:157,1,200
432,179,97308,2,0,L|416:277,1,100
250,92,97618,1,0,0:0:0:0:
250,92,97695,1,0,0:0:0:0:
250,92,97772,1,0,0:0:0:0:
329,296,97927,1,0,0:0:0:0:
348,132,98081,5,0,0:0:0:0:
329,296,98236,1,0,0:0:0:0:
115,80,98391,1,0,0:0:0:0:
143,326,98545,1,0,0:0:0:0:
221,20,98700,5,0,0:0:0:0:
230,59,98777,1,0,0:0:0:0:
231,98,98854,1,0,0:0:0:0:
219,136,98931,1,0,0:0:0:0:
215,175,99009,2,0,L|224:244,1,50
94,99,99164,2,0,L|88:148,1,50
67,294,99319,5,0,0:0:0:0:
107,7,99473,1,0,0:0:0:0:
107,7,100092,5,0,0:0:0:0:
67,294,100401,1,0,0:0:0:0:
67,294,100710,1,0,0:0:0:0:
67,294,101329,5,0,0:0:0:0:
107,7,101484,1,0,0:0:0:0:
426,340,101793,5,0,0:0:0:0:
386,53,101948,1,0,0:0:0:0:
386,53,102566,5,0,0:0:0:0:
426,340,102875,1,0,0:0:0:0:
426,340,103185,1,0,0:0:0:0:
397,139,103494,1,0,0:0:0:0:
397,139,103571,1,0,0:0:0:0:
397,139,103648,2,0,L|456:132,2,50
230,240,103958,5,0,0:0:0:0:
189,258,104035,1,0,0:0:0:0:
144,255,104112,1,0,0:0:0:0:
107,232,104189,1,0,0:0:0:0:
89,199,104267,6,0,B|73:138|73:138|85:94,1,100
307,202,104576,2,0,B|316:237|316:237|300:298,1,100
64,321,104886,1,0,0:0:0:0:
171,179,105040,1,0,0:0:0:0:
171,179,105118,1,0,0:0:0:0:
171,179,105195,1,0,0:0:0:0:
239,355,105350,6,0,B|284:387|284:387|363:369|363:369|391:275,1,200
458,164,105813,1,0,0:0:0:0:
300,298,105968,1,0,0:0:0:0:
234,79,106123,2,0,P|285:4|287:118,1,259.999988098145
157,228,106587,1,0,0:0:0:0:
431,62,106741,5,0,0:0:0:0:
461,316,106895,1,0,0:0:0:0:
148,121,107050,1,0,0:0:0:0:
402,91,107204,1,0,0:0:0:0:
82,361,107359,5,0,0:0:0:0:
52,107,107513,1,0,0:0:0:0:
365,302,107668,1,0,0:0:0:0:
111,332,107824,1,0,0:0:0:0:
239,14,107978,5,0,0:0:0:0:
54,261,108288,1,0,0:0:0:0:
101,240,108365,1,0,0:0:0:0:
151,248,108442,1,0,0:0:0:0:
190,282,108519,1,0,0:0:0:0:
195,331,108597,6,0,L|280:323,1,64.9999970245363
398,269,108752,2,0,L|313:261,1,64.9999970245363
130,208,108906,2,0,L|194:214,1,64.9999970245363
424,131,109061,2,0,L|359:137,1,64.9999970245363
130,208,109215,6,0,B|93:212|93:212|56:188|56:188|43:91|43:91|73:63|73:63|147:52|147:52,1,255.000004863739
208,119,109525,2,0,B|289:133|289:133|353:109,1,139.999995727539
194,34,109834,1,0,0:0:0:0:
260,223,109989,1,0,0:0:0:0:
401,94,110143,1,0,0:0:0:0:
198,291,110298,6,0,P|262:315|325:287,1,139.999995727539
125,131,110607,1,0,0:0:0:0:
260,223,110761,1,0,0:0:0:0:
309,46,110916,1,0,0:0:0:0:
70,201,111071,2,0,P|40:140|58:73,1,139.999995727539
58,73,111303,1,0,0:0:0:0:
58,73,111380,1,0,0:0:0:0:
315,331,111535,6,0,B|266:361|266:361|174:338|174:338|130:254,1,209.999993591309
228,244,111844,2,0,L|304:232,1,69.9999978637696
427,208,111999,1,0,0:0:0:0:
148,134,112154,2,0,L|224:142,1,69.9999978637696
349,150,112309,1,0,0:0:0:0:
95,0,112463,2,0,L|166:27,1,69.9999978637696
285,67,112618,1,0,0:0:0:0:
128,343,112772,6,0,B|152:307|148:251|148:251|104:215|104:215|120:183|120:183|96:143|101:86,1,279.999991455078
63,292,113236,1,0,0:0:0:0:
199,100,113391,2,0,B|202:145|179:183|179:183|195:214|195:214|153:249|153:249|149:303|172:338,1,255.000004863739
275,366,113700,1,0,0:0:0:0:
382,83,113855,6,0,P|305:66|381:136,1,255.000004863739
466,86,114164,6,0,B|413:59|413:59|242:82,1,209.999993591309
229,170,114473,2,0,L|377:150,1,139.999995727539
206,12,114782,1,0,0:0:0:0:
244,264,114937,1,0,0:0:0:0:
360,69,115092,1,0,0:0:0:0:
212,291,115246,6,0,B|187:200|187:200|207:111|207:111|185:17,1,279.999991455078
285,201,115710,1,0,0:0:0:0:
108,111,115865,1,0,0:0:0:0:
329,61,116020,1,0,0:0:0:0:
202,308,116174,1,0,0:0:0:0:
202,308,116252,1,0,0:0:0:0:
202,308,116329,1,0,0:0:0:0:
468,144,116484,6,0,P|441:45|410:165,1,279.999991455078
421,342,116947,1,0,0:0:0:0:
281,149,117102,1,0,0:0:0:0:
507,223,117257,1,0,0:0:0:0:
507,223,117334,1,0,0:0:0:0:
507,223,117411,1,0,0:0:0:0:
281,296,117566,1,0,0:0:0:0:
421,105,117721,6,0,B|417:87|432:135|404:181|404:181|434:243|434:243|428:268|417:293|417:293|431:326|426:370,1,279.999991455078
496,176,118185,1,0,0:0:0:0:
388,373,118339,6,0,B|382:345|401:299|401:299|384:272|378:231|378:231|412:200|417:147|417:147|388:116|381:84|381:84|401:0,1,359.999989013672
151,262,118803,2,0,P|135:220|136:155,1,75.0000028610231
300,103,118957,2,0,P|294:137|276:175,1,75.0000028610231
25,151,119112,6,0,B|4:106|4:106|61:89|111:115|111:115|148:61|205:55|205:55|205:145,1,320
158,283,119576,1,0,0:0:0:0:
89,26,119731,1,0,0:0:0:0:
300,103,119886,1,0,0:0:0:0:
45,166,120040,1,0,0:0:0:0:
302,72,120195,6,0,B|359:129|359:129|337:255|337:255|279:298,1,279.999991455078
439,120,120659,1,0,0:0:0:0:
404,311,120813,1,0,0:0:0:0:
231,176,120968,1,0,0:0:0:0:
483,228,121123,1,0,0:0:0:0:
483,228,121200,1,0,0:0:0:0:
483,228,121277,1,0,0:0:0:0:
154,327,121432,6,0,P|201:226|387:224,1,279.999991455078
306,342,121896,1,0,0:0:0:0:
390,99,122051,1,0,0:0:0:0:
434,324,122205,1,0,0:0:0:0:
434,324,122282,1,0,0:0:0:0:
434,324,122360,1,0,0:0:0:0:
220,246,122514,1,0,0:0:0:0:
465,149,122669,6,0,B|473:89|473:89|395:58|395:58|315:67|315:67|303:150,1,279.999991455078
359,283,123133,1,0,0:0:0:0:
291,96,123288,2,0,P|423:20|488:144,1,320
271,181,123752,1,0,0:0:0:0:
223,151,123829,1,0,0:0:0:0:
205,99,123906,1,0,0:0:0:0:
213,44,123983,1,0,0:0:0:0:
248,9,124061,6,0,B|186:32|186:32|110:20,1,139.999995727539
291,96,124370,2,0,B|363:84|363:84|425:107,1,139.999995727539
340,323,124679,1,0,0:0:0:0:
355,166,124834,1,0,0:0:0:0:
425,359,124989,1,0,0:0:0:0:
131,252,125143,6,0,P|192:232|272:244,1,139.999995727539
99,359,125453,1,0,0:0:0:0:
45,185,125607,2,0,B|35:95|35:95|72:56,2,139.999995727539
207,327,126071,1,0,0:0:0:0:
207,327,126148,1,0,0:0:0:0:
207,327,126226,2,0,L|292:336,1,69.9999978637696
454,293,126380,6,0,B|495:176|429:95|429:95|451:150|423:222,1,279.999991455078
357,264,126844,1,0,0:0:0:0:
213,73,126999,1,0,0:0:0:0:
441,143,127154,1,0,0:0:0:0:
215,220,127308,1,0,0:0:0:0:
352,25,127463,1,0,0:0:0:0:
110,247,127618,6,0,P|43:210|163:202,1,279.999991455078
257,354,128081,1,0,0:0:0:0:
316,136,128236,1,0,0:0:0:0:
102,183,128391,1,0,0:0:0:0:
415,214,128545,1,0,0:0:0:0:
89,225,128700,1,0,0:0:0:0:
59,182,128777,1,0,0:0:0:0:
89,140,128854,1,0,0:0:0:0:
139,156,128932,1,0,0:0:0:0:
139,208,129009,5,0,0:0:0:0:
110,55,129164,1,0,0:0:0:0:
268,151,129319,1,0,0:0:0:0:
59,182,129474,1,0,0:0:0:0:
264,63,129628,1,0,0:0:0:0:
228,253,129783,1,0,0:0:0:0:
189,13,129937,1,0,0:0:0:0:
163,298,130092,6,0,B|212:299|245:281|245:281|292:304|339:313|339:313|380:296|440:296,1,259.999988098145
240,368,130556,1,0,0:0:0:0:
273,91,130710,2,0,L|197:85,1,64.9999970245363
108,196,130865,2,0,L|172:190,1,64.9999970245363
333,228,131020,1,0,0:0:0:0:
71,312,131174,1,0,0:0:0:0:
419,352,131329,6,0,B|468:314|468:314|484:181|484:181|412:101,1,259.999988098145
138,257,131793,6,0,B|93:273|93:273|30:257,2,86.6666626993817
205,197,132102,6,0,B|250:213|250:213|313:197,2,86.6666626993817
122,161,132411,6,0,B|77:177|77:177|14:161,2,86.6666626993817
258,120,132721,6,0,B|361:61|456:117|456:117|390:92|331:107,1,300.000011444092
180,89,133185,2,0,P|155:34|236:61,1,179.999994506836,0|0,2:0|2:0,2:0:0:0:
351,184,133494,1,0,0:0:0:0:
81,155,133648,1,0,0:0:0:0:
408,24,133803,1,0,0:0:0:0:
277,362,133958,5,0,0:0:0:0:
151,104,134112,1,0,0:0:0:0:
404,238,134267,1,0,0:0:0:0:
326,79,134422,1,0,0:0:0:0:
120,278,134576,1,0,0:0:0:0:
229,12,134731,1,0,0:0:0:0:
229,12,134808,1,0,0:0:0:0:
229,12,134886,1,0,0:0:0:0:
304,329,135040,6,0,B|429:346|508:236|508:236|447:282|347:271,1,359.999989013672
62,205,135504,2,0,P|52:146|124:193,1,179.999994506836,0|0,2:0|2:0,2:0:0:0:
36,320,135813,1,0,0:0:0:0:
13,77,135968,1,0,0:0:0:0:
13,77,136045,1,0,0:0:0:0:
13,77,136123,1,0,0:0:0:0:
176,351,136277,6,0,B|187:272|187:272|236:222|236:222|228:103|228:103|157:46,1,359.999989013672
340,279,136741,2,0,P|350:338|278:291,1,179.999994506836,0|0,2:0|2:0,2:0:0:0:
157,46,137051,2,0,B|239:27|239:27|303:39,2,150.000005722046
72,206,137514,1,0,0:0:0:0:
319,175,137669,6,0,B|276:158|276:158|180:179,1,100.000003814697
384,280,137875,2,0,B|427:246|427:246|449:154,1,110.000001049042
273,279,138081,2,0,B|276:336|276:336|352:405,1,119.999996337891
385,58,138288,6,0,B|390:9|462:20|462:89|423:103|386:105|386:105|333:101|315:61|315:61|278:36|225:50,1,330.000010070801
148,103,138597,1,0,0:0:0:0:
148,103,138674,1,0,0:0:0:0:
148,103,138752,1,0,0:0:0:0:
148,103,138829,1,0,0:0:0:0:
148,103,138906,5,0,0:0:0:0:
184,281,139061,1,0,0:0:0:0:
184,281,139215,1,0,0:0:0:0:
29,83,139370,1,0,0:0:0:0:
40,335,139525,1,0,0:0:0:0:
40,335,139679,1,0,0:0:0:0:
148,103,139834,1,0,0:0:0:0:
184,281,139989,1,0,0:0:0:0:
346,86,140143,5,0,0:0:0:0:
341,267,140298,1,0,0:0:0:0:
341,267,140452,1,0,0:0:0:0:
460,45,140607,1,0,0:0:0:0:
492,295,140762,1,0,0:0:0:0:
492,295,140917,1,0,0:0:0:0:
241,40,141071,1,0,0:0:0:0:
268,343,141226,1,0,0:0:0:0:
81,137,141380,5,0,0:0:0:0:
318,210,141535,1,0,0:0:0:0:
191,57,141690,1,0,0:0:0:0:
286,250,141844,1,0,0:0:0:0:
309,17,141999,1,0,0:0:0:0:
236,254,142154,1,0,0:0:0:0:
416,105,142308,1,0,0:0:0:0:
196,222,142463,1,0,0:0:0:0:
429,245,142618,5,0,0:0:0:0:
153,137,142772,1,0,0:0:0:0:
341,352,142927,1,0,0:0:0:0:
254,57,143081,1,0,0:0:0:0:
192,387,143236,1,0,0:0:0:0:
385,29,143391,1,0,0:0:0:0:
70,291,143545,5,0,0:0:0:0:
59,237,143622,1,0,0:0:0:0:
47,183,143699,1,0,0:0:0:0:
35,129,143776,1,0,0:0:0:0:
25,76,143855,6,0,L|197:63,1,150.000005722046
429,148,144164,2,0,L|257:135,1,150.000005722046
29,242,144473,2,0,L|201:229,1,150.000005722046
486,328,144782,2,0,L|314:315,1,150.000005722046
242,351,145014,1,0,0:0:0:0:
242,351,145092,6,0,B|152:372|152:372|67:347,1,150.000005722046
235,66,145401,2,0,B|325:45|325:45|410:70,1,150.000005722046
242,351,145710,2,0,B|152:372|152:372|67:347,2,150.000005722046
42,61,146174,1,0,0:0:0:0:
282,203,146329,6,0,B|324:204|324:204|336:186|336:186|324:160|324:160|340:140|340:140|328:122|328:122|284:112|284:112|252:114|252:114|216:136|216:136|224:156|224:156|197:185|197:185|192:211|192:211|203:236|203:236|193:282|193:282|249:274|249:274|276:293|276:293|320:288|320:288|340:280|340:280|368:280|368:280|401:253|401:253|425:218|425:218|413:178|413:178|420:132|420:132|409:83|409:83|372:48|372:48|336:40|336:40|310:29|310:29|272:32|272:32|244:24|244:24|219:46|219:46|168:56|168:56|151:104|151:104|102:119|102:119|124:163|124:163|98:201|98:201|120:240|120:240|94:274|94:274|116:292|116:292|106:331|106:331|144:361|144:361|195:371|195:371|226:360|226:360|256:372|256:372|301:368|301:368|348:374|348:374|368:355|368:355|400:364|400:364|420:340|420:340|436:326|436:326|451:319|451:319|470:297|470:297|493:250|493:250,1,1899.99994926453
486,59,148030,1,0,0:0:0:0:
57,149,148185,5,0,0:0:0:0:
59,171,148262,1,0,0:0:0:0:
61,193,148339,1,0,0:0:0:0:
63,215,148416,1,0,0:0:0:0:
66,237,148494,2,0,L|76:324,1,75.0000028610231
157,136,148648,2,0,L|167:223,1,75.0000028610231
245,51,148803,6,0,L|416:40,1,150.000005722046
489,188,149267,1,0,0:0:0:0:
381,216,149422,1,0,0:0:0:0:
417,131,149576,1,0,0:0:0:0:
453,278,149731,1,0,0:0:0:0:
323,135,149886,6,0,L|152:124,1,150.000005722046
99,190,150350,1,0,0:0:0:0:
207,222,150504,2,0,L|267:214,2,37.5000014305115
135,270,150813,1,0,0:0:0:0:
173,126,150968,1,0,0:0:0:0:
214,310,151123,1,0,0:0:0:0:
58,224,151277,6,0,L|67:75,1,150.000005722046
291,114,151741,1,0,0:0:0:0:
158,78,151896,1,0,0:0:0:0:
240,40,152050,1,0,0:0:0:0:
291,114,152205,1,0,0:0:0:0:
389,31,152360,6,0,L|240:40,1,150.000005722046
427,114,152824,2,0,P|457:95|477:28,1,75.0000028610231
476,190,153133,2,0,L|485:282,1,75.0000028610231
405,334,153442,2,0,L|395:382,2,37.5000014305115
355,210,153752,6,0,L|205:201,1,150.000005722046
124,276,154216,1,0,0:0:0:0:
156,132,154370,2,0,P|208:116|256:132,1,75.0000028610231
208,281,154679,1,0,0:0:0:0:
69,186,154834,6,0,L|61:80,1,75.0000028610231
227,118,155143,1,0,0:0:0:0:
255,10,155298,1,0,0:0:0:0:
170,46,155452,1,0,0:0:0:0:
254,157,155607,2,0,L|180:163,1,75.0000028610231
316,81,155916,1,0,0:0:0:0:
298,290,156071,1,0,0:0:0:0:
316,81,156226,6,0,L|474:93,1,150.000005722046
347,180,156690,1,0,0:0:0:0:
186,121,156844,2,0,L|28:133,1,150.000005722046
153,40,157308,1,0,0:0:0:0:
202,213,157463,2,0,L|283:220,1,75.0000028610231
369,281,157772,1,0,0:0:0:0:
114,196,157927,6,0,P|129:267|193:304,1,150.000005722046
198,99,158391,1,0,0:0:0:0:
224,100,158468,1,0,0:0:0:0:
250,101,158545,1,0,0:0:0:0:
276,102,158622,1,0,0:0:0:0:
302,103,158700,6,0,L|420:108,1,100
214,191,159009,2,0,L|114:196,1,100
281,28,159318,1,0,0:0:0:0:
326,220,159473,1,0,0:0:0:0:
326,220,159551,1,0,0:0:0:0:
326,220,159628,1,0,0:0:0:0:
86,93,159782,6,0,B|72:189|72:189|95:270|95:270|78:369,1,279.999991455078
158,62,160246,2,0,P|121:17|59:18,1,100
13,239,160556,1,0,0:0:0:0:
162,162,160710,2,0,L|237:148,1,50
308,219,160865,1,0,0:0:0:0:
348,38,161020,1,0,0:0:0:0:
452,299,161174,5,0,0:0:0:0:
395,144,161329,1,0,0:0:0:0:
280,382,161484,1,0,0:0:0:0:
308,219,161639,1,0,0:0:0:0:
354,315,161793,1,0,0:0:0:0:
422,52,161947,1,0,0:0:0:0:
422,52,162025,1,0,0:0:0:0:
422,52,162102,1,0,0:0:0:0:
65,120,162257,6,0,B|104:87|104:87|166:90|166:90|207:133|207:133|266:139|266:139|314:105,1,279.999991455078
131,176,162721,1,0,0:0:0:0:
245,52,162875,1,0,0:0:0:0:
342,372,163030,1,0,0:0:0:0:
187,309,163184,1,0,0:0:0:0:
417,243,163339,5,0,0:0:0:0:
419,218,163416,1,0,0:0:0:0:
422,193,163493,1,0,0:0:0:0:
425,168,163570,1,0,0:0:0:0:
427,144,163648,5,0,0:0:0:0:
475,315,163803,1,0,0:0:0:0:
288,80,163958,1,0,0:0:0:0:
510,101,164113,1,0,0:0:0:0:
304,263,164267,1,0,0:0:0:0:
375,24,164422,1,0,0:0:0:0:
375,24,164499,1,0,0:0:0:0:
375,24,164576,1,0,0:0:0:0:
162,250,164731,6,0,P|88:217|204:213,1,279.999991455078
218,324,165195,1,0,0:0:0:0:
10,122,165350,1,0,0:0:0:0:
294,163,165504,1,0,0:0:0:0:
41,298,165659,1,0,0:0:0:0:
41,298,165736,1,0,0:0:0:0:
41,298,165813,1,0,0:0:0:0:
167,35,165968,1,0,0:0:0:0:
438,298,166123,5,0,0:0:0:0:
180,188,166277,1,0,0:0:0:0:
422,216,166432,5,0,0:0:0:0:
110,244,166587,1,0,0:0:0:0:
505,249,166741,5,0,0:0:0:0:
41,298,166896,1,0,0:0:0:0:
492,159,167051,6,0,P|451:132|397:133,1,69.9999978637696
194,274,167205,2,0,P|237:251|264:204,1,69.9999978637696
271,6,167360,5,0,0:0:0:0:
139,50,168133,2,0,P|120:81|131:142,2,75.0000028610231
205,107,168597,6,0,B|278:97|278:97|336:120,1,112.500004291535
271,177,168906,2,0,P|312:189|368:169,1,75.0000028610231
400,100,169215,1,0,0:0:0:0:
448,184,169370,1,0,0:0:0:0:
474,43,169525,1,0,0:0:0:0:
496,280,169679,6,0,B|442:259|442:259|325:271,1,150.000005722046
284,340,170143,2,0,P|248:352|180:340,1,75.0000028610231
136,288,170453,1,0,0:0:0:0:
196,212,170607,2,0,L|182:87,1,112.500004291535
98,60,170917,6,0,L|108:160,1,75.0000028610231
351,44,171226,1,0,0:0:0:0:
354,57,171303,1,0,0:0:0:0:
358,69,171380,1,0,0:0:0:0:
315,197,171535,1,0,0:0:0:0:
302,193,171612,1,0,0:0:0:0:
289,190,171689,1,0,0:0:0:0:
437,160,171844,1,0,0:0:0:0:
450,156,171921,1,0,0:0:0:0:
463,153,171998,1,0,0:0:0:0:
378,289,172154,6,0,P|420:320|404:252,1,150.000005722046
324,201,172618,1,0,0:0:0:0:
256,323,172772,2,0,L|160:332,1,75.0000028610231
69,280,173081,1,0,0:0:0:0:
161,203,173236,2,0,L|153:77,1,112.500004291535
71,46,173546,6,0,L|75:146,1,75.0000028610231
218,36,173855,2,0,L|304:28,1,75.0000028610231
356,120,174164,1,0,0:0:0:0:
412,24,174319,1,0,0:0:0:0:
267,114,174473,1,0,0:0:0:0:
439,179,174628,6,0,B|429:229|429:229|446:280|446:280|439:347,1,150.000005722046
336,368,175092,1,0,0:0:0:0:
269,238,175246,1,0,0:0:0:0:
368,288,175401,1,0,0:0:0:0:
229,323,175556,2,0,L|134:316,1,75.0000028610231
61,202,175865,6,0,B|40:152|65:97|65:97|66:127|88:153,1,150.000005722046
176,88,176329,2,0,P|248:80|280:88,1,75.0000028610231
249,80,176561,1,0,0:0:0:0:
249,80,176638,1,0,0:0:0:0:
224,188,176793,1,0,0:0:0:0:
332,156,176947,1,0,0:0:0:0:
481,279,177102,6,0,B|448:308|448:308|396:292|396:292|344:304,1,150.000005722046
207,278,177566,1,0,0:0:0:0:
451,338,177721,2,0,B|400:326|400:326|348:342|348:342|315:313,1,150.000005722046
418,134,178185,2,0,P|449:109|437:157,1,112.500004291535
387,207,178494,6,0,L|288:200,1,75.0000028610231
295,124,178803,2,0,L|196:117,1,75.0000028610231
112,212,179112,2,0,L|211:205,1,75.0000028610231
248,300,179422,1,0,0:0:0:0:
60,283,179576,6,0,P|28:240|56:144,1,150.000005722046
144,123,180040,2,0,L|243:116,1,75.0000028610231
112,212,180350,1,0,0:0:0:0:
70,55,180504,2,0,B|132:35|132:35|207:41,1,112.500004291535
219,118,180813,6,0,B|269:127|269:127|291:119,1,75.0000028610231
392,56,181123,1,0,0:0:0:0:
480,128,181277,1,0,0:0:0:0:
483,141,181354,1,0,0:0:0:0:
487,153,181431,1,0,0:0:0:0:
384,200,181587,1,0,0:0:0:0:
381,213,181664,1,0,0:0:0:0:
377,225,181741,1,0,0:0:0:0:
464,296,181896,1,0,0:0:0:0:
360,344,182051,6,0,B|264:328|264:328|184:344,1,150.000005722046
104,368,182514,1,0,0:0:0:0:
48,272,182669,2,0,P|32:216|64:160,1,112.500004291535
109,224,182978,1,0,0:0:0:0:
174,86,183133,2,0,L|157:4,1,75.0000028610231
164,164,183442,6,0,P|230:142|243:53,1,150.000005722046
249,70,184061,2,0,L|335:65,1,75.0000028610231
424,120,184370,1,0,0:0:0:0:
370,243,184525,6,0,B|432:264|480:256|480:256|464:232|432:240,1,150.000005722046
292,327,184989,1,0,0:0:0:0:
175,190,185143,1,0,0:0:0:0:
212,355,185298,1,0,0:0:0:0:
324,167,185453,2,0,B|328:120|328:120|312:72,1,75.0000028610231
130,254,185762,6,0,P|96:191|149:111,1,150.000005722046
223,52,186226,5,0,0:0:0:0:
223,332,186380,1,0,0:0:0:0:
175,190,186535,1,0,0:0:0:0:
175,190,186612,1,0,0:0:0:0:
175,190,186690,1,0,0:0:0:0:
337,190,186844,1,0,0:0:0:0:
86,190,186999,1,0,0:0:0:0:
426,190,187154,5,0,0:0:0:0:
8,191,187308,1,0,0:0:0:0:
504,191,187618,5,0,0:0:0:0:
8,191,187773,1,0,0:0:0:0:
8,191,188081,6,0,P|50:213|101:223,1,75.0000028610231
250,85,188236,2,0,P|208:63|157:53,1,75.0000028610231
175,330,188391,2,0,B|223:335|265:313|265:313|297:332|297:332|337:288|337:288|395:287|432:314,1,262.500002503395
472,363,188700,6,0,P|500:298|439:218,1,150.000005722046
276,226,189009,1,0,0:0:0:0:
371,373,189164,1,0,0:0:0:0:
427,119,189319,1,0,0:0:0:0:
131,245,189473,6,0,B|82:218|82:218|76:175|76:175|52:134|52:134|88:96|88:96|95:53|95:53|135:49|135:49|179:66,1,300.000011444092
201,297,189937,2,0,P|152:332|64:300,1,150.000005722046
306,338,190246,1,0,0:0:0:0:
155,151,190401,1,0,0:0:0:0:
155,151,190478,1,0,0:0:0:0:
155,151,190556,2,0,P|208:140|256:152,1,75.0000028610231
449,234,190710,6,0,P|438:139|353:205,1,225.000008583069
370,262,191020,6,0,P|342:232|288:205,1,75.0000028610231
155,151,191174,1,0,0:0:0:0:
91,337,191329,2,0,P|118:312|138:281,1,75.0000028610231
223,94,191483,1,0,0:0:0:0:
236,341,191638,2,0,P|247:306|249:269,1,75.0000028610231
137,62,191793,1,0,0:0:0:0:
449,234,191947,6,0,P|447:110|357:200,1,300.000011444092
451,353,192411,1,0,0:0:0:0:
355,126,192566,6,0,B|357:89|357:89|404:109|404:109|452:108|452:108|477:148|477:148|515:171|515:171|486:201,1,262.500002503395
375,266,192875,1,0,0:0:0:0:
126,190,193030,6,0,P|116:103|194:176,1,225.000008583069
64,305,193339,6,0,B|90:264|90:264|93:213|93:213|55:175|55:175|51:120|51:120|83:65,1,262.500002503395
153,144,193648,6,0,B|240:149|240:149|320:105,1,150.000005722046
426,29,193958,1,0,0:0:0:0:
349,243,194112,1,0,0:0:0:0:
217,64,194267,1,0,0:0:0:0:
463,304,194422,6,0,B|426:266|368:264|336:283|336:283|319:337|256:343|256:343|220:304|190:318,1,300.000011444092
411,162,194886,1,0,0:0:0:0:
390,363,195040,1,0,0:0:0:0:
154,244,195195,1,0,0:0:0:0:
451,277,195350,1,0,0:0:0:0:
451,277,195427,1,0,0:0:0:0:
451,277,195504,1,0,0:0:0:0:
70,177,195659,6,0,B|153:162|153:162|265:184|265:184|368:160,1,300.000011444092
132,56,196123,1,0,0:0:0:0:
157,257,196277,1,0,0:0:0:0:
267,99,196432,1,0,0:0:0:0:
267,99,196509,1,0,0:0:0:0:
267,99,196586,1,0,0:0:0:0:
43,185,196741,1,0,0:0:0:0:
345,333,196896,6,0,B|408:341|408:341|440:259|440:259|431:175|431:175|343:162,1,300.000011444092
188,272,197360,1,0,0:0:0:0:
406,148,197514,2,0,B|435:168|435:168|460:227|460:227|453:289|453:289|419:339|419:339|379:359,1,262.500002503395
268,344,197824,1,0,0:0:0:0:
267,81,197978,5,0,0:0:0:0:
217,46,198055,1,0,0:0:0:0:
156,44,198132,1,0,0:0:0:0:
104,73,198209,1,0,0:0:0:0:
74,126,198288,6,0,B|76:232|146:264|146:264|156:232|136:193,1,225.000008583069
98,329,198597,2,0,P|163:343|224:280,1,150.000005722046
156,44,198906,1,0,0:0:0:0:
143,229,199061,1,0,0:0:0:0:
77,18,199215,1,0,0:0:0:0:
217,281,199370,6,0,B|342:325|429:255|429:255|370:278|293:248,1,300.000011444092
61,212,199834,2,0,P|88:164|184:156,1,150.000005722046
259,384,200143,1,0,0:0:0:0:
143,229,200298,1,0,0:0:0:0:
143,229,200375,1,0,0:0:0:0:
143,229,200453,1,0,0:0:0:0:
378,67,200607,6,0,B|422:102|422:102|429:210|429:210|385:255|385:255|409:335,1,300.000011444092
499,85,201071,1,0,0:0:0:0:
291,166,201226,1,0,0:0:0:0:
479,279,201380,1,0,0:0:0:0:
479,279,201458,1,0,0:0:0:0:
479,279,201535,1,0,0:0:0:0:
372,47,201690,1,0,0:0:0:0:
158,315,201844,6,0,B|96:323|96:323|63:242|63:242|73:160|73:160|159:147,1,300.000011444092
385,310,202308,1,0,0:0:0:0:
111,142,202463,2,0,P|20:246|196:288,1,320
458,260,202927,1,0,0:0:0:0:
412,229,203004,1,0,0:0:0:0:
357,231,203081,1,0,0:0:0:0:
314,266,203159,1,0,0:0:0:0:
301,320,203236,5,0,0:0:0:0:
257,103,203391,1,0,0:0:0:0:
424,130,203545,1,0,0:0:0:0:
207,174,203700,1,0,0:0:0:0:
401,14,203855,1,0,0:0:0:0:
357,231,204010,1,0,0:0:0:0:
171,98,204164,1,0,0:0:0:0:
494,72,204319,6,0,B|508:142|508:142|479:218,1,150.000005722046
413,359,204629,1,0,0:0:0:0:
265,256,204783,2,0,B|161:247|161:247|122:284,2,150.000005722046
31,329,205246,1,0,0:0:0:0:
31,329,205324,1,0,0:0:0:0:
31,329,205401,2,0,P|16:272|28:232,1,75.0000028610231
73,80,205556,6,0,B|175:10|278:55|278:55|216:41|149:91,1,300.000011444092
117,292,206020,1,0,0:0:0:0:
393,267,206174,1,0,0:0:0:0:
156,124,206329,1,0,0:0:0:0:
156,124,206406,1,0,0:0:0:0:
156,124,206484,1,0,0:0:0:0:
266,382,206639,1,0,0:0:0:0:
286,72,206793,6,0,P|401:26|335:147,1,300.000011444092
117,202,207257,1,0,0:0:0:0:
390,235,207411,1,0,0:0:0:0:
100,69,207566,1,0,0:0:0:0:
133,342,207720,1,0,0:0:0:0:
379,147,207875,1,0,0:0:0:0:
379,147,207953,1,0,0:0:0:0:
379,147,208030,1,0,0:0:0:0:
379,147,208107,1,0,0:0:0:0:
379,147,208185,5,0,0:0:0:0:
398,325,208339,1,0,0:0:0:0:
295,197,208494,1,0,0:0:0:0:
473,178,208648,1,0,0:0:0:0:
281,284,208803,1,0,0:0:0:0:
301,113,208958,2,0,B|225:95|225:95|137:111,1,119.999996337891
199,277,209267,1,0,0:0:0:0:
380,237,209422,5,0,0:0:0:0:
42,229,209576,1,0,0:0:0:0:
270,368,209731,1,0,0:0:0:0:
301,113,209885,1,0,0:0:0:0:
350,323,210040,1,0,0:0:0:0:
377,46,210195,1,0,0:0:0:0:
377,46,210272,1,0,0:0:0:0:
377,46,210350,2,0,L|296:28,1,59.9999981689454
145,77,210504,6,0,P|122:45|186:73,1,179.999994506836
206,127,210813,5,0,0:0:0:0:
40,159,210968,1,0,0:0:0:0:
187,269,211123,1,0,0:0:0:0:
187,269,211200,1,0,0:0:0:0:
187,269,211277,2,0,P|211:234|205:180,1,59.9999981689454
304,236,211432,2,0,P|308:193|276:149,1,59.9999981689454
392,153,211587,2,0,P|374:114|324:92,1,59.9999981689454
201,48,211741,1,0,0:0:0:0:
268,331,211896,5,0,0:0:0:0:
283,74,212051,1,0,0:0:0:0:
444,284,212205,1,0,0:0:0:0:
187,269,212360,1,0,0:0:0:0:
376,17,212514,1,0,0:0:0:0:
361,274,212669,1,0,0:0:0:0:
200,64,212823,1,0,0:0:0:0:
457,79,212978,1,0,0:0:0:0:
127,168,213133,5,0,0:0:0:0:
127,168,213210,1,0,0:0:0:0:
127,168,213288,1,0,0:0:0:0:
98,321,213442,1,0,0:0:0:0:
256,225,213597,1,0,0:0:0:0:
47,194,213752,1,0,0:0:0:0:
287,305,213906,2,0,P|332:261|325:177,1,129.999994049073
184,69,214215,1,0,0:0:0:0:
195,339,214370,5,0,0:0:0:0:
483,191,214525,1,0,0:0:0:0:
256,225,214679,1,0,0:0:0:0:
501,304,214834,1,0,0:0:0:0:
467,77,214988,1,0,0:0:0:0:
397,349,215143,1,0,0:0:0:0:
397,349,215221,1,0,0:0:0:0:
397,349,215298,2,0,L|387:273,1,64.9999970245363
353,62,215453,6,0,L|377:217,1,129.999994049073
153,331,215762,1,0,0:0:0:0:
192,148,215917,1,0,0:0:0:0:
311,308,216071,1,0,0:0:0:0:
255,88,216226,1,0,0:0:0:0:
255,88,216303,1,0,0:0:0:0:
255,88,216380,1,0,0:0:0:0:
238,358,216535,1,0,0:0:0:0:
138,114,216690,6,0,P|205:77|290:122,1,129.999994049073
414,232,216999,1,0,0:0:0:0:
153,331,217154,1,0,0:0:0:0:
318,27,217308,2,0,P|245:2|169:61,1,129.999994049073
260,247,217618,1,0,0:0:0:0:
439,117,217772,1,0,0:0:0:0:
439,117,217850,1,0,0:0:0:0:
439,117,217927,1,0,0:0:0:0:
439,117,218004,1,0,0:0:0:0:
439,117,218081,5,0,0:0:0:0:
207,202,218236,1,0,0:0:0:0:
325,42,218391,1,0,0:0:0:0:
241,240,218545,1,0,0:0:0:0:
205,9,218700,1,0,0:0:0:0:
291,242,218855,1,0,0:0:0:0:
103,102,219009,1,0,0:0:0:0:
329,207,219164,1,0,0:0:0:0:
98,243,219319,5,0,0:0:0:0:
367,120,219473,1,0,0:0:0:0:
191,345,219628,1,0,0:0:0:0:
262,46,219782,1,0,0:0:0:0:
342,372,219937,1,0,0:0:0:0:
283,130,220092,1,0,0:0:0:0:
283,130,220169,1,0,0:0:0:0:
283,130,220246,1,0,0:0:0:0:
504,181,220401,2,0,P|496:85|445:165,1,225.000008583069
431,255,220710,5,0,0:0:0:0:
199,170,220865,1,0,0:0:0:0:
317,330,221020,1,0,0:0:0:0:
233,132,221174,1,0,0:0:0:0:
197,363,221329,1,0,0:0:0:0:
283,130,221484,1,0,0:0:0:0:
95,270,221638,1,0,0:0:0:0:
321,165,221793,5,0,0:0:0:0:
90,129,221948,1,0,0:0:0:0:
382,255,222102,1,0,0:0:0:0:
346,24,222257,1,0,0:0:0:0:
230,260,222411,1,0,0:0:0:0:
461,224,222566,1,0,0:0:0:0:
205,119,222720,1,0,0:0:0:0:
169,350,222875,1,0,0:0:0:0:
445,330,223030,5,0,0:0:0:0:
445,330,223107,1,0,0:0:0:0:
445,330,223185,1,0,0:0:0:0:
473,81,223339,1,0,0:0:0:0:
356,283,223494,1,0,0:0:0:0:
318,35,223648,1,0,0:0:0:0:
260,302,223803,1,0,0:0:0:0:
159,72,223957,1,0,0:0:0:0:
186,361,224112,1,0,0:0:0:0:
28,164,224267,5,0,0:0:0:0:
356,283,224423,1,0,0:0:0:0:
14,258,224576,1,0,0:0:0:0:
362,194,224732,1,0,0:0:0:0:
187,316,224886,1,0,0:0:0:0:
217,55,225040,1,0,0:0:0:0:
217,55,225118,1,0,0:0:0:0:
217,55,225195,1,0,0:0:0:0:
438,318,225350,6,0,B|495:300|495:300|502:212|502:212|434:159|434:159|418:84|418:84|482:56|482:56|499:64,1,359.999989013672
333,327,225813,5,0,0:0:0:0:
78,256,225968,1,0,0:0:0:0:
395,233,226123,1,0,0:0:0:0:
395,233,226200,1,0,0:0:0:0:
395,233,226277,1,0,0:0:0:0:
155,300,226432,6,0,P|165:258|145:199,1,75.0000028610231
96,37,226587,6,0,B|223:-23|281:41|281:41|228:16|159:42,1,269.999991760254
151,139,226896,2,0,P|185:153|222:152,1,75.0000028610231
425,90,227051,5,0,0:0:0:0:
454,328,227205,1,0,0:0:0:0:
387,63,227360,1,0,0:0:0:0:
439,45,227437,1,0,0:0:0:0:
472,90,227514,1,0,0:0:0:0:
439,135,227592,1,0,0:0:0:0:
387,118,227669,2,0,P|340:92|268:92,1,89.9999972534181
151,139,227824,1,0,0:0:0:0:
256,192,227978,12,0,236329,0:0:0:0:
