osu file format v14

[General]
AudioFilename: audio.mp3
AudioLeadIn: 0
PreviewTime: 49698
Countdown: 0
SampleSet: Normal
StackLeniency: 0.7
Mode: 3
LetterboxInBreaks: 0
SpecialStyle: 0
WidescreenStoryboard: 1

[Editor]
DistanceSpacing: 1.1
BeatDivisor: 4
GridSize: 8
TimelineZoom: 2.700005

[Metadata]
Title:caramel heaven
TitleUnicode:キャラメルへヴン
Artist:yuikonnu
ArtistUnicode:ゆいこんぬ
Creator:Frizu
Version:Sweet
Source:
Tags:nico gumi megpoid cover vocolaid utaite last note.
BeatmapID:1281725
BeatmapSetID:606766

[Difficulty]
HPDrainRate:8.5
CircleSize:4
OverallDifficulty:8.5
ApproachRate:5
SliderMultiplier:1.4
SliderTickRate:1

[Events]
//Background and Video events
0,0,"BG.jpg",0,0
//Break Periods
//Storyboard Layer 0 (Background)
//Storyboard Layer 1 (Fail)
//Storyboard Layer 2 (Pass)
//Storyboard Layer 3 (Foreground)
//Storyboard Layer 4 (Overlay)
//Storyboard Sound Samples

[TimingPoints]
369,309.278350515464,4,1,1,40,1,0
29286,-80,4,1,1,40,0,0
29441,-133.333333333333,4,1,1,40,0,0
29595,-80,4,1,1,40,0,0
29750,-133.333333333333,4,1,1,40,0,0
29905,-100,4,1,1,40,0,0
39956,-111.111111111111,4,1,1,40,0,0
47379,-100,4,1,1,40,0,0
48616,-200,4,1,1,40,0,0
48848,-66.6666666666667,4,1,1,40,0,0
49080,-111.111111111111,4,1,1,40,0,0
49234,-90.9090909090909,4,1,1,40,0,0
49389,-100,4,1,1,40,0,0
49853,-100,4,1,1,40,0,1
69647,-100,4,1,1,40,0,0
88667,-80,4,1,1,40,0,0
88822,-133.333333333333,4,1,1,40,0,0
88977,-80,4,1,1,40,0,0
89131,-133.333333333333,4,1,1,40,0,0
89286,-100,4,1,1,40,0,0
99647,-80,4,1,1,40,0,0
99879,-133.333333333333,4,1,1,40,0,0
100111,-90.9090909090909,4,1,1,40,0,0
100265,-111.111111111111,4,1,1,40,0,0
100729,-100,4,1,1,40,0,0
101503,-133.333333333333,4,1,1,40,0,0
101657,-80,4,1,1,40,0,0
101812,-100,4,1,1,40,0,0
102121,-80,4,1,1,40,0,0
102353,-133.333333333333,4,1,1,40,0,0
102585,-90.9090909090909,4,1,1,40,0,0
102740,-111.111111111111,4,1,1,40,0,0
103204,-100,4,1,1,40,0,0
107997,-133.333333333333,4,1,1,40,0,0
108152,-80,4,1,1,40,0,0
108307,-100,4,1,1,40,0,0
109234,-100,4,1,1,40,0,1
129028,-100,4,1,1,40,0,0
148822,-111.111111111111,4,1,1,40,0,0
158719,-100,4,1,1,40,0,0
167379,-133.333333333333,4,1,1,40,0,0
167611,-80,4,1,1,40,0,0
167843,-133.333333333333,4,1,1,40,0,0
178513,-117.647058823529,4,1,1,40,0,0
187173,-100,4,1,1,40,0,0
187327,-133.333333333333,4,1,1,40,0,0
187482,-80,4,1,1,40,0,0
187637,-100,4,1,1,40,0,0
187791,-133.333333333333,4,1,1,40,0,0
187946,-80,4,1,1,40,0,0
188100,-100,4,1,1,40,0,0
188410,-100,4,1,1,40,0,1
208204,-100,4,1,1,40,0,0

[HitObjects]
64,192,369,5,0,0:0:0:0:
320,192,369,1,0,0:0:0:0:
64,192,523,1,0,0:0:0:0:
320,192,523,1,0,0:0:0:0:
192,192,2843,1,0,0:0:0:0:
448,192,2843,1,0,0:0:0:0:
448,192,2997,1,0,0:0:0:0:
192,192,2997,1,0,0:0:0:0:
192,192,5317,1,0,0:0:0:0:
320,192,5317,1,0,0:0:0:0:
320,192,5472,1,0,0:0:0:0:
192,192,5472,1,0,0:0:0:0:
448,192,7791,1,0,0:0:0:0:
64,192,7791,1,0,0:0:0:0:
448,192,7946,1,0,0:0:0:0:
64,192,7946,1,0,0:0:0:0:
320,192,8410,1,2,0:0:0:0:
320,192,8719,1,2,0:0:0:0:
448,192,9028,1,4,0:0:0:0:
64,192,9028,1,0,0:0:0:0:
320,192,9028,1,8,0:0:0:0:
192,192,9183,1,0,0:0:0:0:
64,192,9183,1,0,0:0:0:0:
320,192,9260,1,0,0:0:0:0:
448,192,9260,1,0,0:0:0:0:
192,192,9338,1,0,0:0:0:0:
64,192,9338,1,0,0:0:0:0:
448,192,9415,1,0,0:0:0:0:
192,192,9492,1,8,0:0:0:0:
320,192,9492,1,4,0:0:0:0:
64,192,9492,1,0,0:0:0:0:
64,192,9647,1,0,0:0:0:0:
448,192,9647,1,0,0:0:0:0:
192,192,9724,1,0,0:0:0:0:
320,192,9724,1,0,0:0:0:0:
448,192,9801,1,0,0:0:0:0:
64,192,9801,1,0,0:0:0:0:
320,192,9879,1,0,0:0:0:0:
448,192,9956,1,2,0:0:0:0:
192,192,9956,1,8,0:0:0:0:
64,192,9956,1,0,0:0:0:0:
448,192,10265,1,0,0:0:0:0:
320,192,10265,1,8,0:0:0:0:
64,192,10343,1,0,0:0:0:0:
320,192,10420,1,0,0:0:0:0:
64,192,10575,1,0,0:0:0:0:
448,192,10575,1,4,0:0:0:0:
192,192,10575,1,2,0:0:0:0:
192,192,10729,1,0,0:0:0:0:
320,192,10884,1,8,0:0:0:0:
448,192,10884,1,0,0:0:0:0:
64,192,11039,1,0,0:0:0:0:
192,192,11039,1,8,0:0:0:0:
64,192,11193,1,0,0:0:0:0:
320,192,11193,1,2,0:0:0:0:
448,192,11193,1,0,0:0:0:0:
192,192,11348,1,0,0:0:0:0:
192,192,11503,1,8,0:0:0:0:
320,192,11503,1,0,0:0:0:0:
64,192,11657,1,0,0:0:0:0:
448,192,11657,1,8,0:0:0:0:
192,192,11812,1,0,0:0:0:0:
320,192,11812,1,0,0:0:0:0:
64,192,11812,1,2,0:0:0:0:
320,192,11966,1,0,0:0:0:0:
448,192,12121,1,8,0:0:0:0:
64,192,12121,1,0,0:0:0:0:
192,192,12276,1,8,0:0:0:0:
320,192,12353,1,0,0:0:0:0:
64,192,12430,1,0,0:0:0:0:
192,192,12430,1,2,0:0:0:0:
448,192,12430,1,0,0:0:0:0:
64,192,12585,1,8,0:0:0:0:
320,192,12585,128,4,12894:0:0:0:0:
448,192,12585,1,0,0:0:0:0:
192,192,12740,1,0,0:0:0:0:
448,192,12894,1,0,0:0:0:0:
64,192,12894,1,0,0:0:0:0:
448,192,13049,1,2,0:0:0:0:
320,192,13049,1,0,0:0:0:0:
192,192,13049,1,0,0:0:0:0:
320,192,13204,1,0,0:0:0:0:
64,192,13358,1,0,0:0:0:0:
192,192,13358,1,8,0:0:0:0:
320,192,13436,1,0,0:0:0:0:
192,192,13513,1,8,0:0:0:0:
320,192,13667,1,2,0:0:0:0:
64,192,13667,1,0,0:0:0:0:
448,192,13667,1,0,0:0:0:0:
192,192,13822,1,0,0:0:0:0:
64,192,13977,1,8,0:0:0:0:
448,192,13977,1,0,0:0:0:0:
448,192,14131,1,0,0:0:0:0:
320,192,14131,1,8,0:0:0:0:
64,192,14286,1,0,0:0:0:0:
192,192,14286,1,2,0:0:0:0:
320,192,14286,1,0,0:0:0:0:
192,192,14441,1,0,0:0:0:0:
448,192,14441,1,0,0:0:0:0:
320,192,14441,1,2,0:0:0:0:
192,192,14595,1,0,0:0:0:0:
64,192,14595,1,2,0:0:0:0:
64,192,14750,1,0,0:0:0:0:
320,192,14750,1,2,0:0:0:0:
320,192,14905,1,0,0:0:0:0:
448,192,14905,1,8,0:0:0:0:
192,192,14982,1,8,0:0:0:0:
320,192,15059,1,0,0:0:0:0:
64,192,15059,1,8,0:0:0:0:
448,192,15137,1,8,0:0:0:0:
192,192,15214,1,2,0:0:0:0:
64,192,15214,1,4,0:0:0:0:
320,192,15291,1,0,0:0:0:0:
192,192,15369,1,0,0:0:0:0:
320,192,15523,1,0,0:0:0:0:
64,192,15523,1,0,0:0:0:0:
448,192,15523,1,2,0:0:0:0:
320,192,15678,1,0,0:0:0:0:
64,192,15832,1,0,0:0:0:0:
192,192,15832,1,8,0:0:0:0:
320,192,15987,1,8,0:0:0:0:
448,192,15987,1,0,0:0:0:0:
64,192,16142,1,0,0:0:0:0:
192,192,16142,1,0,0:0:0:0:
448,192,16142,1,2,0:0:0:0:
320,192,16296,1,0,0:0:0:0:
192,192,16451,1,8,0:0:0:0:
320,192,16451,1,0,0:0:0:0:
64,192,16606,1,8,0:0:0:0:
448,192,16606,1,0,0:0:0:0:
448,192,16760,1,0,0:0:0:0:
192,192,16760,1,0,0:0:0:0:
320,192,16760,1,2,0:0:0:0:
192,192,16915,1,0,0:0:0:0:
448,192,17070,1,0,0:0:0:0:
64,192,17070,1,8,0:0:0:0:
320,192,17224,1,8,0:0:0:0:
192,192,17301,1,0,0:0:0:0:
320,192,17379,1,0,0:0:0:0:
64,192,17379,1,0,0:0:0:0:
448,192,17379,1,2,0:0:0:0:
448,192,17533,1,0,0:0:0:0:
192,192,17533,128,4,17843:0:0:0:0:
64,192,17533,1,2,0:0:0:0:
320,192,17688,1,0,0:0:0:0:
64,192,17843,1,0,0:0:0:0:
448,192,17843,1,0,0:0:0:0:
64,192,17997,1,0,0:0:0:0:
320,192,17997,1,0,0:0:0:0:
192,192,17997,1,2,0:0:0:0:
320,192,18152,1,0,0:0:0:0:
448,192,18307,1,0,0:0:0:0:
64,192,18307,1,8,0:0:0:0:
192,192,18384,1,0,0:0:0:0:
448,192,18461,1,8,0:0:0:0:
64,192,18616,1,2,0:0:0:0:
320,192,18616,1,0,0:0:0:0:
192,192,18616,1,0,0:0:0:0:
192,192,18771,1,0,0:0:0:0:
64,192,18925,1,0,0:0:0:0:
448,192,18925,1,8,0:0:0:0:
192,192,19080,1,0,0:0:0:0:
320,192,19080,1,8,0:0:0:0:
192,192,19234,1,0,0:0:0:0:
64,192,19234,1,2,0:0:0:0:
448,192,19234,1,0,0:0:0:0:
64,192,19389,1,0,0:0:0:0:
320,192,19389,1,0,0:0:0:0:
448,192,19389,1,2,0:0:0:0:
192,192,19544,1,0,0:0:0:0:
320,192,19544,1,2,0:0:0:0:
448,192,19698,1,0,0:0:0:0:
192,192,19698,1,2,0:0:0:0:
448,192,19853,1,0,0:0:0:0:
64,192,19853,1,8,0:0:0:0:
192,192,19930,1,8,0:0:0:0:
320,192,20008,1,8,0:0:0:0:
64,192,20008,1,0,0:0:0:0:
192,192,20085,1,8,0:0:0:0:
320,192,20162,1,2,0:0:0:0:
448,192,20162,1,4,0:0:0:0:
192,192,20317,1,0,0:0:0:0:
448,192,20472,1,8,0:0:0:0:
64,192,20472,1,0,0:0:0:0:
320,192,20626,1,0,0:0:0:0:
192,192,20781,1,2,0:0:0:0:
64,192,20781,1,0,0:0:0:0:
320,192,20936,1,0,0:0:0:0:
192,192,21013,1,0,0:0:0:0:
64,192,21090,1,0,0:0:0:0:
448,192,21090,1,8,0:0:0:0:
192,192,21245,1,0,0:0:0:0:
320,192,21399,1,2,0:0:0:0:
448,192,21399,1,0,0:0:0:0:
64,192,21554,1,0,0:0:0:0:
320,192,21709,1,0,0:0:0:0:
192,192,21709,1,8,0:0:0:0:
448,192,21863,1,0,0:0:0:0:
192,192,22018,1,0,0:0:0:0:
64,192,22018,1,2,0:0:0:0:
448,192,22173,1,0,0:0:0:0:
192,192,22327,1,8,0:0:0:0:
320,192,22327,1,0,0:0:0:0:
192,192,22482,1,0,0:0:0:0:
448,192,22482,1,8,0:0:0:0:
320,192,22637,1,2,0:0:0:0:
64,192,22637,1,4,0:0:0:0:
448,192,22637,1,0,0:0:0:0:
192,192,22791,1,0,0:0:0:0:
64,192,22946,1,0,0:0:0:0:
448,192,22946,1,8,0:0:0:0:
320,192,23100,1,0,0:0:0:0:
192,192,23255,1,2,0:0:0:0:
448,192,23255,1,0,0:0:0:0:
64,192,23410,1,0,0:0:0:0:
320,192,23487,1,0,0:0:0:0:
448,192,23564,1,8,0:0:0:0:
64,192,23564,1,0,0:0:0:0:
192,192,23719,1,0,0:0:0:0:
320,192,23874,1,2,0:0:0:0:
448,192,23874,1,0,0:0:0:0:
64,192,24028,1,0,0:0:0:0:
192,192,24183,1,8,0:0:0:0:
448,192,24183,1,0,0:0:0:0:
320,192,24338,1,0,0:0:0:0:
192,192,24492,1,0,0:0:0:0:
64,192,24492,1,2,0:0:0:0:
448,192,24647,1,0,0:0:0:0:
320,192,24801,1,8,0:0:0:0:
64,192,24801,1,0,0:0:0:0:
192,192,24956,1,8,0:0:0:0:
320,192,24956,1,0,0:0:0:0:
64,192,25111,1,2,0:0:0:0:
448,192,25111,1,4,0:0:0:0:
192,192,25111,1,0,0:0:0:0:
320,192,25265,1,0,0:0:0:0:
64,192,25420,1,8,0:0:0:0:
448,192,25420,1,0,0:0:0:0:
320,192,25575,1,0,0:0:0:0:
192,192,25729,1,2,0:0:0:0:
64,192,25729,1,0,0:0:0:0:
448,192,25884,1,0,0:0:0:0:
192,192,25961,1,0,0:0:0:0:
64,192,26039,1,0,0:0:0:0:
448,192,26039,1,8,0:0:0:0:
320,192,26193,1,0,0:0:0:0:
192,192,26348,1,2,0:0:0:0:
64,192,26348,1,0,0:0:0:0:
448,192,26503,1,0,0:0:0:0:
320,192,26657,1,8,0:0:0:0:
64,192,26657,1,0,0:0:0:0:
448,192,26812,1,0,0:0:0:0:
192,192,26966,1,0,0:0:0:0:
64,192,26966,1,2,0:0:0:0:
448,192,27121,1,0,0:0:0:0:
64,192,27276,1,0,0:0:0:0:
192,192,27276,1,8,0:0:0:0:
320,192,27430,1,8,0:0:0:0:
192,192,27430,1,0,0:0:0:0:
448,192,27585,1,2,0:0:0:0:
64,192,27585,1,4,0:0:0:0:
320,192,27585,1,0,0:0:0:0:
192,192,27740,1,0,0:0:0:0:
448,192,27894,1,0,0:0:0:0:
64,192,27894,1,8,0:0:0:0:
192,192,28049,1,0,0:0:0:0:
448,192,28204,1,0,0:0:0:0:
320,192,28204,1,2,0:0:0:0:
192,192,28358,1,0,0:0:0:0:
320,192,28436,1,0,0:0:0:0:
448,192,28513,1,8,0:0:0:0:
64,192,28513,1,0,0:0:0:0:
192,192,28667,1,0,0:0:0:0:
64,192,28822,1,8,0:0:0:0:
320,192,28822,1,0,0:0:0:0:
448,192,28822,1,0,0:0:0:0:
64,192,28977,1,0,0:0:0:0:
192,192,28977,1,0,0:0:0:0:
448,192,28977,1,8,0:0:0:0:
320,192,29131,1,0,0:0:0:0:
64,192,29131,1,8,0:0:0:0:
448,192,29131,1,0,0:0:0:0:
192,192,29286,1,0,0:0:0:0:
448,192,29286,1,2,0:0:0:0:
64,192,29286,1,4,0:0:0:0:
192,192,29595,1,4,0:0:0:0:
320,192,29595,1,0,0:0:0:0:
448,192,29595,1,2,0:0:0:0:
320,192,29905,1,0,0:0:0:0:
192,192,29982,1,0,0:0:0:0:
320,192,30059,1,2,0:0:0:0:
64,192,30059,1,4,0:0:0:0:
448,192,30059,1,0,0:0:0:0:
448,192,30214,1,0,0:0:0:0:
320,192,30369,1,0,0:0:0:0:
192,192,30369,1,8,0:0:0:0:
320,192,30523,1,0,0:0:0:0:
192,192,30678,1,0,0:0:0:0:
64,192,30678,1,2,0:0:0:0:
192,192,30832,1,0,0:0:0:0:
320,192,30910,1,0,0:0:0:0:
448,192,30987,1,8,0:0:0:0:
64,192,30987,1,0,0:0:0:0:
448,192,31142,1,0,0:0:0:0:
192,192,31296,1,2,0:0:0:0:
64,192,31296,1,0,0:0:0:0:
64,192,31451,1,0,0:0:0:0:
448,192,31606,1,8,0:0:0:0:
192,192,31606,1,0,0:0:0:0:
448,192,31760,1,0,0:0:0:0:
64,192,31915,1,0,0:0:0:0:
192,192,31915,1,2,0:0:0:0:
192,192,32070,1,0,0:0:0:0:
320,192,32224,1,8,0:0:0:0:
64,192,32224,1,0,0:0:0:0:
320,192,32379,1,0,0:0:0:0:
192,192,32379,1,8,0:0:0:0:
192,192,32533,1,0,0:0:0:0:
64,192,32533,1,4,0:0:0:0:
448,192,32533,1,2,0:0:0:0:
448,192,32688,1,0,0:0:0:0:
320,192,32843,1,8,0:0:0:0:
192,192,32843,1,0,0:0:0:0:
192,192,32997,1,0,0:0:0:0:
448,192,33152,1,2,0:0:0:0:
320,192,33152,1,0,0:0:0:0:
320,192,33307,1,0,0:0:0:0:
192,192,33384,1,0,0:0:0:0:
448,192,33461,1,0,0:0:0:0:
64,192,33461,1,8,0:0:0:0:
64,192,33616,1,0,0:0:0:0:
448,192,33771,1,0,0:0:0:0:
320,192,33771,1,2,0:0:0:0:
448,192,33925,1,0,0:0:0:0:
320,192,34080,1,0,0:0:0:0:
64,192,34080,1,8,0:0:0:0:
64,192,34234,1,0,0:0:0:0:
320,192,34389,1,0,0:0:0:0:
448,192,34389,1,2,0:0:0:0:
320,192,34544,1,0,0:0:0:0:
448,192,34698,1,0,0:0:0:0:
64,192,34698,1,8,0:0:0:0:
64,192,34853,1,0,0:0:0:0:
320,192,34853,1,8,0:0:0:0:
192,192,35008,1,2,0:0:0:0:
448,192,35008,1,4,0:0:0:0:
320,192,35008,1,0,0:0:0:0:
192,192,35162,1,0,0:0:0:0:
64,192,35317,1,0,0:0:0:0:
320,192,35317,1,8,0:0:0:0:
64,192,35472,1,0,0:0:0:0:
320,192,35626,1,0,0:0:0:0:
448,192,35626,1,2,0:0:0:0:
320,192,35781,1,0,0:0:0:0:
64,192,35858,1,0,0:0:0:0:
448,192,35936,1,0,0:0:0:0:
192,192,35936,1,8,0:0:0:0:
448,192,36090,1,0,0:0:0:0:
64,192,36245,1,2,0:0:0:0:
192,192,36245,1,0,0:0:0:0:
64,192,36399,1,0,0:0:0:0:
192,192,36554,1,0,0:0:0:0:
448,192,36554,1,8,0:0:0:0:
192,192,36709,1,0,0:0:0:0:
448,192,36863,1,0,0:0:0:0:
320,192,36863,1,2,0:0:0:0:
320,192,37018,1,0,0:0:0:0:
448,192,37173,1,0,0:0:0:0:
64,192,37173,1,8,0:0:0:0:
448,192,37327,1,0,0:0:0:0:
192,192,37327,1,8,0:0:0:0:
192,192,37482,1,0,0:0:0:0:
64,192,37482,1,4,0:0:0:0:
320,192,37482,1,2,0:0:0:0:
320,192,37637,1,0,0:0:0:0:
192,192,37791,1,8,0:0:0:0:
448,192,37791,1,0,0:0:0:0:
448,192,37946,1,0,0:0:0:0:
64,192,38100,1,2,0:0:0:0:
192,192,38100,1,0,0:0:0:0:
192,192,38255,1,0,0:0:0:0:
448,192,38332,1,0,0:0:0:0:
64,192,38410,1,0,0:0:0:0:
320,192,38410,1,8,0:0:0:0:
64,192,38564,1,0,0:0:0:0:
320,192,38719,1,2,0:0:0:0:
448,192,38719,1,0,0:0:0:0:
448,192,38874,1,0,0:0:0:0:
64,192,39028,1,8,0:0:0:0:
320,192,39028,1,0,0:0:0:0:
320,192,39183,1,0,0:0:0:0:
192,192,39338,1,0,0:0:0:0:
448,192,39338,1,8,0:0:0:0:
64,192,39415,1,0,0:0:0:0:
320,192,39415,1,8,0:0:0:0:
192,192,39492,1,0,0:0:0:0:
64,192,39570,1,0,0:0:0:0:
320,192,39647,1,0,0:0:0:0:
192,192,39724,1,0,0:0:0:0:
448,192,39801,1,0,0:0:0:0:
320,192,39879,1,0,0:0:0:0:
64,192,39956,128,4,40575:0:0:0:0:
192,192,39956,1,2,0:0:0:0:
448,192,39956,128,0,40265:0:0:0:0:
320,192,40265,1,0,0:0:0:0:
448,192,40420,1,0,0:0:0:0:
320,192,40575,128,4,41039:0:0:0:0:
192,192,40575,128,2,40884:0:0:0:0:
64,192,40884,1,0,0:0:0:0:
448,192,41039,128,4,41812:0:0:0:0:
192,192,41039,128,2,41348:0:0:0:0:
64,192,41348,1,0,0:0:0:0:
192,192,41657,1,0,0:0:0:0:
320,192,41734,1,0,0:0:0:0:
192,192,41812,1,2,0:0:0:0:
64,192,41812,1,0,0:0:0:0:
192,192,42121,1,0,0:0:0:0:
64,192,42276,1,0,0:0:0:0:
448,192,42276,1,2,0:0:0:0:
448,192,42430,128,4,43049:0:0:0:0:
320,192,42430,1,2,0:0:0:0:
192,192,42430,128,0,42740:0:0:0:0:
320,192,42740,1,0,0:0:0:0:
64,192,42894,1,0,0:0:0:0:
192,192,43049,128,4,43513:0:0:0:0:
320,192,43049,128,2,43358:0:0:0:0:
448,192,43358,1,0,0:0:0:0:
64,192,43513,128,4,44286:0:0:0:0:
320,192,43513,128,2,43822:0:0:0:0:
192,192,43822,1,0,0:0:0:0:
448,192,43977,1,0,0:0:0:0:
320,192,44131,1,0,0:0:0:0:
192,192,44286,1,0,0:0:0:0:
448,192,44286,1,2,0:0:0:0:
320,192,44441,1,0,0:0:0:0:
192,192,44595,1,0,0:0:0:0:
448,192,44595,1,0,0:0:0:0:
320,192,44673,1,0,0:0:0:0:
64,192,44750,1,0,0:0:0:0:
448,192,44827,1,0,0:0:0:0:
320,192,44905,128,4,45523:0:0:0:0:
64,192,44905,1,2,0:0:0:0:
192,192,44905,128,0,45214:0:0:0:0:
448,192,45214,1,0,0:0:0:0:
64,192,45369,1,0,0:0:0:0:
448,192,45523,128,4,45987:0:0:0:0:
192,192,45523,128,2,45832:0:0:0:0:
64,192,45832,1,0,0:0:0:0:
192,192,45987,128,4,46760:0:0:0:0:
320,192,45987,128,2,46296:0:0:0:0:
64,192,46296,1,0,0:0:0:0:
448,192,46606,1,0,0:0:0:0:
320,192,46760,1,2,0:0:0:0:
64,192,46760,1,0,0:0:0:0:
320,192,47070,1,0,0:0:0:0:
64,192,47224,1,2,0:0:0:0:
448,192,47224,1,0,0:0:0:0:
320,192,47379,1,2,0:0:0:0:
64,192,47379,128,8,47533:0:0:0:0:
320,192,47533,1,0,0:0:0:0:
64,192,47688,1,2,0:0:0:0:
192,192,47688,1,8,0:0:0:0:
448,192,47688,128,0,47843:0:0:0:0:
192,192,47843,1,0,0:0:0:0:
448,192,47997,1,2,0:0:0:0:
320,192,47997,1,8,0:0:0:0:
64,192,47997,128,0,48152:0:0:0:0:
320,192,48152,1,0,0:0:0:0:
192,192,48229,1,0,0:0:0:0:
448,192,48307,1,2,0:0:0:0:
64,192,48307,1,8,0:0:0:0:
320,192,48307,128,0,48461:0:0:0:0:
192,192,48461,1,0,0:0:0:0:
448,192,48616,128,0,49080:0:0:0:0:
64,192,48616,128,8,49080:0:0:0:0:
320,192,48616,1,2,0:0:0:0:
320,192,49389,1,8,0:0:0:0:
192,192,49389,1,0,0:0:0:0:
64,192,49466,1,0,0:0:0:0:
448,192,49466,1,8,0:0:0:0:
320,192,49544,1,0,0:0:0:0:
192,192,49621,1,0,0:0:0:0:
448,192,49698,1,0,0:0:0:0:
320,192,49776,1,0,0:0:0:0:
448,192,49853,1,4,0:0:0:0:
64,192,49853,1,0,0:0:0:0:
192,192,49853,1,8,0:0:0:0:
64,192,50008,1,0,0:0:0:0:
192,192,50162,1,0,0:0:0:0:
448,192,50162,1,2,0:0:0:0:
320,192,50162,1,0,0:0:0:0:
320,192,50317,1,0,0:0:0:0:
192,192,50472,1,0,0:0:0:0:
64,192,50472,1,8,0:0:0:0:
448,192,50626,1,0,0:0:0:0:
320,192,50626,1,8,0:0:0:0:
192,192,50781,1,2,0:0:0:0:
448,192,50781,1,0,0:0:0:0:
320,192,50936,128,4,51399:0:0:0:0:
64,192,50936,1,2,0:0:0:0:
192,192,50936,128,0,51245:0:0:0:0:
448,192,51090,1,0,0:0:0:0:
64,192,51245,1,0,0:0:0:0:
64,192,51399,1,0,0:0:0:0:
192,192,51399,1,2,0:0:0:0:
448,192,51399,1,0,0:0:0:0:
448,192,51554,1,0,0:0:0:0:
192,192,51709,1,8,0:0:0:0:
64,192,51709,1,0,0:0:0:0:
448,192,51863,1,0,0:0:0:0:
320,192,51863,1,8,0:0:0:0:
64,192,51941,1,0,0:0:0:0:
448,192,52018,1,0,0:0:0:0:
192,192,52018,1,2,0:0:0:0:
64,192,52173,1,2,0:0:0:0:
448,192,52173,128,4,52482:0:0:0:0:
320,192,52173,128,0,52482:0:0:0:0:
192,192,52327,1,0,0:0:0:0:
64,192,52482,1,0,0:0:0:0:
192,192,52559,1,0,0:0:0:0:
320,192,52637,1,0,0:0:0:0:
64,192,52637,1,2,0:0:0:0:
448,192,52637,1,0,0:0:0:0:
448,192,52791,1,0,0:0:0:0:
320,192,52869,1,0,0:0:0:0:
448,192,52946,1,0,0:0:0:0:
192,192,52946,1,8,0:0:0:0:
64,192,53100,1,0,0:0:0:0:
320,192,53100,1,8,0:0:0:0:
64,192,53255,1,0,0:0:0:0:
448,192,53255,1,2,0:0:0:0:
448,192,53410,128,4,53874:0:0:0:0:
320,192,53410,1,2,0:0:0:0:
192,192,53410,128,0,53719:0:0:0:0:
64,192,53564,1,0,0:0:0:0:
320,192,53719,1,0,0:0:0:0:
64,192,53874,1,2,0:0:0:0:
192,192,53874,1,0,0:0:0:0:
320,192,53874,1,0,0:0:0:0:
320,192,54028,128,4,54492:0:0:0:0:
192,192,54028,1,2,0:0:0:0:
448,192,54028,128,0,54338:0:0:0:0:
64,192,54183,1,0,0:0:0:0:
192,192,54338,1,0,0:0:0:0:
448,192,54492,1,0,0:0:0:0:
64,192,54492,1,8,0:0:0:0:
192,192,54570,1,8,0:0:0:0:
448,192,54647,1,8,0:0:0:0:
192,192,54724,1,8,0:0:0:0:
64,192,54801,1,4,0:0:0:0:
320,192,54801,1,0,0:0:0:0:
448,192,54801,1,2,0:0:0:0:
320,192,54956,1,0,0:0:0:0:
192,192,55111,1,0,0:0:0:0:
64,192,55111,1,0,0:0:0:0:
448,192,55111,1,2,0:0:0:0:
192,192,55265,1,0,0:0:0:0:
448,192,55420,1,8,0:0:0:0:
320,192,55420,1,0,0:0:0:0:
192,192,55575,1,0,0:0:0:0:
64,192,55575,1,8,0:0:0:0:
64,192,55729,1,2,0:0:0:0:
448,192,55729,1,0,0:0:0:0:
192,192,55884,128,4,56348:0:0:0:0:
448,192,55884,1,2,0:0:0:0:
320,192,55884,128,0,56193:0:0:0:0:
64,192,56039,1,0,0:0:0:0:
448,192,56193,1,0,0:0:0:0:
64,192,56348,1,0,0:0:0:0:
320,192,56348,1,2,0:0:0:0:
448,192,56348,1,0,0:0:0:0:
320,192,56503,1,0,0:0:0:0:
192,192,56657,1,8,0:0:0:0:
448,192,56657,1,0,0:0:0:0:
64,192,56812,1,0,0:0:0:0:
448,192,56812,1,8,0:0:0:0:
192,192,56889,1,0,0:0:0:0:
64,192,56966,1,0,0:0:0:0:
320,192,56966,1,2,0:0:0:0:
320,192,57121,128,4,57585:0:0:0:0:
192,192,57121,1,2,0:0:0:0:
448,192,57121,128,0,57430:0:0:0:0:
64,192,57276,1,0,0:0:0:0:
192,192,57430,1,0,0:0:0:0:
64,192,57585,1,2,0:0:0:0:
448,192,57585,1,0,0:0:0:0:
192,192,57585,1,0,0:0:0:0:
448,192,57740,1,0,0:0:0:0:
64,192,57894,1,0,0:0:0:0:
192,192,57894,1,8,0:0:0:0:
320,192,57972,1,0,0:0:0:0:
448,192,58049,1,8,0:0:0:0:
192,192,58049,1,0,0:0:0:0:
64,192,58204,1,2,0:0:0:0:
448,192,58204,1,0,0:0:0:0:
192,192,58358,1,2,0:0:0:0:
64,192,58358,128,4,58822:0:0:0:0:
320,192,58358,128,0,58667:0:0:0:0:
448,192,58513,1,0,0:0:0:0:
192,192,58667,1,0,0:0:0:0:
192,192,58822,1,0,0:0:0:0:
320,192,58822,1,2,0:0:0:0:
448,192,58822,1,0,0:0:0:0:
64,192,58977,1,2,0:0:0:0:
192,192,58977,128,4,59441:0:0:0:0:
320,192,58977,128,0,59286:0:0:0:0:
448,192,59131,1,0,0:0:0:0:
64,192,59286,1,0,0:0:0:0:
448,192,59441,1,0,0:0:0:0:
320,192,59441,1,8,0:0:0:0:
64,192,59518,1,0,0:0:0:0:
192,192,59518,1,8,0:0:0:0:
320,192,59595,1,0,0:0:0:0:
448,192,59595,1,8,0:0:0:0:
192,192,59673,1,0,0:0:0:0:
64,192,59673,1,8,0:0:0:0:
320,192,59750,1,2,0:0:0:0:
448,192,59750,1,4,0:0:0:0:
192,192,59905,1,0,0:0:0:0:
64,192,60059,1,0,0:0:0:0:
192,192,60059,1,2,0:0:0:0:
320,192,60059,1,0,0:0:0:0:
320,192,60214,1,0,0:0:0:0:
64,192,60369,1,0,0:0:0:0:
448,192,60369,1,8,0:0:0:0:
192,192,60523,1,8,0:0:0:0:
320,192,60523,1,0,0:0:0:0:
448,192,60678,1,0,0:0:0:0:
64,192,60678,1,2,0:0:0:0:
320,192,60832,1,2,0:0:0:0:
448,192,60832,128,4,61296:0:0:0:0:
192,192,60832,128,0,61142:0:0:0:0:
64,192,60987,1,0,0:0:0:0:
320,192,61142,1,0,0:0:0:0:
192,192,61296,1,0,0:0:0:0:
64,192,61296,1,0,0:0:0:0:
320,192,61296,1,2,0:0:0:0:
192,192,61451,1,0,0:0:0:0:
320,192,61606,1,8,0:0:0:0:
448,192,61606,1,0,0:0:0:0:
192,192,61760,1,8,0:0:0:0:
64,192,61760,1,0,0:0:0:0:
320,192,61838,1,0,0:0:0:0:
192,192,61915,1,0,0:0:0:0:
64,192,61915,1,2,0:0:0:0:
448,192,61915,1,0,0:0:0:0:
320,192,62070,128,4,62533:0:0:0:0:
448,192,62070,1,2,0:0:0:0:
64,192,62070,128,0,62379:0:0:0:0:
192,192,62224,1,0,0:0:0:0:
448,192,62379,1,0,0:0:0:0:
192,192,62533,1,2,0:0:0:0:
64,192,62533,1,0,0:0:0:0:
448,192,62533,1,0,0:0:0:0:
320,192,62611,1,0,0:0:0:0:
64,192,62688,1,0,0:0:0:0:
448,192,62843,1,8,0:0:0:0:
320,192,62843,1,0,0:0:0:0:
192,192,62920,1,0,0:0:0:0:
64,192,62997,1,0,0:0:0:0:
320,192,62997,1,8,0:0:0:0:
448,192,63152,1,0,0:0:0:0:
64,192,63152,1,0,0:0:0:0:
192,192,63307,1,2,0:0:0:0:
320,192,63307,128,4,63771:0:0:0:0:
448,192,63307,128,0,63616:0:0:0:0:
64,192,63461,1,0,0:0:0:0:
192,192,63616,1,0,0:0:0:0:
448,192,63771,1,0,0:0:0:0:
192,192,63771,1,2,0:0:0:0:
64,192,63771,1,0,0:0:0:0:
320,192,63925,1,2,0:0:0:0:
64,192,63925,128,4,64389:0:0:0:0:
448,192,63925,128,0,64234:0:0:0:0:
192,192,64080,1,0,0:0:0:0:
320,192,64234,1,0,0:0:0:0:
192,192,64389,1,8,0:0:0:0:
448,192,64389,1,0,0:0:0:0:
320,192,64466,1,8,0:0:0:0:
192,192,64544,1,8,0:0:0:0:
64,192,64621,1,8,0:0:0:0:
320,192,64698,1,2,0:0:0:0:
448,192,64698,1,4,0:0:0:0:
192,192,64853,1,0,0:0:0:0:
64,192,65008,1,0,0:0:0:0:
320,192,65008,1,2,0:0:0:0:
448,192,65008,1,0,0:0:0:0:
320,192,65162,1,0,0:0:0:0:
192,192,65317,1,8,0:0:0:0:
64,192,65317,1,0,0:0:0:0:
320,192,65472,1,0,0:0:0:0:
448,192,65472,1,8,0:0:0:0:
192,192,65626,1,2,0:0:0:0:
320,192,65626,1,0,0:0:0:0:
64,192,65626,1,0,0:0:0:0:
192,192,65781,1,2,0:0:0:0:
448,192,65781,128,4,66245:0:0:0:0:
64,192,65781,128,0,66090:0:0:0:0:
320,192,65936,1,0,0:0:0:0:
192,192,66090,1,0,0:0:0:0:
64,192,66245,1,0,0:0:0:0:
192,192,66245,1,0,0:0:0:0:
320,192,66245,1,2,0:0:0:0:
320,192,66399,1,0,0:0:0:0:
64,192,66554,1,0,0:0:0:0:
192,192,66554,1,8,0:0:0:0:
320,192,66709,1,0,0:0:0:0:
448,192,66709,1,8,0:0:0:0:
192,192,66786,1,0,0:0:0:0:
448,192,66863,1,0,0:0:0:0:
64,192,66863,1,2,0:0:0:0:
320,192,67018,128,4,67482:0:0:0:0:
192,192,67018,1,2,0:0:0:0:
64,192,67018,128,0,67327:0:0:0:0:
448,192,67173,1,0,0:0:0:0:
192,192,67327,1,0,0:0:0:0:
64,192,67482,1,0,0:0:0:0:
192,192,67482,1,2,0:0:0:0:
448,192,67482,1,0,0:0:0:0:
320,192,67637,1,0,0:0:0:0:
64,192,67791,1,8,0:0:0:0:
192,192,67791,1,0,0:0:0:0:
448,192,67869,1,0,0:0:0:0:
192,192,67946,1,8,0:0:0:0:
320,192,67946,1,0,0:0:0:0:
64,192,68100,1,0,0:0:0:0:
320,192,68100,1,2,0:0:0:0:
192,192,68255,1,2,0:0:0:0:
64,192,68255,128,4,68719:0:0:0:0:
448,192,68255,128,0,68564:0:0:0:0:
320,192,68410,1,0,0:0:0:0:
192,192,68564,1,0,0:0:0:0:
192,192,68719,1,2,0:0:0:0:
320,192,68719,1,0,0:0:0:0:
448,192,68719,1,0,0:0:0:0:
320,192,68874,1,0,0:0:0:0:
64,192,69028,1,8,0:0:0:0:
192,192,69028,1,2,0:0:0:0:
448,192,69028,1,0,0:0:0:0:
192,192,69183,1,8,0:0:0:0:
320,192,69183,1,0,0:0:0:0:
448,192,69260,1,8,0:0:0:0:
64,192,69338,1,8,0:0:0:0:
320,192,69338,1,0,0:0:0:0:
192,192,69415,1,8,0:0:0:0:
448,192,69492,1,0,0:0:0:0:
64,192,69492,1,8,0:0:0:0:
320,192,69570,1,8,0:0:0:0:
192,192,69647,1,2,0:0:0:0:
448,192,69647,128,4,74286:0:0:0:0:
64,192,69647,1,0,0:0:0:0:
192,192,69956,1,0,0:0:0:0:
64,192,70111,1,8,0:0:0:0:
320,192,70111,1,0,0:0:0:0:
320,192,70420,1,0,0:0:0:0:
320,192,70575,1,0,0:0:0:0:
64,192,70884,1,0,0:0:0:0:
192,192,71039,1,0,0:0:0:0:
320,192,71039,1,8,0:0:0:0:
192,192,71348,1,0,0:0:0:0:
192,192,71503,1,0,0:0:0:0:
64,192,71503,1,2,0:0:0:0:
320,192,71503,1,8,0:0:0:0:
64,192,71812,1,0,0:0:0:0:
192,192,71812,1,8,0:0:0:0:
64,192,71966,1,2,0:0:0:0:
320,192,71966,1,8,0:0:0:0:
192,192,72121,1,0,0:0:0:0:
320,192,72121,1,0,0:0:0:0:
192,192,72430,1,0,0:0:0:0:
64,192,72585,1,8,0:0:0:0:
320,192,72585,1,0,0:0:0:0:
192,192,72894,1,0,0:0:0:0:
192,192,73049,1,0,0:0:0:0:
64,192,73358,1,0,0:0:0:0:
192,192,73513,1,0,0:0:0:0:
320,192,73513,1,8,0:0:0:0:
64,192,73822,1,0,0:0:0:0:
192,192,73977,1,4,0:0:0:0:
64,192,73977,1,8,0:0:0:0:
320,192,73977,1,2,0:0:0:0:
320,192,74286,1,0,0:0:0:0:
192,192,74286,1,0,0:0:0:0:
64,192,74363,1,0,0:0:0:0:
448,192,74441,1,0,0:0:0:0:
192,192,74518,1,0,0:0:0:0:
448,192,74595,1,8,0:0:0:0:
64,192,74595,1,2,0:0:0:0:
320,192,74905,1,0,0:0:0:0:
192,192,75059,1,8,0:0:0:0:
448,192,75059,1,0,0:0:0:0:
64,192,75369,1,0,0:0:0:0:
64,192,75523,1,0,0:0:0:0:
448,192,75832,1,0,0:0:0:0:
320,192,75987,1,0,0:0:0:0:
64,192,75987,1,8,0:0:0:0:
192,192,76296,1,0,0:0:0:0:
320,192,76296,1,8,0:0:0:0:
192,192,76451,1,8,0:0:0:0:
448,192,76451,1,0,0:0:0:0:
64,192,76451,1,4,0:0:0:0:
320,192,76606,1,0,0:0:0:0:
64,192,76760,1,2,0:0:0:0:
320,192,76760,1,8,0:0:0:0:
448,192,76760,1,0,0:0:0:0:
192,192,76915,1,2,0:0:0:0:
448,192,76915,1,8,0:0:0:0:
320,192,77070,1,0,0:0:0:0:
192,192,77379,1,0,0:0:0:0:
64,192,77533,1,0,0:0:0:0:
320,192,77533,1,8,0:0:0:0:
192,192,77688,1,0,0:0:0:0:
448,192,77765,1,0,0:0:0:0:
192,192,77843,1,0,0:0:0:0:
320,192,77843,1,8,0:0:0:0:
448,192,77920,1,0,0:0:0:0:
64,192,77920,1,8,0:0:0:0:
320,192,77997,1,0,0:0:0:0:
192,192,77997,1,8,0:0:0:0:
64,192,78075,1,0,0:0:0:0:
320,192,78152,1,0,0:0:0:0:
192,192,78229,1,0,0:0:0:0:
448,192,78307,128,0,78461:0:0:0:0:
64,192,78461,1,0,0:0:0:0:
192,192,78539,1,0,0:0:0:0:
448,192,78616,1,0,0:0:0:0:
320,192,78693,128,0,78848:0:0:0:0:
64,192,78848,1,0,0:0:0:0:
192,192,78925,1,0,0:0:0:0:
320,192,78977,1,0,0:0:0:0:
448,192,79080,1,0,0:0:0:0:
192,192,79183,128,0,79544:0:0:0:0:
64,192,79544,1,4,0:0:0:0:
320,192,79544,1,0,0:0:0:0:
448,192,79544,1,0,0:0:0:0:
192,192,79698,1,0,0:0:0:0:
320,192,79698,1,0,0:0:0:0:
448,192,79853,1,0,0:0:0:0:
192,192,80008,1,0,0:0:0:0:
320,192,80085,1,0,0:0:0:0:
64,192,80162,1,8,0:0:0:0:
448,192,80162,1,0,0:0:0:0:
192,192,80472,1,0,0:0:0:0:
448,192,80472,1,0,0:0:0:0:
64,192,80626,1,0,0:0:0:0:
320,192,80626,1,8,0:0:0:0:
320,192,80781,1,0,0:0:0:0:
192,192,80781,1,0,0:0:0:0:
64,192,80936,1,0,0:0:0:0:
448,192,80936,1,8,0:0:0:0:
320,192,81090,1,0,0:0:0:0:
192,192,81245,1,0,0:0:0:0:
448,192,81245,1,0,0:0:0:0:
320,192,81322,1,0,0:0:0:0:
64,192,81399,1,8,0:0:0:0:
448,192,81399,1,0,0:0:0:0:
320,192,81554,1,0,0:0:0:0:
64,192,81554,1,0,0:0:0:0:
320,192,81709,1,0,0:0:0:0:
192,192,81709,1,0,0:0:0:0:
448,192,81863,1,0,0:0:0:0:
192,192,81863,1,0,0:0:0:0:
64,192,81941,1,0,0:0:0:0:
192,192,82018,1,0,0:0:0:0:
448,192,82018,1,0,0:0:0:0:
320,192,82018,1,4,0:0:0:0:
64,192,82173,1,0,0:0:0:0:
320,192,82173,1,0,0:0:0:0:
448,192,82327,1,0,0:0:0:0:
192,192,82482,1,0,0:0:0:0:
320,192,82559,1,0,0:0:0:0:
64,192,82637,1,8,0:0:0:0:
448,192,82637,1,0,0:0:0:0:
64,192,82946,1,0,0:0:0:0:
320,192,82946,1,0,0:0:0:0:
192,192,83100,1,8,0:0:0:0:
448,192,83100,1,0,0:0:0:0:
448,192,83255,1,0,0:0:0:0:
320,192,83255,1,0,0:0:0:0:
192,192,83410,1,0,0:0:0:0:
64,192,83410,1,8,0:0:0:0:
448,192,83564,1,0,0:0:0:0:
192,192,83719,1,0,0:0:0:0:
64,192,83719,1,0,0:0:0:0:
320,192,83796,1,0,0:0:0:0:
64,192,83874,1,8,0:0:0:0:
448,192,83874,128,0,84183:0:0:0:0:
64,192,84183,128,0,84338:0:0:0:0:
320,192,84338,1,8,0:0:0:0:
192,192,84338,128,0,84492:0:0:0:0:
320,192,84492,1,0,0:0:0:0:
448,192,84492,1,4,0:0:0:0:
64,192,84492,1,0,0:0:0:0:
192,192,84647,1,0,0:0:0:0:
448,192,84647,1,0,0:0:0:0:
64,192,84801,1,0,0:0:0:0:
320,192,84956,1,0,0:0:0:0:
192,192,85033,1,0,0:0:0:0:
64,192,85111,1,0,0:0:0:0:
448,192,85111,1,8,0:0:0:0:
192,192,85420,1,0,0:0:0:0:
320,192,85420,1,0,0:0:0:0:
64,192,85575,1,0,0:0:0:0:
448,192,85575,1,8,0:0:0:0:
192,192,85729,1,0,0:0:0:0:
448,192,85729,1,0,0:0:0:0:
64,192,85884,1,8,0:0:0:0:
320,192,85884,1,0,0:0:0:0:
448,192,86039,1,0,0:0:0:0:
64,192,86193,1,0,0:0:0:0:
448,192,86193,1,0,0:0:0:0:
192,192,86271,1,0,0:0:0:0:
64,192,86348,1,0,0:0:0:0:
320,192,86348,1,8,0:0:0:0:
192,192,86503,1,0,0:0:0:0:
320,192,86503,1,0,0:0:0:0:
448,192,86657,1,0,0:0:0:0:
64,192,86657,1,0,0:0:0:0:
192,192,86812,1,8,0:0:0:0:
448,192,86812,1,0,0:0:0:0:
192,192,86966,1,0,0:0:0:0:
320,192,86966,1,0,0:0:0:0:
64,192,86966,1,4,0:0:0:0:
64,192,87276,1,0,0:0:0:0:
320,192,87276,1,0,0:0:0:0:
192,192,87430,1,0,0:0:0:0:
320,192,87508,1,0,0:0:0:0:
448,192,87585,1,0,0:0:0:0:
64,192,87585,1,8,0:0:0:0:
192,192,87740,1,0,0:0:0:0:
320,192,87894,1,0,0:0:0:0:
64,192,87894,1,8,0:0:0:0:
448,192,87972,1,0,0:0:0:0:
320,192,88049,1,0,0:0:0:0:
192,192,88126,1,0,0:0:0:0:
448,192,88204,1,8,0:0:0:0:
64,192,88204,1,0,0:0:0:0:
320,192,88204,1,0,0:0:0:0:
448,192,88358,1,0,0:0:0:0:
320,192,88358,1,0,0:0:0:0:
192,192,88358,1,8,0:0:0:0:
192,192,88513,1,0,0:0:0:0:
64,192,88513,1,0,0:0:0:0:
320,192,88513,1,8,0:0:0:0:
64,192,88667,1,2,0:0:0:0:
192,192,88667,1,0,0:0:0:0:
448,192,88667,1,4,0:0:0:0:
320,192,88977,1,2,0:0:0:0:
192,192,88977,1,0,0:0:0:0:
64,192,88977,1,4,0:0:0:0:
192,192,89286,1,0,0:0:0:0:
320,192,89363,1,0,0:0:0:0:
192,192,89441,1,0,0:0:0:0:
64,192,89441,1,8,0:0:0:0:
448,192,89441,1,4,0:0:0:0:
448,192,89595,1,0,0:0:0:0:
192,192,89750,1,8,0:0:0:0:
320,192,89750,1,0,0:0:0:0:
320,192,89905,1,0,0:0:0:0:
192,192,90059,1,0,0:0:0:0:
64,192,90059,1,2,0:0:0:0:
192,192,90214,1,0,0:0:0:0:
320,192,90291,1,0,0:0:0:0:
64,192,90369,1,0,0:0:0:0:
448,192,90369,1,8,0:0:0:0:
64,192,90523,1,0,0:0:0:0:
320,192,90678,1,0,0:0:0:0:
448,192,90678,1,2,0:0:0:0:
320,192,90832,1,0,0:0:0:0:
448,192,90987,1,0,0:0:0:0:
192,192,90987,1,8,0:0:0:0:
448,192,91142,1,0,0:0:0:0:
64,192,91296,1,0,0:0:0:0:
192,192,91296,1,2,0:0:0:0:
64,192,91451,1,0,0:0:0:0:
192,192,91606,1,0,0:0:0:0:
448,192,91606,1,8,0:0:0:0:
192,192,91760,1,8,0:0:0:0:
320,192,91760,1,0,0:0:0:0:
448,192,91915,1,0,0:0:0:0:
64,192,91915,1,4,0:0:0:0:
320,192,91915,1,2,0:0:0:0:
448,192,92070,1,0,0:0:0:0:
320,192,92224,1,0,0:0:0:0:
64,192,92224,1,8,0:0:0:0:
320,192,92379,1,0,0:0:0:0:
448,192,92456,1,0,0:0:0:0:
64,192,92533,1,0,0:0:0:0:
192,192,92533,1,2,0:0:0:0:
64,192,92688,1,0,0:0:0:0:
192,192,92843,1,0,0:0:0:0:
448,192,92843,1,8,0:0:0:0:
192,192,92997,1,0,0:0:0:0:
320,192,93152,1,2,0:0:0:0:
448,192,93152,1,0,0:0:0:0:
448,192,93307,1,0,0:0:0:0:
64,192,93461,1,0,0:0:0:0:
320,192,93461,1,8,0:0:0:0:
64,192,93616,1,0,0:0:0:0:
448,192,93771,1,2,0:0:0:0:
320,192,93771,1,0,0:0:0:0:
320,192,93925,1,0,0:0:0:0:
192,192,94080,1,8,0:0:0:0:
448,192,94080,1,0,0:0:0:0:
192,192,94234,1,0,0:0:0:0:
320,192,94234,1,8,0:0:0:0:
64,192,94389,1,2,0:0:0:0:
448,192,94389,1,4,0:0:0:0:
320,192,94389,1,0,0:0:0:0:
64,192,94544,1,0,0:0:0:0:
192,192,94698,1,0,0:0:0:0:
320,192,94698,1,8,0:0:0:0:
192,192,94853,1,0,0:0:0:0:
448,192,95008,1,2,0:0:0:0:
320,192,95008,1,0,0:0:0:0:
320,192,95162,1,0,0:0:0:0:
192,192,95240,1,0,0:0:0:0:
64,192,95317,1,8,0:0:0:0:
448,192,95317,1,0,0:0:0:0:
448,192,95472,1,0,0:0:0:0:
192,192,95626,1,0,0:0:0:0:
64,192,95626,1,2,0:0:0:0:
192,192,95781,1,0,0:0:0:0:
320,192,95936,1,8,0:0:0:0:
64,192,95936,1,0,0:0:0:0:
64,192,96090,1,0,0:0:0:0:
320,192,96245,1,0,0:0:0:0:
448,192,96245,1,2,0:0:0:0:
448,192,96399,1,0,0:0:0:0:
64,192,96554,1,8,0:0:0:0:
320,192,96554,1,0,0:0:0:0:
192,192,96709,1,8,0:0:0:0:
320,192,96709,1,0,0:0:0:0:
192,192,96863,1,0,0:0:0:0:
448,192,96863,1,2,0:0:0:0:
64,192,96863,1,4,0:0:0:0:
64,192,97018,1,0,0:0:0:0:
448,192,97173,1,8,0:0:0:0:
192,192,97173,1,0,0:0:0:0:
192,192,97327,1,0,0:0:0:0:
64,192,97405,1,0,0:0:0:0:
320,192,97482,1,2,0:0:0:0:
448,192,97482,1,0,0:0:0:0:
448,192,97637,1,0,0:0:0:0:
64,192,97791,1,8,0:0:0:0:
320,192,97791,1,0,0:0:0:0:
320,192,97946,1,0,0:0:0:0:
64,192,98100,1,0,0:0:0:0:
192,192,98100,1,2,0:0:0:0:
64,192,98255,1,0,0:0:0:0:
192,192,98410,1,8,0:0:0:0:
448,192,98410,1,0,0:0:0:0:
448,192,98564,1,0,0:0:0:0:
64,192,98719,1,8,0:0:0:0:
320,192,98719,1,0,0:0:0:0:
192,192,98796,1,8,0:0:0:0:
448,192,98796,1,0,0:0:0:0:
320,192,98874,1,0,0:0:0:0:
192,192,98951,1,0,0:0:0:0:
64,192,99028,1,0,0:0:0:0:
448,192,99106,1,0,0:0:0:0:
64,192,99183,1,0,0:0:0:0:
448,192,99260,1,0,0:0:0:0:
192,192,99338,1,0,0:0:0:0:
320,192,99338,1,8,0:0:0:0:
64,192,99338,1,2,0:0:0:0:
192,192,99492,128,2,99647:0:0:0:0:
320,192,99492,128,8,99647:0:0:0:0:
64,192,100111,128,2,100265:0:0:0:0:
448,192,100111,128,8,100265:0:0:0:0:
320,192,100111,128,0,100265:0:0:0:0:
192,192,100420,1,4,0:0:0:0:
320,192,100420,128,8,100729:0:0:0:0:
64,192,100420,128,2,100729:0:0:0:0:
192,192,100729,1,2,0:0:0:0:
448,192,100729,1,8,0:0:0:0:
448,192,101348,1,8,0:0:0:0:
320,192,101348,1,2,0:0:0:0:
64,192,101348,1,0,0:0:0:0:
448,192,101503,1,0,0:0:0:0:
192,192,101503,128,8,101812:0:0:0:0:
320,192,101503,128,4,101812:0:0:0:0:
64,192,101812,1,2,0:0:0:0:
448,192,101812,1,8,0:0:0:0:
64,192,101966,128,2,102121:0:0:0:0:
448,192,101966,128,8,102121:0:0:0:0:
448,192,102585,128,8,102740:0:0:0:0:
64,192,102585,128,2,102740:0:0:0:0:
192,192,102585,128,0,102740:0:0:0:0:
192,192,102894,128,2,103204:0:0:0:0:
320,192,102894,1,4,0:0:0:0:
448,192,102894,128,8,103204:0:0:0:0:
320,192,103204,1,2,0:0:0:0:
64,192,103204,1,8,0:0:0:0:
192,192,103513,1,0,0:0:0:0:
320,192,103590,1,0,0:0:0:0:
448,192,103667,1,0,0:0:0:0:
64,192,103667,1,8,0:0:0:0:
192,192,103822,128,0,103977:0:0:0:0:
448,192,103977,1,0,0:0:0:0:
64,192,103977,1,8,0:0:0:0:
320,192,104054,1,0,0:0:0:0:
192,192,104131,1,0,0:0:0:0:
64,192,104209,1,0,0:0:0:0:
448,192,104286,1,0,0:0:0:0:
320,192,104286,1,8,0:0:0:0:
320,192,104441,1,0,0:0:0:0:
192,192,104595,1,2,0:0:0:0:
448,192,104595,1,0,0:0:0:0:
448,192,104750,1,0,0:0:0:0:
192,192,104905,1,8,0:0:0:0:
64,192,104905,1,0,0:0:0:0:
192,192,105059,1,0,0:0:0:0:
448,192,105137,1,0,0:0:0:0:
64,192,105214,1,0,0:0:0:0:
320,192,105214,1,2,0:0:0:0:
192,192,105369,128,4,105678:0:0:0:0:
320,192,105369,1,2,0:0:0:0:
448,192,105523,1,0,0:0:0:0:
64,192,105678,1,0,0:0:0:0:
320,192,105678,1,0,0:0:0:0:
64,192,105832,1,0,0:0:0:0:
448,192,105832,1,8,0:0:0:0:
192,192,105987,1,0,0:0:0:0:
64,192,106142,1,0,0:0:0:0:
448,192,106142,1,2,0:0:0:0:
320,192,106296,1,0,0:0:0:0:
192,192,106374,1,0,0:0:0:0:
448,192,106451,1,0,0:0:0:0:
64,192,106451,1,8,0:0:0:0:
448,192,106606,1,0,0:0:0:0:
192,192,106606,1,8,0:0:0:0:
320,192,106760,1,2,0:0:0:0:
192,192,106760,128,8,106915:0:0:0:0:
320,192,106915,1,0,0:0:0:0:
64,192,107070,1,8,0:0:0:0:
192,192,107070,1,2,0:0:0:0:
448,192,107070,128,0,107224:0:0:0:0:
64,192,107224,1,0,0:0:0:0:
448,192,107379,1,8,0:0:0:0:
320,192,107379,1,2,0:0:0:0:
192,192,107379,128,0,107533:0:0:0:0:
320,192,107533,1,0,0:0:0:0:
192,192,107611,1,0,0:0:0:0:
320,192,107688,1,8,0:0:0:0:
64,192,107688,1,2,0:0:0:0:
448,192,107688,128,0,107843:0:0:0:0:
64,192,107843,1,0,0:0:0:0:
192,192,107997,128,8,108307:0:0:0:0:
320,192,107997,128,2,108307:0:0:0:0:
448,192,107997,1,0,0:0:0:0:
64,192,108307,1,8,0:0:0:0:
448,192,108307,1,0,0:0:0:0:
192,192,108384,1,8,0:0:0:0:
320,192,108384,1,0,0:0:0:0:
64,192,108461,1,0,0:0:0:0:
192,192,108539,1,0,0:0:0:0:
448,192,108616,1,0,0:0:0:0:
320,192,108693,1,0,0:0:0:0:
448,192,108771,1,8,0:0:0:0:
64,192,108771,1,8,0:0:0:0:
192,192,108848,1,0,0:0:0:0:
320,192,108848,1,0,0:0:0:0:
448,192,108925,1,8,0:0:0:0:
64,192,108925,1,8,0:0:0:0:
320,192,109003,1,0,0:0:0:0:
192,192,109003,1,0,0:0:0:0:
64,192,109080,1,8,0:0:0:0:
448,192,109080,1,8,0:0:0:0:
320,192,109157,1,0,0:0:0:0:
192,192,109157,1,0,0:0:0:0:
64,192,109234,1,8,0:0:0:0:
192,192,109234,1,4,0:0:0:0:
448,192,109234,1,0,0:0:0:0:
320,192,109389,1,0,0:0:0:0:
192,192,109389,1,0,0:0:0:0:
64,192,109544,1,0,0:0:0:0:
448,192,109544,1,2,0:0:0:0:
320,192,109544,1,0,0:0:0:0:
192,192,109698,1,0,0:0:0:0:
320,192,109853,1,8,0:0:0:0:
448,192,109853,1,0,0:0:0:0:
448,192,110008,1,0,0:0:0:0:
192,192,110008,1,8,0:0:0:0:
192,192,110162,1,0,0:0:0:0:
320,192,110162,1,2,0:0:0:0:
64,192,110162,1,0,0:0:0:0:
448,192,110317,128,4,110781:0:0:0:0:
320,192,110317,1,2,0:0:0:0:
64,192,110317,128,0,110626:0:0:0:0:
192,192,110472,1,0,0:0:0:0:
320,192,110626,1,0,0:0:0:0:
192,192,110781,1,0,0:0:0:0:
320,192,110781,1,0,0:0:0:0:
64,192,110781,1,2,0:0:0:0:
192,192,110936,1,0,0:0:0:0:
64,192,111090,1,0,0:0:0:0:
320,192,111090,1,8,0:0:0:0:
192,192,111245,1,8,0:0:0:0:
448,192,111245,1,0,0:0:0:0:
320,192,111322,1,0,0:0:0:0:
448,192,111399,1,0,0:0:0:0:
192,192,111399,1,2,0:0:0:0:
64,192,111399,1,0,0:0:0:0:
192,192,111554,1,2,0:0:0:0:
64,192,111554,128,4,111863:0:0:0:0:
320,192,111554,128,0,111863:0:0:0:0:
448,192,111709,1,0,0:0:0:0:
192,192,111863,1,0,0:0:0:0:
320,192,111941,1,0,0:0:0:0:
64,192,112018,1,0,0:0:0:0:
192,192,112018,1,2,0:0:0:0:
448,192,112018,1,0,0:0:0:0:
320,192,112173,1,0,0:0:0:0:
192,192,112250,1,0,0:0:0:0:
64,192,112327,1,8,0:0:0:0:
448,192,112327,1,0,0:0:0:0:
192,192,112482,1,0,0:0:0:0:
448,192,112482,1,8,0:0:0:0:
192,192,112637,1,2,0:0:0:0:
64,192,112637,1,0,0:0:0:0:
320,192,112637,1,0,0:0:0:0:
448,192,112791,1,2,0:0:0:0:
64,192,112791,128,4,113255:0:0:0:0:
320,192,112791,128,0,113100:0:0:0:0:
192,192,112946,1,0,0:0:0:0:
448,192,113100,1,0,0:0:0:0:
192,192,113255,1,0,0:0:0:0:
320,192,113255,1,2,0:0:0:0:
448,192,113255,1,0,0:0:0:0:
192,192,113410,128,4,113874:0:0:0:0:
320,192,113410,1,2,0:0:0:0:
64,192,113410,128,0,113719:0:0:0:0:
448,192,113564,1,0,0:0:0:0:
320,192,113719,1,0,0:0:0:0:
64,192,113874,1,0,0:0:0:0:
448,192,113874,1,8,0:0:0:0:
320,192,113951,1,8,0:0:0:0:
64,192,114028,1,8,0:0:0:0:
320,192,114106,1,8,0:0:0:0:
64,192,114183,1,2,0:0:0:0:
192,192,114183,1,0,0:0:0:0:
448,192,114183,1,4,0:0:0:0:
192,192,114338,1,0,0:0:0:0:
64,192,114492,1,0,0:0:0:0:
320,192,114492,1,2,0:0:0:0:
448,192,114492,1,0,0:0:0:0:
448,192,114647,1,0,0:0:0:0:
64,192,114801,1,0,0:0:0:0:
320,192,114801,1,8,0:0:0:0:
192,192,114956,1,0,0:0:0:0:
448,192,114956,1,8,0:0:0:0:
64,192,115111,1,0,0:0:0:0:
192,192,115111,1,0,0:0:0:0:
320,192,115111,1,2,0:0:0:0:
448,192,115265,1,2,0:0:0:0:
64,192,115265,128,4,115729:0:0:0:0:
320,192,115265,128,0,115575:0:0:0:0:
192,192,115420,1,0,0:0:0:0:
448,192,115575,1,0,0:0:0:0:
320,192,115729,1,2,0:0:0:0:
192,192,115729,1,0,0:0:0:0:
448,192,115729,1,0,0:0:0:0:
192,192,115884,1,0,0:0:0:0:
448,192,116039,1,0,0:0:0:0:
64,192,116039,1,8,0:0:0:0:
320,192,116193,1,0,0:0:0:0:
192,192,116193,1,8,0:0:0:0:
448,192,116271,1,0,0:0:0:0:
320,192,116348,1,2,0:0:0:0:
192,192,116348,1,0,0:0:0:0:
64,192,116348,1,0,0:0:0:0:
448,192,116503,1,2,0:0:0:0:
192,192,116503,128,4,116966:0:0:0:0:
64,192,116503,128,0,116812:0:0:0:0:
320,192,116657,1,0,0:0:0:0:
448,192,116812,1,0,0:0:0:0:
320,192,116966,1,2,0:0:0:0:
448,192,116966,1,0,0:0:0:0:
64,192,116966,1,0,0:0:0:0:
320,192,117121,1,0,0:0:0:0:
192,192,117121,1,0,0:0:0:0:
192,192,117276,1,8,0:0:0:0:
448,192,117353,1,0,0:0:0:0:
320,192,117430,1,0,0:0:0:0:
64,192,117430,1,8,0:0:0:0:
192,192,117585,1,0,0:0:0:0:
448,192,117585,1,0,0:0:0:0:
320,192,117585,1,2,0:0:0:0:
448,192,117740,128,4,118204:0:0:0:0:
192,192,117740,1,2,0:0:0:0:
64,192,117740,128,0,118049:0:0:0:0:
320,192,117894,1,0,0:0:0:0:
192,192,118049,1,0,0:0:0:0:
64,192,118204,1,0,0:0:0:0:
320,192,118204,1,0,0:0:0:0:
192,192,118204,1,2,0:0:0:0:
64,192,118358,128,4,118822:0:0:0:0:
448,192,118358,1,2,0:0:0:0:
320,192,118358,128,0,118667:0:0:0:0:
448,192,118513,1,0,0:0:0:0:
192,192,118667,1,0,0:0:0:0:
448,192,118822,1,8,0:0:0:0:
320,192,118822,1,0,0:0:0:0:
64,192,118899,1,0,0:0:0:0:
192,192,118899,1,8,0:0:0:0:
448,192,118977,1,8,0:0:0:0:
320,192,118977,1,0,0:0:0:0:
64,192,119054,1,0,0:0:0:0:
192,192,119054,1,8,0:0:0:0:
320,192,119131,1,4,0:0:0:0:
448,192,119131,1,2,0:0:0:0:
64,192,119286,1,0,0:0:0:0:
320,192,119286,1,0,0:0:0:0:
192,192,119441,1,0,0:0:0:0:
64,192,119441,1,2,0:0:0:0:
448,192,119441,1,0,0:0:0:0:
448,192,119595,1,0,0:0:0:0:
64,192,119750,1,0,0:0:0:0:
192,192,119750,1,8,0:0:0:0:
320,192,119905,1,8,0:0:0:0:
64,192,119905,1,0,0:0:0:0:
448,192,120059,1,0,0:0:0:0:
192,192,120059,1,0,0:0:0:0:
320,192,120059,1,2,0:0:0:0:
192,192,120214,1,2,0:0:0:0:
64,192,120214,128,4,120678:0:0:0:0:
448,192,120214,128,0,120523:0:0:0:0:
320,192,120369,1,0,0:0:0:0:
192,192,120523,1,0,0:0:0:0:
448,192,120678,1,2,0:0:0:0:
192,192,120678,1,0,0:0:0:0:
320,192,120678,1,0,0:0:0:0:
320,192,120832,1,0,0:0:0:0:
192,192,120987,1,8,0:0:0:0:
448,192,120987,1,0,0:0:0:0:
64,192,121142,1,0,0:0:0:0:
320,192,121142,1,8,0:0:0:0:
192,192,121219,1,0,0:0:0:0:
448,192,121296,1,0,0:0:0:0:
320,192,121296,1,0,0:0:0:0:
64,192,121296,1,2,0:0:0:0:
448,192,121451,128,4,121915:0:0:0:0:
320,192,121451,1,2,0:0:0:0:
192,192,121451,128,0,121760:0:0:0:0:
64,192,121606,1,0,0:0:0:0:
320,192,121760,1,0,0:0:0:0:
64,192,121915,1,0,0:0:0:0:
320,192,121915,1,2,0:0:0:0:
192,192,121915,1,0,0:0:0:0:
64,192,122070,1,0,0:0:0:0:
448,192,122224,1,8,0:0:0:0:
320,192,122224,1,0,0:0:0:0:
192,192,122301,1,0,0:0:0:0:
64,192,122379,1,8,0:0:0:0:
320,192,122379,1,0,0:0:0:0:
192,192,122533,1,2,0:0:0:0:
448,192,122533,1,0,0:0:0:0:
320,192,122533,1,0,0:0:0:0:
448,192,122688,128,4,123152:0:0:0:0:
64,192,122688,1,2,0:0:0:0:
192,192,122688,128,0,122997:0:0:0:0:
320,192,122843,1,0,0:0:0:0:
64,192,122997,1,0,0:0:0:0:
64,192,123152,1,0,0:0:0:0:
192,192,123152,1,2,0:0:0:0:
320,192,123152,1,0,0:0:0:0:
192,192,123307,1,2,0:0:0:0:
320,192,123307,128,4,123771:0:0:0:0:
448,192,123307,128,0,123616:0:0:0:0:
64,192,123461,1,0,0:0:0:0:
192,192,123616,1,0,0:0:0:0:
64,192,123771,1,8,0:0:0:0:
448,192,123771,1,0,0:0:0:0:
320,192,123848,1,8,0:0:0:0:
192,192,123925,1,8,0:0:0:0:
448,192,124003,1,8,0:0:0:0:
64,192,124080,1,4,0:0:0:0:
320,192,124080,1,2,0:0:0:0:
192,192,124080,1,0,0:0:0:0:
192,192,124234,1,0,0:0:0:0:
64,192,124389,1,0,0:0:0:0:
320,192,124389,1,2,0:0:0:0:
448,192,124389,1,0,0:0:0:0:
64,192,124544,1,0,0:0:0:0:
192,192,124698,1,8,0:0:0:0:
448,192,124698,1,0,0:0:0:0:
64,192,124853,1,0,0:0:0:0:
320,192,124853,1,8,0:0:0:0:
192,192,125008,1,2,0:0:0:0:
320,192,125008,1,0,0:0:0:0:
448,192,125008,1,0,0:0:0:0:
448,192,125162,128,4,125626:0:0:0:0:
64,192,125162,1,2,0:0:0:0:
192,192,125162,128,0,125472:0:0:0:0:
320,192,125317,1,0,0:0:0:0:
64,192,125472,1,0,0:0:0:0:
64,192,125626,1,0,0:0:0:0:
320,192,125626,1,0,0:0:0:0:
192,192,125626,1,2,0:0:0:0:
320,192,125781,1,0,0:0:0:0:
448,192,125936,1,0,0:0:0:0:
64,192,125936,1,8,0:0:0:0:
448,192,126090,1,0,0:0:0:0:
192,192,126090,1,8,0:0:0:0:
320,192,126167,1,0,0:0:0:0:
448,192,126245,1,0,0:0:0:0:
64,192,126245,1,0,0:0:0:0:
192,192,126245,1,2,0:0:0:0:
320,192,126399,128,4,126863:0:0:0:0:
192,192,126399,1,2,0:0:0:0:
64,192,126399,128,0,126709:0:0:0:0:
448,192,126554,1,0,0:0:0:0:
192,192,126709,1,0,0:0:0:0:
448,192,126863,1,0,0:0:0:0:
64,192,126863,1,0,0:0:0:0:
192,192,126863,1,2,0:0:0:0:
64,192,127018,1,0,0:0:0:0:
320,192,127018,1,0,0:0:0:0:
192,192,127173,1,8,0:0:0:0:
320,192,127250,1,0,0:0:0:0:
192,192,127327,1,8,0:0:0:0:
448,192,127327,1,0,0:0:0:0:
64,192,127482,1,0,0:0:0:0:
320,192,127482,1,2,0:0:0:0:
448,192,127482,1,0,0:0:0:0:
192,192,127637,1,2,0:0:0:0:
64,192,127637,128,4,128100:0:0:0:0:
320,192,127637,128,0,127946:0:0:0:0:
448,192,127791,1,0,0:0:0:0:
192,192,127946,1,0,0:0:0:0:
320,192,128100,1,0,0:0:0:0:
192,192,128100,1,0,0:0:0:0:
448,192,128100,1,2,0:0:0:0:
64,192,128255,1,2,0:0:0:0:
448,192,128255,128,4,128719:0:0:0:0:
320,192,128255,1,0,0:0:0:0:
64,192,128410,1,0,0:0:0:0:
192,192,128410,1,0,0:0:0:0:
320,192,128564,1,8,0:0:0:0:
192,192,128642,1,8,0:0:0:0:
64,192,128719,1,0,0:0:0:0:
320,192,128719,1,8,0:0:0:0:
192,192,128796,1,8,0:0:0:0:
448,192,128796,1,0,0:0:0:0:
64,192,128874,1,0,0:0:0:0:
320,192,128874,1,8,0:0:0:0:
448,192,128951,1,0,0:0:0:0:
192,192,128951,1,8,0:0:0:0:
64,192,129028,1,2,0:0:0:0:
320,192,129028,1,4,0:0:0:0:
320,192,129183,1,0,0:0:0:0:
192,192,129338,1,0,0:0:0:0:
64,192,129338,1,2,0:0:0:0:
448,192,129338,1,0,0:0:0:0:
192,192,129492,1,0,0:0:0:0:
64,192,129647,1,8,0:0:0:0:
448,192,129647,1,0,0:0:0:0:
192,192,129801,1,8,0:0:0:0:
320,192,129801,1,0,0:0:0:0:
448,192,129879,1,0,0:0:0:0:
192,192,129956,1,0,0:0:0:0:
64,192,129956,1,0,0:0:0:0:
320,192,129956,1,2,0:0:0:0:
448,192,130111,1,4,0:0:0:0:
320,192,130111,1,0,0:0:0:0:
64,192,130111,1,2,0:0:0:0:
192,192,130265,1,0,0:0:0:0:
448,192,130420,1,0,0:0:0:0:
320,192,130575,1,0,0:0:0:0:
448,192,130575,1,0,0:0:0:0:
64,192,130575,1,2,0:0:0:0:
320,192,130729,1,0,0:0:0:0:
448,192,130884,1,0,0:0:0:0:
192,192,130884,1,8,0:0:0:0:
64,192,131039,1,0,0:0:0:0:
320,192,131039,1,8,0:0:0:0:
192,192,131116,1,0,0:0:0:0:
64,192,131193,1,0,0:0:0:0:
448,192,131193,1,2,0:0:0:0:
320,192,131193,1,0,0:0:0:0:
192,192,131348,1,2,0:0:0:0:
448,192,131348,1,0,0:0:0:0:
320,192,131348,1,4,0:0:0:0:
64,192,131503,1,0,0:0:0:0:
320,192,131657,1,0,0:0:0:0:
64,192,131812,1,2,0:0:0:0:
448,192,131812,1,0,0:0:0:0:
192,192,131812,1,0,0:0:0:0:
320,192,131915,1,0,0:0:0:0:
192,192,132018,1,0,0:0:0:0:
448,192,132121,1,0,0:0:0:0:
64,192,132121,1,0,0:0:0:0:
192,192,132224,1,0,0:0:0:0:
320,192,132327,1,0,0:0:0:0:
64,192,132430,1,2,0:0:0:0:
448,192,132430,1,0,0:0:0:0:
192,192,132533,128,0,132740:0:0:0:0:
448,192,132740,1,8,0:0:0:0:
320,192,132740,128,0,133049:0:0:0:0:
64,192,132740,1,0,0:0:0:0:
192,192,132894,1,0,0:0:0:0:
448,192,133049,128,4,133204:0:0:0:0:
64,192,133049,1,2,0:0:0:0:
320,192,133204,128,4,133358:0:0:0:0:
64,192,133204,1,2,0:0:0:0:
192,192,133358,1,0,0:0:0:0:
448,192,133358,1,0,0:0:0:0:
320,192,133513,128,0,133667:0:0:0:0:
448,192,133667,128,0,133822:0:0:0:0:
192,192,133667,1,8,0:0:0:0:
64,192,133745,1,8,0:0:0:0:
320,192,133822,128,8,133977:0:0:0:0:
192,192,133899,1,8,0:0:0:0:
448,192,133977,128,2,134131:0:0:0:0:
64,192,133977,1,8,0:0:0:0:
192,192,134131,128,0,134286:0:0:0:0:
320,192,134286,128,0,134441:0:0:0:0:
64,192,134286,1,2,0:0:0:0:
448,192,134286,1,0,0:0:0:0:
192,192,134441,128,0,134595:0:0:0:0:
64,192,134595,128,0,134905:0:0:0:0:
320,192,134595,1,8,0:0:0:0:
448,192,134750,1,8,0:0:0:0:
448,192,134905,1,0,0:0:0:0:
320,192,134905,1,2,0:0:0:0:
192,192,134905,128,0,135059:0:0:0:0:
320,192,135059,128,0,135137:0:0:0:0:
64,192,135059,128,0,135137:0:0:0:0:
192,192,135137,128,0,135214:0:0:0:0:
448,192,135214,128,0,135291:0:0:0:0:
64,192,135214,128,0,135291:0:0:0:0:
320,192,135291,128,0,135369:0:0:0:0:
192,192,135369,128,0,135446:0:0:0:0:
448,192,135369,128,0,135446:0:0:0:0:
64,192,135446,128,0,135523:0:0:0:0:
448,192,135523,128,0,135600:0:0:0:0:
320,192,135523,128,2,135600:0:0:0:0:
192,192,135600,128,0,135678:0:0:0:0:
64,192,135678,128,0,135755:0:0:0:0:
448,192,135678,128,0,135755:0:0:0:0:
320,192,135755,128,0,135832:0:0:0:0:
192,192,135832,128,0,135910:0:0:0:0:
64,192,135832,128,2,135910:0:0:0:0:
448,192,135910,128,0,135987:0:0:0:0:
320,192,135987,128,0,136064:0:0:0:0:
192,192,135987,128,0,136064:0:0:0:0:
64,192,136064,128,0,136142:0:0:0:0:
192,192,136142,1,0,0:0:0:0:
320,192,136142,1,0,0:0:0:0:
448,192,136142,1,2,0:0:0:0:
320,192,136296,1,0,0:0:0:0:
448,192,136296,1,2,0:0:0:0:
64,192,136296,1,4,0:0:0:0:
192,192,136451,1,0,0:0:0:0:
320,192,136606,1,0,0:0:0:0:
448,192,136606,1,0,0:0:0:0:
64,192,136760,1,0,0:0:0:0:
192,192,136760,1,2,0:0:0:0:
320,192,136760,1,0,0:0:0:0:
64,192,136915,1,0,0:0:0:0:
448,192,137070,1,0,0:0:0:0:
320,192,137070,1,8,0:0:0:0:
64,192,137224,1,0,0:0:0:0:
192,192,137224,1,8,0:0:0:0:
192,192,137379,1,0,0:0:0:0:
320,192,137379,1,2,0:0:0:0:
448,192,137379,1,0,0:0:0:0:
320,192,137533,1,0,0:0:0:0:
64,192,137688,1,8,0:0:0:0:
448,192,137688,1,0,0:0:0:0:
64,192,137843,1,0,0:0:0:0:
320,192,137843,1,8,0:0:0:0:
192,192,137997,1,2,0:0:0:0:
320,192,137997,1,0,0:0:0:0:
448,192,137997,1,0,0:0:0:0:
64,192,138152,1,0,0:0:0:0:
448,192,138152,1,4,0:0:0:0:
192,192,138152,1,2,0:0:0:0:
64,192,138307,1,0,0:0:0:0:
320,192,138307,128,0,138616:0:0:0:0:
192,192,138461,1,0,0:0:0:0:
64,192,138616,1,8,0:0:0:0:
448,192,138616,1,0,0:0:0:0:
192,192,138693,1,0,0:0:0:0:
320,192,138693,1,8,0:0:0:0:
64,192,138771,1,8,0:0:0:0:
448,192,138771,1,0,0:0:0:0:
192,192,138848,1,0,0:0:0:0:
320,192,138848,1,8,0:0:0:0:
64,192,138925,1,2,0:0:0:0:
448,192,138925,1,4,0:0:0:0:
320,192,139080,1,0,0:0:0:0:
448,192,139080,1,0,0:0:0:0:
192,192,139157,1,0,0:0:0:0:
64,192,139234,1,2,0:0:0:0:
320,192,139234,1,8,0:0:0:0:
448,192,139234,1,0,0:0:0:0:
64,192,139389,1,0,0:0:0:0:
448,192,139544,1,2,0:0:0:0:
192,192,139544,1,0,0:0:0:0:
320,192,139544,1,8,0:0:0:0:
192,192,139698,1,0,0:0:0:0:
64,192,139853,1,8,0:0:0:0:
320,192,139853,1,0,0:0:0:0:
448,192,139853,1,2,0:0:0:0:
448,192,140008,1,0,0:0:0:0:
64,192,140162,1,0,0:0:0:0:
320,192,140162,1,2,0:0:0:0:
192,192,140162,1,8,0:0:0:0:
64,192,140317,1,0,0:0:0:0:
192,192,140472,1,2,0:0:0:0:
320,192,140472,1,0,0:0:0:0:
448,192,140472,1,8,0:0:0:0:
320,192,140626,1,0,0:0:0:0:
64,192,140781,1,0,0:0:0:0:
192,192,140781,1,8,0:0:0:0:
448,192,140781,1,2,0:0:0:0:
192,192,140936,1,0,0:0:0:0:
64,192,141090,1,2,0:0:0:0:
448,192,141090,1,0,0:0:0:0:
320,192,141090,1,8,0:0:0:0:
64,192,141245,1,0,0:0:0:0:
320,192,141399,1,0,0:0:0:0:
192,192,141399,1,2,0:0:0:0:
448,192,141399,1,8,0:0:0:0:
448,192,141554,1,0,0:0:0:0:
192,192,141631,1,0,0:0:0:0:
64,192,141709,1,8,0:0:0:0:
320,192,141709,1,0,0:0:0:0:
448,192,141709,1,2,0:0:0:0:
64,192,141863,1,0,0:0:0:0:
320,192,142018,1,2,0:0:0:0:
192,192,142018,1,0,0:0:0:0:
64,192,142018,1,8,0:0:0:0:
192,192,142173,1,0,0:0:0:0:
192,192,142327,1,8,0:0:0:0:
320,192,142327,1,0,0:0:0:0:
448,192,142327,1,2,0:0:0:0:
320,192,142482,1,0,0:0:0:0:
320,192,142637,1,0,0:0:0:0:
64,192,142637,1,8,0:0:0:0:
448,192,142637,1,2,0:0:0:0:
64,192,142791,1,0,0:0:0:0:
64,192,142946,1,8,0:0:0:0:
448,192,142946,1,2,0:0:0:0:
192,192,142946,1,0,0:0:0:0:
448,192,143100,1,0,0:0:0:0:
448,192,143255,1,8,0:0:0:0:
64,192,143255,1,2,0:0:0:0:
320,192,143255,1,0,0:0:0:0:
64,192,143410,1,0,0:0:0:0:
64,192,143564,1,0,0:0:0:0:
192,192,143564,1,8,0:0:0:0:
448,192,143642,1,0,0:0:0:0:
320,192,143642,1,8,0:0:0:0:
64,192,143719,1,0,0:0:0:0:
192,192,143719,1,8,0:0:0:0:
448,192,143796,1,0,0:0:0:0:
320,192,143796,1,8,0:0:0:0:
64,192,143874,1,4,0:0:0:0:
192,192,143874,1,2,0:0:0:0:
448,192,143874,1,0,0:0:0:0:
192,192,144028,1,0,0:0:0:0:
320,192,144028,1,0,0:0:0:0:
320,192,144183,1,0,0:0:0:0:
448,192,144183,1,8,0:0:0:0:
64,192,144183,1,2,0:0:0:0:
64,192,144338,1,0,0:0:0:0:
192,192,144338,1,0,0:0:0:0:
448,192,144492,1,0,0:0:0:0:
320,192,144492,1,8,0:0:0:0:
192,192,144492,1,2,0:0:0:0:
64,192,144647,1,0,0:0:0:0:
320,192,144647,1,0,0:0:0:0:
192,192,144801,1,8,0:0:0:0:
448,192,144801,1,2,0:0:0:0:
64,192,144801,1,0,0:0:0:0:
320,192,144956,1,0,0:0:0:0:
448,192,144956,1,0,0:0:0:0:
192,192,145111,1,0,0:0:0:0:
64,192,145111,1,2,0:0:0:0:
320,192,145111,1,8,0:0:0:0:
448,192,145265,1,0,0:0:0:0:
64,192,145265,1,0,0:0:0:0:
192,192,145420,1,8,0:0:0:0:
320,192,145420,1,0,0:0:0:0:
448,192,145420,1,2,0:0:0:0:
64,192,145575,1,0,0:0:0:0:
192,192,145575,1,0,0:0:0:0:
320,192,145729,1,8,0:0:0:0:
64,192,145729,1,2,0:0:0:0:
448,192,145729,1,0,0:0:0:0:
192,192,145884,1,0,0:0:0:0:
448,192,145884,1,0,0:0:0:0:
64,192,146039,1,0,0:0:0:0:
320,192,146039,1,2,0:0:0:0:
192,192,146039,1,8,0:0:0:0:
320,192,146193,1,0,0:0:0:0:
448,192,146193,1,0,0:0:0:0:
64,192,146348,1,0,0:0:0:0:
192,192,146348,1,8,0:0:0:0:
448,192,146348,1,2,0:0:0:0:
320,192,146503,1,0,0:0:0:0:
64,192,146503,1,0,0:0:0:0:
192,192,146580,1,0,0:0:0:0:
320,192,146657,1,8,0:0:0:0:
448,192,146657,1,0,0:0:0:0:
64,192,146657,1,2,0:0:0:0:
192,192,146812,1,0,0:0:0:0:
448,192,146812,1,0,0:0:0:0:
64,192,146966,1,2,0:0:0:0:
448,192,146966,1,0,0:0:0:0:
320,192,146966,1,8,0:0:0:0:
192,192,147121,1,0,0:0:0:0:
64,192,147121,1,0,0:0:0:0:
320,192,147276,1,0,0:0:0:0:
448,192,147276,1,2,0:0:0:0:
192,192,147276,1,8,0:0:0:0:
64,192,147430,1,0,0:0:0:0:
448,192,147430,1,0,0:0:0:0:
192,192,147585,1,0,0:0:0:0:
320,192,147585,1,2,0:0:0:0:
64,192,147585,1,8,0:0:0:0:
320,192,147740,1,0,0:0:0:0:
192,192,147894,1,8,0:0:0:0:
448,192,147894,1,2,0:0:0:0:
192,192,148049,1,0,0:0:0:0:
320,192,148204,1,8,0:0:0:0:
64,192,148204,1,0,0:0:0:0:
192,192,148281,1,8,0:0:0:0:
448,192,148281,1,0,0:0:0:0:
64,192,148358,1,0,0:0:0:0:
320,192,148358,1,8,0:0:0:0:
64,192,148513,1,8,0:0:0:0:
448,192,148513,1,0,0:0:0:0:
320,192,148590,1,8,0:0:0:0:
192,192,148667,1,0,0:0:0:0:
448,192,148667,1,8,0:0:0:0:
320,192,148745,1,8,0:0:0:0:
192,192,148822,1,2,0:0:0:0:
448,192,148822,128,4,149441:0:0:0:0:
64,192,148822,128,0,149131:0:0:0:0:
320,192,149131,1,0,0:0:0:0:
64,192,149286,1,0,0:0:0:0:
192,192,149441,128,4,149905:0:0:0:0:
320,192,149441,128,2,149750:0:0:0:0:
448,192,149750,1,0,0:0:0:0:
64,192,149905,128,4,150678:0:0:0:0:
320,192,149905,128,2,150214:0:0:0:0:
192,192,150214,1,0,0:0:0:0:
448,192,150369,1,0,0:0:0:0:
320,192,150523,1,0,0:0:0:0:
192,192,150600,1,0,0:0:0:0:
320,192,150678,1,0,0:0:0:0:
448,192,150678,1,2,0:0:0:0:
192,192,150987,1,0,0:0:0:0:
320,192,151142,1,2,0:0:0:0:
64,192,151142,1,0,0:0:0:0:
320,192,151296,128,4,151915:0:0:0:0:
448,192,151296,1,2,0:0:0:0:
192,192,151296,128,0,151606:0:0:0:0:
448,192,151606,1,0,0:0:0:0:
64,192,151760,1,0,0:0:0:0:
448,192,151915,128,4,152379:0:0:0:0:
192,192,151915,128,2,152224:0:0:0:0:
64,192,152224,1,0,0:0:0:0:
192,192,152379,128,4,153152:0:0:0:0:
320,192,152379,128,2,152688:0:0:0:0:
64,192,152688,1,0,0:0:0:0:
320,192,152843,1,0,0:0:0:0:
448,192,152997,1,0,0:0:0:0:
320,192,153152,1,2,0:0:0:0:
64,192,153152,1,0,0:0:0:0:
320,192,153307,1,0,0:0:0:0:
448,192,153461,1,0,0:0:0:0:
192,192,153461,1,0,0:0:0:0:
64,192,153539,1,0,0:0:0:0:
192,192,153616,1,0,0:0:0:0:
320,192,153693,1,0,0:0:0:0:
64,192,153771,128,4,154389:0:0:0:0:
192,192,153771,1,2,0:0:0:0:
448,192,153771,128,0,154080:0:0:0:0:
192,192,154080,1,0,0:0:0:0:
448,192,154234,1,0,0:0:0:0:
320,192,154389,128,4,154853:0:0:0:0:
192,192,154389,128,2,154698:0:0:0:0:
64,192,154698,1,0,0:0:0:0:
448,192,154853,128,4,155626:0:0:0:0:
192,192,154853,128,2,155162:0:0:0:0:
320,192,155162,1,0,0:0:0:0:
192,192,155472,1,0,0:0:0:0:
64,192,155626,1,2,0:0:0:0:
320,192,155626,1,0,0:0:0:0:
320,192,155936,1,0,0:0:0:0:
192,192,156090,1,2,0:0:0:0:
448,192,156090,1,0,0:0:0:0:
448,192,156245,1,8,0:0:0:0:
64,192,156245,128,0,156554:0:0:0:0:
320,192,156554,1,0,0:0:0:0:
448,192,156554,1,0,0:0:0:0:
320,192,156709,1,0,0:0:0:0:
64,192,156863,128,0,157173:0:0:0:0:
448,192,156863,1,8,0:0:0:0:
448,192,157173,1,0,0:0:0:0:
320,192,157173,1,0,0:0:0:0:
192,192,157327,1,0,0:0:0:0:
448,192,157327,1,0,0:0:0:0:
192,192,157482,1,8,0:0:0:0:
320,192,157482,128,0,157791:0:0:0:0:
64,192,157637,1,0,0:0:0:0:
448,192,157791,1,8,0:0:0:0:
192,192,157791,1,0,0:0:0:0:
320,192,157946,1,0,0:0:0:0:
64,192,158023,1,0,0:0:0:0:
192,192,158100,1,0,0:0:0:0:
320,192,158100,1,8,0:0:0:0:
448,192,158100,128,0,158410:0:0:0:0:
192,192,158255,1,0,0:0:0:0:
64,192,158410,1,0,0:0:0:0:
320,192,158410,1,8,0:0:0:0:
192,192,158487,1,8,0:0:0:0:
448,192,158487,1,0,0:0:0:0:
320,192,158564,1,8,0:0:0:0:
64,192,158564,1,0,0:0:0:0:
192,192,158642,1,8,0:0:0:0:
448,192,158642,1,0,0:0:0:0:
320,192,158719,1,0,0:0:0:0:
64,192,158719,1,8,0:0:0:0:
448,192,158719,1,4,0:0:0:0:
320,192,158874,1,0,0:0:0:0:
192,192,159028,1,0,0:0:0:0:
64,192,159028,1,0,0:0:0:0:
448,192,159028,1,2,0:0:0:0:
192,192,159183,1,0,0:0:0:0:
320,192,159338,1,8,0:0:0:0:
64,192,159338,1,0,0:0:0:0:
448,192,159492,1,0,0:0:0:0:
64,192,159492,1,8,0:0:0:0:
320,192,159570,1,0,0:0:0:0:
448,192,159647,1,2,0:0:0:0:
192,192,159647,1,0,0:0:0:0:
64,192,159801,1,4,0:0:0:0:
192,192,159801,128,0,160111:0:0:0:0:
320,192,159801,128,2,160111:0:0:0:0:
448,192,159956,1,0,0:0:0:0:
64,192,160111,1,0,0:0:0:0:
192,192,160265,1,0,0:0:0:0:
320,192,160265,1,2,0:0:0:0:
448,192,160265,1,0,0:0:0:0:
448,192,160420,1,0,0:0:0:0:
64,192,160575,1,0,0:0:0:0:
320,192,160575,1,8,0:0:0:0:
192,192,160729,1,8,0:0:0:0:
320,192,160807,1,0,0:0:0:0:
64,192,160884,1,0,0:0:0:0:
448,192,160884,1,0,0:0:0:0:
192,192,160884,1,2,0:0:0:0:
320,192,161039,1,0,0:0:0:0:
192,192,161193,1,0,0:0:0:0:
64,192,161193,1,4,0:0:0:0:
448,192,161193,1,0,0:0:0:0:
64,192,161348,1,0,0:0:0:0:
320,192,161503,1,0,0:0:0:0:
192,192,161503,1,2,0:0:0:0:
448,192,161503,1,0,0:0:0:0:
320,192,161657,1,0,0:0:0:0:
448,192,161812,1,0,0:0:0:0:
64,192,161812,1,8,0:0:0:0:
448,192,161966,1,8,0:0:0:0:
192,192,161966,1,0,0:0:0:0:
64,192,162044,1,0,0:0:0:0:
320,192,162121,1,2,0:0:0:0:
192,192,162121,1,0,0:0:0:0:
192,192,162276,1,0,0:0:0:0:
448,192,162276,128,4,162585:0:0:0:0:
64,192,162276,128,2,162585:0:0:0:0:
320,192,162430,1,0,0:0:0:0:
192,192,162585,1,0,0:0:0:0:
64,192,162740,1,0,0:0:0:0:
320,192,162740,1,2,0:0:0:0:
448,192,162740,1,0,0:0:0:0:
320,192,162894,1,0,0:0:0:0:
448,192,163049,1,8,0:0:0:0:
64,192,163049,1,0,0:0:0:0:
64,192,163204,1,8,0:0:0:0:
320,192,163358,1,0,0:0:0:0:
448,192,163358,1,0,0:0:0:0:
192,192,163358,1,8,0:0:0:0:
64,192,163513,1,8,0:0:0:0:
448,192,163513,1,0,0:0:0:0:
64,192,163667,1,4,0:0:0:0:
320,192,163667,1,0,0:0:0:0:
448,192,163667,1,2,0:0:0:0:
320,192,163822,1,0,0:0:0:0:
64,192,163977,1,0,0:0:0:0:
192,192,163977,1,2,0:0:0:0:
448,192,163977,1,0,0:0:0:0:
64,192,164131,1,0,0:0:0:0:
192,192,164286,1,0,0:0:0:0:
320,192,164286,1,8,0:0:0:0:
448,192,164441,1,0,0:0:0:0:
192,192,164441,1,8,0:0:0:0:
320,192,164518,1,0,0:0:0:0:
448,192,164595,1,2,0:0:0:0:
64,192,164595,1,0,0:0:0:0:
192,192,164750,1,2,0:0:0:0:
64,192,164750,128,0,165059:0:0:0:0:
320,192,164750,128,4,165059:0:0:0:0:
448,192,164905,1,0,0:0:0:0:
192,192,165059,1,0,0:0:0:0:
64,192,165214,1,0,0:0:0:0:
320,192,165214,1,2,0:0:0:0:
448,192,165214,1,0,0:0:0:0:
64,192,165369,1,0,0:0:0:0:
192,192,165523,1,8,0:0:0:0:
448,192,165523,1,0,0:0:0:0:
64,192,165678,1,0,0:0:0:0:
320,192,165678,1,8,0:0:0:0:
192,192,165755,1,0,0:0:0:0:
64,192,165832,1,0,0:0:0:0:
448,192,165832,1,0,0:0:0:0:
320,192,165832,1,2,0:0:0:0:
192,192,165987,1,0,0:0:0:0:
64,192,166142,1,2,0:0:0:0:
448,192,166142,1,8,0:0:0:0:
320,192,166142,128,0,166296:0:0:0:0:
448,192,166296,1,0,0:0:0:0:
64,192,166451,1,8,0:0:0:0:
320,192,166451,1,2,0:0:0:0:
192,192,166451,128,0,166606:0:0:0:0:
64,192,166606,1,0,0:0:0:0:
192,192,166760,1,8,0:0:0:0:
448,192,166760,1,2,0:0:0:0:
320,192,166760,128,0,166915:0:0:0:0:
448,192,166915,1,0,0:0:0:0:
192,192,166992,1,0,0:0:0:0:
64,192,167070,1,2,0:0:0:0:
320,192,167070,1,8,0:0:0:0:
448,192,167070,128,0,167224:0:0:0:0:
64,192,167224,1,0,0:0:0:0:
320,192,167301,1,0,0:0:0:0:
192,192,167379,1,8,0:0:0:0:
64,192,167379,128,0,167843:0:0:0:0:
448,192,167379,128,2,167843:0:0:0:0:
448,192,168616,1,0,0:0:0:0:
64,192,168616,128,0,169698:0:0:0:0:
320,192,168925,1,2,0:0:0:0:
320,192,169544,1,2,0:0:0:0:
448,192,169698,128,0,170936:0:0:0:0:
64,192,170162,1,2,0:0:0:0:
64,192,170781,1,2,0:0:0:0:
192,192,170936,128,0,172173:0:0:0:0:
448,192,171399,1,2,0:0:0:0:
448,192,172018,1,2,0:0:0:0:
320,192,172173,128,0,172791:0:0:0:0:
64,192,172637,1,2,0:0:0:0:
192,192,172791,128,0,173255:0:0:0:0:
64,192,173255,128,0,173564:0:0:0:0:
320,192,173255,1,2,0:0:0:0:
448,192,173564,128,0,174647:0:0:0:0:
192,192,173564,1,8,0:0:0:0:
64,192,173874,1,2,0:0:0:0:
64,192,174492,1,2,0:0:0:0:
192,192,174647,128,0,175884:0:0:0:0:
448,192,175111,1,2,0:0:0:0:
448,192,175729,1,2,0:0:0:0:
320,192,175884,128,0,177121:0:0:0:0:
192,192,176348,1,2,0:0:0:0:
192,192,176966,1,2,0:0:0:0:
64,192,177121,128,0,177740:0:0:0:0:
448,192,177585,1,2,0:0:0:0:
320,192,177740,128,0,178513:0:0:0:0:
192,192,178204,1,2,0:0:0:0:
64,192,178436,1,0,0:0:0:0:
448,192,178513,1,0,0:0:0:0:
192,192,178513,1,8,0:0:0:0:
320,192,178667,1,0,0:0:0:0:
64,192,178822,1,8,0:0:0:0:
448,192,178822,1,0,0:0:0:0:
320,192,178977,1,0,0:0:0:0:
192,192,179131,1,8,0:0:0:0:
448,192,179131,1,0,0:0:0:0:
320,192,179286,1,0,0:0:0:0:
64,192,179441,1,0,0:0:0:0:
448,192,179441,1,8,0:0:0:0:
192,192,179595,1,0,0:0:0:0:
64,192,179750,1,0,0:0:0:0:
320,192,179750,1,8,0:0:0:0:
192,192,179905,1,0,0:0:0:0:
320,192,180059,1,8,0:0:0:0:
448,192,180059,1,0,0:0:0:0:
192,192,180214,1,0,0:0:0:0:
64,192,180369,1,8,0:0:0:0:
320,192,180369,1,0,0:0:0:0:
192,192,180523,1,0,0:0:0:0:
320,192,180678,1,0,0:0:0:0:
448,192,180678,1,8,0:0:0:0:
64,192,180832,1,0,0:0:0:0:
192,192,180987,1,8,0:0:0:0:
448,192,180987,1,0,0:0:0:0:
64,192,181142,1,0,0:0:0:0:
192,192,181296,1,0,0:0:0:0:
320,192,181296,1,8,0:0:0:0:
64,192,181451,1,0,0:0:0:0:
192,192,181606,1,8,0:0:0:0:
448,192,181606,1,0,0:0:0:0:
64,192,181760,1,0,0:0:0:0:
192,192,181915,1,0,0:0:0:0:
320,192,181915,1,8,0:0:0:0:
448,192,182070,1,0,0:0:0:0:
192,192,182224,1,8,0:0:0:0:
64,192,182224,1,0,0:0:0:0:
448,192,182379,1,0,0:0:0:0:
64,192,182533,1,0,0:0:0:0:
320,192,182533,1,8,0:0:0:0:
448,192,182688,1,0,0:0:0:0:
192,192,182843,1,8,0:0:0:0:
64,192,182843,1,0,0:0:0:0:
448,192,182997,1,0,0:0:0:0:
64,192,183152,1,0,0:0:0:0:
320,192,183152,1,8,0:0:0:0:
192,192,183307,1,0,0:0:0:0:
64,192,183461,1,8,0:0:0:0:
320,192,183461,1,0,0:0:0:0:
448,192,183616,1,0,0:0:0:0:
64,192,183771,1,0,0:0:0:0:
192,192,183771,1,8,0:0:0:0:
320,192,183925,1,0,0:0:0:0:
448,192,184080,1,8,0:0:0:0:
64,192,184080,1,0,0:0:0:0:
192,192,184234,1,0,0:0:0:0:
64,192,184389,1,8,0:0:0:0:
448,192,184389,1,0,0:0:0:0:
320,192,184544,1,0,0:0:0:0:
192,192,184698,1,8,0:0:0:0:
64,192,184698,1,0,0:0:0:0:
448,192,184853,1,0,0:0:0:0:
320,192,185008,1,8,0:0:0:0:
64,192,185008,1,0,0:0:0:0:
192,192,185162,1,0,0:0:0:0:
320,192,185317,1,8,0:0:0:0:
448,192,185317,1,0,0:0:0:0:
64,192,185472,1,0,0:0:0:0:
448,192,185626,1,0,0:0:0:0:
192,192,185626,1,8,0:0:0:0:
320,192,185781,1,0,0:0:0:0:
64,192,185936,1,0,0:0:0:0:
448,192,185936,1,8,0:0:0:0:
192,192,186090,1,0,0:0:0:0:
320,192,186245,1,8,0:0:0:0:
64,192,186245,1,0,0:0:0:0:
192,192,186399,1,0,0:0:0:0:
64,192,186554,1,8,0:0:0:0:
448,192,186554,1,0,0:0:0:0:
320,192,186709,1,0,0:0:0:0:
192,192,186863,1,8,0:0:0:0:
448,192,186863,1,0,0:0:0:0:
64,192,187018,1,0,0:0:0:0:
192,192,187173,1,0,0:0:0:0:
320,192,187173,1,0,0:0:0:0:
192,192,187327,1,0,0:0:0:0:
320,192,187327,1,0,0:0:0:0:
448,192,187637,1,0,0:0:0:0:
64,192,187637,1,0,0:0:0:0:
64,192,187791,1,0,0:0:0:0:
448,192,187791,1,0,0:0:0:0:
320,192,188100,1,8,0:0:0:0:
192,192,188178,1,8,0:0:0:0:
320,192,188255,1,8,0:0:0:0:
192,192,188332,1,8,0:0:0:0:
64,192,188410,1,0,0:0:0:0:
320,192,188410,1,0,0:0:0:0:
448,192,188410,1,8,0:0:0:0:
64,192,188564,1,0,0:0:0:0:
192,192,188564,1,0,0:0:0:0:
192,192,188719,1,2,0:0:0:0:
320,192,188719,1,0,0:0:0:0:
448,192,188719,1,0,0:0:0:0:
320,192,188874,1,0,0:0:0:0:
64,192,189028,1,8,0:0:0:0:
448,192,189028,1,0,0:0:0:0:
192,192,189183,1,8,0:0:0:0:
320,192,189183,1,0,0:0:0:0:
192,192,189338,1,2,0:0:0:0:
64,192,189338,1,0,0:0:0:0:
448,192,189338,1,0,0:0:0:0:
64,192,189492,1,2,0:0:0:0:
320,192,189492,128,4,189956:0:0:0:0:
448,192,189492,128,0,189801:0:0:0:0:
192,192,189647,1,0,0:0:0:0:
64,192,189801,1,0,0:0:0:0:
192,192,189956,1,2,0:0:0:0:
64,192,189956,1,0,0:0:0:0:
448,192,189956,1,0,0:0:0:0:
320,192,190111,1,0,0:0:0:0:
64,192,190188,1,0,0:0:0:0:
192,192,190265,1,0,0:0:0:0:
448,192,190265,1,0,0:0:0:0:
320,192,190265,1,8,0:0:0:0:
64,192,190420,1,0,0:0:0:0:
192,192,190420,1,8,0:0:0:0:
320,192,190497,1,0,0:0:0:0:
448,192,190575,1,0,0:0:0:0:
64,192,190575,1,2,0:0:0:0:
192,192,190575,1,0,0:0:0:0:
64,192,190729,1,2,0:0:0:0:
448,192,190729,128,4,191039:0:0:0:0:
320,192,190729,128,0,191039:0:0:0:0:
192,192,190884,1,0,0:0:0:0:
64,192,191039,1,0,0:0:0:0:
192,192,191116,1,0,0:0:0:0:
448,192,191193,1,0,0:0:0:0:
64,192,191193,1,0,0:0:0:0:
320,192,191193,1,2,0:0:0:0:
448,192,191348,1,0,0:0:0:0:
320,192,191425,1,0,0:0:0:0:
64,192,191503,1,0,0:0:0:0:
192,192,191503,1,8,0:0:0:0:
192,192,191657,1,0,0:0:0:0:
320,192,191657,1,8,0:0:0:0:
448,192,191812,1,0,0:0:0:0:
64,192,191812,1,0,0:0:0:0:
320,192,191812,1,2,0:0:0:0:
192,192,191966,1,2,0:0:0:0:
448,192,191966,128,4,192430:0:0:0:0:
64,192,191966,128,0,192276:0:0:0:0:
320,192,192121,1,0,0:0:0:0:
192,192,192276,1,0,0:0:0:0:
192,192,192430,1,0,0:0:0:0:
320,192,192430,1,2,0:0:0:0:
64,192,192430,1,0,0:0:0:0:
64,192,192585,128,4,193049:0:0:0:0:
448,192,192585,1,2,0:0:0:0:
192,192,192585,128,0,192894:0:0:0:0:
320,192,192740,1,0,0:0:0:0:
448,192,192894,1,8,0:0:0:0:
320,192,192894,1,0,0:0:0:0:
448,192,193049,1,0,0:0:0:0:
192,192,193049,1,2,0:0:0:0:
320,192,193049,1,0,0:0:0:0:
192,192,193204,1,8,0:0:0:0:
64,192,193204,1,0,0:0:0:0:
448,192,193204,1,0,0:0:0:0:
64,192,193358,1,2,0:0:0:0:
192,192,193358,1,0,0:0:0:0:
320,192,193358,128,0,193667:0:0:0:0:
192,192,193667,1,2,0:0:0:0:
64,192,193667,1,0,0:0:0:0:
448,192,193667,1,0,0:0:0:0:
448,192,193822,1,0,0:0:0:0:
64,192,193977,1,0,0:0:0:0:
320,192,193977,1,8,0:0:0:0:
192,192,194131,1,8,0:0:0:0:
448,192,194131,1,0,0:0:0:0:
64,192,194286,1,0,0:0:0:0:
320,192,194286,1,2,0:0:0:0:
192,192,194286,1,0,0:0:0:0:
448,192,194441,1,2,0:0:0:0:
64,192,194441,128,4,194905:0:0:0:0:
320,192,194441,128,0,194750:0:0:0:0:
192,192,194595,1,0,0:0:0:0:
448,192,194750,1,0,0:0:0:0:
448,192,194905,1,0,0:0:0:0:
320,192,194905,1,2,0:0:0:0:
192,192,194905,1,0,0:0:0:0:
320,192,195059,1,0,0:0:0:0:
64,192,195214,1,8,0:0:0:0:
448,192,195214,1,0,0:0:0:0:
64,192,195369,1,0,0:0:0:0:
320,192,195369,1,8,0:0:0:0:
192,192,195446,1,0,0:0:0:0:
64,192,195523,1,0,0:0:0:0:
448,192,195523,1,0,0:0:0:0:
320,192,195523,1,2,0:0:0:0:
192,192,195678,1,2,0:0:0:0:
448,192,195678,128,4,196142:0:0:0:0:
320,192,195678,128,0,195987:0:0:0:0:
64,192,195832,1,0,0:0:0:0:
192,192,195987,1,0,0:0:0:0:
192,192,196142,1,2,0:0:0:0:
64,192,196142,1,0,0:0:0:0:
320,192,196142,1,0,0:0:0:0:
320,192,196296,1,0,0:0:0:0:
192,192,196451,1,0,0:0:0:0:
448,192,196451,1,8,0:0:0:0:
64,192,196528,1,0,0:0:0:0:
192,192,196606,1,8,0:0:0:0:
320,192,196606,1,0,0:0:0:0:
64,192,196760,1,0,0:0:0:0:
320,192,196760,1,2,0:0:0:0:
448,192,196760,1,0,0:0:0:0:
448,192,196915,1,2,0:0:0:0:
192,192,196915,128,4,197379:0:0:0:0:
64,192,196915,128,0,197224:0:0:0:0:
320,192,197070,1,0,0:0:0:0:
448,192,197224,1,0,0:0:0:0:
64,192,197379,1,0,0:0:0:0:
320,192,197379,1,2,0:0:0:0:
448,192,197379,1,0,0:0:0:0:
320,192,197533,128,4,197997:0:0:0:0:
192,192,197533,1,2,0:0:0:0:
64,192,197533,128,0,197843:0:0:0:0:
448,192,197688,1,0,0:0:0:0:
192,192,197843,1,0,0:0:0:0:
64,192,197997,1,8,0:0:0:0:
448,192,197997,1,0,0:0:0:0:
448,192,198152,1,0,0:0:0:0:
320,192,198152,1,8,0:0:0:0:
64,192,198229,1,0,0:0:0:0:
192,192,198229,1,8,0:0:0:0:
320,192,198307,1,2,0:0:0:0:
64,192,198307,1,0,0:0:0:0:
448,192,198307,1,4,0:0:0:0:
448,192,198461,1,0,0:0:0:0:
64,192,198616,1,0,0:0:0:0:
192,192,198616,1,2,0:0:0:0:
320,192,198616,1,0,0:0:0:0:
192,192,198771,1,0,0:0:0:0:
64,192,198925,1,8,0:0:0:0:
448,192,198925,1,0,0:0:0:0:
192,192,199080,1,0,0:0:0:0:
320,192,199080,1,8,0:0:0:0:
64,192,199234,1,0,0:0:0:0:
448,192,199234,1,0,0:0:0:0:
320,192,199234,1,2,0:0:0:0:
192,192,199389,128,4,199853:0:0:0:0:
448,192,199389,1,2,0:0:0:0:
64,192,199389,128,0,199698:0:0:0:0:
320,192,199544,1,0,0:0:0:0:
448,192,199698,1,0,0:0:0:0:
64,192,199853,1,0,0:0:0:0:
448,192,199853,1,0,0:0:0:0:
320,192,199853,1,2,0:0:0:0:
192,192,200008,1,0,0:0:0:0:
320,192,200162,1,8,0:0:0:0:
448,192,200162,1,0,0:0:0:0:
64,192,200317,1,0,0:0:0:0:
192,192,200317,1,8,0:0:0:0:
448,192,200394,1,0,0:0:0:0:
64,192,200472,1,0,0:0:0:0:
192,192,200472,1,0,0:0:0:0:
320,192,200472,1,2,0:0:0:0:
320,192,200626,128,4,201090:0:0:0:0:
64,192,200626,1,2,0:0:0:0:
448,192,200626,128,0,200936:0:0:0:0:
192,192,200781,1,0,0:0:0:0:
64,192,200936,1,0,0:0:0:0:
192,192,201090,1,2,0:0:0:0:
448,192,201090,1,0,0:0:0:0:
64,192,201090,1,0,0:0:0:0:
320,192,201245,1,0,0:0:0:0:
192,192,201399,1,0,0:0:0:0:
448,192,201399,1,8,0:0:0:0:
320,192,201477,1,0,0:0:0:0:
192,192,201554,1,0,0:0:0:0:
64,192,201554,1,8,0:0:0:0:
192,192,201709,1,0,0:0:0:0:
448,192,201709,1,0,0:0:0:0:
320,192,201709,1,2,0:0:0:0:
64,192,201863,128,4,202327:0:0:0:0:
320,192,201863,1,2,0:0:0:0:
448,192,201863,128,0,202173:0:0:0:0:
192,192,202018,1,0,0:0:0:0:
320,192,202173,1,0,0:0:0:0:
448,192,202327,1,0,0:0:0:0:
192,192,202327,1,2,0:0:0:0:
320,192,202327,1,0,0:0:0:0:
64,192,202482,1,2,0:0:0:0:
448,192,202482,128,4,202946:0:0:0:0:
192,192,202482,128,0,202791:0:0:0:0:
320,192,202637,1,0,0:0:0:0:
64,192,202791,1,0,0:0:0:0:
320,192,202946,1,0,0:0:0:0:
192,192,202946,1,8,0:0:0:0:
64,192,203023,1,8,0:0:0:0:
320,192,203100,1,8,0:0:0:0:
192,192,203178,1,8,0:0:0:0:
448,192,203255,1,2,0:0:0:0:
320,192,203255,1,0,0:0:0:0:
64,192,203255,1,0,0:0:0:0:
192,192,203410,1,0,0:0:0:0:
64,192,203564,1,0,0:0:0:0:
448,192,203564,1,0,0:0:0:0:
320,192,203564,1,2,0:0:0:0:
64,192,203719,1,0,0:0:0:0:
192,192,203874,1,0,0:0:0:0:
448,192,203874,1,8,0:0:0:0:
64,192,204028,1,8,0:0:0:0:
320,192,204028,1,0,0:0:0:0:
320,192,204183,1,0,0:0:0:0:
192,192,204183,1,2,0:0:0:0:
448,192,204183,1,0,0:0:0:0:
448,192,204338,128,4,204801:0:0:0:0:
64,192,204338,1,2,0:0:0:0:
192,192,204338,128,0,204647:0:0:0:0:
320,192,204492,1,0,0:0:0:0:
64,192,204647,1,0,0:0:0:0:
320,192,204801,1,0,0:0:0:0:
192,192,204801,1,2,0:0:0:0:
64,192,204801,1,0,0:0:0:0:
320,192,204956,1,0,0:0:0:0:
64,192,205111,1,8,0:0:0:0:
448,192,205111,1,0,0:0:0:0:
192,192,205265,1,0,0:0:0:0:
448,192,205265,1,8,0:0:0:0:
320,192,205343,1,0,0:0:0:0:
192,192,205420,1,2,0:0:0:0:
64,192,205420,1,0,0:0:0:0:
448,192,205420,1,0,0:0:0:0:
64,192,205575,128,4,206039:0:0:0:0:
320,192,205575,1,2,0:0:0:0:
192,192,205575,128,0,205884:0:0:0:0:
448,192,205729,1,0,0:0:0:0:
320,192,205884,1,0,0:0:0:0:
192,192,206039,1,2,0:0:0:0:
448,192,206039,1,0,0:0:0:0:
320,192,206039,1,0,0:0:0:0:
192,192,206193,1,0,0:0:0:0:
64,192,206348,1,0,0:0:0:0:
320,192,206348,1,8,0:0:0:0:
448,192,206425,1,0,0:0:0:0:
192,192,206503,1,8,0:0:0:0:
320,192,206503,1,0,0:0:0:0:
64,192,206657,1,0,0:0:0:0:
192,192,206657,1,0,0:0:0:0:
448,192,206657,1,2,0:0:0:0:
320,192,206812,128,4,207276:0:0:0:0:
448,192,206812,1,2,0:0:0:0:
64,192,206812,128,0,207121:0:0:0:0:
192,192,206966,1,0,0:0:0:0:
448,192,207121,1,0,0:0:0:0:
64,192,207276,1,0,0:0:0:0:
192,192,207276,1,2,0:0:0:0:
448,192,207276,1,0,0:0:0:0:
320,192,207430,1,2,0:0:0:0:
192,192,207430,128,4,207894:0:0:0:0:
64,192,207430,128,0,207740:0:0:0:0:
448,192,207585,1,8,0:0:0:0:
320,192,207585,1,0,0:0:0:0:
320,192,207740,1,8,0:0:0:0:
448,192,207740,1,0,0:0:0:0:
64,192,207894,1,0,0:0:0:0:
320,192,207894,1,8,0:0:0:0:
192,192,207972,1,8,0:0:0:0:
448,192,207972,1,0,0:0:0:0:
64,192,208049,1,0,0:0:0:0:
320,192,208049,1,8,0:0:0:0:
192,192,208126,1,8,0:0:0:0:
448,192,208126,1,0,0:0:0:0:
64,192,208204,1,8,0:0:0:0:
320,192,208204,1,0,0:0:0:0:
192,192,208358,1,0,0:0:0:0:
320,192,208358,1,0,0:0:0:0:
192,192,208513,1,0,0:0:0:0:
64,192,208513,1,0,0:0:0:0:
448,192,208513,1,2,0:0:0:0:
320,192,208667,1,0,0:0:0:0:
448,192,208822,1,0,0:0:0:0:
192,192,208822,1,8,0:0:0:0:
320,192,208977,1,8,0:0:0:0:
64,192,208977,1,0,0:0:0:0:
192,192,209054,1,0,0:0:0:0:
320,192,209131,1,2,0:0:0:0:
448,192,209131,1,0,0:0:0:0:
64,192,209131,1,0,0:0:0:0:
192,192,209286,1,0,0:0:0:0:
320,192,209441,1,0,0:0:0:0:
64,192,209441,1,8,0:0:0:0:
192,192,209441,1,0,0:0:0:0:
320,192,209595,1,0,0:0:0:0:
448,192,209595,1,0,0:0:0:0:
64,192,209750,1,0,0:0:0:0:
448,192,209750,1,0,0:0:0:0:
192,192,209750,1,2,0:0:0:0:
320,192,209905,1,0,0:0:0:0:
192,192,210059,1,8,0:0:0:0:
448,192,210059,1,0,0:0:0:0:
64,192,210214,1,8,0:0:0:0:
192,192,210291,1,0,0:0:0:0:
64,192,210369,1,0,0:0:0:0:
320,192,210369,1,2,0:0:0:0:
448,192,210523,1,2,0:0:0:0:
192,192,210523,1,0,0:0:0:0:
64,192,210523,128,4,210832:0:0:0:0:
192,192,210678,1,0,0:0:0:0:
320,192,210832,1,0,0:0:0:0:
448,192,210832,1,0,0:0:0:0:
192,192,210987,1,0,0:0:0:0:
320,192,210987,1,2,0:0:0:0:
448,192,210987,1,0,0:0:0:0:
192,192,211142,1,0,0:0:0:0:
64,192,211296,1,0,0:0:0:0:
320,192,211296,1,8,0:0:0:0:
192,192,211374,1,0,0:0:0:0:
320,192,211451,1,8,0:0:0:0:
192,192,211606,1,0,0:0:0:0:
64,192,211606,1,2,0:0:0:0:
448,192,211606,1,0,0:0:0:0:
320,192,211760,1,0,0:0:0:0:
192,192,211915,1,8,0:0:0:0:
448,192,211915,1,0,0:0:0:0:
448,192,212070,1,0,0:0:0:0:
64,192,212070,1,0,0:0:0:0:
64,192,212224,1,0,0:0:0:0:
448,192,212224,1,0,0:0:0:0:
320,192,212224,1,2,0:0:0:0:
192,192,212379,1,2,0:0:0:0:
320,192,212379,1,0,0:0:0:0:
64,192,212379,1,0,0:0:0:0:
192,192,212533,1,0,0:0:0:0:
448,192,212533,1,0,0:0:0:0:
320,192,212533,1,0,0:0:0:0:
64,192,212688,1,0,0:0:0:0:
448,192,212688,1,0,0:0:0:0:
64,192,212843,1,0,0:0:0:0:
320,192,212843,1,8,0:0:0:0:
192,192,212920,1,8,0:0:0:0:
64,192,212997,1,0,0:0:0:0:
448,192,212997,1,8,0:0:0:0:
320,192,213075,1,8,0:0:0:0:
192,192,213152,1,8,0:0:0:0:
448,192,213152,1,0,0:0:0:0:
64,192,213229,1,0,0:0:0:0:
192,192,213307,1,0,0:0:0:0:
320,192,213307,1,0,0:0:0:0:
64,192,213461,1,0,0:0:0:0:
320,192,213461,1,0,0:0:0:0:
448,192,213461,1,2,0:0:0:0:
192,192,213616,1,0,0:0:0:0:
320,192,213771,1,8,0:0:0:0:
64,192,213771,1,0,0:0:0:0:
448,192,213925,1,0,0:0:0:0:
192,192,213925,1,8,0:0:0:0:
320,192,214003,1,0,0:0:0:0:
448,192,214080,1,0,0:0:0:0:
64,192,214080,1,2,0:0:0:0:
192,192,214080,1,0,0:0:0:0:
320,192,214234,1,0,0:0:0:0:
320,192,214389,1,0,0:0:0:0:
448,192,214389,1,8,0:0:0:0:
192,192,214389,1,0,0:0:0:0:
64,192,214544,1,0,0:0:0:0:
192,192,214544,1,0,0:0:0:0:
320,192,214698,1,2,0:0:0:0:
64,192,214698,1,0,0:0:0:0:
448,192,214698,1,0,0:0:0:0:
192,192,214853,1,0,0:0:0:0:
64,192,215008,1,0,0:0:0:0:
320,192,215008,1,8,0:0:0:0:
448,192,215162,1,8,0:0:0:0:
320,192,215240,1,0,0:0:0:0:
192,192,215317,1,2,0:0:0:0:
448,192,215317,1,0,0:0:0:0:
448,192,215472,128,4,215781:0:0:0:0:
320,192,215472,1,0,0:0:0:0:
64,192,215472,1,2,0:0:0:0:
320,192,215626,1,0,0:0:0:0:
192,192,215781,1,0,0:0:0:0:
64,192,215781,1,0,0:0:0:0:
64,192,215936,1,0,0:0:0:0:
192,192,215936,1,2,0:0:0:0:
320,192,215936,1,0,0:0:0:0:
320,192,216090,1,0,0:0:0:0:
192,192,216245,1,8,0:0:0:0:
448,192,216245,1,0,0:0:0:0:
320,192,216322,1,0,0:0:0:0:
192,192,216399,1,8,0:0:0:0:
64,192,216554,1,0,0:0:0:0:
448,192,216554,1,2,0:0:0:0:
320,192,216554,1,0,0:0:0:0:
192,192,216709,1,0,0:0:0:0:
64,192,216863,1,0,0:0:0:0:
320,192,216863,1,8,0:0:0:0:
448,192,217018,1,0,0:0:0:0:
64,192,217018,1,0,0:0:0:0:
192,192,217173,1,2,0:0:0:0:
64,192,217173,1,0,0:0:0:0:
448,192,217173,1,0,0:0:0:0:
448,192,217327,1,0,0:0:0:0:
192,192,217327,1,0,0:0:0:0:
320,192,217327,1,2,0:0:0:0:
192,192,217482,1,0,0:0:0:0:
64,192,217482,1,0,0:0:0:0:
320,192,217482,1,0,0:0:0:0:
448,192,217637,1,0,0:0:0:0:
320,192,217637,1,0,0:0:0:0:
64,192,217791,1,0,0:0:0:0:
192,192,217791,1,8,0:0:0:0:
320,192,217869,1,8,0:0:0:0:
448,192,217869,1,0,0:0:0:0:
64,192,217946,1,0,0:0:0:0:
192,192,217946,1,8,0:0:0:0:
320,192,218023,1,8,0:0:0:0:
64,192,218100,1,0,0:0:0:0:
192,192,218100,1,8,0:0:0:0:
448,192,218100,1,4,0:0:0:0:
320,192,218255,1,0,0:0:0:0:
448,192,218255,1,0,0:0:0:0:
64,192,218410,1,2,0:0:0:0:
192,192,218410,1,0,0:0:0:0:
320,192,218410,1,8,0:0:0:0:
192,192,218564,1,0,0:0:0:0:
448,192,218564,1,0,0:0:0:0:
64,192,218719,1,2,0:0:0:0:
320,192,218719,1,0,0:0:0:0:
448,192,218719,1,8,0:0:0:0:
192,192,218874,1,0,0:0:0:0:
320,192,218874,1,0,0:0:0:0:
64,192,219028,1,0,0:0:0:0:
448,192,219028,1,2,0:0:0:0:
192,192,219028,1,8,0:0:0:0:
64,192,219183,1,0,0:0:0:0:
320,192,219183,1,0,0:0:0:0:
192,192,219338,1,8,0:0:0:0:
448,192,219338,1,2,0:0:0:0:
320,192,219338,1,0,0:0:0:0:
64,192,219492,1,0,0:0:0:0:
192,192,219492,1,0,0:0:0:0:
320,192,219647,1,2,0:0:0:0:
448,192,219647,1,0,0:0:0:0:
64,192,219647,1,8,0:0:0:0:
192,192,219801,1,0,0:0:0:0:
448,192,219801,1,0,0:0:0:0:
64,192,219956,1,0,0:0:0:0:
192,192,219956,1,8,0:0:0:0:
320,192,219956,1,2,0:0:0:0:
64,192,220111,1,0,0:0:0:0:
448,192,220111,1,0,0:0:0:0:
320,192,220188,1,0,0:0:0:0:
192,192,220265,1,8,0:0:0:0:
448,192,220265,1,2,0:0:0:0:
64,192,220265,1,0,0:0:0:0:
192,192,220420,1,0,0:0:0:0:
320,192,220420,1,0,0:0:0:0:
64,192,220575,1,2,0:0:0:0:
320,192,220575,1,0,0:0:0:0:
448,192,220575,1,8,0:0:0:0:
192,192,220729,1,0,0:0:0:0:
448,192,220729,1,0,0:0:0:0:
64,192,220884,1,8,0:0:0:0:
320,192,220884,1,2,0:0:0:0:
192,192,220884,1,0,0:0:0:0:
320,192,221039,1,0,0:0:0:0:
448,192,221039,1,0,0:0:0:0:
64,192,221193,1,2,0:0:0:0:
192,192,221193,1,0,0:0:0:0:
448,192,221193,1,8,0:0:0:0:
320,192,221271,1,0,0:0:0:0:
192,192,221348,1,0,0:0:0:0:
64,192,221348,1,0,0:0:0:0:
192,192,221503,1,2,0:0:0:0:
448,192,221503,1,0,0:0:0:0:
320,192,221503,1,8,0:0:0:0:
320,192,221657,1,0,0:0:0:0:
64,192,221657,1,0,0:0:0:0:
64,192,221812,1,0,0:0:0:0:
448,192,221812,1,8,0:0:0:0:
192,192,221812,1,2,0:0:0:0:
448,192,221966,1,0,0:0:0:0:
320,192,221966,1,0,0:0:0:0:
192,192,222121,1,2,0:0:0:0:
64,192,222121,1,0,0:0:0:0:
320,192,222121,1,8,0:0:0:0:
192,192,222276,1,0,0:0:0:0:
448,192,222276,1,0,0:0:0:0:
64,192,222430,1,2,0:0:0:0:
448,192,222430,1,0,0:0:0:0:
320,192,222430,1,8,0:0:0:0:
192,192,222585,1,0,0:0:0:0:
192,192,222740,1,0,0:0:0:0:
320,192,222740,1,0,0:0:0:0:
448,192,222740,1,8,0:0:0:0:
64,192,222817,1,8,0:0:0:0:
448,192,222894,1,8,0:0:0:0:
320,192,222972,1,8,0:0:0:0:
192,192,223049,1,4,0:0:0:0:
64,192,223049,1,2,0:0:0:0:
448,192,223049,1,0,0:0:0:0:
64,192,223204,1,0,0:0:0:0:
320,192,223204,1,0,0:0:0:0:
192,192,223358,1,8,0:0:0:0:
448,192,223358,1,2,0:0:0:0:
64,192,223358,1,0,0:0:0:0:
320,192,223513,1,0,0:0:0:0:
448,192,223513,1,0,0:0:0:0:
192,192,223667,1,0,0:0:0:0:
64,192,223667,1,2,0:0:0:0:
448,192,223667,1,8,0:0:0:0:
192,192,223822,1,0,0:0:0:0:
320,192,223822,1,0,0:0:0:0:
64,192,223977,1,0,0:0:0:0:
192,192,223977,1,2,0:0:0:0:
448,192,223977,1,8,0:0:0:0:
320,192,224131,1,0,0:0:0:0:
448,192,224131,1,0,0:0:0:0:
64,192,224286,1,2,0:0:0:0:
192,192,224286,1,0,0:0:0:0:
448,192,224286,1,8,0:0:0:0:
320,192,224441,1,0,0:0:0:0:
64,192,224441,1,0,0:0:0:0:
192,192,224595,1,2,0:0:0:0:
448,192,224595,1,8,0:0:0:0:
64,192,224595,1,0,0:0:0:0:
192,192,224750,1,0,0:0:0:0:
320,192,224750,1,0,0:0:0:0:
192,192,224905,1,2,0:0:0:0:
64,192,224905,1,0,0:0:0:0:
448,192,224905,1,8,0:0:0:0:
320,192,225059,1,0,0:0:0:0:
448,192,225059,1,0,0:0:0:0:
192,192,225137,1,0,0:0:0:0:
64,192,225214,1,2,0:0:0:0:
448,192,225214,1,0,0:0:0:0:
320,192,225214,1,8,0:0:0:0:
192,192,225369,1,0,0:0:0:0:
320,192,225369,1,0,0:0:0:0:
64,192,225523,1,0,0:0:0:0:
192,192,225523,1,2,0:0:0:0:
448,192,225523,1,8,0:0:0:0:
320,192,225678,1,0,0:0:0:0:
192,192,225678,1,0,0:0:0:0:
64,192,225832,1,2,0:0:0:0:
320,192,225832,1,0,0:0:0:0:
448,192,225832,1,8,0:0:0:0:
448,192,225987,1,0,0:0:0:0:
192,192,225987,1,0,0:0:0:0:
448,192,226142,1,8,0:0:0:0:
320,192,226142,1,0,0:0:0:0:
64,192,226142,1,2,0:0:0:0:
192,192,226219,1,0,0:0:0:0:
320,192,226296,1,0,0:0:0:0:
64,192,226296,1,0,0:0:0:0:
64,192,226451,1,8,0:0:0:0:
192,192,226451,1,2,0:0:0:0:
448,192,226451,1,0,0:0:0:0:
192,192,226606,1,0,0:0:0:0:
320,192,226606,1,0,0:0:0:0:
64,192,226760,1,2,0:0:0:0:
448,192,226760,1,8,0:0:0:0:
192,192,226838,1,0,0:0:0:0:
64,192,226915,1,0,0:0:0:0:
320,192,226915,1,8,0:0:0:0:
448,192,226992,1,0,0:0:0:0:
192,192,227070,1,8,0:0:0:0:
320,192,227070,1,0,0:0:0:0:
64,192,227147,1,0,0:0:0:0:
448,192,227224,1,8,0:0:0:0:
192,192,227224,1,0,0:0:0:0:
320,192,227301,1,0,0:0:0:0:
448,192,227379,1,8,0:0:0:0:
64,192,227379,1,0,0:0:0:0:
320,192,227456,1,8,0:0:0:0:
192,192,227456,1,0,0:0:0:0:
448,192,227533,1,8,0:0:0:0:
64,192,227533,1,0,0:0:0:0:
192,192,227611,1,0,0:0:0:0:
320,192,227611,1,8,0:0:0:0:
64,192,227688,1,0,0:0:0:0:
448,192,227688,1,8,0:0:0:0:
192,192,227765,1,0,0:0:0:0:
320,192,227765,1,8,0:0:0:0:
64,192,227843,128,4,230240:0:0:0:0:
448,192,227843,128,4,236348:0:0:0:0:
192,192,227843,1,2,0:0:0:0:
320,192,229234,128,0,229776:0:0:0:0:
192,192,229776,128,0,232327:0:0:0:0:
320,192,230240,128,0,236348:0:0:0:0:
64,192,235961,128,0,236348:0:0:0:0:
