osu file format v14

[General]
AudioFilename: audio.mp3
AudioLeadIn: 0
PreviewTime: 49298
Countdown: 0
SampleSet: Normal
StackLeniency: 0.7
Mode: 2
LetterboxInBreaks: 0
WidescreenStoryboard: 1

[Editor]
DistanceSpacing: 1.3
BeatDivisor: 3
GridSize: 32
TimelineZoom: 1

[Metadata]
Title:caramel heaven
TitleUnicode:キャラメルへヴン
Artist:yuikonnu
ArtistUnicode:ゆいこんぬ
Creator:Du5t
Version:GIGACHAD & Du5t's Platter
Source:
Tags:dako gigachad sukinathan utaite female jrock j-rock グミ メグッポイド ボーカロイド vocaloid2 last note. nakanishi irojiro キャラメルヘヴン kyarameru hebun setsuna code first trip vocarock collection 4 feat. hatsune miku nathan mochi_- dust dako -joakh nico gumi megpoid cover vocaloid rock japanese
BeatmapID:4254369
BeatmapSetID:2039560

[Difficulty]
HPDrainRate:5
CircleSize:3.5
OverallDifficulty:8
ApproachRate:8
SliderMultiplier:1.6
SliderTickRate:1

[Events]
//Background and Video events
0,0,"asdf.jpg",0,0
//Break Periods
2,72307,78780
//Storyboard Layer 0 (Background)
//Storyboard Layer 1 (Fail)
//Storyboard Layer 2 (Pass)
//Storyboard Layer 3 (Foreground)
//Storyboard Layer 4 (Overlay)
//Storyboard Sound Samples

[TimingPoints]
355,309.278350515464,4,1,11,60,1,0
664,-100,4,3,11,30,0,0
2829,-100,4,1,11,60,0,0
3138,-100,4,3,11,30,0,0
5303,-100,4,1,11,60,0,0
5612,-100,4,3,11,30,0,0
7777,-100,4,1,11,60,0,0
8086,-100,4,3,11,30,0,0
9014,-100,4,1,11,70,0,0
10251,-100,4,1,11,70,0,0
11334,-100,4,1,11,70,0,0
13035,-100,4,1,11,70,0,0
15818,-100,4,1,11,70,0,0
15973,-100,4,1,11,70,0,0
16282,-100,4,1,11,70,0,0
17983,-100,4,1,11,70,0,0
20148,-100,4,1,11,70,0,0
39942,-100,4,1,11,70,0,0
47365,-100,4,1,11,70,0,0
48602,-100,4,1,11,70,0,0
48757,-100,4,1,11,5,0,0
49375,-100,4,1,11,70,0,0
49839,-100,4,1,11,70,0,1
50148,-100,4,1,11,70,0,1
50458,-100,4,1,11,70,0,1
50767,-100,4,1,11,70,0,1
52159,-100,4,1,11,70,0,1
53396,-100,4,1,11,70,0,1
53705,-100,4,1,11,70,0,1
53860,-100,4,1,11,70,0,1
54478,-100,4,1,11,90,0,1
54787,-100,4,1,11,70,0,1
55097,-100,4,1,11,70,0,1
57107,-100,4,1,11,70,0,1
57571,-100,4,1,11,70,0,1
58963,-100,4,1,11,70,0,1
59736,-100,4,1,11,70,0,1
60123,-100,4,1,11,70,0,1
62056,-100,4,1,11,70,0,1
62751,-100,4,1,11,70,0,1
65767,-100,4,1,11,70,0,1
65999,-100,4,1,11,70,0,1
68860,-100,4,1,11,70,0,1
69169,-100,4,1,11,70,0,1
69633,-100,4,1,11,70,0,0
79452,-100,4,3,12,85,0,0
84478,-100,4,3,12,85,0,0
84787,-100,4,3,12,85,0,0
85406,-100,4,3,12,85,0,0
86179,-100,4,3,12,85,0,0
86952,-100,4,3,12,70,0,0
88190,-100,4,1,11,70,0,0
99478,-100,4,1,11,70,0,0
101334,-100,4,1,11,70,0,0
101798,-100,4,1,11,70,0,0
104272,-100,4,1,11,70,0,0
109220,-100,4,1,11,70,0,1
109529,-100,4,1,11,70,0,1
111540,-100,4,1,11,70,0,1
113241,-100,4,1,11,70,0,1
113859,-100,4,1,11,90,0,1
114168,-100,4,1,11,70,0,1
114478,-100,4,1,11,70,0,1
116488,-100,4,1,11,70,0,1
116952,-100,4,1,11,70,0,1
118344,-100,4,1,11,70,0,1
119117,-100,4,1,11,70,0,1
119504,-100,4,1,11,70,0,1
121437,-100,4,1,11,70,0,1
122132,-100,4,1,11,70,0,1
123292,-100,4,1,11,70,0,1
123602,-100,4,1,11,70,0,1
125148,-100,4,1,11,70,0,1
125380,-100,4,1,11,70,0,1
129014,-100,4,1,11,70,0,0
130097,-100,4,1,11,70,0,0
130406,-100,4,1,11,70,0,0
131720,-100,4,1,11,70,0,0
132726,-100,4,1,11,70,0,0
137674,-100,4,1,11,70,0,0
138602,-100,4,1,11,70,0,0
143860,-100,4,1,11,70,0,0
148808,-100,4,1,11,70,0,0
158705,-100,4,1,11,70,0,0
167365,-100,4,1,11,70,0,0
167519,-100,4,1,11,30,0,0
168602,-100,4,2,13,40,0,0
178499,-100,4,2,13,40,0,0
180818,-100,4,2,13,50,0,0
183447,-100,4,2,13,60,0,0
187159,-100,4,1,11,70,0,0
188396,-100,4,1,11,70,0,1
188705,-100,4,1,11,70,0,1
190715,-100,4,1,11,70,0,1
192416,-100,4,1,11,70,0,1
192571,-100,4,1,11,70,0,1
193035,-100,4,1,11,70,0,1
193344,-100,4,1,11,70,0,1
193654,-100,4,1,11,70,0,1
195664,-100,4,1,11,70,0,1
196128,-100,4,1,11,70,0,1
197519,-100,4,1,11,70,0,1
198293,-100,4,1,11,70,0,1
198680,-100,4,1,11,70,0,1
200613,-100,4,1,11,70,0,1
201308,-100,4,1,11,70,0,1
202468,-100,4,1,11,70,0,1
204324,-100,4,1,11,70,0,1
204556,-100,4,1,11,70,0,1
208190,-100,4,1,11,70,0,0
209272,-100,4,1,11,70,0,0
210509,-100,4,1,11,70,0,0
213138,-100,4,1,11,70,0,0
214220,-100,4,1,11,70,0,0
215458,-100,4,1,11,70,0,0
219014,-100,4,1,11,70,0,0
219169,-100,4,1,11,70,0,0
221798,-100,4,1,11,70,0,0
221952,-100,4,1,11,70,0,0
226592,-100,4,1,11,100,0,0
226746,-100,4,1,11,70,0,0
227829,-100,4,1,14,70,0,0
229143,-100,4,1,14,5,0,0
229220,-100,4,1,14,70,0,0
230458,-100,4,1,15,65,0,0
231695,-100,4,1,14,60,0,0
232313,-100,4,1,15,40,0,0
232623,-100,4,1,15,35,0,0
232932,-100,4,1,15,30,0,0
233241,-100,4,1,15,25,0,0
233550,-100,4,1,14,20,0,0
233860,-100,4,1,14,15,0,0
234169,-100,4,1,15,10,0,0
235406,-100,4,1,14,5,0,0
236334,-100,4,2,14,5,0,0

[Colours]
Combo1 : 0,0,255
Combo2 : 255,0,0
Combo3 : 192,192,192

[HitObjects]
256,192,355,5,0,0:0:0:0:
408,192,509,2,0,L|416:104,1,80
336,112,818,1,0,0:0:0:0:
416,48,973,2,0,L|320:48,1,80
184,56,1282,1,0,0:0:0:0:
248,56,1437,1,0,0:0:0:0:
376,152,1746,5,0,0:0:0:0:
224,240,1901,1,0,0:0:0:0:
224,240,2056,1,0,0:0:0:0:
304,240,2210,2,0,L|408:240,1,80
472,240,2519,2,0,L|480:144,1,80
328,168,2829,5,0,0:0:0:0:
184,168,2983,1,0,0:0:0:0:
248,168,3138,1,0,0:0:0:0:
322,139,3292,1,0,0:0:0:0:
324,59,3447,1,0,0:0:0:0:
250,29,3601,1,0,0:0:0:0:
328,368,3757,2,0,L|336:264,1,80
416,280,4066,5,0,0:0:0:0:
264,280,4220,1,0,0:0:0:0:
256,208,4375,1,0,0:0:0:0:
384,216,4684,2,0,L|480:216,1,80
384,216,4994,2,0,L|464:216,1,80
312,136,5303,5,0,0:0:0:0:
160,144,5458,2,0,L|152:256,1,80
232,224,5767,1,0,0:0:0:0:
144,344,5922,2,0,L|136:248,1,80
216,336,6231,1,0,0:0:0:0:
304,336,6385,1,0,0:0:0:0:
208,272,6540,6,0,L|112:272,1,80
48,272,6849,1,0,0:0:0:0:
176,216,7159,2,0,L|184:112,1,80
264,96,7468,2,0,L|160:96,1,80
336,48,7777,5,0,0:0:0:0:
488,48,7932,2,0,L|424:112,1,80
264,336,8396,2,0,L|264:240,1,80,2|0,0:2|0:0,0:0:0:0:
360,256,8705,2,0,L|360:160,1,80,2|0,0:2|0:0,0:0:0:0:
128,168,9014,6,0,L|40:168,2,80,8|0|0,0:0|0:0|0:0,0:0:0:0:
208,168,9478,1,8,0:0:0:0:
168,168,9556,1,0,0:0:0:0:
128,120,9633,1,0,0:0:0:0:
120,64,9710,1,0,0:0:0:0:
176,24,9787,1,0,0:0:0:0:
320,304,9942,2,0,L|232:304,1,80,8|0,0:0|0:0,0:0:0:0:
24,304,10251,6,0,L|16:248,2,40,4|2|2,0:0|0:0|0:0,0:0:0:0:
104,232,10561,2,0,L|208:232,1,80,8|2,0:0|0:0,0:0:0:0:
336,224,10870,2,0,L|256:224,2,80,0|2|8,0:0|0:0|0:0,0:0:0:0:
192,152,11334,6,0,P|144:112|200:56,1,160,2|2,0:0|0:0,0:0:0:0:
280,64,11798,1,10,0:0:0:0:
360,64,11952,1,0,0:0:0:0:
208,336,12107,2,0,L|208:224,1,80,2|2,0:0|0:0,0:0:0:0:
288,264,12416,1,8,0:0:0:0:
136,256,12571,6,0,L|136:64,1,160,0|2,0:0|0:0,0:0:0:0:
216,96,13035,2,0,L|112:96,1,80,10|0,0:0|0:0,0:0:0:0:
280,96,13344,1,0,0:0:0:0:
320,96,13421,1,2,0:0:0:0:
360,96,13498,1,2,0:0:0:0:
368,24,13653,1,8,0:0:0:0:
288,24,13808,1,2,0:0:0:0:
136,248,13963,5,0,2:0:0:0:
296,200,14272,1,10,0:0:0:0:
368,200,14427,1,8,0:0:0:0:
384,104,14581,1,2,0:0:0:0:
320,104,14736,1,2,0:0:0:0:
232,104,14891,1,8,0:0:0:0:
320,104,15045,1,2,0:0:0:0:
104,352,15200,5,4,0:0:0:0:
64,352,15277,1,2,0:0:0:0:
104,288,15354,1,0,0:0:0:0:
184,288,15509,2,0,L|288:288,1,80,8|2,0:0|0:0,0:0:0:0:
416,296,15818,1,0,0:0:0:0:
416,296,15973,1,2,0:0:0:0:
488,296,16128,1,8,0:0:0:0:
336,288,16282,6,0,L|328:200,1,80,2|2,0:0|0:0,0:0:0:0:
408,208,16592,1,2,0:0:0:0:
488,184,16746,1,10,0:0:0:0:
416,144,16901,1,0,0:0:0:0:
264,152,17056,2,0,L|160:152,2,80,2|2|8,0:0|0:0|0:0,0:0:0:0:
112,328,17519,6,0,L|304:328,1,160,2|2,0:0|0:0,0:0:0:0:
368,264,17983,2,0,L|272:264,1,80,10|0,0:0|0:0,0:0:0:0:
136,288,18293,2,0,L|128:224,1,40,0|2,0:0|0:0,0:0:0:0:
176,248,18447,1,2,0:0:0:0:
272,184,18602,1,8,0:0:0:0:
120,112,18757,6,0,L|16:112,2,80,2|0|2,0:0|2:0|0:0,0:0:0:0:
200,112,19220,1,10,0:0:0:0:
352,112,19375,2,0,L|352:200,1,80,10|0,0:0|0:0,0:0:0:0:
432,192,19684,1,2,0:0:0:0:
280,335,19839,1,8,0:0:0:0:
232,336,19916,1,0,0:0:0:0:
184,336,19993,1,0,0:0:0:0:
409,303,20148,6,0,L|498:309,1,80,6|0,0:0|0:0,0:0:0:0:
408,211,20458,2,0,L|307:204,1,80,8|0,0:0|0:0,0:0:0:0:
183,197,20767,2,0,L|178:102,1,80
219,115,20999,1,0,0:0:0:0:
258,111,21076,1,8,0:0:0:0:
17,324,21385,6,0,L|193:312,1,160,0|8,0:0|0:0,0:0:0:0:
136,240,21849,1,2,0:0:0:0:
227,234,22004,2,0,L|242:142,1,80,0|2,2:0|0:0,0:0:0:0:
95,145,22313,2,0,L|-7:139,1,80,8|8,0:0|0:0,0:0:0:0:
249,290,22623,5,2,0:0:0:0:
319,252,22777,1,0,0:0:0:0:
332,172,22932,1,8,0:0:0:0:
282,109,23086,1,0,0:0:0:0:
137,106,23241,2,0,L|133:215,1,80
174,187,23473,1,0,0:0:0:0:
217,189,23550,1,8,0:0:0:0:
136,256,23705,1,0,0:0:0:0:
280,255,23860,6,0,L|451:242,1,160,2|8,0:0|0:0,0:0:0:0:
360,191,24324,1,2,0:0:0:0:
217,47,24478,2,0,L|107:54,1,80,0|2,2:0|0:0,0:0:0:0:
281,331,24787,2,0,L|374:324,1,80,8|8,0:0|0:0,0:0:0:0:
134,281,25097,6,0,L|28:273,3,80,4|2|8|2,0:0|0:0|0:0|0:0,0:0:0:0:
135,189,25715,2,0,L|226:194,1,80
174,135,25947,1,0,0:0:0:0:
133,131,26025,1,8,0:0:0:0:
278,21,26179,6,0,P|321:47|277:132,1,160
203,180,26643,1,8,0:0:0:0:
284,222,26798,1,2,0:0:0:0:
203,180,26952,1,0,2:0:0:0:
178,265,27107,1,2,0:0:0:0:
322,317,27262,2,0,L|420:320,1,80,8|8,0:0|0:0,0:0:0:0:
177,27,27571,6,0,P|133:38|172:133,1,160,0|8,0:0|0:0,0:0:0:0:
230,207,28035,2,0,L|57:220,1,160
111,273,28422,1,0,0:0:0:0:
150,271,28499,1,8,0:0:0:0:
389,37,28808,5,8,0:0:0:0:
292,188,28963,1,8,0:0:0:0:
388,347,29117,1,8,0:0:0:0:
243,189,29272,2,0,L|437:188,2,160
469,337,30045,6,0,L|475:248,1,80,4|0,0:2|0:0,0:0:0:0:
393,20,30355,2,0,L|385:115,1,80,8|0,0:0|0:0,0:0:0:0:
243,241,30664,2,0,L|234:342,1,80
275,325,30896,1,0,0:0:0:0:
314,329,30973,1,8,0:0:0:0:
71,88,31282,6,0,L|159:92,1,80,2|0,0:0|0:0,0:0:0:0:
232,170,31592,2,0,L|140:174,1,80,8|2,0:0|0:0,0:0:0:0:
236,23,31901,2,0,L|243:112,1,80,0|2,2:0|0:0,0:0:0:0:
97,258,32210,2,0,L|9:254,1,80,8|8,0:0|0:0,0:0:0:0:
243,325,32519,5,4,0:2:0:0:
322,317,32674,1,0,0:0:0:0:
243,325,32829,1,8,0:0:0:0:
163,329,32983,1,0,0:0:0:0:
308,144,33138,2,0,L|316:238,1,80
274,226,33370,1,0,0:0:0:0:
234,229,33447,1,8,0:0:0:0:
477,42,33757,5,2,0:0:0:0:
389,97,33911,1,0,0:0:0:0:
401,200,34066,1,8,0:0:0:0:
493,245,34220,1,2,0:0:0:0:
340,301,34375,2,0,L|242:295,1,80,0|2,2:0|0:0,0:0:0:0:
106,150,34684,2,0,L|203:153,1,80,8|8,0:0|0:0,0:0:0:0:
415,158,34994,6,0,L|501:164,3,80,4|2|8|2,0:2|0:1|0:0|0:1,0:0:0:0:
415,248,35612,2,0,L|316:238,1,80
376,288,35844,1,0,0:0:0:0:
415,293,35922,1,8,0:0:0:0:
271,100,36076,6,0,L|88:88,1,160
192,164,36540,1,8,0:0:0:0:
274,225,36695,1,2,0:0:0:0:
192,164,36849,1,0,2:0:0:0:
274,225,37004,1,2,0:0:0:0:
129,273,37159,2,0,L|31:274,1,80,8|8,0:0|0:0,0:0:0:0:
275,325,37468,6,0,L|460:318,1,160,4|8,0:2|0:0,0:0:0:0:
355,258,37932,2,0,P|306:245|365:176,1,160
486,85,38396,2,0,L|394:82,1,80,8|0,0:0|0:0,0:0:0:0:
261,78,38705,6,0,L|165:74,1,80
325,189,39014,2,0,L|333:272,1,80,8|0,0:0|0:0,0:0:0:0:
187,330,39324,1,8,0:0:0:0:
137,305,39401,1,8,0:0:0:0:
129,249,39478,1,0,0:0:0:0:
163,203,39556,1,0,0:0:0:0:
219,184,39633,1,0,0:0:0:0:
171,176,39710,1,0,0:0:0:0:
124,164,39787,1,0,0:0:0:0:
348,37,39942,6,0,P|400:44|450:146,1,160,4|0,0:0|0:0,0:0:0:0:
372,130,40406,1,2,0:2:0:0:
228,41,40561,2,0,P|171:51|119:134,1,160,10|2,0:0|0:2,0:0:0:0:
265,155,41025,2,0,P|306:170|255:244,1,160,8|10,0:0|0:0,0:0:0:0:
183,243,41489,1,2,2:1:0:0:
104,231,41643,1,2,0:2:0:0:
249,13,41798,2,0,L|257:98,1,80,8|2,0:0|2:1,0:0:0:0:
173,328,42107,2,0,L|167:237,1,80,2|10,0:2|0:0,0:0:0:0:
313,18,42416,6,0,P|350:50|299:145,1,160
235,141,42880,1,2,0:2:0:0:
90,21,43035,2,0,P|53:53|104:148,1,160,8|2,0:0|0:2,0:0:0:0:
233,313,43499,2,0,P|290:313|330:214,1,160,8|10,0:0|0:0,0:0:0:0:
254,197,43963,1,2,2:1:0:0:
333,136,44117,1,2,0:2:0:0:
187,51,44272,2,0,L|185:134,1,80,10|2,0:0|2:0,0:0:0:0:
267,272,44581,1,8,0:0:0:0:
226,271,44659,1,0,0:0:0:0:
186,268,44736,1,2,0:0:0:0:
331,32,44891,6,0,L|500:41,1,160
410,47,45355,1,2,0:2:0:0:
266,134,45509,2,0,L|93:121,1,160,10|2,0:0|0:2,0:0:0:0:
251,227,45973,2,0,P|300:258|241:325,1,160,8|10,0:0|0:0,0:0:0:0:
172,326,46437,2,0,L|266:328,1,80,0|2,0:0|0:2,0:0:0:0:
400,241,46746,2,0,L|404:144,1,80,8|2,0:0|2:1,0:0:0:0:
322,101,47056,1,2,0:2:0:0:
402,63,47210,1,10,0:1:0:0:
186,156,47365,6,0,L|90:152,2,80,2|0|10,0:0|0:0|0:0,0:0:0:0:
329,218,47829,2,0,L|441:220,2,80,0|10|0,0:0|0:0|0:0,0:0:0:0:
187,280,48293,2,0,L|87:277,1,80,10|0,0:0|0:0,0:0:0:0:
339,304,48602,1,0,0:0:0:0:
339,304,49375,5,8,0:0:0:0:
402,298,49452,1,8,0:0:0:0:
446,250,49530,1,0,0:0:0:0:
446,186,49607,1,0,0:0:0:0:
412,131,49684,1,0,0:0:0:0:
144,120,49839,6,0,L|144:32,1,80,6|0,0:0|0:0,0:0:0:0:
224,176,50148,2,0,L|136:176,1,80,8|2,0:0|0:2,0:0:0:0:
296,120,50458,2,0,L|408:120,2,80,2|2|8,0:0|0:0|0:0,0:0:0:0:
56,304,50922,6,0,L|232:304,1,160,2|2,0:1|0:0,0:0:0:0:
136,232,51385,2,0,L|240:232,1,80,10|2,0:0|0:2,0:0:0:0:
376,192,51695,2,0,L|288:192,1,80,2|2,0:0|0:2,0:0:0:0:
72,208,52159,6,0,L|72:112,1,80,2|0,0:0|2:0,0:0:0:0:
224,136,52468,2,0,L|288:136,1,40,2|0,0:2|0:0,0:0:0:0:
312,136,52623,1,10,0:0:0:0:
224,80,52777,2,0,L|168:80,1,40,2|0,0:2|0:0,0:0:0:0:
136,80,52932,1,2,0:0:0:0:
224,344,53086,2,0,L|224:280,1,40,2|0,0:2|0:0,0:0:0:0:
176,304,53241,1,10,0:0:0:0:
328,256,53396,6,0,P|376:200|320:136,1,160,2|0,0:0|0:0,0:0:0:0:
248,136,53860,1,8,0:0:0:0:
96,160,54014,2,0,L|88:56,1,80,8|0,0:0|0:0,0:0:0:0:
168,72,54324,1,0,0:0:0:0:
320,344,54478,2,0,L|240:344,1,80,8|0,0:0|0:0,0:0:0:0:
480,352,54787,6,0,B|480:312|480:312|424:312,1,80,2|0,0:0|0:0,0:0:0:0:
360,288,55097,2,0,L|280:288,1,80,8|2,0:0|0:2,0:0:0:0:
128,232,55406,2,0,L|216:232,2,80,2|2|8,0:0|0:0|0:0,0:0:0:0:
280,160,55870,6,0,L|104:160,1,160,0|2,0:0|0:0,0:0:0:0:
200,96,56334,2,0,L|280:96,2,80,8|2|2,0:0|0:2|0:0,0:0:0:0:
352,112,56798,2,0,L|352:32,1,80,2|8,0:2|0:0,0:0:0:0:
120,344,57107,6,0,P|72:288|136:224,1,160,2|0,0:0|0:0,0:0:0:0:
192,232,57571,2,0,L|288:232,1,80,8|2,0:0|0:2,0:0:0:0:
120,152,57880,2,0,L|40:152,2,80,2|2|8,0:0|0:2|0:0,0:0:0:0:
272,320,58344,6,0,L|104:320,1,160,2|0,0:0|0:0,0:0:0:0:
192,256,58808,1,8,0:0:0:0:
344,232,58963,2,0,P|400:216|416:96,1,160,8|0,0:0|0:0,0:0:0:0:
272,152,59427,1,8,0:0:0:0:
224,152,59504,1,0,0:0:0:0:
176,152,59581,1,0,0:0:0:0:
416,320,59736,6,0,L|424:224,1,80,4|0,0:0|0:0,0:0:0:0:
342,240,60045,2,0,L|430:240,1,80,8|2,0:0|0:2,0:0:0:0:
264,240,60355,2,0,L|168:240,2,80,2|2|8,0:0|0:0|0:0,0:0:0:0:
416,168,60818,6,0,L|224:168,1,160,0|2,0:0|0:0,0:0:0:0:
176,112,61282,2,0,L|168:208,1,80,10|2,0:0|0:2,0:0:0:0:
328,104,61592,2,0,L|432:104,1,80,2|2,0:0|0:2,0:0:0:0:
32,320,62056,6,0,L|32:136,1,160,2|0,0:0|0:0,0:0:0:0:
112,152,62519,2,0,L|168:152,2,40,10|0|2,0:0|0:0|0:2,0:0:0:0:
32,88,62829,1,2,0:2:0:0:
72,88,62906,1,2,0:2:0:0:
112,88,62983,1,2,0:0:0:0:
192,88,63138,1,8,0:0:0:0:
344,336,63293,6,0,P|392:296|328:232,1,160,2|0,0:0|2:0,0:0:0:0:
256,232,63757,1,8,0:0:0:0:
408,232,63911,2,0,P|432:160|400:72,1,160,8|2,0:0|2:2,0:0:0:0:
327,82,64375,2,0,L|439:82,1,80,8|0,0:0|0:0,0:0:0:0:
176,184,64684,6,0,P|96:160|72:72,1,160,0|8,0:0|0:0,0:0:0:0:
216,144,65303,2,0,L|312:144,2,80,8|2|8,0:0|2:0|0:0,0:0:0:0:
368,296,65767,6,0,L|184:296,1,160,0|2,0:2|0:2,0:0:0:0:
288,232,66231,2,0,L|200:232,1,80,8|2,0:0|0:2,0:0:0:0:
200,176,66540,1,2,0:0:0:0:
360,184,66695,2,0,L|448:184,1,80,2|8,0:2|0:0,0:0:0:0:
208,328,67004,6,0,B|128:328|128:328|224:328,1,160,4|2,0:2|0:0,0:0:0:0:
288,328,67468,2,0,L|296:232,1,80,10|2,0:0|0:2,0:0:0:0:
136,240,67777,2,0,L|88:240,1,40,2|8,0:2|0:0,0:0:0:0:
48,240,67932,1,2,0:0:0:0:
128,184,68086,1,8,0:0:0:0:
280,168,68241,6,0,P|280:96|200:72,1,160,2|0,0:0|0:0,0:0:0:0:
128,72,68705,1,8,0:0:0:0:
184,136,68860,1,0,0:0:0:0:
264,272,69014,2,0,L|264:168,1,80,8|8,0:0|0:0,0:0:0:0:
104,304,69324,2,0,L|200:304,1,80,8|0,0:0|0:0,0:0:0:0:
425,312,69633,5,4,0:0:0:0:
256,192,69787,12,0,72107,0:0:0:0:
267,294,79530,5,8,0:3:0:0:
171,278,79684,1,8,0:3:0:0:
267,294,79839,2,0,L|277:202,1,80,0|0,0:0|1:0,0:0:0:0:
131,77,80148,2,0,P|86:81|122:173,1,160,0|8,1:0|0:0,0:0:0:0:
176,177,80612,1,8,1:3:0:0:
319,288,80767,6,0,L|494:301,1,160
398,239,81231,1,8,0:0:0:0:
358,237,81308,1,8,0:0:0:0:
318,236,81385,1,8,1:3:0:0:
478,202,81695,2,0,L|381:197,1,80,8|8,0:0|1:3,0:0:0:0:
255,125,82004,5,8,0:0:0:0:
351,128,82159,1,8,0:0:0:0:
255,125,82313,2,0,L|245:218,1,80,0|0,0:0|1:0,0:0:0:0:
392,247,82623,6,0,P|445:269|374:324,1,160,0|8,1:0|0:0,0:0:0:0:
321,327,83086,1,8,1:3:0:0:
176,324,83241,2,0,L|6:314,1,160
97,226,83705,1,8,0:0:0:0:
136,230,83782,1,8,0:0:0:0:
97,226,83860,2,0,P|46:187|105:144,1,160,8|0,1:3|0:0,0:0:0:0:
187,151,84324,1,8,1:3:0:0:
331,271,84478,6,0,L|429:280,1,80,8|8,0:0|0:0,0:0:0:0:
331,185,84787,2,0,L|325:84,1,80,0|0,0:0|1:0,0:0:0:0:
366,104,85019,1,0,1:0:0:0:
406,101,85097,1,0,1:0:0:0:
326,35,85251,2,0,L|229:38,1,80,0|8,0:0|0:0,0:0:0:0:
101,123,85561,6,0,P|61:158|121:242,1,160,8|0,1:3|1:0,0:0:0:0:
182,240,86025,1,0,2:0:0:0:
261,238,86179,1,8,0:0:0:0:
220,240,86257,1,8,0:0:0:0:
181,135,86334,2,0,L|270:132,1,80,8|8,1:3|0:0,0:0:0:0:
341,53,86643,2,0,L|244:58,1,80,8|8,0:0|1:3,0:0:0:0:
406,322,86952,6,0,P|458:308|397:237,1,160,8|0,0:0|0:0,0:0:0:0:
338,230,87416,1,0,1:0:0:0:
297,225,87494,1,0,1:0:0:0:
257,220,87571,1,0,1:0:0:0:
492,145,87880,2,0,L|496:101,1,40,8|8,0:0|0:0,0:0:0:0:
455,99,88035,1,0,0:0:0:0:
227,303,88190,6,0,L|122:298,2,80
371,266,88653,2,0,L|375:168,1,80
229,79,88963,2,0,L|410:81,1,160
160,176,89427,6,0,L|64:176,3,80,4|0|8|0,0:2|0:0|0:0|0:0,0:0:0:0:
232,176,90045,2,0,L|232:80,1,80
152,40,90355,2,0,L|240:40,1,80,8|0,0:0|0:0,0:0:0:0:
392,336,90664,6,0,L|384:232,1,80,2|0,0:0|0:0,0:0:0:0:
304,336,90973,2,0,L|304:232,1,80,8|2,0:0|0:0,0:0:0:0:
224,336,91282,2,0,L|232:232,1,80,0|2,2:0|0:0,0:0:0:0:
392,192,91592,2,0,L|480:192,1,80,8|0,0:0|0:0,0:0:0:0:
240,160,91901,6,0,L|128:160,1,80,4|0,0:2|0:0,0:0:0:0:
240,96,92210,2,0,L|240:8,1,80,8|0,0:0|0:0,0:0:0:0:
320,72,92519,2,0,L|232:72,1,80
80,336,92829,2,0,L|64:224,1,80,8|0,0:0|0:0,0:0:0:0:
232,248,93138,5,2,0:0:0:0:
312,232,93292,1,0,0:0:0:0:
312,152,93447,1,8,0:0:0:0:
232,144,93601,1,2,0:0:0:0:
72,144,93757,2,0,L|64:48,1,80,0|2,2:0|0:0,0:0:0:0:
224,72,94066,2,0,L|304:72,1,80,8|8,0:0|0:0,0:0:0:0:
72,336,94375,6,0,L|72:240,1,80,4|2,0:2|0:0,0:0:0:0:
152,336,94684,2,0,L|152:240,1,80,8|2,0:0|0:0,0:0:0:0:
272,176,94994,2,0,L|160:176,1,80
232,120,95226,1,0,0:0:0:0:
272,120,95303,1,8,0:0:0:0:
112,152,95458,6,0,P|112:104|208:40,1,160
272,32,95922,1,8,0:0:0:0:
192,40,96076,1,2,0:0:0:0:
352,296,96231,2,0,L|352:208,1,80,0|2,0:0|0:0,0:0:0:0:
264,216,96540,1,0,0:0:0:0:
352,216,96695,1,8,0:0:0:0:
192,296,96849,6,0,P|144:240|208:192,1,160,4|8,0:2|0:0,0:0:0:0:
352,176,97313,2,0,P|400:120|336:72,1,160
268,70,97777,2,0,L|364:70,1,80,8|8,0:0|0:0,0:0:0:0:
192,136,98086,6,0,L|88:136,1,80
192,208,98396,2,0,L|272:208,1,80,8|0,0:0|0:0,0:0:0:0:
352,304,98705,2,0,L|272:304,1,80,8|0,0:0|0:0,0:0:0:0:
120,320,99014,2,0,L|120:232,1,80
280,232,99324,5,4,0:2:0:0:
440,232,99478,2,0,P|480:184|432:104,1,160,2|0,0:2|2:0,0:0:0:0:
144,120,100097,2,0,L|40:120,1,80,2|0,0:0|0:0,0:0:0:0:
288,104,100406,6,0,L|368:104,1,80,2|0,0:0|0:0,0:0:0:0:
208,248,100715,2,0,L|112:248,2,80,2|2|0,0:2|2:0|2:0,0:0:0:0:
288,248,101179,1,2,2:0:0:0:
272,184,101334,1,2,0:0:0:0:
120,152,101489,2,0,L|120:40,1,80
280,144,101798,5,0,0:0:0:0:
432,144,101952,2,0,L|432:312,1,160,2|0,0:2|2:0,0:0:0:0:
136,208,102571,2,0,L|215:207,1,80,2|0,0:0|0:0,0:0:0:0:
432,232,102880,6,0,L|432:312,1,80,2|0,0:0|0:0,0:0:0:0:
280,152,103190,2,0,L|384:152,1,80,2|2,0:2|2:2,0:0:0:0:
440,88,103499,1,0,0:0:0:0:
392,88,103576,1,0,0:0:0:0:
344,48,103653,2,0,L|424:48,1,80,8|0,0:0|0:0,0:0:0:0:
264,328,103963,1,8,0:0:0:0:
224,328,104040,1,0,0:0:0:0:
184,328,104117,1,0,0:0:0:0:
408,328,104272,5,4,0:0:0:0:
416,256,104427,1,2,0:0:0:0:
344,256,104581,1,8,0:0:0:0:
264,272,104736,1,2,0:0:0:0:
344,256,104891,2,0,L|344:176,1,80,0|2,0:0|0:0,0:0:0:0:
296,176,105123,1,0,0:0:0:0:
248,176,105200,1,8,0:0:0:0:
24,88,105355,6,0,L|216:88,1,160,4|2,0:2|0:0,0:0:0:0:
264,96,105818,2,0,L|264:192,1,80,8|2,0:0|0:0,0:0:0:0:
104,336,106128,2,0,L|104:240,1,80,0|2,0:0|0:0,0:0:0:0:
184,336,106437,2,0,L|104:336,1,80,8|8,0:0|0:0,0:0:0:0:
336,168,106746,6,0,L|432:168,2,80,10|0|10,0:0|0:0|0:0,0:0:0:0:
184,168,107210,2,0,L|280:168,2,80,0|10|0,0:0|0:0|0:0,0:0:0:0:
336,336,107674,2,0,L|336:240,1,80,10|0,0:0|0:0,0:0:0:0:
104,336,107983,6,0,P|104:288|216:232,1,160,2|8,0:0|0:0,0:0:0:0:
344,208,108447,1,0,0:0:0:0:
384,208,108524,1,0,0:0:0:0:
424,208,108601,1,0,0:0:0:0:
264,136,108757,1,8,0:0:0:0:
304,136,108834,1,8,0:0:0:0:
344,136,108911,1,8,0:0:0:0:
304,136,108988,1,8,0:0:0:0:
264,136,109066,1,8,0:0:0:0:
44,331,109220,6,0,P|17:273|97:219,1,160,6|8,0:0|0:0,0:0:0:0:
159,223,109684,1,2,0:2:0:0:
320,228,109839,2,0,L|326:122,1,80,2|2,0:0|0:0,0:0:0:0:
244,146,110148,1,8,0:0:0:0:
405,55,110303,6,0,L|214:51,1,160,2|2,0:1|0:0,0:0:0:0:
404,237,110767,2,0,L|408:149,1,80,10|2,0:0|0:2,0:0:0:0:
316,111,111076,2,0,L|428:106,1,80,2|2,0:0|0:2,0:0:0:0:
438,102,111308,1,2,0:2:0:0:
398,91,111385,1,8,0:0:0:0:
174,131,111540,6,0,L|58:135,1,80,2|0,0:0|2:0,0:0:0:0:
251,323,111849,2,0,L|304:317,1,40,2|0,0:2|0:0,0:0:0:0:
251,323,112004,1,10,0:0:0:0:
94,241,112159,2,0,L|141:235,1,40,2|0,0:2|0:0,0:0:0:0:
173,234,112313,1,2,0:0:0:0:
332,188,112468,1,2,0:2:0:0:
372,191,112545,1,0,0:0:0:0:
332,188,112623,1,10,0:0:0:0:
109,62,112777,6,0,P|94:127|164:188,1,160,2|0,0:0|0:0,0:0:0:0:
237,185,113241,1,8,0:0:0:0:
155,186,113396,2,0,L|348:177,1,160,8|0,0:0|0:0,0:0:0:0:
460,200,113860,2,0,L|524:202,2,40,8|0|0,0:0|0:0|0:0,0:0:0:0:
230,355,114169,6,0,P|180:344|162:239,1,160,2|8,0:0|0:0,0:0:0:0:
237,265,114633,1,2,0:2:0:0:
387,183,114787,2,0,L|298:188,2,80,2|2|8,0:0|0:0|0:0,0:0:0:0:
222,74,115251,6,0,L|57:85,1,160,0|2,0:0|0:0,0:0:0:0:
219,167,115715,2,0,L|211:261,1,80,8|2,0:0|0:2,0:0:0:0:
124,307,116025,2,0,L|227:316,1,80,2|2,0:0|0:2,0:0:0:0:
243,317,116257,1,2,0:2:0:0:
282,321,116334,1,8,0:0:0:0:
57,84,116489,6,0,P|15:121|90:184,1,160,2|0,0:0|0:0,0:0:0:0:
220,251,116952,2,0,L|135:246,2,80,8|2|2,0:0|0:2|0:0,0:0:0:0:
260,252,117339,1,8,0:0:0:0:
220,251,117416,2,0,L|127:248,1,80,2|8,0:2|0:0,0:0:0:0:
296,150,117726,6,0,L|125:144,1,160,2|0,0:0|0:0,0:0:0:0:
219,82,118190,1,8,0:0:0:0:
381,77,118344,2,0,P|440:88|463:185,1,160,8|0,0:0|0:0,0:0:0:0:
308,252,118808,1,8,0:0:0:0:
268,248,118885,1,0,0:0:0:0:
228,241,118963,1,0,0:0:0:0:
454,331,119117,6,0,P|489:308|420:246,1,160,4|8,0:0|0:0,0:0:0:0:
351,248,119581,1,2,0:2:0:0:
496,165,119736,2,0,L|398:158,2,80,2|2|8,0:0|0:0|0:0,0:0:0:0:
340,66,120200,6,0,L|143:60,1,160,0|2,0:0|0:0,0:0:0:0:
338,158,120664,2,0,L|335:253,1,80,10|2,0:0|0:2,0:0:0:0:
248,303,120973,2,0,L|348:305,1,80,2|2,0:0|0:2,0:0:0:0:
367,305,121205,1,2,0:2:0:0:
328,305,121282,1,8,0:0:0:0:
94,110,121437,6,0,P|41:119|80:207,1,160,2|0,0:0|0:0,0:0:0:0:
138,277,121901,2,0,L|244:265,1,80,10|2,0:0|0:2,0:0:0:0:
129,191,122210,1,2,0:2:0:0:
168,188,122287,1,2,0:2:0:0:
208,186,122365,1,2,0:0:0:0:
290,178,122519,1,8,0:0:0:0:
133,102,122674,6,0,L|316:94,1,160,2|0,0:0|2:0,0:0:0:0:
373,93,123138,1,8,0:0:0:0:
216,237,123293,2,0,P|173:221|236:156,1,160,8|2,0:0|2:2,0:0:0:0:
379,157,123757,1,8,0:0:0:0:
419,160,123834,2,0,L|421:101,1,40
193,336,124066,6,0,L|15:326,2,160,0|8|8,0:0|0:0|0:0,0:0:0:0:
112,252,124839,2,0,L|200:256,1,80,2|8,2:0|0:0,0:0:0:0:
345,270,125148,6,0,P|396:260|347:183,1,160,0|2,0:2|0:2,0:0:0:0:
206,136,125612,2,0,L|115:133,1,80,8|2,0:0|0:2,0:0:0:0:
209,69,125922,2,0,L|308:72,1,80,2|2,0:0|0:2,0:0:0:0:
249,70,126153,1,2,0:2:0:0:
208,66,126231,1,8,0:0:0:0:
436,322,126385,6,0,P|478:302|418:242,1,160,4|2,0:2|0:0,0:0:0:0:
326,243,126849,2,0,L|320:156,1,80,10|2,0:0|0:2,0:0:0:0:
476,95,127159,1,2,0:2:0:0:
436,95,127236,1,10,0:0:0:0:
396,98,127313,2,0,L|489:93,1,80,2|8,0:0|0:0,0:0:0:0:
227,64,127623,6,0,P|179:76|209:182,1,160,2|0,0:0|0:0,0:0:0:0:
343,179,128086,2,0,L|437:181,1,80,8|0,0:0|0:0,0:0:0:0:
259,297,128396,2,0,L|169:289,1,80,8|8,0:0|0:0,0:0:0:0:
227,280,128628,1,0,0:0:0:0:
248,224,128705,1,8,0:0:0:0:
224,168,128782,1,0,0:0:0:0:
167,146,128860,1,0,0:0:0:0:
400,144,129014,6,0,L|408:56,1,80,4|2,0:0|2:0,0:0:0:0:
327,64,129324,2,0,L|431:64,1,80,10|2,0:0|2:0,0:0:0:0:
256,72,129633,2,0,L|160:72,2,80,10|2|8,0:0|2:0|0:0,0:0:0:0:
96,328,130097,6,0,L|288:328,1,160,0|0,0:2|0:0,0:0:0:0:
176,296,130561,2,0,L|168:192,1,80,8|2,0:0|0:0,0:0:0:0:
328,216,130870,2,0,L|440:216,2,80,2|0|10,0:0|0:0|0:0,0:0:0:0:
168,136,131334,6,0,L|344:136,1,160
248,80,131798,2,0,L|180:80,2,53.3333333333333,8|0|0,0:0|0:0|0:0,0:0:0:0:
356,257,132107,2,0,L|365:171,2,53.3333333333333
248,329,132416,2,0,L|195:327,2,53.3333333333333,8|0|0,0:0|0:0|0:0,0:0:0:0:
357,243,132726,6,0,L|465:242,1,80,2|0,0:0|0:0,0:0:0:0:
284,155,133035,1,10,0:0:0:0:
275,235,133190,1,10,0:0:0:0:
120,160,133499,1,2,0:0:0:0:
112,128,133653,2,0,L|200:128,1,80,10|2,0:0|0:0,0:0:0:0:
424,128,133963,6,0,L|432:216,1,80,2|2,0:0|2:0,0:0:0:0:
352,216,134272,2,0,L|344:128,1,80,10|2,0:0|2:0,0:0:0:0:
184,336,134581,2,0,L|72:336,2,80,10|2|8,0:0|2:1|0:0,0:0:0:0:
416,296,135045,6,0,L|224:296,1,160,2|2,0:0|0:0,0:0:0:0:
176,296,135509,2,0,L|280:296,1,80,8|0,0:0|2:0,0:0:0:0:
336,240,135818,2,0,P|336:192|224:128,1,160,2|8,0:0|0:0,0:0:0:0:
416,136,136282,6,0,P|416:72|320:40,1,160,2|0,0:0|0:0,0:0:0:0:
256,344,136746,2,0,L|248:248,1,80,10|0,0:0|0:0,0:0:0:0:
328,224,137056,2,0,L|248:224,2,80,2|2|8,0:0|0:0|0:0,0:0:0:0:
176,168,137519,5,2,0:0:0:0:
256,168,137673,1,2,0:0:0:0:
336,168,137828,1,0,0:0:0:0:
488,120,137983,1,0,0:0:0:0:
496,64,138138,1,10,0:0:0:0:
336,64,138293,2,0,L|504:64,1,160,2|8,0:0|0:0,0:0:0:0:
456,24,138679,1,8,0:0:0:0:
416,24,138756,1,0,0:0:0:0:
184,312,138911,6,0,L|176:216,1,80,6|2,0:0|0:0,0:0:0:0:
256,224,139220,1,8,0:0:0:0:
336,216,139375,1,2,0:0:0:0:
184,312,139530,2,0,L|176:216,1,80,10|0,0:0|0:0,0:0:0:0:
256,168,139839,1,8,0:0:0:0:
176,192,139994,1,2,0:0:0:0:
328,96,140148,6,0,L|216:96,2,80,10|2|8,0:0|0:0|0:0,0:0:0:0:
336,32,140612,1,2,0:0:0:0:
184,312,140767,2,0,L|176:216,1,80,10|0,0:0|0:0,0:0:0:0:
256,224,141076,1,8,0:0:0:0:
177,232,141231,1,2,0:0:0:0:
400,320,141385,6,0,L|408:224,1,80,10|0,0:0|0:0,0:0:0:0:
328,184,141695,2,0,L|416:184,1,80,10|0,0:0|0:0,0:0:0:0:
248,192,142004,2,0,L|144:192,1,80,10|0,0:0|0:0,0:0:0:0:
248,144,142313,2,0,L|152:144,1,80,10|0,0:0|0:0,0:0:0:0:
392,128,142623,6,0,L|400:32,1,80,10|0,0:0|0:0,0:0:0:0:
320,128,142932,2,0,L|312:40,1,80,10|0,0:0|0:0,0:0:0:0:
152,320,143241,2,0,L|232:320,1,80,10|0,0:0|0:0,0:0:0:0:
392,312,143550,1,10,0:0:0:0:
344,312,143627,1,10,0:0:0:0:
296,312,143704,1,8,0:0:0:0:
48,264,143860,6,0,L|40:168,1,80,6|0,0:0|0:0,0:0:0:0:
120,256,144169,2,0,L|112:160,1,80,10|0,0:0|0:0,0:0:0:0:
192,248,144478,2,0,L|184:152,1,80,10|0,0:0|0:0,0:0:0:0:
264,240,144787,2,0,L|256:144,1,80,10|0,0:0|0:0,0:0:0:0:
416,184,145097,6,0,L|424:88,1,80,10|0,0:0|0:0,0:0:0:0:
344,176,145406,2,0,L|352:80,1,80,8|2,0:0|0:0,0:0:0:0:
272,168,145715,2,0,L|280:72,1,80,8|2,0:0|0:0,0:0:0:0:
200,160,146024,2,0,L|208:64,1,80,8|2,0:0|0:0,0:0:0:0:
368,320,146334,6,0,L|472:320,1,80,10|0,0:0|0:0,0:0:0:0:
368,264,146643,2,0,L|288:264,1,80,8|0,0:0|0:0,0:0:0:0:
208,216,146952,2,0,L|312:216,1,80,8|0,0:0|0:0,0:0:0:0:
208,152,147261,2,0,L|128:152,1,80,8|0,0:0|0:0,0:0:0:0:
288,344,147571,6,0,L|296:248,2,80,8|0|8,0:0|0:0|0:0,0:0:0:0:
128,112,148035,2,0,L|208:112,2,80,2|10|0,0:0|0:0|0:0,0:0:0:0:
288,184,148499,2,0,L|296:136,1,40,8|0,0:0|0:0,0:0:0:0:
248,144,148653,1,0,0:0:0:0:
21,330,148808,6,0,L|186:271,1,160,2|0,0:0|0:0,0:0:0:0:
249,254,149272,1,2,0:2:0:0:
171,276,149427,2,0,P|131:257|179:169,1,160,10|2,0:0|0:2,0:0:0:0:
259,201,149891,2,0,L|347:198,1,80,10|0,0:0|0:0,0:0:0:0:
185,116,150200,6,0,L|90:112,2,80,8|2|2,0:0|2:1|0:2,0:0:0:0:
336,124,150664,2,0,L|427:127,1,80,8|2,0:0|2:1,0:0:0:0:
335,52,150973,2,0,L|244:48,1,80,2|10,0:2|0:1,0:0:0:0:
479,330,151282,6,0,P|508:292|445:219,1,160
366,224,151746,1,2,0:2:0:0:
286,166,151901,2,0,L|473:148,1,160,10|2,0:0|0:2,0:0:0:0:
368,95,152365,2,0,L|286:90,1,80,10|0,0:0|0:0,0:0:0:0:
446,305,152674,6,0,L|453:217,1,80,10|2,0:0|2:1,0:0:0:0:
372,216,152983,1,2,0:2:0:0:
213,293,153138,2,0,L|108:282,1,80,10|2,0:0|0:2,0:0:0:0:
222,212,153447,1,8,0:0:0:0:
181,209,153525,1,0,0:0:0:0:
141,207,153602,1,2,0:2:0:0:
372,330,153757,6,0,P|433:326|404:248,1,160,2|0,0:0|0:0,0:0:0:0:
334,242,154220,1,2,0:2:0:0:
174,243,154375,2,0,P|131:227|184:152,1,160,10|2,0:0|0:2,0:0:0:0:
260,132,154839,2,0,L|262:233,1,80,10|0,0:0|0:0,0:0:0:0:
90,306,155148,6,0,L|88:213,1,80,10|2,0:0|2:1,0:0:0:0:
168,222,155458,1,2,0:2:0:0:
331,124,155612,2,0,L|335:215,1,80,8|2,0:0|2:1,0:0:0:0:
240,133,155922,2,0,L|233:45,1,80,0|10,0:0|0:0,0:0:0:0:
476,136,156231,6,0,L|485:331,1,160,2|0,0:0|0:0,0:0:0:0:
314,297,156695,2,0,L|214:301,2,80,2|10|0,0:2|0:0|0:0,0:0:0:0:
406,220,157159,2,0,L|315:224,1,80,0|2,0:0|0:2,0:0:0:0:
155,244,157468,6,0,P|114:240|112:137,1,160,2|0,0:0|0:0,0:0:0:0:
270,122,157932,2,0,L|361:124,2,80,0|10|2,0:0|0:0|2:0,0:0:0:0:
186,39,158396,1,8,0:0:0:0:
180,78,158473,1,0,0:0:0:0:
174,117,158550,1,0,0:0:0:0:
400,321,158705,6,0,L|491:331,1,80,4|2,0:0|0:0,0:0:0:0:
396,259,159014,2,0,L|307:261,1,80,8|2,0:0|0:0,0:0:0:0:
232,242,159324,2,0,L|228:147,1,80,0|2,0:0|0:0,0:0:0:0:
268,160,159556,1,0,0:0:0:0:
307,158,159633,1,8,0:0:0:0:
75,76,159787,6,0,P|48:133|129:195,1,160,2|0,0:0|0:0,0:0:0:0:
193,215,160251,2,0,L|291:214,1,80,8|0,0:0|0:0,0:0:0:0:
109,258,160561,2,0,L|104:348,1,80
189,270,160870,2,0,L|81:263,1,80,8|0,0:0|0:0,0:0:0:0:
273,328,161179,6,0,L|448:312,1,160,4|8,0:2|0:0,0:0:0:0:
347,252,161643,2,0,L|247:246,1,80,2|0,0:0|0:0,0:0:0:0:
349,173,161952,2,0,L|397:169,2,40,2|0|8,0:0|0:0|0:0,0:0:0:0:
98,121,162262,6,0,P|30:152|94:209,1,160,2|0,0:0|0:0,0:0:0:0:
149,231,162726,2,0,L|251:236,1,80,8|2,0:0|0:0,0:0:0:0:
411,320,163035,2,0,L|497:324,1,80
400,242,163344,2,0,L|497:246,1,80,8|0,0:0|0:0,0:0:0:0:
305,318,163653,6,0,P|248:313|211:217,1,160,4|0,0:2|0:0,0:0:0:0:
292,214,164117,1,2,0:0:0:0:
130,152,164272,2,0,L|31:147,1,80,0|2,0:0|0:0,0:0:0:0:
90,150,164504,1,0,0:0:0:0:
129,152,164581,1,8,0:0:0:0:
368,318,164736,6,0,P|371:267|281:207,1,160,2|0,0:0|0:0,0:0:0:0:
209,146,165200,2,0,L|299:143,1,80,8|0,0:0|0:0,0:0:0:0:
452,232,165509,2,0,L|451:144,1,80
411,151,165741,1,0,0:0:0:0:
372,155,165818,2,0,L|456:152,1,80,8|0,0:0|0:0,0:0:0:0:
206,281,166128,6,0,L|100:275,1,80,2|0,0:0|0:0,0:0:0:0:
290,229,166437,2,0,L|389:224,1,80,10|0,0:0|0:0,0:0:0:0:
206,115,166746,2,0,L|201:202,1,80,10|0,0:0|0:0,0:0:0:0:
362,119,167056,2,0,L|366:25,1,80,10|0,0:0|0:0,0:0:0:0:
106,62,167365,1,0,0:0:0:0:
106,62,168138,2,0,L|197:63,2,80
348,65,168602,5,0,1:0:0:0:
248,176,168911,2,0,L|152:176,4,80,10|0|0|0|10,0:0|0:0|0:0|0:0|0:0,0:0:0:0:
400,280,169684,6,0,P|400:224|304:176,1,160
232,160,170148,2,0,B|112:160|112:160|104:88,1,160,10|0,0:0|0:0,0:0:0:0:
264,72,170767,1,0,0:0:0:0:
352,80,170922,1,0,0:0:0:0:
352,240,171231,5,0,0:0:0:0:
352,240,171308,1,0,0:0:0:0:
352,240,171385,1,10,0:0:0:0:
272,240,171540,1,0,0:0:0:0:
272,240,171617,1,0,0:0:0:0:
272,240,171694,1,0,0:0:0:0:
192,240,171849,1,0,0:0:0:0:
192,240,171926,1,0,0:0:0:0:
192,240,172003,1,10,0:0:0:0:
112,240,172159,6,0,L|112:56,1,160
192,80,172623,1,8,0:0:0:0:
112,80,172777,1,0,0:0:0:0:
112,80,173086,1,8,0:0:0:0:
192,240,173241,2,0,L|96:240,1,80,10|0,0:0|0:0,0:0:0:0:
256,176,173550,6,0,L|424:176,1,160,0|10,0:0|0:0,0:0:0:0:
336,112,174014,1,0,0:0:0:0:
416,104,174169,2,0,L|416:184,1,80
336,280,174478,1,10,0:0:0:0:
184,280,174633,6,0,P|128:240|128:136,1,160
198,154,175097,2,0,L|118:154,1,80,10|0,0:0|0:0,0:0:0:0:
118,98,175406,1,0,0:0:0:0:
198,98,175561,1,0,0:0:0:0:
424,312,175870,6,0,L|424:136,1,160
344,152,176334,2,0,L|240:152,1,80,10|0,0:0|0:0,0:0:0:0:
344,88,176643,2,0,L|440:88,2,80,0|0|10,0:0|0:0|0:0,0:0:0:0:
192,344,177107,6,0,P|192:288|272:216,1,160
344,224,177571,1,10,0:0:0:0:
192,184,177726,1,0,0:0:0:0:
192,128,178035,1,0,0:0:0:0:
272,128,178190,2,0,L|272:24,1,80,10|0,0:0|0:0,0:0:0:0:
40,336,178499,6,0,L|40:224,1,80,8|0,0:0|0:0,0:0:0:0:
128,336,178808,2,0,L|128:224,1,80,10|0,0:0|0:0,0:0:0:0:
216,336,179117,2,0,L|216:224,1,80,8|0,0:0|0:0,0:0:0:0:
304,336,179427,1,10,0:0:0:0:
456,336,179581,6,0,L|456:168,1,160
304,320,180045,2,0,L|304:208,1,80,10|0,0:0|0:0,0:0:0:0:
384,184,180354,2,0,L|304:184,2,80,8|0|10,0:0|0:0|0:0,0:0:0:0:
232,176,180818,6,0,P|232:120|320:80,1,160
400,72,181282,1,10,0:0:0:0:
400,72,181359,1,0,0:0:0:0:
400,72,181436,1,0,0:0:0:0:
320,240,181591,1,8,0:0:0:0:
320,240,181668,1,0,0:0:0:0:
320,240,181745,1,0,0:0:0:0:
400,240,181900,1,10,0:0:0:0:
240,232,182056,6,0,L|56:232,1,160
160,176,182519,1,10,0:0:0:0:
80,168,182674,2,0,B|80:88|80:88|168:88,1,160
240,88,183138,2,0,L|128:88,1,80,10|0,0:0|0:0,0:0:0:0:
312,328,183447,6,0,P|384:304|400:208,1,160,0|10,0:0|0:0,0:0:0:0:
256,232,184066,2,0,L|256:128,2,80,8|0|10,0:0|0:0|0:0,0:0:0:0:
408,176,184530,6,0,P|408:104|312:72,1,160
256,64,184994,1,10,0:0:0:0:
176,64,185148,1,0,0:0:0:0:
176,64,185303,1,8,0:0:0:0:
256,184,185458,1,0,0:0:0:0:
416,272,185767,6,0,L|416:112,1,160
336,112,186231,1,10,0:0:0:0:
240,112,186385,1,0,0:0:0:0:
88,296,186540,2,0,L|24:296,2,40,8|0|0,0:0|0:0|0:0,0:0:0:0:
160,296,186849,1,10,0:0:0:0:
248,304,187004,1,0,0:0:0:0:
400,224,187159,5,0,0:0:0:0:
247,216,187313,1,0,0:0:0:0:
88,160,187623,5,0,0:0:0:0:
240,152,187777,1,0,0:0:0:0:
400,104,188086,1,0,0:0:0:0:
352,104,188163,1,0,0:0:0:0:
304,104,188240,1,0,0:0:0:0:
78,326,188396,6,0,P|39:291|94:215,1,160,6|8,0:0|0:0,0:0:0:0:
166,215,188860,1,2,0:2:0:0:
330,215,189014,2,0,L|413:217,2,80,2|2|8,0:0|0:0|0:0,0:0:0:0:
168,167,189478,6,0,P|177:108|280:75,1,160,2|2,0:1|0:0,0:0:0:0:
344,133,189942,2,0,L|253:139,1,80,10|2,0:0|0:2,0:0:0:0:
428,279,190251,2,0,L|437:180,1,80,2|2,0:0|0:2,0:0:0:0:
395,196,190483,1,2,0:2:0:0:
354,191,190561,1,8,0:0:0:0:
116,305,190715,6,0,P|63:295|71:180,1,160,2|2,0:0|0:2,0:0:0:0:
85,202,191102,1,0,0:0:0:0:
124,203,191179,1,10,0:0:0:0:
286,203,191334,2,0,L|344:205,2,40,2|0|2,0:2|0:0|0:0,0:0:0:0:
123,109,191643,2,0,L|51:107,2,40,2|0|10,0:2|0:0|0:0,0:0:0:0:
375,328,191952,6,0,P|420:316|431:212,1,160,2|0,0:0|0:0,0:0:0:0:
351,223,192416,1,8,0:0:0:0:
271,218,192571,2,0,L|359:223,2,80,8|2|2,0:0|2:0|0:2,0:0:0:0:
438,176,193035,2,0,L|443:71,1,80,8|0,0:0|0:0,0:0:0:0:
192,307,193344,6,0,L|20:302,1,160,2|8,0:0|0:0,0:0:0:0:
115,250,193808,1,2,0:2:0:0:
277,246,193963,2,0,L|281:147,1,80,2|2,0:0|0:0,0:0:0:0:
198,162,194272,1,8,0:0:0:0:
365,338,194427,6,0,P|412:318|353:248,1,160,0|2,0:0|0:0,0:0:0:0:
285,195,194891,2,0,L|385:183,1,80,8|2,0:0|0:2,0:0:0:0:
195,284,195200,2,0,L|108:276,2,80,2|2|8,0:0|0:2|0:0,0:0:0:0:
441,258,195664,6,0,P|452:202|360:160,1,160,2|0,0:0|0:0,0:0:0:0:
290,153,196128,2,0,L|200:149,1,80,8|2,0:0|0:2,0:0:0:0:
295,75,196437,2,0,L|390:69,2,80,2|2|8,0:0|0:2|0:0,0:0:0:0:
135,280,196901,6,0,L|317:265,1,160,2|0,0:0|0:0,0:0:0:0:
378,263,197365,1,8,0:0:0:0:
217,198,197519,2,0,L|211:88,1,80,8|0,0:0|0:0,0:0:0:0:
293,111,197829,1,0,0:0:0:0:
120,66,197983,2,0,L|58:65,1,40,8|0,0:0|0:0,0:0:0:0:
39,63,198138,1,0,0:0:0:0:
284,301,198293,6,0,P|342:298|367:205,1,160,4|8,0:0|0:0,0:0:0:0:
290,206,198757,1,2,0:2:0:0:
453,194,198911,2,0,L|461:100,1,80,2|2,0:0|0:0,0:0:0:0:
379,107,199220,1,8,0:0:0:0:
205,297,199375,6,0,L|27:309,1,160,0|2,0:0|0:0,0:0:0:0:
200,223,199839,2,0,L|303:218,1,80,10|2,0:0|0:2,0:0:0:0:
119,154,200148,2,0,L|12:150,1,80,2|2,0:0|0:2,0:0:0:0:
79,147,200380,1,2,0:2:0:0:
119,145,200458,1,8,0:0:0:0:
364,323,200612,6,0,P|408:308|351:235,1,160,2|0,0:0|0:0,0:0:0:0:
280,213,201076,2,0,L|275:307,1,80,10|2,0:0|0:2,0:0:0:0:
443,190,201385,1,2,0:2:0:0:
445,149,201463,1,2,0:2:0:0:
447,109,201540,1,2,0:0:0:0:
365,102,201695,1,8,0:0:0:0:
123,111,201849,6,0,L|113:297,1,160,2|0,0:0|0:0,0:0:0:0:
201,276,202313,1,8,0:0:0:0:
36,132,202468,2,0,L|216:134,1,160,8|2,0:0|2:2,0:0:0:0:
155,130,202855,1,0,0:0:0:0:
122,106,202932,1,8,0:0:0:0:
113,67,203009,1,0,0:0:0:0:
139,37,203086,1,0,0:0:0:0:
398,334,203241,6,0,P|442:320|389:251,1,160,0|8,0:0|0:0,0:0:0:0:
318,245,203705,1,2,2:0:0:0:
158,166,203860,1,8,0:0:0:0:
237,157,204014,1,2,2:0:0:0:
316,147,204169,1,8,0:0:0:0:
144,319,204324,6,0,P|68:294|68:212,1,160,0|2,0:2|0:2,0:0:0:0:
136,193,204787,2,0,L|232:187,1,80,8|2,0:0|0:2,0:0:0:0:
42,72,205097,2,0,L|37:167,1,80,2|2,0:0|0:2,0:0:0:0:
78,155,205329,1,2,0:2:0:0:
117,158,205406,1,8,0:0:0:0:
361,314,205561,6,0,P|360:252|251:213,1,160,4|2,0:2|0:0,0:0:0:0:
196,153,206025,2,0,L|297:146,1,80,10|2,0:0|0:2,0:0:0:0:
444,50,206334,1,2,0:2:0:0:
448,89,206411,1,8,0:0:0:0:
452,129,206489,1,2,0:0:0:0:
372,139,206643,1,8,0:0:0:0:
147,308,206798,6,0,L|334:298,1,160,2|0,0:0|0:0,0:0:0:0:
138,214,207262,2,0,L|39:219,1,80,8|0,0:0|0:0,0:0:0:0:
227,210,207571,2,0,L|335:205,1,80,8|8,0:0|0:0,0:0:0:0:
79,86,207880,2,0,L|29:83,2,40,8|0|0,0:0|0:0|0:0,0:0:0:0:
320,128,208190,5,2,0:0:0:0:
360,128,208267,1,2,0:0:0:0:
400,128,208344,1,0,0:0:0:0:
480,72,208499,2,0,L|400:72,1,80,8|0,0:0|0:0,0:0:0:0:
256,296,208808,2,0,L|160:296,2,80,10|2|8,0:0|0:0|0:0,0:0:0:0:
408,224,209272,6,0,L|224:224,1,160,2|2,0:0|0:0,0:0:0:0:
168,160,209736,2,0,L|264:160,1,80,10|0,0:0|0:0,0:0:0:0:
400,168,210045,1,2,0:0:0:0:
480,168,210200,2,0,L|488:120,2,40,2|2|8,0:0|0:0|0:0,0:0:0:0:
240,328,210509,5,0,0:0:0:0:
368,328,210818,1,2,0:0:0:0:
224,328,210973,2,0,L|216:216,1,80,8|0,0:0|0:0,0:0:0:0:
304,248,211282,2,0,L|376:248,2,40,2|2|0,0:0|0:0|0:0,0:0:0:0:
152,256,211592,2,0,L|144:168,1,80,8|2,0:0|0:0,0:0:0:0:
304,160,211901,6,0,L|200:160,1,80,0|0,2:0|0:0,0:0:0:0:
72,160,212210,1,10,0:0:0:0:
64,96,212365,1,8,0:0:0:0:
144,96,212519,1,2,0:0:0:0:
224,96,212674,1,2,0:0:0:0:
144,96,212829,1,8,0:0:0:0:
64,96,212983,1,2,0:0:0:0:
296,264,213138,5,2,0:0:0:0:
336,264,213215,1,2,0:0:0:0:
376,264,213292,1,0,0:0:0:0:
224,272,213447,2,0,L|216:168,1,80,8|0,0:0|0:0,0:0:0:0:
296,192,213757,2,0,L|400:192,2,80,10|2|8,0:0|0:0|0:0,0:0:0:0:
144,128,214220,6,0,L|304:88,1,160,2|2,0:0|0:0,0:0:0:0:
456,336,214684,2,0,L|464:224,1,80,10|0,0:0|0:0,0:0:0:0:
376,256,214994,1,2,0:0:0:0:
296,216,215148,1,2,0:0:0:0:
336,216,215225,1,2,0:0:0:0:
376,216,215302,1,8,0:0:0:0:
144,256,215458,6,0,P|88:216|152:184,1,160,2|2,0:0|0:0,0:0:0:0:
304,120,215922,2,0,L|200:120,1,80,10|0,0:0|0:0,0:0:0:0:
144,120,216231,2,0,L|136:80,2,40,2|2|0,0:0|0:0|0:0,0:0:0:0:
224,64,216540,1,8,0:0:0:0:
456,312,216695,6,0,L|464:128,1,160,2|0,0:0|0:0,0:0:0:0:
304,144,217313,1,8,0:0:0:0:
152,328,217468,2,0,L|144:240,1,80,0|0,2:0|0:0,0:0:0:0:
304,208,217777,1,8,0:0:0:0:
256,208,217854,1,8,0:0:0:0:
208,208,217931,1,8,0:0:0:0:
448,208,218086,6,0,L|456:112,1,80,12|2,0:0|0:0,0:0:0:0:
296,160,218396,2,0,L|288:56,1,80,10|0,0:0|0:0,0:0:0:0:
368,72,218705,2,0,L|464:72,2,80,10|2|10,0:0|0:0|0:0,0:0:0:0:
136,336,219169,6,0,P|88:288|144:232,1,160,2|2,0:0|0:0,0:0:0:0:
296,240,219633,2,0,L|304:344,1,80,10|2,0:0|0:0,0:0:0:0:
224,320,219942,1,10,0:0:0:0:
302,319,220097,1,2,0:0:0:0:
342,319,220174,1,2,0:0:0:0:
382,319,220251,1,8,0:0:0:0:
152,248,220406,6,0,L|320:192,1,160,2|2,0:0|0:0,0:0:0:0:
456,176,220870,2,0,L|464:88,1,80,10|0,0:0|0:0,0:0:0:0:
384,96,221179,1,10,0:0:0:0:
344,96,221256,1,0,0:0:0:0:
304,96,221333,1,2,0:0:0:0:
144,104,221489,2,0,L|136:208,1,80,8|2,0:0|0:0,0:0:0:0:
376,304,221798,5,8,0:0:0:0:
376,304,222107,2,0,L|384:224,1,80,10|2,0:0|0:0,0:0:0:0:
304,224,222416,2,0,L|216:224,1,80,8|2,0:0|0:0,0:0:0:0:
312,160,222726,1,8,0:0:0:0:
352,160,222803,1,0,0:0:0:0:
392,160,222880,1,0,0:0:0:0:
168,344,223035,6,0,L|160:264,1,80,4|2,0:0|0:0,0:0:0:0:
320,264,223344,2,0,L|424:264,1,80,10|0,0:0|0:0,0:0:0:0:
320,200,223653,1,10,0:0:0:0:
280,200,223730,1,0,0:0:0:0:
240,200,223807,1,2,0:0:0:0:
88,192,223963,2,0,L|80:88,1,80,0|2,0:0|0:0,0:0:0:0:
312,128,224272,6,0,L|392:128,1,80,8|2,0:0|0:0,0:0:0:0:
240,264,224581,2,0,L|144:264,1,80,10|2,0:0|0:0,0:0:0:0:
240,264,224891,2,0,L|248:176,1,80,10|2,0:0|0:0,0:0:0:0:
208,184,225123,1,2,0:0:0:0:
168,184,225200,1,8,0:0:0:0:
408,192,225355,6,0,P|464:152|400:104,1,160,2|2,0:0|0:0,0:0:0:0:
256,336,225818,2,0,L|248:232,1,80,10|0,0:0|0:0,0:0:0:0:
400,256,226128,1,10,0:0:0:0:
440,256,226205,1,2,0:0:0:0:
480,256,226282,1,0,0:0:0:0:
400,200,226437,1,10,0:0:0:0:
160,320,226592,6,0,P|112:312|64:208,1,160,2|2,0:0|0:0,0:0:0:0:
144,224,227056,1,10,0:0:0:0:
368,224,227210,2,0,L|464:224,2,80,2|8|8,0:0|0:0|0:0,0:0:0:0:
328,224,227597,1,8,0:0:0:0:
288,224,227674,1,8,0:0:0:0:
48,200,227829,5,0,1:1:0:0:
256,192,227983,12,0,236334,0:0:0:0:
