osu file format v14

[General]
AudioFilename: audio.mp3
AudioLeadIn: 0
PreviewTime: 49298
Countdown: 0
SampleSet: Normal
StackLeniency: 0.7
Mode: 2
LetterboxInBreaks: 0
WidescreenStoryboard: 0

[Editor]
DistanceSpacing: 1.3
BeatDivisor: 4
GridSize: 32
TimelineZoom: 1

[Metadata]
Title:caramel heaven
TitleUnicode:キャラメルへヴン
Artist:yuikonnu
ArtistUnicode:ゆいこんぬ
Creator:Du5t
Version:Caramel Sutra Core
Source:
Tags:dako gigachad sukinathan utaite female jrock j-rock グミ メグッポイド ボーカロイド vocaloid2 last note. nakanishi irojiro キャラメルヘヴン kyarameru hebun setsuna code first trip vocarock collection 4 feat. hatsune miku nathan mochi_- dust dako -joakh nico gumi megpoid cover vocaloid rock japanese
BeatmapID:4254368
BeatmapSetID:2039560

[Difficulty]
HPDrainRate:6
CircleSize:4.4
OverallDifficulty:9.6
ApproachRate:9.6
SliderMultiplier:2
SliderTickRate:2

[Events]
//Background and Video events
0,0,"asdf.jpg",0,0
//Break Periods
2,72307,79021
2,168802,177990
//Storyboard Layer 0 (Background)
//Storyboard Layer 1 (Fail)
//Storyboard Layer 2 (Pass)
//Storyboard Layer 3 (Foreground)
//Storyboard Layer 4 (Overlay)
//Storyboard Sound Samples

[TimingPoints]
355,309.278350515464,4,1,11,60,1,0
664,-100,4,3,11,30,0,0
2829,-100,4,1,11,60,0,0
3138,-100,4,3,11,30,0,0
5303,-100,4,1,11,60,0,0
5612,-100,4,3,11,30,0,0
7777,-100,4,1,11,60,0,0
8086,-100,4,3,11,30,0,0
9014,-90.9090909090909,4,1,11,70,0,0
10251,-100,4,1,11,70,0,0
11334,-100,4,1,11,70,0,0
12107,-76.9230769230769,4,1,11,70,0,0
12339,-100,4,1,11,70,0,0
12571,-71.4285714285714,4,1,11,70,0,0
13035,-100,4,1,11,70,0,0
15818,-100,4,1,11,70,0,0
15973,-100,4,1,11,70,0,0
16282,-100,4,1,11,70,0,0
17056,-76.9230769230769,4,1,11,70,0,0
17287,-100,4,1,11,70,0,0
17519,-71.4285714285714,4,1,11,70,0,0
17983,-100,4,1,11,70,0,0
18602,-100,4,1,11,70,0,0
20148,-100,4,1,11,70,0,0
28808,-71.4285714285714,4,1,11,70,0,0
29272,-100,4,1,11,70,0,0
39942,-100,4,1,11,70,0,0
47365,-100,4,1,11,70,0,0
48602,-100,4,1,11,70,0,0
48757,-100,4,1,11,5,0,0
49375,-100,4,1,11,70,0,0
49839,-83.3333333333333,4,1,11,70,0,1
50148,-83.3333333333333,4,1,11,70,0,1
50458,-83.3333333333333,4,1,11,70,0,1
50767,-83.3333333333333,4,1,11,70,0,1
52159,-83.3333333333333,4,1,11,70,0,1
52623,-35.0877192982456,4,1,11,70,0,1
52777,-83.3333333333333,4,1,11,70,0,1
52932,-35.0877192982456,4,1,11,70,0,1
53086,-83.3333333333333,4,1,11,70,0,1
53396,-83.3333333333333,4,1,11,70,0,1
53705,-83.3333333333333,4,1,11,70,0,1
53860,-83.3333333333333,4,1,11,70,0,1
54324,-45.4545454545455,4,1,11,70,0,1
54478,-83.3333333333333,4,1,11,90,0,1
54787,-83.3333333333333,4,1,11,70,0,1
55097,-83.3333333333333,4,1,11,70,0,1
57107,-83.3333333333333,4,1,11,70,0,1
57571,-83.3333333333333,4,1,11,70,0,1
58963,-83.3333333333333,4,1,11,70,0,1
59736,-83.3333333333333,4,1,11,70,0,1
60123,-83.3333333333333,4,1,11,70,0,1
62056,-83.3333333333333,4,1,11,70,0,1
62751,-83.3333333333333,4,1,11,70,0,1
65767,-83.3333333333333,4,1,11,70,0,1
65999,-83.3333333333333,4,1,11,70,0,1
67932,-37.4531835205993,4,1,11,70,0,1
68241,-83.3333333333333,4,1,11,70,0,1
68860,-83.3333333333333,4,1,11,70,0,1
69169,-83.3333333333333,4,1,11,70,0,1
69633,-100,4,1,11,70,0,0
79452,-100,4,3,12,85,0,0
84478,-100,4,3,12,85,0,0
84787,-100,4,3,12,85,0,0
85406,-100,4,3,12,85,0,0
86179,-100,4,3,12,85,0,0
86952,-100,4,3,12,70,0,0
88190,-71.4285714285714,4,1,11,70,0,0
88653,-100,4,1,11,70,0,0
99478,-100,4,1,11,70,0,0
101334,-100,4,1,11,70,0,0
101798,-100,4,1,11,70,0,0
104272,-100,4,1,11,70,0,0
109220,-83.3333333333333,4,1,11,70,0,1
109529,-83.3333333333333,4,1,11,70,0,1
111540,-83.3333333333333,4,1,11,70,0,1
111695,-76.9230769230769,4,1,11,70,0,1
111849,-83.3333333333333,4,1,11,70,0,1
112313,-76.9230769230769,4,1,11,70,0,1
112468,-83.3333333333333,4,1,11,70,0,1
113241,-83.3333333333333,4,1,11,70,0,1
113705,-45.4545454545455,4,1,11,70,0,1
113859,-83.3333333333333,4,1,11,90,0,1
114168,-83.3333333333333,4,1,11,70,0,1
114478,-83.3333333333333,4,1,11,70,0,1
116488,-83.3333333333333,4,1,11,70,0,1
116952,-83.3333333333333,4,1,11,70,0,1
118344,-83.3333333333333,4,1,11,70,0,1
118634,-83.3333333333333,4,1,11,5,0,1
118653,-45.4545454545455,4,1,11,70,0,1
118808,-83.3333333333333,4,1,11,70,0,1
119117,-83.3333333333333,4,1,11,70,0,1
119504,-83.3333333333333,4,1,11,70,0,1
121437,-83.3333333333333,4,1,11,70,0,1
122132,-83.3333333333333,4,1,11,70,0,1
123292,-83.3333333333333,4,1,11,70,0,1
123602,-83.3333333333333,4,1,11,70,0,1
125148,-83.3333333333333,4,1,11,70,0,1
125380,-83.3333333333333,4,1,11,70,0,1
129014,-100,4,1,11,70,0,0
130097,-100,4,1,11,70,0,0
130406,-100,4,1,11,70,0,0
131720,-100,4,1,11,70,0,0
132726,-100,4,1,11,70,0,0
137674,-100,4,1,11,70,0,0
138293,-80,4,1,11,70,0,0
138602,-100,4,1,11,70,0,0
138911,-83.3333333333333,4,1,11,70,0,0
143860,-83.3333333333333,4,1,11,70,0,0
148808,-100,4,1,11,70,0,0
158705,-100,4,1,11,70,0,0
167365,-100,4,1,11,70,0,0
167519,-100,4,1,11,30,0,0
168602,-100,4,2,13,40,0,0
178499,-100,4,2,13,40,0,0
180818,-100,4,2,13,50,0,0
183447,-100,4,2,13,60,0,0
187159,-100,4,1,11,70,0,0
188396,-83.3333333333333,4,1,11,70,0,1
188705,-83.3333333333333,4,1,11,70,0,1
190715,-83.3333333333333,4,1,11,70,0,1
191179,-35.0877192982456,4,1,11,70,0,1
191334,-83.3333333333333,4,1,11,70,0,1
191489,-35.0877192982456,4,1,11,70,0,1
191643,-83.3333333333333,4,1,11,70,0,1
192416,-83.3333333333333,4,1,11,70,0,1
192571,-83.3333333333333,4,1,11,70,0,1
192880,-45.4545454545455,4,1,11,70,0,1
193035,-83.3333333333333,4,1,11,70,0,1
193344,-83.3333333333333,4,1,11,70,0,1
193654,-83.3333333333333,4,1,11,70,0,1
195664,-83.3333333333333,4,1,11,70,0,1
196128,-83.3333333333333,4,1,11,70,0,1
197519,-83.3333333333333,4,1,11,70,0,1
197809,-83.3333333333333,4,1,11,5,0,1
197829,-45.4545454545455,4,1,11,70,0,1
197983,-83.3333333333333,4,1,11,70,0,1
198293,-83.3333333333333,4,1,11,70,0,1
198680,-83.3333333333333,4,1,11,70,0,1
200613,-83.3333333333333,4,1,11,70,0,1
201308,-83.3333333333333,4,1,11,70,0,1
202468,-83.3333333333333,4,1,11,70,0,1
204324,-83.3333333333333,4,1,11,70,0,1
204556,-83.3333333333333,4,1,11,70,0,1
208190,-100,4,1,11,70,0,0
209272,-100,4,1,11,70,0,0
210045,-76.9230769230769,4,1,11,70,0,0
210200,-100,4,1,11,70,0,0
210509,-71.4285714285714,4,1,11,70,0,0
210818,-100,4,1,11,70,0,0
213138,-100,4,1,11,70,0,0
214220,-100,4,1,11,70,0,0
214994,-76.9230769230769,4,1,11,70,0,0
215148,-100,4,1,11,70,0,0
215458,-71.4285714285714,4,1,11,70,0,0
215767,-100,4,1,11,70,0,0
218086,-83.3333333333333,4,1,11,70,0,0
219014,-83.3333333333333,4,1,11,70,0,0
219169,-83.3333333333333,4,1,11,70,0,0
221798,-83.3333333333333,4,1,11,70,0,0
221952,-83.3333333333333,4,1,11,70,0,0
226592,-100,4,1,11,100,0,0
226746,-100,4,1,11,70,0,0
227829,-100,4,1,14,70,0,0
229143,-100,4,1,14,5,0,0
229220,-100,4,1,14,70,0,0
230458,-100,4,1,15,65,0,0
231695,-100,4,1,14,60,0,0
232313,-100,4,1,15,40,0,0
232623,-100,4,1,15,35,0,0
232932,-100,4,1,15,30,0,0
233241,-100,4,1,15,25,0,0
233550,-100,4,1,14,20,0,0
233860,-100,4,1,14,15,0,0
234169,-100,4,1,15,10,0,0
235406,-100,4,1,14,5,0,0
236334,-100,4,2,14,5,0,0

[Colours]
Combo1 : 0,0,255
Combo2 : 255,0,0
Combo3 : 192,192,192

[HitObjects]
111,317,355,5,0,0:0:0:0:
391,328,509,6,0,L|397:121,1,200
297,229,973,2,0,L|301:113,1,100
199,123,1282,1,0,0:0:0:0:
349,32,1437,2,0,B|344:133|344:133|230:128,1,200
397,341,1901,2,0,L|287:337,1,100
397,259,2210,2,0,L|401:136,1,100
299,255,2519,2,0,L|304:139,1,100
456,26,2829,5,0,0:0:0:0:
175,24,2983,2,0,L|168:240,1,200
269,273,3447,1,0,0:0:0:0:
168,223,3602,1,0,0:0:0:0:
269,273,3757,2,0,L|276:54,1,200
126,70,4220,1,0,0:0:0:0:
275,73,4375,2,0,L|273:174,1,100
173,210,4684,2,0,L|170:326,1,100
273,172,4994,2,0,L|162:171,1,100
23,166,5303,5,0,0:0:0:0:
304,342,5458,6,0,L|309:124,1,200
208,222,5922,2,0,L|214:9,1,200
365,25,6385,1,0,0:0:0:0:
214,21,6540,2,0,L|211:128,1,100
310,206,6849,2,0,L|415:208,1,100
307,290,7159,2,0,L|189:284,1,100
310,206,7468,2,0,L|315:99,1,100
463,105,7777,5,0,0:0:0:0:
182,41,7932,2,0,L|175:261,1,200
325,283,8396,2,0,L|328:158,1,100,2|0,0:2|0:0,0:0:0:0:
175,240,8705,2,0,L|172:348,1,100,2|0,0:2|0:0,0:0:0:0:
393,94,9014,6,0,L|264:92,1,110.000003356934,8|0,0:0|0:0,0:0:0:0:
422,148,9246,1,0,0:0:0:0:
488,150,9324,1,0,0:0:0:0:
422,148,9401,1,0,0:0:0:0:
199,257,9478,2,0,L|332:261,1,110.000003356934,8|0,0:0|0:0,0:0:0:0:
170,316,9710,1,0,0:0:0:0:
103,311,9787,1,0,0:0:0:0:
170,316,9865,1,0,0:0:0:0:
392,203,9942,2,0,L|327:202,1,55.0000016784668,8|0,0:0|0:0,0:0:0:0:
167,156,10097,2,0,L|102:154,1,55.0000016784668
266,83,10251,6,0,L|269:20,1,50,4|2,0:0|0:0,0:0:0:0:
114,26,10406,1,2,0:0:0:0:
369,34,10561,2,0,L|364:149,1,100,8|2,0:0|0:0,0:0:0:0:
216,244,10870,1,0,0:0:0:0:
466,301,11025,2,0,L|343:296,1,100,2|8,0:0|0:0,0:0:0:0:
114,101,11334,5,0,0:0:0:0:
244,106,11489,1,0,0:0:0:0:
373,107,11643,1,2,0:0:0:0:
114,101,11798,1,10,0:0:0:0:
243,106,11953,1,0,0:0:0:0:
478,264,12107,2,0,L|341:255,1,129.999994049073,2|2,0:0|0:0,0:0:0:0:
194,250,12339,1,2,0:0:0:0:
343,177,12416,2,0,L|348:117,1,50,8|0,0:0|0:0,0:0:0:0:
179,96,12571,6,0,P|94:124|150:274,1,279.999991455078,0|2,0:0|0:0,0:0:0:0:
280,308,13035,2,0,L|392:312,1,100,10|0,0:0|0:0,0:0:0:0:
128,182,13344,1,0,0:0:0:0:
264,194,13422,1,2,0:0:0:0:
399,201,13499,1,2,0:0:0:0:
177,97,13653,2,0,L|54:90,1,100,8|2,0:0|0:0,0:0:0:0:
339,40,13963,6,0,L|348:165,1,100,0|2,2:0|0:0,0:0:0:0:
196,149,14272,2,0,L|182:272,1,100,10|8,0:0|0:0,0:0:0:0:
437,326,14581,2,0,L|323:337,1,100,2|2,0:0|0:0,0:0:0:0:
83,56,14891,2,0,L|144:61,1,50,8|0,0:0|0:0,0:0:0:0:
293,236,15045,2,0,L|364:243,1,50,2|0,0:0|0:0,0:0:0:0:
191,99,15200,6,0,L|184:171,1,50,4|2,0:0|0:0,0:0:0:0:
342,160,15355,1,0,0:0:0:0:
93,169,15509,2,0,L|82:290,1,100,8|2,0:0|0:0,0:0:0:0:
236,327,15818,2,0,L|121:322,2,100,0|2|8,0:0|0:0|0:0,0:0:0:0:
16,321,16282,5,0,0:0:0:0:
269,171,16437,1,0,0:0:0:0:
139,161,16592,1,2,0:0:0:0:
388,91,16746,1,10,0:0:0:0:
257,80,16901,1,0,0:0:0:0:
24,273,17056,2,0,L|159:282,1,129.999994049073,2|2,0:0|0:0,0:0:0:0:
303,293,17287,1,2,0:0:0:0:
153,181,17365,2,0,L|149:243,1,50,8|0,0:0|0:0,0:0:0:0:
320,63,17519,6,0,P|403:83|339:227,1,279.999991455078
215,278,17983,2,0,L|91:273,1,100,10|0,0:0|0:0,0:0:0:0:
357,339,18293,1,0,0:0:0:0:
492,285,18370,1,2,0:0:0:0:
357,216,18447,1,2,0:0:0:0:
110,212,18602,1,8,0:0:0:0:
228,215,18757,6,0,P|227:297|120:308,1,200,2|2,0:0|0:0,0:0:0:0:
377,61,19220,1,10,0:0:0:0:
256,57,19375,2,0,P|265:148|357:155,1,200,10|2,0:0|0:0,0:0:0:0:
105,290,19839,2,0,L|34:285,1,50,8|0,0:0|0:0,0:0:0:0:
260,346,19994,2,0,L|327:347,1,50
58,53,20148,6,0,P|19:97|99:207,1,200,6|8,0:0|0:0,0:0:0:0:
178,206,20612,1,0,0:0:0:0:
319,216,20767,2,0,P|303:155|262:147,1,100
215,147,20999,1,0,0:0:0:0:
313,328,21076,2,0,L|424:325,1,100,8|0,0:0|0:0,0:0:0:0:
272,52,21385,6,0,P|326:54|259:126,1,200,0|8,0:0|0:0,0:0:0:0:
180,134,21849,1,2,0:0:0:0:
320,229,22004,2,0,L|323:345,1,100,0|2,2:0|0:0,0:0:0:0:
179,236,22313,1,8,0:0:0:0:
60,224,22468,1,8,0:0:0:0:
281,108,22623,6,0,L|390:111,3,100,2|0|8|0,0:0|0:0|0:0|0:0,0:0:0:0:
240,178,23241,2,0,P|260:240|295:243,1,100
337,244,23473,1,0,0:0:0:0:
236,307,23550,2,0,L|125:302,1,100,8|0,0:0|0:0,0:0:0:0:
278,40,23860,6,0,L|276:155,1,100,2|0,0:0|0:0,0:0:0:0:
176,195,24169,1,8,0:0:0:0:
276,215,24324,1,2,0:0:0:0:
135,244,24478,2,0,P|72:256|64:343,1,150,0|0,2:0|0:0,0:0:0:0:
232,345,24787,1,8,0:0:0:0:
354,352,24942,1,8,0:0:0:0:
133,125,25097,5,4,0:0:0:0:
204,75,25251,1,2,0:0:0:0:
64,244,25406,1,8,0:0:0:0:
134,201,25561,1,2,0:0:0:0:
275,268,25715,1,0,0:0:0:0:
205,240,25870,1,0,0:0:0:0:
240,204,25947,1,0,0:0:0:0:
276,169,26025,1,8,0:0:0:0:
429,71,26179,6,0,L|440:274,1,200
340,278,26643,1,8,0:0:0:0:
439,270,26798,1,2,0:0:0:0:
300,157,26952,2,0,L|189:150,1,100,0|2,2:0|0:0,0:0:0:0:
342,78,27262,1,8,0:0:0:0:
460,83,27416,1,8,0:0:0:0:
232,323,27571,6,0,P|159:320|143:195,1,200,0|8,0:0|0:0,0:0:0:0:
271,174,28035,2,0,L|96:31,1,200
255,36,28499,2,0,L|366:37,1,100,8|0,0:0|0:0,0:0:0:0:
116,220,28808,6,0,L|259:222,2,139.999995727539,8|8|8,0:0|0:0|0:0,0:0:0:0:
379,116,29272,1,0,0:0:0:0:
138,108,29581,1,0,0:0:0:0:
379,116,29891,2,0,L|379:182,1,50
187,286,30045,5,4,0:2:0:0:
87,283,30200,2,0,L|98:167,1,100,0|8,0:0|0:0,0:0:0:0:
199,199,30509,1,0,0:0:0:0:
339,195,30664,2,0,P|389:178|387:131,1,100
341,136,30896,1,0,0:0:0:0:
237,56,30973,2,0,L|341:49,1,100,8|0,0:0|0:0,0:0:0:0:
195,158,31282,6,0,L|185:267,1,100,2|0,0:0|0:0,0:0:0:0:
327,245,31592,2,0,L|334:360,1,100,8|2,0:0|0:0,0:0:0:0:
193,48,31901,2,0,L|313:53,1,100,0|2,2:0|0:0,0:0:0:0:
153,164,32210,1,8,0:0:0:0:
33,168,32365,1,8,0:0:0:0:
258,265,32519,6,0,L|372:269,3,100,4|0|8|0,0:2|0:0|0:0|0:0,0:0:0:0:
216,116,33138,2,0,P|167:142|170:193,1,100
214,184,33370,1,0,0:0:0:0:
312,42,33447,2,0,L|200:39,1,100,8|0,0:0|0:0,0:0:0:0:
353,160,33757,6,0,L|358:279,1,100,2|0,0:0|0:0,0:0:0:0:
216,323,34066,2,0,L|321:328,1,100,8|2,0:0|0:0,0:0:0:0:
455,149,34375,2,0,P|449:97|355:67,1,150,0|0,2:0|0:0,0:0:0:0:
190,59,34684,1,8,0:0:0:0:
68,67,34839,1,8,0:0:0:0:
297,147,34994,5,4,0:2:0:0:
225,131,35148,1,2,0:1:0:0:
365,259,35303,1,8,0:0:0:0:
292,240,35458,1,2,0:1:0:0:
153,291,35612,1,0,0:0:0:0:
226,278,35767,1,0,0:0:0:0:
191,242,35844,1,0,0:0:0:0:
156,204,35922,1,8,0:0:0:0:
17,74,36076,6,0,L|131:66,1,100,0|2,0:0|0:0,0:0:0:0:
232,58,36385,1,0,0:0:0:0:
336,135,36540,2,0,L|206:133,1,100,8|2,0:0|0:0,0:0:0:0:
94,271,36849,1,0,2:0:0:0:
197,267,37004,1,2,0:0:0:0:
94,271,37159,1,8,0:0:0:0:
197,267,37313,1,8,0:0:0:0:
425,195,37468,6,0,P|474:171|391:102,1,200,4|8,0:2|0:0,0:0:0:0:
265,216,37932,2,0,L|427:357,1,200
251,343,38396,2,0,L|142:338,1,100,8|0,0:0|0:0,0:0:0:0:
423,215,38705,6,0,L|432:107,1,100
160,214,39014,2,0,L|144:93,1,100,8|0,0:0|0:0,0:0:0:0:
423,39,39324,2,0,L|363:34,1,50,8|8,0:0|0:0,0:0:0:0:
216,108,39478,2,0,L|292:113,1,50
465,189,39633,1,0,0:0:0:0:
494,273,39710,1,0,0:0:0:0:
452,352,39787,1,0,0:0:0:0:
374,359,39865,1,0,0:0:0:0:
121,343,39942,6,0,P|68:330|144:248,1,200,4|0,0:0|0:0,0:0:0:0:
215,239,40406,1,2,0:2:0:0:
64,151,40561,2,0,L|294:141,1,200,10|2,0:0|0:2,0:0:0:0:
113,34,41025,2,0,L|105:146,1,100,8|0,0:0|0:0,0:0:0:0:
258,261,41334,6,0,L|372:266,2,100,10|2|2,0:0|2:1|0:2,0:0:0:0:
408,31,41798,2,0,L|423:143,1,100,8|2,0:0|2:1,0:0:0:0:
269,88,42107,2,0,L|250:194,1,100,2|10,0:2|0:0,0:0:0:0:
473,336,42416,6,0,P|495:280|379:212,1,200
301,207,42880,1,2,0:2:0:0:
451,17,43035,2,0,P|395:44|456:132,1,200,8|2,0:0|0:2,0:0:0:0:
306,306,43499,2,0,L|299:188,1,100,8|0,0:0|0:0,0:0:0:0:
151,126,43808,6,0,L|29:131,2,100,10|2|2,0:0|2:1|0:2,0:0:0:0:
300,117,44272,2,0,L|405:109,1,100,10|2,0:0|2:0,0:0:0:0:
248,186,44581,1,8,0:0:0:0:
213,258,44659,1,0,0:0:0:0:
252,327,44736,1,2,0:0:0:0:
329,345,44813,1,0,0:0:0:0:
122,305,44891,6,0,P|60:281|136:190,1,200
206,179,45355,1,2,0:2:0:0:
54,32,45509,2,0,P|40:102|146:156,1,200,10|2,0:0|0:2,0:0:0:0:
291,341,45973,2,0,L|394:345,1,100,8|0,0:0|0:0,0:0:0:0:
240,225,46282,6,0,L|127:221,2,100,10|0|2,0:0|0:0|0:2,0:0:0:0:
391,198,46746,2,0,L|399:68,1,100,8|2,0:0|2:1,0:0:0:0:
246,60,47056,1,2,0:2:0:0:
396,35,47210,1,10,0:1:0:0:
121,283,47365,6,0,L|7:277,1,100,2|0,0:0|0:0,0:0:0:0:
100,230,47597,1,0,0:0:0:0:
383,299,47674,2,0,L|491:288,1,100,10|0,0:0|0:0,0:0:0:0:
404,241,47906,1,0,0:0:0:0:
256,70,47983,2,0,L|141:58,1,100,10|0,0:0|0:0,0:0:0:0:
235,30,48215,1,0,0:0:0:0:
413,159,48293,1,10,0:0:0:0:
97,176,48447,2,0,L|155:171,1,50
413,159,48602,1,0,0:0:0:0:
191,28,49375,6,0,L|186:92,1,50,8|8,0:0|0:0,0:0:0:0:
329,228,49530,2,0,L|404:234,1,50
164,336,49684,2,0,L|103:331,1,50
387,40,49839,6,0,P|453:71|366:167,1,239.999992675781,6|8,0:0|0:0,0:0:0:0:
249,258,50303,2,0,L|374:267,2,119.999996337891,2|2|2,0:2|0:0|0:0,0:0:0:0:
465,272,50767,1,8,0:0:0:0:
213,141,50922,6,0,L|457:151,1,239.999992675781,2|2,0:1|0:0,0:0:0:0:
236,72,51385,2,0,L|110:67,1,119.999996337891,10|2,0:0|0:2,0:0:0:0:
336,347,51695,2,0,L|343:222,1,119.999996337891,2|2,0:0|0:2,0:0:0:0:
278,227,51927,1,2,0:2:0:0:
125,220,52004,1,8,0:0:0:0:
377,164,52159,2,0,L|383:34,1,119.999996337891,2|0,0:0|2:0,0:0:0:0:
125,77,52468,5,2,0:2:0:0:
265,85,52545,1,0,0:0:0:0:
409,91,52623,2,0,L|93:75,1,285.000002717972,10|2,0:0|0:2,0:0:0:0:
265,85,52855,1,0,0:0:0:0:
409,91,52932,2,0,L|115:77,1,285.000002717972,2|2,0:0|0:2,0:0:0:0:
265,85,53164,1,0,0:0:0:0:
409,91,53241,1,10,0:0:0:0:
130,184,53396,6,0,L|378:187,1,239.999992675781,2|0,0:0|0:0,0:0:0:0:
130,184,53860,1,8,0:0:0:0:
369,187,54014,2,0,L|370:51,1,119.999996337891,8|0,0:0|0:0,0:0:0:0:
238,56,54324,2,0,L|473:55,1,220.000006713867,0|8,0:0|0:0,0:0:0:0:
397,55,54556,1,0,0:0:0:0:
153,138,54633,2,0,L|76:138,1,59.9999981689454,0|0,0:0|2:0,0:0:0:0:
300,335,54787,6,0,P|385:313|341:167,1,239.999992675781,2|8,0:0|0:0,0:0:0:0:
254,195,55251,2,0,L|250:72,1,119.999996337891,2|2,0:2|0:0,0:0:0:0:
374,71,55561,1,2,0:0:0:0:
160,220,55715,1,8,0:0:0:0:
413,307,55870,6,0,P|414:234|269:181,1,239.999992675781,0|2,0:0|0:0,0:0:0:0:
407,76,56334,2,0,L|413:200,1,119.999996337891,8|2,0:0|0:2,0:0:0:0:
196,268,56643,2,0,L|64:271,1,119.999996337891,2|2,0:0|0:2,0:0:0:0:
139,213,56875,1,2,0:2:0:0:
294,211,56952,1,8,0:0:0:0:
28,116,57107,6,0,L|283:108,1,239.999992675781,2|0,0:0|0:0,0:0:0:0:
397,256,57571,2,0,L|267:259,3,119.999996337891,8|2|2|2,0:0|0:2|0:0|0:2,0:0:0:0:
494,105,58190,1,8,0:0:0:0:
244,58,58344,6,0,P|211:126|243:292,1,239.999992675781,2|0,0:0|0:0,0:0:0:0:
494,105,58808,1,8,0:0:0:0:
244,58,58963,2,0,P|158:94|247:118,1,239.999992675781,8|0,0:0|0:0,0:0:0:0:
494,105,59427,2,0,L|403:105,1,59.9999981689454,8|0,0:0|0:0,0:0:0:0:
194,243,59581,2,0,L|262:242,1,59.9999981689454
489,323,59736,6,0,L|349:325,1,119.999996337891,4|0,0:0|0:0,0:0:0:0:
235,36,60045,2,0,L|225:166,1,119.999996337891,8|2,0:0|0:2,0:0:0:0:
351,233,60355,1,2,0:0:0:0:
226,156,60509,1,2,0:0:0:0:
441,62,60664,1,8,0:0:0:0:
190,225,60818,6,0,P|122:195|220:111,1,239.999992675781,0|2,0:0|0:0,0:0:0:0:
417,315,61282,2,0,L|426:187,1,119.999996337891,10|2,0:0|0:2,0:0:0:0:
206,161,61592,1,2,0:0:0:0:
325,253,61746,2,0,L|260:254,1,59.9999981689454,2|2,0:2|0:2,0:0:0:0:
109,256,61901,1,8,0:0:0:0:
362,193,62056,6,0,P|431:164|343:65,1,239.999992675781,2|0,0:0|0:0,0:0:0:0:
208,65,62442,1,0,0:0:0:0:
267,63,62519,1,10,0:0:0:0:
327,62,62597,1,0,0:0:0:0:
175,229,62674,2,0,L|45:221,1,119.999996337891,2|2,0:2|0:2,0:0:0:0:
115,224,62906,1,2,0:2:0:0:
303,234,62983,2,0,L|306:159,1,59.9999981689454,2|0,0:0|0:0,0:0:0:0:
145,151,63138,1,8,0:0:0:0:
361,318,63293,6,0,L|365:176,1,119.999996337891,2|0,0:0|0:0,0:0:0:0:
241,87,63602,2,0,L|369:90,1,119.999996337891,0|8,2:0|0:0,0:0:0:0:
145,297,63911,2,0,P|81:264|169:163,1,239.999992675781,8|2,0:0|2:2,0:0:0:0:
393,344,64375,2,0,L|322:339,1,59.9999981689454,8|0,0:0|0:0,0:0:0:0:
88,62,64530,2,0,L|167:66,1,59.9999981689454
344,274,64684,6,0,L|83:266,1,239.999992675781,0|8,0:0|0:0,0:0:0:0:
224,150,65148,2,0,L|351:151,2,119.999996337891,2|8|2,2:0|0:0|2:0,0:0:0:0:
440,281,65612,1,8,0:0:0:0:
182,215,65767,6,0,P|124:179|220:93,1,239.999992675781,0|2,0:2|0:2,0:0:0:0:
333,94,66231,2,0,L|209:89,2,119.999996337891,8|2|2,0:0|0:2|0:0,0:0:0:0:
106,225,66695,2,0,L|100:290,1,59.9999981689454,2|2,0:2|0:2,0:0:0:0:
258,309,66849,1,8,0:0:0:0:
18,53,67004,6,0,P|14:127|146:221,1,239.999992675781,4|2,0:2|0:0,0:0:0:0:
357,231,67468,2,0,L|363:103,1,119.999996337891,10|2,0:0|0:2,0:0:0:0:
144,57,67777,1,2,0:2:0:0:
280,59,67855,1,8,0:0:0:0:
411,65,67932,2,0,L|126:56,1,267.00000926857,2|8,0:0|0:0,0:0:0:0:
411,65,68241,6,0,P|460:131|336:217,1,239.999992675781,2|0,0:0|0:0,0:0:0:0:
113,340,68705,2,0,L|106:212,1,119.999996337891,8|0,0:0|0:0,0:0:0:0:
324,208,69014,1,8,0:0:0:0:
106,104,69169,2,0,L|35:105,1,59.9999981689454,8|0,0:0|0:0,0:0:0:0:
324,208,69324,2,0,L|326:289,1,59.9999981689454,8|0,0:0|0:0,0:0:0:0:
141,338,69478,2,0,L|221:334,1,59.9999981689454
451,316,69633,5,4,0:0:0:0:
256,192,69787,12,0,72107,0:0:0:0:
336,263,79530,5,8,0:3:0:0:
197,249,79684,1,8,0:3:0:0:
338,187,79839,2,0,L|346:84,1,100,0|0,0:0|1:0,0:0:0:0:
295,87,80071,1,0,1:0:0:0:
193,76,80148,2,0,L|185:187,1,100,0|0,1:0|0:0,0:0:0:0:
336,263,80458,5,8,0:0:0:0:
197,249,80612,1,8,1:3:0:0:
337,187,80767,2,0,L|449:193,1,100,0|0,0:0|1:3,0:0:0:0:
295,38,81076,2,0,P|293:93|341:106,1,100,0|8,0:0|0:0,0:0:0:0:
378,110,81308,1,8,0:0:0:0:
278,266,81385,2,0,L|162:259,1,100,8|8,1:3|0:0,0:0:0:0:
320,334,81695,2,0,L|435:341,1,100,8|8,0:0|1:3,0:0:0:0:
177,194,82004,5,8,0:0:0:0:
317,200,82159,1,8,0:0:0:0:
178,128,82313,2,0,L|183:19,1,100,0|0,0:0|1:0,0:0:0:0:
233,28,82545,1,0,1:0:0:0:
334,29,82623,2,0,L|329:150,1,100,0|0,1:0|0:0,0:0:0:0:
177,194,82932,5,8,0:0:0:0:
317,200,83087,1,8,1:3:0:0:
177,255,83241,2,0,L|57:247,1,100,0|0,0:0|1:0,0:0:0:0:
218,300,83550,2,0,P|220:355|172:368,1,100,0|8,0:0|0:0,0:0:0:0:
135,372,83782,1,8,0:0:0:0:
289,265,83860,6,0,L|409:270,1,100,8|0,1:3|0:0,0:0:0:0:
249,166,84169,2,0,L|112:161,1,100,0|8,0:0|1:3,0:0:0:0:
391,45,84478,6,0,L|402:161,1,100,8|8,0:0|0:0,0:0:0:0:
260,168,84787,2,0,L|275:279,1,100,0|0,0:0|1:0,0:0:0:0:
323,258,85019,1,0,1:0:0:0:
221,277,85097,2,0,L|207:165,1,100,0|0,1:0|0:0,0:0:0:0:
350,159,85406,1,8,0:0:0:0:
210,25,85561,6,0,P|151:33|207:123,1,200,8|0,1:3|1:0,0:0:0:0:
335,131,86025,2,0,P|321:189|283:198,1,100,0|8,2:0|0:0,0:0:0:0:
237,202,86257,1,8,0:0:0:0:
338,282,86334,2,0,L|452:285,1,100,8|8,1:3|0:0,0:0:0:0:
295,346,86643,2,0,L|414:350,1,100,8|8,0:0|1:3,0:0:0:0:
154,276,86952,6,0,P|103:249|177:165,1,200,8|0,0:0|0:0,0:0:0:0:
309,101,87416,2,0,L|361:99,2,50,0|0|0,1:0|1:0|1:0,0:0:0:0:
117,183,87880,2,0,L|181:181,1,50,8|8,0:0|0:0,0:0:0:0:
325,291,88035,2,0,L|257:292,1,50
109,245,88190,6,0,L|275:249,2,139.999995727539
390,102,88653,1,0,0:0:0:0:
152,319,88963,1,0,0:0:0:0:
333,238,89272,2,0,L|391:241,1,50
170,236,89427,6,0,L|167:121,1,100,4|0,0:2|0:0,0:0:0:0:
310,81,89736,2,0,L|194:76,1,100,8|0,0:0|0:0,0:0:0:0:
70,133,90045,2,0,P|83:202|116:210,1,100
153,214,90277,1,0,0:0:0:0:
50,259,90355,2,0,L|44:370,1,100,8|0,0:0|0:0,0:0:0:0:
186,291,90664,6,0,L|75:288,3,100,2|0|8|2,0:0|0:0|0:0|0:0,0:0:0:0:
227,205,91282,2,0,L|344:208,1,100,0|2,2:0|0:0,0:0:0:0:
469,120,91592,1,8,0:0:0:0:
350,118,91746,1,0,0:0:0:0:
122,62,91901,6,0,L|116:191,1,100,4|0,0:2|0:0,0:0:0:0:
259,216,92210,2,0,L|253:335,1,100,8|0,0:0|0:0,0:0:0:0:
394,191,92519,2,0,P|379:146|324:136,1,100
281,137,92751,1,0,0:0:0:0:
384,63,92829,6,0,L|493:65,2,100,8|0|2,0:0|0:0|0:0,0:0:0:0:
246,206,93293,1,0,0:0:0:0:
347,207,93447,2,0,L|342:314,1,100,8|2,0:0|0:0,0:0:0:0:
202,287,93757,2,0,P|146:277|146:181,1,150,0|0,2:0|0:0,0:0:0:0:
307,128,94066,1,8,0:0:0:0:
428,112,94220,1,8,0:0:0:0:
202,108,94375,5,4,0:2:0:0:
131,53,94530,1,2,0:0:0:0:
269,222,94684,1,8,0:0:0:0:
198,154,94839,1,2,0:0:0:0:
340,314,94994,1,0,0:0:0:0:
270,259,95148,1,0,0:0:0:0:
234,223,95226,1,0,0:0:0:0:
199,187,95303,1,8,0:0:0:0:
341,182,95458,6,0,P|286:167|347:85,1,200
482,310,95922,2,0,L|365:307,1,100,8|2,0:0|0:0,0:0:0:0:
241,295,96231,1,0,0:0:0:0:
311,208,96385,1,2,0:0:0:0:
171,142,96540,1,0,0:0:0:0:
310,102,96695,1,8,0:0:0:0:
86,310,96849,6,0,P|42:293|122:206,1,200,4|8,0:2|0:0,0:0:0:0:
235,221,97313,2,0,L|79:372,1,200
233,339,97777,2,0,L|335:343,1,100,8|8,0:0|0:0,0:0:0:0:
61,50,98086,6,0,L|48:165,1,100
324,111,98396,2,0,L|334:224,1,100,8|0,0:0|0:0,0:0:0:0:
63,348,98705,2,0,L|119:350,1,50,8|8,0:0|0:0,0:0:0:0:
263,362,98860,2,0,L|331:364,1,50
124,282,99014,1,0,0:0:0:0:
90,214,99092,1,0,0:0:0:0:
123,147,99169,1,0,0:0:0:0:
195,130,99246,1,0,0:0:0:0:
391,67,99324,5,4,0:2:0:0:
97,56,99478,1,2,0:2:0:0:
97,56,100097,2,0,L|88:222,1,150,2|0,0:0|0:0,0:0:0:0:
391,67,100406,5,2,0:0:0:0:
391,67,100715,1,2,0:2:0:0:
291,110,100870,1,2,2:0:0:0:
291,110,101025,1,0,2:0:0:0:
391,67,101179,1,2,2:0:0:0:
97,56,101334,5,2,0:0:0:0:
391,67,101489,2,0,L|391:179,1,100
97,56,101798,5,0,0:0:0:0:
391,67,101952,1,2,0:2:0:0:
391,67,102571,2,0,L|395:225,1,150,2|0,0:0|0:0,0:0:0:0:
97,56,102880,5,2,0:0:0:0:
97,56,103190,2,0,L|206:57,2,100,2|2|0,0:2|2:2|0:0,0:0:0:0:
47,54,103576,1,0,0:0:0:0:
209,287,103653,5,8,0:0:0:0:
278,273,103731,1,0,0:0:0:0:
321,218,103808,1,0,0:0:0:0:
287,156,103885,1,0,0:0:0:0:
127,105,103963,2,0,L|185:107,1,50,8|0,0:0|0:0,0:0:0:0:
386,50,104117,2,0,L|322:49,1,50
91,326,104272,6,0,P|46:291|126:219,1,200,4|8,0:0|0:0,0:0:0:0:
268,236,104736,2,0,L|281:115,1,100,2|0,0:0|0:0,0:0:0:0:
138,129,105045,1,2,0:0:0:0:
144,79,105123,1,0,0:0:0:0:
150,29,105200,1,8,0:0:0:0:
378,325,105355,6,0,L|173:311,1,200,4|2,0:2|0:0,0:0:0:0:
318,241,105818,2,0,L|201:234,1,100,8|2,0:0|0:0,0:0:0:0:
360,172,106128,2,0,P|342:115|287:116,1,100,0|2,0:0|0:0,0:0:0:0:
257,110,106360,1,0,0:0:0:0:
151,128,106437,1,8,0:0:0:0:
257,110,106592,1,8,0:0:0:0:
26,339,106746,6,0,L|22:240,1,100,10|0,0:0|0:0,0:0:0:0:
98,235,106978,1,0,0:0:0:0:
415,338,107056,2,0,L|422:219,1,100,10|0,0:0|0:0,0:0:0:0:
345,233,107287,1,0,0:0:0:0:
194,201,107365,2,0,L|190:93,1,100,10|0,0:0|0:0,0:0:0:0:
266,94,107597,1,0,0:0:0:0:
450,89,107674,1,10,0:0:0:0:
140,96,107829,2,0,L|200:102,1,50
439,94,107983,5,2,0:0:0:0:
490,155,108061,1,0,0:0:0:0:
461,229,108138,1,0,0:0:0:0:
382,245,108215,1,0,2:0:0:0:
186,243,108293,2,0,L|175:311,1,50,8|8,0:0|0:0,0:0:0:0:
382,245,108447,1,0,0:0:0:0:
461,229,108525,1,0,0:0:0:0:
490,155,108602,1,0,0:0:0:0:
439,94,108679,1,0,0:0:0:0:
223,80,108757,2,0,L|153:74,1,50,8|8,0:0|0:0,0:0:0:0:
321,200,108911,2,0,L|262:192,1,50,8|8,0:0|0:0,0:0:0:0:
61,308,109066,2,0,L|120:314,1,50,8|8,0:0|0:0,0:0:0:0:
392,272,109220,6,0,P|459:253|375:151,1,239.999992675781,6|8,0:0|0:0,0:0:0:0:
278,136,109684,1,2,0:2:0:0:
398,55,109839,2,0,L|273:53,1,119.999996337891,2|2,0:0|0:0,0:0:0:0:
62,52,110148,1,8,0:0:0:0:
314,321,110303,6,0,L|74:308,1,239.999992675781,2|2,0:1|0:0,0:0:0:0:
294,145,110767,2,0,L|416:148,1,119.999996337891,10|2,0:0|0:2,0:0:0:0:
197,74,111076,2,0,L|190:213,1,119.999996337891,2|2,0:0|0:2,0:0:0:0:
251,201,111308,1,2,0:2:0:0:
409,215,111385,1,8,0:0:0:0:
156,331,111540,5,2,0:0:0:0:
39,269,111695,2,0,L|188:255,1,129.999994049073,0|2,2:0|0:2,0:0:0:0:
348,246,111927,1,0,0:0:0:0:
187,170,112004,2,0,L|111:175,1,59.9999981689454,10|0,0:0|0:0,0:0:0:0:
310,132,112159,2,0,L|401:125,1,59.9999981689454,2|0,0:2|0:0,0:0:0:0:
161,70,112313,2,0,L|310:62,1,129.999994049073,2|2,0:0|0:2,0:0:0:0:
462,55,112545,1,0,0:0:0:0:
270,180,112623,2,0,L|200:185,1,59.9999981689454,10|0,0:0|0:0,0:0:0:0:
451,346,112777,6,0,P|484:297|353:191,1,239.999992675781,2|0,0:0|0:0,0:0:0:0:
132,222,113241,1,8,0:0:0:0:
384,181,113396,2,0,L|370:312,1,119.999996337891,8|0,0:0|0:0,0:0:0:0:
216,56,113705,2,0,L|481:46,1,220.000006713867,0|8,0:0|0:0,0:0:0:0:
376,49,113937,1,0,0:0:0:0:
138,198,114014,2,0,L|63:200,1,59.9999981689454,0|0,0:0|2:0,0:0:0:0:
284,320,114169,6,0,P|345:239|236:185,1,239.999992675781,2|8,0:0|0:0,0:0:0:0:
131,214,114633,1,2,0:2:0:0:
253,88,114787,2,0,L|383:79,1,119.999996337891,2|2,0:0|0:0,0:0:0:0:
155,93,115097,1,8,0:0:0:0:
405,289,115251,6,0,L|148:279,1,239.999992675781,0|2,0:0|0:0,0:0:0:0:
286,206,115715,2,0,L|423:211,1,119.999996337891,8|2,0:0|0:2,0:0:0:0:
187,35,116025,2,0,L|179:185,1,119.999996337891,2|2,0:0|0:2,0:0:0:0:
242,154,116257,1,2,0:2:0:0:
396,154,116334,1,8,0:0:0:0:
131,334,116489,6,0,L|379:323,1,239.999992675781,2|0,0:0|0:0,0:0:0:0:
250,232,116952,2,0,L|392:227,3,119.999996337891,8|2|2|2,0:0|0:2|0:0|0:2,0:0:0:0:
151,107,117571,1,8,0:0:0:0:
405,58,117726,6,0,L|435:305,1,239.999992675781,2|0,0:0|0:0,0:0:0:0:
151,107,118190,1,8,0:0:0:0:
405,59,118344,2,0,L|169:73,1,224.999993133545,8|0,0:0|0:0,0:0:0:0:
181,72,118653,2,0,L|403:81,1,220.000006713867,0|8,0:0|0:0,0:0:0:0:
341,84,118885,1,0,0:0:0:0:
127,144,118963,2,0,L|48:141,1,59.9999981689454
263,331,119117,6,0,L|270:200,1,119.999996337891,4|0,0:0|0:0,0:0:0:0:
146,138,119427,2,0,L|301:135,1,119.999996337891,8|2,0:0|0:2,0:0:0:0:
386,75,119736,1,2,0:0:0:0:
266,135,119891,1,2,0:0:0:0:
481,262,120045,1,8,0:0:0:0:
228,335,120200,6,0,P|166:314|241:205,1,239.999992675781,0|2,0:0|0:0,0:0:0:0:
448,119,120664,2,0,L|308:114,1,119.999996337891,10|2,0:0|0:2,0:0:0:0:
111,108,120973,1,2,0:0:0:0:
230,117,121128,2,0,L|301:120,1,59.9999981689454,2|2,0:2|0:2,0:0:0:0:
442,129,121282,1,8,0:0:0:0:
192,330,121437,6,0,P|127:288|225:199,1,239.999992675781,2|0,0:0|0:0,0:0:0:0:
334,116,121901,2,0,L|206:110,1,119.999996337891,10|2,0:0|0:2,0:0:0:0:
275,106,122133,1,0,0:0:0:0:
423,100,122210,1,2,0:2:0:0:
273,51,122287,2,0,L|195:47,1,59.9999981689454,2|2,0:2|0:0,0:0:0:0:
431,234,122519,1,8,0:0:0:0:
179,322,122674,6,0,L|312:333,1,119.999996337891,2|0,0:0|2:0,0:0:0:0:
420,235,122983,2,0,L|292:225,1,119.999996337891,0|8,2:0|0:0,0:0:0:0:
81,253,123293,2,0,P|31:187|143:108,1,239.999992675781,8|2,0:0|2:2,0:0:0:0:
350,83,123757,2,0,L|290:82,1,59.9999981689454,8|0,0:0|0:0,0:0:0:0:
96,130,123911,2,0,L|165:132,1,59.9999981689454
344,338,124066,6,0,P|404:303|314:214,1,239.999992675781,0|8,0:0|0:0,0:0:0:0:
192,211,124530,1,2,2:0:0:0:
313,37,124684,2,0,L|320:175,1,119.999996337891,8|2,0:0|2:0,0:0:0:0:
101,214,124994,1,8,0:0:0:0:
352,338,125148,6,0,P|437:303|408:155,1,239.999992675781,0|2,0:2|0:2,0:0:0:0:
212,41,125612,2,0,L|207:175,1,119.999996337891,8|2,0:0|0:2,0:0:0:0:
430,172,125922,1,2,0:0:0:0:
215,200,126076,2,0,L|212:272,1,59.9999981689454,2|2,0:2|0:2,0:0:0:0:
375,275,126231,1,8,0:0:0:0:
122,35,126385,6,0,P|87:98|135:279,1,239.999992675781,4|2,0:2|0:0,0:0:0:0:
343,321,126849,2,0,L|212:329,1,119.999996337891,10|2,0:0|0:2,0:0:0:0:
284,320,127081,1,0,0:0:0:0:
442,237,127159,1,2,0:2:0:0:
279,234,127236,2,0,L|194:230,1,59.9999981689454,10|2,0:0|0:0,0:0:0:0:
385,144,127391,2,0,L|476:146,1,59.9999981689454,0|8,0:0|0:0,0:0:0:0:
172,51,127623,6,0,L|447:46,1,239.999992675781,2|0,0:0|0:0,0:0:0:0:
128,152,128086,2,0,L|117:273,1,119.999996337891,8|0,0:0|0:0,0:0:0:0:
363,270,128396,1,8,0:0:0:0:
124,48,128550,2,0,L|209:44,1,59.9999981689454,8|0,0:0|0:0,0:0:0:0:
438,155,128705,2,0,L|363:158,1,59.9999981689454,8|0,0:0|0:0,0:0:0:0:
196,313,128860,2,0,L|191:245,1,59.9999981689454
448,343,129014,6,0,P|484:286|397:185,1,200,4|10,0:0|0:0,0:0:0:0:
317,193,129478,1,2,2:0:0:0:
457,108,129633,2,0,L|335:113,2,100,10|2|8,0:0|2:0|0:0,0:0:0:0:
216,304,130097,6,0,L|389:186,1,200,0|0,0:2|0:0,0:0:0:0:
241,193,130561,2,0,L|238:78,1,100,8|2,0:0|0:0,0:0:0:0:
379,40,130870,2,0,L|271:45,2,100,2|0|10,0:0|0:0|0:0,0:0:0:0:
137,323,131334,6,0,P|80:299|143:205,1,200
381,89,131798,1,8,0:0:0:0:
305,116,131901,1,0,0:0:0:0:
283,193,132004,1,0,0:0:0:0:
299,271,132107,1,0,0:0:0:0:
370,307,132210,1,0,0:0:0:0:
203,64,132313,2,0,L|125:55,1,66.6666666666667,0|8,0:0|0:0,0:0:0:0:
383,240,132519,2,0,L|468:228,1,66.6666666666667
177,321,132726,6,0,L|72:318,1,100,2|0,0:0|0:0,0:0:0:0:
296,227,133035,1,10,0:0:0:0:
73,181,133190,2,0,L|67:59,1,100,10|0,0:0|0:0,0:0:0:0:
223,73,133499,2,0,L|290:71,1,50,2|0,0:0|0:0,0:0:0:0:
117,246,133653,2,0,L|189:243,1,50,10|0,0:0|0:0,0:0:0:0:
327,257,133808,2,0,L|396:254,1,50,2|0,0:0|0:0,0:0:0:0:
163,315,133963,6,0,L|286:309,1,100,2|2,0:0|2:0,0:0:0:0:
405,158,134272,2,0,L|268:164,1,100,10|2,0:0|2:0,0:0:0:0:
164,40,134581,2,0,L|152:158,1,100,10|2,0:0|2:1,0:0:0:0:
321,172,134891,1,8,0:0:0:0:
111,312,135045,6,0,L|331:302,1,200,2|2,0:0|0:0,0:0:0:0:
169,231,135509,2,0,L|50:235,1,100,8|0,0:0|2:0,0:0:0:0:
210,172,135818,2,0,L|334:168,1,100,2|0,0:0|0:0,0:0:0:0:
145,78,136128,1,8,0:0:0:0:
354,332,136282,6,0,P|429:288|358:237,1,200,2|0,0:0|0:0,0:0:0:0:
223,219,136746,1,10,0:0:0:0:
324,155,136901,2,0,L|317:102,1,50
218,107,137056,2,0,L|114:115,1,100,2|2,0:0|0:0,0:0:0:0:
260,259,137365,2,0,L|333:250,1,50,8|0,0:0|0:0,0:0:0:0:
143,282,137519,6,0,L|37:292,2,100,2|2|0,0:0|0:0|0:0,0:0:0:0:
290,321,137983,1,0,0:0:0:0:
57,184,138138,1,10,0:0:0:0:
287,109,138293,2,0,L|79:98,1,187.5,2|0,0:0|0:0,0:0:0:0:
351,266,138602,2,0,L|420:260,1,50,8|8,0:0|0:0,0:0:0:0:
173,259,138757,2,0,L|94:245,1,50
352,45,138911,6,0,L|374:172,1,119.999996337891,6|2,0:0|0:0,0:0:0:0:
156,44,139220,2,0,L|134:171,1,119.999996337891,8|2,0:0|0:0,0:0:0:0:
409,48,139530,2,0,L|371:167,1,119.999996337891,10|0,0:0|0:0,0:0:0:0:
100,47,139839,2,0,L|138:166,1,119.999996337891,8|2,0:0|0:0,0:0:0:0:
475,98,140148,6,0,L|369:164,1,119.999996337891,10|2,0:0|0:0,0:0:0:0:
35,97,140458,2,0,L|141:163,1,119.999996337891,8|2,0:0|0:0,0:0:0:0:
494,160,140767,2,0,L|374:161,1,119.999996337891,10|0,0:0|0:0,0:0:0:0:
30,172,141076,1,8,0:0:0:0:
374,160,141231,1,2,0:0:0:0:
149,169,141385,6,0,L|16:172,1,119.999996337891,10|0,0:0|0:0,0:0:0:0:
248,270,141695,2,0,L|117:277,1,119.999996337891,10|0,0:0|0:0,0:0:0:0:
343,169,142004,2,0,L|215:174,1,119.999996337891,10|0,0:0|0:0,0:0:0:0:
482,105,142313,2,0,L|492:240,1,119.999996337891,10|0,0:0|0:0,0:0:0:0:
200,197,142623,6,0,L|330:193,1,119.999996337891,10|0,0:0|0:0,0:0:0:0:
29,327,142932,2,0,L|162:322,1,119.999996337891,10|0,0:0|0:0,0:0:0:0:
481,47,143241,2,0,L|355:53,1,119.999996337891,10|0,0:0|0:0,0:0:0:0:
25,49,143550,2,0,L|93:47,1,59.9999981689454,10|10,0:0|0:0,0:0:0:0:
478,351,143705,2,0,L|410:349,1,59.9999981689454,8|10,0:0|0:0,0:0:0:0:
235,333,143860,6,0,L|99:322,1,119.999996337891,6|0,0:0|0:0,0:0:0:0:
258,235,144169,2,0,L|414:245,1,119.999996337891,10|0,0:0|0:0,0:0:0:0:
232,56,144478,2,0,L|217:201,1,119.999996337891,10|0,0:0|0:0,0:0:0:0:
75,161,144787,2,0,L|57:299,1,119.999996337891,10|0,0:0|0:0,0:0:0:0:
313,303,145097,6,0,L|445:311,1,119.999996337891,10|0,0:0|0:0,0:0:0:0:
288,218,145406,2,0,L|155:210,1,119.999996337891,8|2,0:0|0:0,0:0:0:0:
313,27,145715,2,0,L|327:148,1,119.999996337891,8|2,0:0|0:0,0:0:0:0:
471,168,146025,2,0,L|491:297,1,119.999996337891,8|2,0:0|0:0,0:0:0:0:
226,289,146334,6,0,L|369:273,1,119.999996337891,10|0,0:0|0:0,0:0:0:0:
199,190,146643,2,0,L|67:177,1,119.999996337891,8|0,0:0|0:0,0:0:0:0:
227,289,146952,2,0,L|83:274,1,119.999996337891,8|0,0:0|0:0,0:0:0:0:
253,207,147262,2,0,L|388:187,1,119.999996337891,8|0,0:0|0:0,0:0:0:0:
118,26,147571,6,0,L|103:164,1,119.999996337891,8|0,0:0|0:0,0:0:0:0:
250,60,147880,2,0,L|313:64,1,59.9999981689454,8|0,0:0|0:0,0:0:0:0:
83,181,148035,1,2,0:0:0:0:
32,247,148112,1,0,0:0:0:0:
54,328,148190,1,10,0:0:0:0:
130,362,148267,1,0,0:0:0:0:
316,331,148344,2,0,L|322:266,1,59.9999981689454,0|0,0:0|2:0,0:0:0:0:
135,155,148499,2,0,L|207:154,1,59.9999981689454,8|0,0:0|0:0,0:0:0:0:
404,104,148653,2,0,L|482:104,1,59.9999981689454
229,344,148808,6,0,P|158:305|247:236,1,200,2|0,0:0|0:0,0:0:0:0:
315,223,149272,1,2,0:2:0:0:
164,174,149427,2,0,P|115:147|204:72,1,200,10|2,0:0|0:2,0:0:0:0:
333,53,149891,2,0,L|338:174,1,100,10|0,0:0|0:0,0:0:0:0:
187,263,150200,6,0,L|76:267,2,100,8|2|2,0:0|2:1|0:2,0:0:0:0:
337,152,150664,2,0,L|344:267,1,100,8|2,0:0|2:1,0:0:0:0:
194,47,150973,2,0,L|180:153,1,100,2|10,0:2|0:1,0:0:0:0:
403,176,151282,6,0,P|409:106|287:59,1,200
206,74,151746,1,2,0:2:0:0:
356,318,151901,2,0,P|296:286|390:240,1,200,10|2,0:0|0:2,0:0:0:0:
218,178,152365,2,0,L|204:287,1,100,10|0,0:0|0:0,0:0:0:0:
354,116,152674,6,0,L|463:123,2,100,10|2|2,0:0|2:1|0:2,0:0:0:0:
203,56,153138,2,0,L|190:178,1,100,10|2,0:0|0:2,0:0:0:0:
345,321,153447,2,0,L|416:314,1,50,8|0,0:0|0:0,0:0:0:0:
331,259,153602,2,0,L|255:252,1,50,2|0,0:2|0:0,0:0:0:0:
75,314,153757,6,0,L|248:163,1,200,2|0,0:0|0:0,0:0:0:0:
295,134,154220,1,2,0:2:0:0:
144,55,154375,2,0,P|85:64|149:145,1,200,10|2,0:0|0:2,0:0:0:0:
283,139,154839,2,0,L|290:250,1,100,10|0,0:0|0:0,0:0:0:0:
142,330,155148,6,0,P|184:299|94:240,1,200,10|2,0:0|0:2,0:0:0:0:
251,175,155612,2,0,L|266:285,1,100,8|2,0:0|2:1,0:0:0:0:
415,244,155922,2,0,L|432:358,1,100,0|10,0:0|0:0,0:0:0:0:
217,45,156231,6,0,P|152:48|114:193,1,200,2|0,0:0|0:0,0:0:0:0:
247,136,156695,2,0,L|364:142,1,100,2|10,0:2|0:0,0:0:0:0:
196,253,157004,2,0,L|286:327,2,100,0|0|2,0:0|0:0|0:2,0:0:0:0:
405,238,157468,6,0,P|394:313|261:350,1,200,2|0,0:0|0:0,0:0:0:0:
139,108,157932,2,0,L|130:216,1,100,0|10,0:0|0:0,0:0:0:0:
271,222,158241,2,0,L|332:224,1,50,2|0,2:0|0:0,0:0:0:0:
117,320,158396,1,8,0:0:0:0:
58,281,158473,1,0,0:0:0:0:
41,213,158550,1,0,0:0:0:0:
82,156,158628,1,0,0:0:0:0:
333,137,158705,6,0,L|448:129,1,100,4|2,0:0|0:0,0:0:0:0:
283,63,159014,2,0,L|166:70,1,100,8|2,0:0|0:0,0:0:0:0:
32,231,159324,2,0,L|29:132,1,100,0|2,0:0|0:0,0:0:0:0:
79,132,159556,1,0,0:0:0:0:
128,133,159633,1,8,0:0:0:0:
339,306,159787,6,0,P|363:243|250:187,1,200,2|0,0:0|0:0,0:0:0:0:
169,196,160251,1,8,0:0:0:0:
319,106,160406,2,0,L|201:100,2,100
469,175,160870,2,0,L|458:279,1,100,8|0,0:0|0:0,0:0:0:0:
248,285,161179,6,0,L|133:272,1,100,4|2,0:2|0:0,0:0:0:0:
301,231,161489,2,0,L|318:117,1,100,8|2,0:0|0:0,0:0:0:0:
165,62,161798,2,0,L|272:73,1,100,0|2,0:0|0:0,0:0:0:0:
314,77,162030,1,0,0:0:0:0:
264,72,162107,1,8,0:0:0:0:
51,198,162262,6,0,P|26:273|113:352,1,200,2|0,0:0|0:0,0:0:0:0:
254,337,162726,2,0,L|363:337,1,100,8|2,0:0|0:0,0:0:0:0:
222,264,163035,1,0,0:0:0:0:
292,192,163190,1,0,0:0:0:0:
153,139,163344,1,8,0:0:0:0:
292,192,163499,1,0,0:0:0:0:
82,51,163653,6,0,L|70:171,1,100,4|2,0:2|0:0,0:0:0:0:
221,254,163963,2,0,L|337:265,1,100,0|2,0:0|0:0,0:0:0:0:
470,202,164272,2,0,L|349:193,1,100,0|2,0:0|0:0,0:0:0:0:
406,168,164504,1,0,0:0:0:0:
442,144,164581,1,8,0:0:0:0:
232,299,164736,6,0,L|393:176,1,200,2|0,0:0|0:0,0:0:0:0:
242,49,165200,2,0,L|230:153,1,100,8|0,0:0|0:0,0:0:0:0:
381,157,165509,2,0,P|366:212|301:213,1,100
279,218,165741,1,0,0:0:0:0:
380,102,165818,2,0,L|484:108,1,100,8|0,0:0|0:0,0:0:0:0:
190,319,166128,6,0,L|69:309,1,100,2|0,0:0|0:0,0:0:0:0:
166,288,166360,1,0,0:0:0:0:
412,277,166437,2,0,L|425:172,1,100,10|0,0:0|0:0,0:0:0:0:
348,170,166669,1,0,0:0:0:0:
169,21,166746,2,0,L|154:138,1,100,10|0,0:0|0:0,0:0:0:0:
231,129,166978,1,0,0:0:0:0:
409,143,167056,1,10,0:0:0:0:
106,121,167210,2,0,L|170:119,1,50
409,143,167365,1,0,0:0:0:0:
409,143,168138,2,0,L|331:211,2,100
199,239,168602,1,0,1:0:0:0:
180,345,178499,6,0,L|171:229,1,100,8|0,0:0|0:0,0:0:0:0:
305,242,178808,2,0,L|295:120,1,100,10|0,0:0|0:0,0:0:0:0:
428,130,179117,2,0,L|421:25,1,100,8|0,0:0|0:0,0:0:0:0:
289,42,179427,1,10,0:0:0:0:
423,31,179581,1,0,0:0:0:0:
289,42,179736,6,0,L|298:158,1,100,8|0,0:0|0:0,0:0:0:0:
164,145,180045,2,0,L|173:257,1,100,10|0,0:0|0:0,0:0:0:0:
41,253,180355,2,0,L|49:369,1,100,8|0,0:0|0:0,0:0:0:0:
179,356,180664,1,10,0:0:0:0:
47,352,180818,6,0,L|279:345,1,200
116,250,181282,1,10,0:0:0:0:
166,247,181360,1,0,0:0:0:0:
215,243,181437,1,0,0:0:0:0:
346,146,181592,1,8,0:0:0:0:
296,150,181669,1,0,0:0:0:0:
246,151,181746,1,0,0:0:0:0:
376,65,181901,1,10,0:0:0:0:
245,70,182056,6,0,P|197:95|261:202,1,200
343,207,182519,1,10,0:0:0:0:
483,324,182674,2,0,L|488:111,1,200
336,126,183138,1,10,0:0:0:0:
116,62,183447,6,0,L|240:67,1,100
357,159,183757,2,0,L|346:276,1,100,10|0,0:0|0:0,0:0:0:0:
218,238,184066,2,0,L|208:353,1,100,8|0,0:0|0:0,0:0:0:0:
79,328,184375,1,10,0:0:0:0:
210,338,184530,1,0,0:0:0:0:
79,328,184684,6,0,L|89:223,1,100,8|0,0:0|0:0,0:0:0:0:
218,238,184994,2,0,L|228:131,1,100,10|0,0:0|0:0,0:0:0:0:
356,158,185303,2,0,L|367:55,1,100,8|0,0:0|0:0,0:0:0:0:
234,45,185612,1,10,0:0:0:0:
367,59,185767,6,0,L|143:77,1,200
308,191,186231,2,0,L|435:206,1,100,10|0,0:0|0:0,0:0:0:0:
256,292,186540,2,0,L|185:283,1,50,8|0,0:0|0:0,0:0:0:0:
299,252,186695,1,0,0:0:0:0:
357,205,186772,1,0,0:0:0:0:
340,132,186849,1,10,0:0:0:0:
275,93,186927,1,0,0:0:0:0:
128,102,187004,2,0,L|122:175,1,50
335,179,187159,5,0,0:0:0:0:
361,272,187313,1,0,0:0:0:0:
156,91,187623,1,0,0:0:0:0:
129,183,187777,1,0,0:0:0:0:
357,300,188086,2,0,L|279:290,1,50
88,243,188241,2,0,L|97:178,1,50
367,219,188396,6,0,P|430:201|351:109,1,239.999992675781,6|8,0:0|0:0,0:0:0:0:
236,121,188860,1,2,0:2:0:0:
356,107,189014,2,0,L|486:96,1,119.999996337891,2|2,0:0|0:0,0:0:0:0:
256,206,189324,1,8,0:0:0:0:
507,288,189478,6,0,L|251:304,1,239.999992675781,2|2,0:1|0:0,0:0:0:0:
483,122,189942,2,0,L|494:245,1,119.999996337891,10|2,0:0|0:2,0:0:0:0:
277,133,190251,1,2,0:0:0:0:
145,89,190406,2,0,L|208:87,1,59.9999981689454,2|2,0:2|0:2,0:0:0:0:
392,90,190561,1,8,0:0:0:0:
177,329,190715,6,0,L|40:318,1,119.999996337891,2|0,0:0|2:0,0:0:0:0:
394,81,191025,5,2,0:2:0:0:
254,89,191102,1,0,0:0:0:0:
110,95,191180,2,0,L|426:79,1,285.000002717972,10|2,0:0|0:2,0:0:0:0:
254,89,191412,1,0,0:0:0:0:
110,95,191489,2,0,L|404:81,1,285.000002717972,2|2,0:0|0:2,0:0:0:0:
254,89,191721,1,0,0:0:0:0:
110,95,191798,1,10,0:0:0:0:
405,178,191952,6,0,L|150:187,1,239.999992675781,2|0,0:0|0:0,0:0:0:0:
405,178,192416,1,8,0:0:0:0:
165,186,192571,2,0,L|171:63,1,119.999996337891,8|2,0:0|2:0,0:0:0:0:
292,45,192880,2,0,L|49:49,1,220.000006713867,2|8,0:2|0:0,0:0:0:0:
133,49,193112,1,0,0:0:0:0:
314,158,193190,2,0,L|399:152,1,59.9999981689454,0|0,0:0|2:0,0:0:0:0:
165,325,193344,6,0,P|112:288|213:197,1,239.999992675781,2|8,0:0|0:0,0:0:0:0:
322,199,193808,2,0,L|185:189,2,119.999996337891,2|2|2,0:2|0:0|0:0,0:0:0:0:
105,102,194272,1,8,0:0:0:0:
357,227,194427,6,0,P|364:156|206:90,1,239.999992675781,0|2,0:0|0:0,0:0:0:0:
357,71,194891,2,0,L|485:62,1,119.999996337891,8|2,0:0|0:2,0:0:0:0:
259,318,195200,2,0,L|251:175,1,119.999996337891,2|2,0:0|0:2,0:0:0:0:
313,191,195432,1,2,0:2:0:0:
477,187,195509,1,8,0:0:0:0:
223,113,195664,6,0,P|144:124|153:265,1,239.999992675781,2|0,0:0|0:0,0:0:0:0:
264,310,196128,2,0,L|113:316,3,119.999996337891,8|2|2|2,0:0|0:2|0:0|0:2,0:0:0:0:
359,199,196746,1,8,0:0:0:0:
107,228,196901,6,0,L|361:221,1,239.999992675781,2|0,0:0|0:0,0:0:0:0:
129,118,197365,1,8,0:0:0:0:
380,98,197519,2,0,L|144:102,1,224.999993133545,8|0,0:0|0:0,0:0:0:0:
156,101,197829,2,0,L|387:109,1,220.000006713867,0|8,0:0|0:0,0:0:0:0:
316,115,198061,1,0,0:0:0:0:
104,176,198138,2,0,L|36:173,1,59.9999981689454
229,317,198293,6,0,L|369:308,1,119.999996337891,4|0,0:0|0:0,0:0:0:0:
228,238,198602,2,0,L|86:248,1,119.999996337891,8|2,0:0|0:2,0:0:0:0:
230,147,198911,1,2,0:0:0:0:
109,246,199066,1,2,0:0:0:0:
325,283,199220,1,8,0:0:0:0:
72,49,199375,6,0,P|30:109|138:207,1,239.999992675781,0|2,0:0|0:0,0:0:0:0:
346,187,199839,2,0,L|353:325,1,119.999996337891,10|2,0:0|0:2,0:0:0:0:
136,98,200148,1,2,0:0:0:0:
256,89,200303,2,0,L|339:86,1,59.9999981689454,2|2,0:2|0:2,0:0:0:0:
467,73,200458,1,8,0:0:0:0:
216,319,200612,6,0,P|140:304|206:202,1,239.999992675781,2|0,0:0|0:0,0:0:0:0:
323,126,201076,2,0,L|194:120,1,119.999996337891,10|2,0:0|0:2,0:0:0:0:
264,119,201308,1,0,0:0:0:0:
430,202,201385,1,2,0:2:0:0:
266,253,201463,2,0,L|204:259,1,59.9999981689454,2|2,0:2|0:0,0:0:0:0:
424,333,201695,1,8,0:0:0:0:
172,191,201849,6,0,L|304:183,1,119.999996337891,2|0,0:0|2:0,0:0:0:0:
176,71,202159,2,0,L|172:197,1,119.999996337891,0|8,0:0|0:0,0:0:0:0:
391,75,202468,2,0,L|402:333,1,239.999992675781,8|2,0:0|2:2,0:0:0:0:
185,322,202932,2,0,L|106:325,1,59.9999981689454,8|0,0:0|0:0,0:0:0:0:
314,124,203086,2,0,L|239:125,1,59.9999981689454
59,60,203241,6,0,P|37:152|161:214,1,239.999992675781,0|8,0:0|0:0,0:0:0:0:
267,208,203705,1,2,2:0:0:0:
146,313,203860,2,0,L|287:301,1,119.999996337891,8|2,0:0|2:0,0:0:0:0:
482,268,204169,1,8,0:0:0:0:
228,106,204324,6,0,L|484:95,1,239.999992675781,0|2,0:2|0:2,0:0:0:0:
347,180,204787,2,0,L|219:184,1,119.999996337891,8|2,0:0|0:2,0:0:0:0:
445,269,205097,1,2,0:0:0:0:
225,291,205251,2,0,L|290:286,1,59.9999981689454,2|2,0:2|0:2,0:0:0:0:
445,269,205406,1,8,0:0:0:0:
192,35,205561,6,0,P|107:79|181:163,1,239.999992675781,4|2,0:2|0:0,0:0:0:0:
397,192,206025,2,0,L|241:201,1,119.999996337891,10|2,0:0|0:2,0:0:0:0:
338,191,206257,1,0,0:0:0:0:
491,138,206334,1,2,0:2:0:0:
329,98,206411,2,0,L|255:96,1,59.9999981689454,8|2,0:0|0:0,0:0:0:0:
428,43,206566,2,0,L|522:42,1,59.9999981689454,0|8,0:0|0:0,0:0:0:0:
221,337,206798,6,0,P|223:273|354:157,1,239.999992675781,2|0,0:0|0:0,0:0:0:0:
126,148,207262,1,8,0:0:0:0:
342,158,207416,1,0,0:0:0:0:
126,148,207571,1,8,0:0:0:0:
59,197,207648,1,0,0:0:0:0:
39,279,207726,1,8,0:0:0:0:
99,338,207803,1,0,0:0:0:0:
248,153,207880,2,0,L|315:151,1,59.9999981689454,8|0,0:0|0:0,0:0:0:0:
116,93,208035,2,0,L|32:95,1,59.9999981689454
247,271,208190,6,0,L|256:335,1,50,2|2,0:0|0:0,0:0:0:0:
91,194,208344,1,0,0:0:0:0:
300,135,208499,2,0,L|424:127,1,100,8|0,0:0|0:0,0:0:0:0:
259,63,208808,1,10,0:0:0:0:
492,90,208963,2,0,L|485:215,1,100,2|8,0:0|0:0,0:0:0:0:
224,318,209272,5,2,0:0:0:0:
353,243,209427,1,0,0:0:0:0:
223,161,209581,1,2,0:0:0:0:
487,189,209736,1,10,0:0:0:0:
356,137,209891,1,0,0:0:0:0:
486,72,210045,2,0,L|340:69,1,129.999994049073,2|2,0:0|0:0,0:0:0:0:
201,69,210277,1,2,0:0:0:0:
356,137,210355,2,0,L|416:139,1,50,8|0,0:0|0:0,0:0:0:0:
206,331,210509,6,0,P|129:311|218:198,1,279.999991455078,0|2,0:0|0:0,0:0:0:0:
349,200,210973,2,0,L|483:212,1,100,8|0,0:0|0:0,0:0:0:0:
186,86,211282,1,2,0:0:0:0:
322,99,211360,1,2,0:0:0:0:
457,115,211437,1,0,0:0:0:0:
235,189,211592,2,0,L|111:173,1,100,8|2,0:0|0:0,0:0:0:0:
388,336,211901,6,0,L|497:343,1,100,0|0,2:0|0:0,0:0:0:0:
346,244,212210,1,10,0:0:0:0:
476,219,212365,1,8,0:0:0:0:
233,110,212519,2,0,L|104:98,1,100,2|2,0:0|0:0,0:0:0:0:
386,104,212829,2,0,L|465:97,1,50,8|0,0:0|0:0,0:0:0:0:
195,216,212983,2,0,L|129:222,1,50,2|0,0:0|0:0,0:0:0:0:
302,259,213138,6,0,L|314:323,1,50,2|2,0:0|0:0,0:0:0:0:
155,340,213293,1,0,0:0:0:0:
404,52,213447,2,0,L|297:60,1,100,8|0,0:0|0:0,0:0:0:0:
154,79,213757,1,10,0:0:0:0:
406,147,213911,2,0,L|416:261,1,100,2|8,0:0|0:0,0:0:0:0:
154,70,214220,5,2,0:0:0:0:
285,177,214375,1,0,0:0:0:0:
155,283,214530,1,2,0:0:0:0:
405,71,214684,1,10,0:0:0:0:
285,177,214839,1,0,0:0:0:0:
415,287,214994,2,0,L|274:279,1,129.999994049073,2|2,0:0|0:0,0:0:0:0:
132,273,215226,1,2,0:0:0:0:
285,177,215303,2,0,L|363:182,1,50,8|0,0:0|0:0,0:0:0:0:
159,39,215458,6,0,P|76:59|176:161,1,279.999991455078
307,300,215922,2,0,L|449:300,1,100,10|0,0:0|0:0,0:0:0:0:
151,337,216231,1,2,0:0:0:0:
17,281,216308,1,2,0:0:0:0:
151,203,216385,1,0,0:0:0:0:
413,197,216540,5,8,0:0:0:0:
281,133,216695,2,0,L|495:127,1,200,2|0,0:0|0:0,0:0:0:0:
219,204,217159,1,8,0:0:0:0:
348,131,217313,2,0,L|118:123,1,200,8|0,0:0|0:0,0:0:0:0:
401,312,217777,2,0,L|333:305,1,50,8|8,0:0|0:0,0:0:0:0:
146,294,217932,2,0,L|72:284,1,50,8|8,0:0|0:0,0:0:0:0:
405,84,218086,6,0,L|425:227,1,119.999996337891,12|2,0:0|0:0,0:0:0:0:
105,87,218396,2,0,L|85:230,1,119.999996337891,10|0,0:0|0:0,0:0:0:0:
405,84,218705,2,0,L|425:227,1,119.999996337891,10|2,0:0|0:0,0:0:0:0:
206,343,219014,1,10,0:0:0:0:
352,336,219169,1,2,0:0:0:0:
50,90,219324,6,0,L|74:214,1,119.999996337891,10|2,0:0|0:0,0:0:0:0:
462,90,219633,2,0,L|438:214,1,119.999996337891,10|2,0:0|0:0,0:0:0:0:
50,90,219942,2,0,L|74:214,1,119.999996337891,10|2,0:0|0:0,0:0:0:0:
290,319,220251,1,8,0:0:0:0:
144,320,220406,1,2,0:0:0:0:
459,90,220561,6,0,L|329:97,1,119.999996337891,8|2,0:0|0:0,0:0:0:0:
22,121,220870,2,0,L|150:132,1,119.999996337891,10|0,0:0|0:0,0:0:0:0:
459,90,221179,2,0,L|329:97,1,119.999996337891,10|2,0:0|0:0,0:0:0:0:
120,220,221489,1,8,0:0:0:0:
264,205,221643,1,2,0:0:0:0:
22,121,221798,6,0,L|15:264,1,119.999996337891,8|2,0:0|0:0,0:0:0:0:
266,303,222107,2,0,L|133:317,1,119.999996337891,10|2,0:0|0:0,0:0:0:0:
392,145,222416,2,0,L|262:159,1,119.999996337891,8|2,0:0|0:0,0:0:0:0:
496,31,222726,2,0,L|429:35,1,59.9999981689454,8|0,0:0|0:0,0:0:0:0:
178,50,222880,2,0,L|103:53,1,59.9999981689454
478,175,223035,6,0,L|489:313,1,119.999996337891,4|2,0:0|0:0,0:0:0:0:
196,199,223344,2,0,L|341:192,1,119.999996337891,10|0,0:0|0:0,0:0:0:0:
29,194,223653,2,0,L|22:321,1,119.999996337891,10|2,0:0|0:0,0:0:0:0:
316,193,223963,2,0,L|175:182,1,119.999996337891,0|2,0:0|0:0,0:0:0:0:
478,175,224272,6,0,L|341:168,1,119.999996337891,8|2,0:0|0:0,0:0:0:0:
139,79,224581,2,0,L|287:90,1,119.999996337891,10|2,0:0|0:0,0:0:0:0:
36,195,224891,2,0,L|24:328,1,119.999996337891,10|2,0:0|0:0,0:0:0:0:
313,213,225200,2,0,L|167:218,1,119.999996337891,8|2,0:0|0:0,0:0:0:0:
478,175,225509,6,0,L|489:313,1,119.999996337891,0|2,0:0|0:0,0:0:0:0:
37,178,225818,2,0,L|25:304,1,119.999996337891,10|0,0:0|0:0,0:0:0:0:
478,175,226128,2,0,L|489:313,1,119.999996337891,10|0,0:0|0:0,0:0:0:0:
123,121,226437,1,10,0:0:0:0:
355,116,226592,5,2,0:0:0:0:
245,110,226746,2,0,L|168:105,1,50,8|0,0:0|0:0,0:0:0:0:
269,167,226901,2,0,L|315:197,1,50,2|0,0:0|0:0,0:0:0:0:
236,209,227056,2,0,L|201:258,1,50,10|0,0:0|0:0,0:0:0:0:
358,327,227210,2,0,L|361:269,1,50,2|0,0:0|0:0,0:0:0:0:
196,305,227365,2,0,L|144:264,1,50,8|8,0:0|0:0,0:0:0:0:
417,156,227519,1,8,0:0:0:0:
482,155,227597,1,8,0:0:0:0:
84,150,227674,1,8,0:0:0:0:
19,147,227751,1,8,0:0:0:0:
482,155,227829,5,0,1:1:0:0:
256,192,227983,12,0,236334,0:0:0:0:
