osu file format v14

[General]
AudioFilename: audio.mp3
AudioLeadIn: 0
PreviewTime: 280920
Countdown: 0
SampleSet: Soft
StackLeniency: 0.5
Mode: 0
LetterboxInBreaks: 0
EpilepsyWarning: 1
WidescreenStoryboard: 1

[Editor]
Bookmarks: 26919,53428,85210,110141,143861,173066,211597,251591,281018,293837,315187,357648
DistanceSpacing: 0.8
BeatDivisor: 6
GridSize: 4
TimelineZoom: 2.400001

[Metadata]
Title:Yumemigachi na Cream Puffle [Crossfade]
TitleUnicode:夢見がちなクリームパッフル【クロスフェード】
Artist:yuikonnu
ArtistUnicode:ゆいこんぬ
Creator:Kyuukai
Version:White Chocolate Collab
Source:
Tags:TOKOTOKO 40mp honeyworks nayuta yuiko kimiiro ni somaru 君色に染まる kisaragi attention 如月アテンション otsukimi recital 如月アテンション healthy na seikatsu ヘルシーな生活 Junjou Skirt 純情スカート Tokyo Summer Session 東京サマーセッション super nuko ni naritai すーぱーぬこになりたい Neko ga Marukunatta ねこがまるくなった Dreamless Dreams ドリームレス・ドリームス Tsukurimono Sekai ツクリモノセカイ Yume no Mata Yume 夢のまた夢 Otsukimi Recital オツキミリサイタル yaleufeu linada owens xenok irohas mugiwarasekai white chocolate
BeatmapID:1482047
BeatmapSetID:699977

[Difficulty]
HPDrainRate:6.2
CircleSize:3.8
OverallDifficulty:9.1
ApproachRate:9.4
SliderMultiplier:1.8
SliderTickRate:1

[Events]
//Background and Video events
0,0,"loli.jpg",0,0
//Break Periods
2,22013,26382
2,48700,52888
2,81056,84670
2,106279,109601
2,137341,143321
2,168803,172526
2,207016,211057
2,245547,251051
2,276586,280468
2,309827,314647
//Storyboard Layer 0 (Background)
//Storyboard Layer 1 (Fail)
//Storyboard Layer 2 (Pass)
//Storyboard Layer 3 (Foreground)
//Storyboard Sound Samples

[TimingPoints]
563,312.5,4,2,7,70,1,0
1501,-100,4,2,7,70,0,0
1709,-100,4,2,7,20,0,0
1813,-100,4,2,7,70,0,0
2021,-100,4,2,7,20,0,0
2125,-100,4,2,7,70,0,0
2229,-100,4,2,7,20,0,0
2333,-100,4,2,7,70,0,0
2542,-100,4,2,7,20,0,0
2646,-100,4,2,7,70,0,0
2854,-100,4,2,7,20,0,0
2958,-125,4,2,7,70,0,0
3271,-125,4,2,7,20,0,0
3375,-100,4,2,7,70,0,0
3583,-100,4,2,7,20,0,0
3688,-83.3333333333333,4,2,7,70,0,0
3896,-83.3333333333333,4,2,7,20,0,0
4000,-58.8235294117647,4,2,7,70,0,0
4208,-58.8235294117647,4,2,7,20,0,0
4313,-100,4,2,7,70,0,0
4521,-100,4,2,7,20,0,0
4625,-100,4,2,7,70,0,0
4729,-100,4,2,7,20,0,0
4833,-100,4,2,7,70,0,0
5042,-100,4,2,7,20,0,0
5146,-100,4,2,7,70,0,0
5354,-100,4,2,7,20,0,0
5458,-100,4,2,7,70,0,0
5875,-100,4,2,7,70,0,0
6083,-100,4,2,7,20,0,0
6187,-100,4,2,7,70,0,0
6708,-100,4,2,7,20,0,0
6812,-100,4,2,7,70,0,0
7021,-100,4,2,7,20,0,0
7125,-100,4,2,7,70,0,0
7229,-100,4,2,7,20,0,0
7333,-100,4,2,7,70,0,0
7542,-100,4,2,7,20,0,0
7646,-100,4,2,7,70,0,0
7854,-100,4,2,7,20,0,0
7958,-100,4,2,7,70,0,0
8271,-100,4,2,7,20,0,0
8375,-100,4,2,7,70,0,0
8583,-100,4,2,7,20,0,0
8688,-83.3333333333333,4,2,7,70,0,0
8896,-83.3333333333333,4,2,7,20,0,0
9000,-58.8235294117647,4,2,7,70,0,0
9208,-58.8235294117647,4,2,7,20,0,0
9313,-100,4,2,7,70,0,0
9521,-100,4,2,7,20,0,0
9625,-100,4,2,7,70,0,0
9729,-100,4,2,7,20,0,0
9833,-100,4,2,7,70,0,0
10042,-100,4,2,7,20,0,0
10146,-100,4,2,7,70,0,0
10354,-100,4,2,7,20,0,0
10458,-100,4,2,7,70,0,0
11083,-100,4,2,7,20,0,0
11187,-100,4,2,7,70,0,0
11396,-100,4,2,7,20,0,0
11500,-100,4,2,7,70,0,0
11708,-100,4,2,7,20,0,0
11812,-100,4,2,7,70,0,0
12021,-100,4,2,7,20,0,0
12125,-100,4,2,7,70,0,0
12333,-100,4,2,7,20,0,0
12437,-100,4,2,7,70,0,0
12958,-100,4,2,7,20,0,0
13062,-100,4,2,7,70,0,0
13271,-100,4,2,7,20,0,0
13375,-100,4,2,7,70,0,0
13479,-100,4,2,7,20,0,0
13583,-100,4,2,7,70,0,0
13792,-100,4,2,7,20,0,0
13896,-100,4,2,7,70,0,0
14104,-100,4,2,7,20,0,0
14208,-100,4,2,7,70,0,0
14521,-100,4,2,7,20,0,0
14625,-100,4,2,7,70,0,0
14833,-100,4,2,7,20,0,0
14937,-100,4,2,7,70,0,0
15042,-100,4,2,7,20,0,0
15146,-100,4,2,7,70,0,0
15458,-76.9230769230769,4,2,7,70,0,0
15667,-76.9230769230769,4,2,7,20,0,0
15771,-76.9230769230769,4,2,7,70,0,0
16083,-55.5555555555556,4,2,7,70,0,0
16292,-55.5555555555556,4,2,7,20,0,0
16396,-66.6666666666667,4,2,7,70,0,0
16604,-66.6666666666667,4,2,7,20,0,0
16708,-76.9230769230769,4,2,7,70,0,0
17021,-76.9230769230769,4,2,7,20,0,0
17125,-100,4,2,7,70,0,0
17333,-100,4,2,7,20,0,0
17437,-100,4,2,7,70,0,0
17958,-100,4,2,7,20,0,0
18063,-83.3333333333333,4,2,7,70,0,0
18271,-83.3333333333333,4,2,7,20,0,0
18375,-83.3333333333333,4,2,7,70,0,0
18583,-83.3333333333333,4,2,7,20,0,0
18688,-83.3333333333333,4,2,7,70,0,0
18896,-83.3333333333333,4,2,7,20,0,0
19000,-83.3333333333333,4,2,7,70,0,0
19208,-83.3333333333333,4,2,7,20,0,0
19313,-66.6666666666667,4,2,7,70,0,1
19625,-66.6666666666667,4,2,7,70,0,1
19833,-66.6666666666667,4,2,7,20,0,1
19938,-66.6666666666667,4,2,7,70,0,1
20250,-100,4,2,7,70,0,1
20771,-100,4,2,7,20,0,0
20875,-100,4,2,7,70,0,0
21396,-100,4,2,7,20,0,0
21500,-100,4,2,7,70,0,0
21813,-100,4,2,7,70,0,0
26922,300,4,2,6,70,1,0
46100,300,4,2,6,50,1,0
46100,-142.857142857143,4,2,6,50,0,0
53428,342.857142857143,4,2,6,70,1,0
53428,-111.111111111111,4,2,6,70,0,0
55399,-111.111111111111,4,2,6,20,0,0
55485,-111.111111111111,4,2,6,70,0,0
57799,-111.111111111111,4,2,6,20,0,0
57885,-111.111111111111,4,2,6,70,0,0
62513,-83.3333333333333,4,2,6,70,0,0
62685,-111.111111111111,4,2,6,70,0,0
63628,-111.111111111111,4,2,6,20,0,0
63713,-111.111111111111,4,2,6,70,0,0
63885,-71.4285714285714,4,2,6,70,0,0
64399,-111.111111111111,4,2,6,70,0,0
66370,-111.111111111111,4,2,6,20,0,0
66456,-111.111111111111,4,2,6,70,0,0
68770,-111.111111111111,4,2,6,20,0,0
68856,-111.111111111111,4,2,6,70,0,0
73142,-71.4285714285714,4,2,6,70,0,0
73656,-111.111111111111,4,2,6,70,0,0
74256,-111.111111111111,4,2,6,20,0,0
74342,-111.111111111111,4,2,6,70,0,0
77770,-125,4,2,6,70,0,0
78028,-76.9230769230769,4,2,6,20,0,0
78113,-111.111111111111,4,2,6,50,0,0
78370,-111.111111111111,4,2,6,20,0,0
78456,-111.111111111111,4,2,6,40,0,0
78628,-111.111111111111,4,2,6,40,0,0
80170,-111.111111111111,4,2,6,30,0,0
80770,-111.111111111111,4,2,6,20,0,0
80856,-111.111111111111,4,2,6,30,0,0
85210,260.869565217391,4,2,1,70,1,0
85210,-117.647058823529,4,2,1,70,0,0
88796,-117.647058823529,4,2,1,5,0,0
88862,-117.647058823529,4,2,1,70,0,0
93557,-100,4,2,1,70,0,0
94144,-100,4,2,1,50,0,0
94209,-100,4,2,1,70,0,0
94405,-100,4,2,1,5,0,0
94470,-100,4,2,1,70,0,0
96296,-133.333333333333,4,2,1,70,0,0
96688,-100,4,2,1,70,0,0
98318,-100,4,2,1,5,0,0
98383,-100,4,2,1,70,0,0
98579,-100,4,2,1,5,0,0
98644,-100,4,2,1,70,0,0
100992,-181.818181818181,4,2,1,70,0,0
101644,-125,4,2,1,70,0,0
103666,-125,4,2,1,70,0,0
103731,-125,4,2,1,70,0,0
105557,-125,4,2,1,50,0,0
105688,-125,4,2,1,40,0,0
105818,-133.333333333333,4,2,1,30,0,0
105949,-133.333333333333,4,2,1,20,0,0
106079,-133.333333333333,4,2,1,15,0,0
110141,375,4,2,7,70,1,0
110141,-111.111111111111,4,2,7,70,0,0
120641,-111.111111111111,4,2,7,70,0,0
121016,-111.111111111111,4,2,7,70,0,0
121578,-76.9230769230769,4,2,7,70,0,0
121766,-111.111111111111,4,2,7,70,0,0
121859,-111.111111111111,4,2,7,70,0,0
121953,-76.9230769230769,4,2,7,70,0,0
122141,-105.263157894737,4,2,7,70,0,0
127766,-76.9230769230769,4,2,7,70,0,0
128141,-105.263157894737,4,2,7,70,0,0
131328,-76.9230769230769,4,2,7,70,0,0
134141,-105.263157894737,4,2,7,50,0,0
135641,-105.263157894737,4,2,7,40,0,0
137141,-105.263157894737,4,2,7,30,0,0
143861,309.278350515464,4,2,1,70,1,0
143861,-100,4,2,1,70,0,0
153757,-111.111111111111,4,2,1,60,0,0
158706,-166.666666666667,4,2,1,50,0,0
163500,-125,4,2,1,55,0,0
163654,-100,4,2,1,60,0,0
168293,-100,4,2,1,40,0,0
168603,-100,4,2,1,30,0,0
173066,468.75,4,2,7,70,1,0
179980,-100,4,2,7,5,0,0
180097,-100,4,2,7,70,0,0
180448,-100,4,2,7,5,0,0
180566,-100,4,2,7,70,0,0
194980,-100,4,2,7,5,0,0
195097,-100,4,2,7,70,0,0
195448,-100,4,2,7,5,0,0
195566,-100,4,2,7,70,0,0
203066,-100,4,2,7,50,0,0
204472,-100,4,2,7,40,0,0
205409,-100,4,2,7,30,0,0
206112,-142.857142857143,4,2,7,20,0,0
211597,750,4,2,1,65,1,0
211597,-100,4,2,1,65,0,0
212347,750,4,2,6,65,1,0
212347,-133.333333333333,4,2,6,65,0,0
215972,-66.6666666666667,4,2,6,65,0,0
216722,-133.333333333333,4,2,6,65,0,0
217472,-133.333333333333,4,2,6,50,0,0
217597,-133.333333333333,4,2,6,65,0,0
220597,-66.6666666666667,4,2,6,65,0,0
220847,-133.333333333333,4,2,6,65,0,0
221347,-66.6666666666667,4,2,6,65,0,0
222722,-133.333333333333,4,2,6,65,0,0
225722,-66.6666666666667,4,2,6,65,0,0
226972,-133.333333333333,4,2,6,65,0,0
227972,-66.6666666666667,4,2,6,65,0,0
228722,-133.333333333333,4,2,6,65,0,0
230722,-66.6666666666667,4,2,6,65,0,0
231097,-133.333333333333,4,2,6,65,0,0
231722,-66.6666666666667,4,2,6,65,0,0
232222,-133.333333333333,4,2,6,65,0,0
232472,-66.6666666666667,4,2,6,65,0,0
233222,-133.333333333333,4,2,6,65,0,0
240097,-66.6666666666667,4,2,6,65,0,0
240347,-133.333333333333,4,2,6,65,0,0
244597,-133.333333333333,4,2,6,40,0,0
251438,612.244897959184,4,2,7,60,1,0
251897,612.244897959184,4,2,7,70,1,0
251897,-76.9230769230769,4,2,7,70,0,0
251997,-76.9230769230769,4,2,7,50,0,0
271488,-76.9230769230769,4,2,7,40,0,0
275774,-76.9230769230769,4,2,7,30,0,0
280811.613995382,394.736842105263,4,2,7,60,1,0
281206,394.736842105263,4,2,1,70,1,0
281206,-66.6666666666667,4,2,1,70,0,0
293048,-55.5555555555556,4,2,1,70,0,0
293837,-66.6666666666667,4,2,1,70,0,0
304100,-62.5,4,2,1,70,0,0
309627,-62.5,4,2,1,50,0,0
315187,307.692307692308,4,2,1,70,1,0
315417,-100,4,2,1,5,0,0
315494,-66.6666666666667,4,2,1,70,0,0
315571,-66.6666666666667,4,2,1,5,0,0
315648,-133.333333333333,4,2,1,70,0,0
315956,-100,4,2,1,40,0,0
316263,-200,4,2,1,70,0,0
316725,-100,4,2,1,70,0,0
317648,-100,4,2,1,70,0,0
318417,-133.333333333333,4,2,1,70,0,0
318648,-133.333333333333,4,2,1,5,0,0
318725,-79.9999999999999,4,2,1,70,0,0
319494,-79.9999999999999,4,2,1,40,0,0
319802,-79.9999999999999,4,2,1,50,0,0
320110,-133.333333333333,4,2,1,70,0,0
320340,-133.333333333333,4,2,1,5,0,0
320417,-79.9999999999999,4,2,1,70,0,0
320802,-79.9999999999999,4,2,1,5,0,0
320879,-79.9999999999999,4,2,1,70,0,0
321417,-79.9999999999999,4,2,1,5,0,0
321494,-79.9999999999999,4,2,1,70,0,0
322417,-200,4,2,1,70,0,0
322879,-100,4,2,1,70,0,0
323648,-95.2380952380952,4,2,1,70,0,0
325033,-133.333333333333,4,2,1,70,0,0
325263,-133.333333333333,4,2,1,5,0,0
325340,-79.9999999999999,4,2,1,70,0,0
326110,-200,4,2,1,70,0,0
326571,-100,4,2,1,70,0,0
328571,-80,4,2,1,70,0,0
329033,-100,4,2,1,70,0,0
330879,-100,4,2,1,50,0,0
331033,-100,4,2,1,60,0,0
331340,-80,4,2,1,70,0,0
332417,-133.333333333333,4,2,1,70,0,0
332648,-133.333333333333,4,2,1,5,0,0
332725,-133.333333333333,4,2,1,70,0,0
333648,-100,4,2,1,70,0,0
333879,-100,4,2,1,5,0,0
333956,-100,4,2,1,70,0,0
334879,-80,4,2,1,70,0,0
335110,-80,4,2,1,5,0,0
335186,-80,4,2,1,70,0,0
337186,-133.333333333333,4,2,1,70,0,0
337417,-133.333333333333,4,2,1,5,0,0
337494,-66.6666666666667,4,2,1,70,0,0
337648,-200,4,2,1,70,0,0
337879,-200,4,2,1,5,0,0
337956,-100,4,2,1,60,0,0
342571,-80,4,2,1,70,0,0
342879,-100,4,2,1,60,0,0
344879,-66.6666666666667,4,2,1,60,0,0
345802,-133.333333333333,4,2,1,60,0,0
346571,-133.333333333333,4,2,1,40,0,0
347186,-133.333333333333,4,2,1,60,0,0
347417,-133.333333333333,4,2,1,5,0,0
347494,-74.0740740740741,4,2,1,60,0,0
347802,-86.9565217391304,4,2,1,60,0,0
351802,-133.333333333333,4,2,1,60,0,0
352110,-86.9565217391303,4,2,1,60,0,0
352802,-86.9565217391303,4,2,1,5,0,0
352879,-86.9565217391303,4,2,1,60,0,0
353110,-86.9565217391303,4,2,1,5,0,0
353186,-86.9565217391303,4,2,1,60,0,0
357340,-133.333333333333,4,2,1,80,0,0
357417,-133.333333333333,4,2,1,40,0,0

[Colours]
Combo1 : 192,192,192
Combo2 : 255,128,128
Combo3 : 255,176,138
Combo4 : 179,179,217

[HitObjects]
57,145,1501,6,0,B|94:124|141:134|141:134|124:115|117:83,1,120
109,211,1813,6,0,P|163:170|239:191,1,120,4|0,0:1|0:0,0:0:0:0:
307,216,2126,2,0,P|316:178|311:135,1,60,8|0,0:0|0:0,0:0:0:0:
184,260,2334,2,0,B|202:294|208:341|208:341|236:301,1,120
329,305,2646,2,0,P|388:304|440:333,1,120,2|0,0:0|0:0,0:0:0:0:
461,176,2959,6,0,P|434:215|480:186,1,144
496,101,3376,2,0,P|423:98|368:141,1,120,8|0,0:0|0:0,0:0:0:0:
275,51,3689,2,0,P|314:108|387:120,1,143.999995605469,2|2,0:0|0:0,0:0:0:0:
365,236,4001,2,0,B|381:258|408:267|408:267|414:200|375:94,1,204.000003890991,8|0,0:0|0:0,0:0:0:0:
294,289,4314,6,0,P|329:324|396:357,1,120,2|0,0:0|0:0,0:0:0:0:
284,199,4626,2,0,L|215:178,1,60,8|0,0:0|0:0,0:0:0:0:
365,236,4833,2,0,P|364:160|320:116,1,120
294,289,5147,2,0,P|352:325|430:301,1,120,2|0,0:0|0:0,0:0:0:0:
284,199,5459,1,0,0:0:0:0:
221,240,5564,5,2,0:0:0:0:
231,238,5876,2,0,P|229:182|165:121,1,120,8|0,0:0|0:0,0:0:0:0:
140,214,6189,1,0,0:0:0:0:
0,114,6397,1,2,0:0:0:0:
4,201,6501,2,0,P|50:183|87:115,1,120,8|0,0:0|0:0,0:0:0:0:
106,40,6814,6,0,P|166:18|233:49,1,120,2|0,0:0|0:0,0:0:0:0:
378,80,7126,2,0,L|447:56,1,60,8|0,0:0|0:0,0:0:0:0:
314,20,7334,2,0,P|294:83|331:157,1,120
431,179,7647,2,0,L|447:56,1,120,2|0,0:0|0:0,0:0:0:0:
506,225,7959,6,0,P|432:212|346:288,1,180
138,222,8376,2,0,P|194:188|272:198,1,120,8|0,0:0|0:0,0:0:0:0:
352,271,8688,2,0,P|284:248|246:182,1,143.999995605469,2|2,0:0|0:0,0:0:0:0:
260,79,9001,2,0,B|286:63|320:70|320:70|260:117|299:139|238:198,1,204.000003890991,8|0,0:0|0:0,0:0:0:0:
151,93,9314,6,0,P|92:67|22:104,1,120,2|0,0:0|0:0,0:0:0:0:
76,209,9626,2,0,L|93:138,1,60,8|0,0:0|0:0,0:0:0:0:
141,300,9834,2,0,L|168:176,1,120
265,360,10147,2,0,L|238:236,1,120,2|0,0:0|0:0,0:0:0:0:
337,317,10459,1,0,0:0:0:0:
347,238,10564,5,2,0:0:0:0:
357,242,10876,2,0,P|306:182|238:163,1,120,8|0,0:0|0:0,0:0:0:0:
100,242,11189,2,0,P|157:255|215:240,1,120,2|2,0:0|0:0,0:0:0:0:
371,238,11501,2,0,P|331:170|267:140,1,120,8|0,0:0|0:0,0:0:0:0:
155,25,11814,6,0,P|178:136|173:172,1,120,4|0,0:1|0:0,0:0:0:0:
92,235,12126,2,0,P|149:221|207:236,1,120,8|0,0:0|0:0,0:0:0:0:
261,304,12439,1,2,0:0:0:0:
9,197,12647,1,2,0:0:0:0:
83,240,12751,2,0,L|99:111,1,120,8|0,0:0|0:0,0:0:0:0:
4,283,13064,6,0,P|61:327|136:313,1,120,2|0,0:0|0:0,0:0:0:0:
181,260,13376,2,0,P|204:308|205:333,1,60,8|0,0:0|0:0,0:0:0:0:
83,240,13584,2,0,L|99:111,1,120
206,161,13897,2,0,L|190:32,1,120,2|0,0:0|0:0,0:0:0:0:
360,99,14209,1,0,0:0:0:0:
334,177,14314,6,0,P|286:133|291:66,1,120,2|0,0:0|0:0,0:0:0:0:
420,9,14626,2,0,P|405:72|345:101,1,120,8|0,0:0|0:0,0:0:0:0:
505,112,14939,2,0,L|444:79,1,60,2|0,0:0|0:0,0:0:0:0:
330,11,15147,1,2,0:0:0:0:
330,11,15251,1,8,0:0:0:0:
335,18,15459,6,0,B|304:79|355:88|311:181,1,155.999992858887,4|0,0:1|0:0,0:0:0:0:
141,104,15772,1,8,0:0:0:0:
230,102,15876,1,8,0:0:0:0:
224,108,16084,6,0,B|199:86|225:40|280:85|276:110|190:150|251:272,1,215.999993408203,4|0,0:2|0:0,0:0:0:0:
326,286,16397,1,2,0:0:0:0:
247,247,16501,2,0,P|185:243|135:257,1,90.0000034332277,8|0,0:0|0:0,0:0:0:0:
0,320,16709,1,0,0:0:0:0:
70,363,16814,6,0,B|94:288|48:285|79:197,1,155.999992858887,4|0,0:0|0:0,0:0:0:0:
128,48,17126,2,0,P|153:122|155:178,1,120,8|0,0:0|0:0,0:0:0:0:
150,256,17439,1,2,0:0:0:0:
319,129,17647,1,2,0:0:0:0:
266,187,17751,2,0,P|241:123|265:72,1,120,8|0,0:0|0:0,0:0:0:0:
396,75,18064,6,0,B|408:129|402:184|402:184|427:143,1,143.999995605469,2|0,0:0|0:0,0:0:0:0:
465,285,18376,2,0,P|394:268|328:309,1,143.999995605469,8|0,0:0|0:0,0:0:0:0:
211,259,18689,2,0,P|250:324|228:388,1,143.999995605469,2|2,0:0|0:0,0:0:0:0:
307,190,19001,2,0,P|231:179|171:132,1,143.999995605469,8|0,0:0|0:0,0:0:0:0:
76,78,19314,6,0,B|47:141|72:197|72:197|44:173|9:168,1,180.000006866455,12|0,0:0|0:0,0:0:0:0:
188,108,19626,2,0,P|145:153|207:120,1,180.000006866455,8|0,0:0|0:0,0:0:0:0:
262,70,19939,1,8,0:0:0:0:
139,306,20147,1,2,0:0:0:0:
210,286,20251,5,8,0:0:0:0:
151,275,20355,1,2,0:0:0:0:
94,292,20458,1,2,0:0:0:0:
51,333,20564,2,0,P|44:256|67:198,1,120,12|0,0:0|0:0,0:0:0:0:
148,26,20876,5,8,0:0:0:0:
170,79,20980,1,8,0:0:0:0:
141,128,21084,1,8,0:0:0:0:
84,134,21189,2,0,P|158:166|187:200,1,120,4|0,0:0|0:0,0:0:0:0:
255,297,21501,5,2,0:0:0:0:
282,326,21605,1,2,0:0:0:0:
318,342,21709,1,2,0:0:0:0:
357,344,21813,5,4,0:1:0:0:
80,108,26922,6,0,L|88:216,1,90,4|0,0:0|0:0,0:0:0:0:
161,341,27222,2,0,L|167:251,1,90,8|0,0:0|0:0,0:0:0:0:
86,197,27522,1,2,0:0:0:0:
249,381,27672,2,0,L|255:291,1,90,2|8,0:0|0:0,0:0:0:0:
176,156,27972,2,0,P|255:192|335:156,1,180,0|2,0:0|0:0,0:0:0:0:
448,68,28422,1,8,0:0:0:0:
420,237,28572,1,8,0:0:0:0:
256,88,28722,2,0,P|247:44|255:0,1,90,2|2,0:0|0:0,0:0:0:0:
436,153,29022,1,8,0:0:0:0:
436,153,29172,1,0,0:0:0:0:
256,88,29322,6,0,P|212:79|168:87,1,90,4|0,0:0|0:0,0:0:0:0:
288,220,29622,2,0,P|254:190|211:175,1,90,8|0,0:0|0:0,0:0:0:0:
16,228,29922,2,0,P|30:185|59:151,1,90,2|2,0:0|0:0,0:0:0:0:
116,324,30222,2,0,P|107:280|115:236,1,90,8|0,0:0|0:0,0:0:0:0:
248,352,30522,2,0,P|218:318|203:275,1,90,0|0,0:0|0:0,0:0:0:0:
256,88,30822,1,8,0:0:0:0:
288,220,30972,1,8,0:0:0:0:
84,96,31122,2,0,L|184:92,1,90,2|2,0:0|0:0,0:0:0:0:
340,84,31422,1,8,0:0:0:0:
203,275,31572,1,0,0:0:0:0:
463,219,31722,6,0,B|376:200|376:200|288:220,1,180,4|8,0:0|0:0,0:0:0:0:
116,348,32172,1,0,0:0:0:0:
204,168,32322,1,2,0:0:0:0:
203,275,32472,1,2,0:0:0:0:
120,92,32622,1,8,0:0:0:0:
27,273,32772,2,0,B|114:254|114:254|202:274,1,180,4|2,0:0|0:0,0:0:0:0:
420,332,33222,1,8,0:0:0:0:
320,380,33372,2,0,L|312:180,1,180,4|2,0:0|0:0,0:0:0:0:
428,112,33822,1,8,0:0:0:0:
424,224,33972,1,0,0:0:0:0:
307,59,34122,6,0,P|222:36|136:59,1,180,4|8,0:0|0:0,0:0:0:0:
28,128,34572,1,0,0:0:0:0:
143,233,34722,2,0,L|140:144,1,90,2|2,0:0|0:0,0:0:0:0:
24,224,35022,2,0,L|20:313,1,90,8|0,0:0|0:0,0:0:0:0:
240,340,35322,2,0,L|232:138,1,180,0|8,0:0|0:0,0:0:0:0:
228,20,35772,1,0,0:0:0:0:
144,158,35922,1,2,0:0:0:0:
356,88,36072,1,8,0:0:0:0:
115,31,36222,2,0,P|71:24|27:30,1,90,8|2,0:0|0:0,0:0:0:0:
144,158,36522,6,0,P|188:152|233:160,1,90,4|0,0:0|0:0,0:0:0:0:
412,221,36822,2,0,P|368:229|323:223,1,90,8|0,0:0|0:0,0:0:0:0:
284,88,37122,1,2,0:0:0:0:
252,292,37272,2,0,P|292:312|348:320,1,90,2|8,0:0|0:0,0:0:0:0:
233,160,37572,2,0,P|146:139|59:160,1,180,0|2,0:0|0:0,0:0:0:0:
252,292,38022,1,8,0:0:0:0:
364,116,38172,1,8,0:0:0:0:
412,221,38322,2,0,P|368:229|324:224,1,90,2|0,0:0|0:0,0:0:0:0:
220,68,38622,1,8,0:0:0:0:
220,68,38772,1,0,0:0:0:0:
364,116,38922,6,0,P|408:107|452:113,1,90,4|0,0:0|0:0,0:0:0:0:
495,249,39222,2,0,P|456:228|412:221,1,90,8|0,0:0|0:0,0:0:0:0:
264,116,39522,2,0,P|219:107|175:113,1,90,2|2,0:0|0:0,0:0:0:0:
132,249,39822,2,0,P|171:228|215:220,1,90,8|0,0:0|0:0,0:0:0:0:
135,384,40122,2,0,P|166:350|205:328,1,90,0|0,0:0|0:0,0:0:0:0:
336,384,40422,1,8,0:0:0:0:
203,328,40572,1,0,0:0:0:0:
404,272,40722,2,0,P|359:279|315:271,1,90,2|2,0:0|0:0,0:0:0:0:
116,168,41022,1,8,0:0:0:0:
312,132,41172,1,0,0:0:0:0:
215,220,41322,6,0,B|196:132|196:132|216:44,1,180,4|8,0:0|0:0,0:0:0:0:
416,88,41772,1,0,0:0:0:0:
312,132,41922,1,2,0:0:0:0:
440,0,42072,1,0,0:0:0:0:
472,220,42222,1,8,0:0:0:0:
328,20,42372,2,0,B|240:1|240:1|152:21,1,180,4|2,0:0|0:0,0:0:0:0:
88,208,42822,1,8,0:0:0:0:
0,128,42972,2,0,B|88:109|88:109|176:129,1,180,4|2,0:0|0:0,0:0:0:0:
132,300,43422,2,0,B|88:308|88:308|44:300,1,90,8|0,0:0|0:0,0:0:0:0:
300,156,43722,5,4,0:0:0:0:
236,344,43872,1,0,0:0:0:0:
175,128,44022,1,8,0:0:0:0:
332,272,44172,2,0,P|415:300|499:272,1,180,0|2,0:0|0:0,0:0:0:0:
416,82,44622,2,0,L|416:172,1,90,8|0,0:0|0:0,0:0:0:0:
512,12,44922,5,12,0:0:0:0:
272,108,45072,1,2,0:0:0:0:
512,172,45222,1,12,0:0:0:0:
272,8,45372,1,2,0:0:0:0:
272,8,45447,1,2,0:0:0:0:
272,8,45522,5,2,0:0:0:0:
512,92,45672,1,2,0:0:0:0:
272,204,45822,1,10,0:0:0:0:
512,12,45972,1,10,0:0:0:0:
392,204,46100,6,0,L|392:52,1,125.999996154785,4|8,0:0|0:0,0:0:0:0:
272,108,46550,1,8,0:0:0:0:
272,108,46700,2,0,L|272:171,1,62.9999980773926,2|2,0:0|0:0,0:0:0:0:
392,267,47000,2,0,L|392:204,1,62.9999980773926,8|0,0:0|0:0,0:0:0:0:
392,78,47300,5,2,0:0:0:0:
392,78,47450,1,2,0:0:0:0:
272,171,47600,2,0,P|236:176|200:167,1,62.9999980773926,8|2,0:0|0:0,0:0:0:0:
48,120,47900,1,4,0:0:0:0:
156,52,48050,1,2,0:0:0:0:
104,216,48200,2,0,P|96:264|104:324,1,94.499997116089,4|0,0:0|0:0,0:0:0:0:
100,309,48500,5,2,0:0:0:0:
408,79,53428,6,0,P|358:52|271:107,1,161.999995056153,4|8,0:1|0:0,0:0:0:0:
326,246,53942,1,0,0:0:0:0:
175,209,54113,2,0,P|219:198|266:185,1,80.9999975280763,2|2,0:0|0:0,0:0:0:0:
125,62,54456,2,0,P|116:103|103:153,1,80.9999975280763,8|0,0:0|0:0,0:0:0:0:
31,255,54799,6,0,B|15:216|15:216|33:176,1,80.9999975280763,2|0,0:0|0:0,0:0:0:0:
209,298,55142,2,0,P|161:308|66:324,1,121.499996292114,8|0,0:0|0:0,0:0:0:0:
82,327,55485,1,2,0:0:0:0:
170,216,55656,1,2,0:0:0:0:
281,353,55828,2,0,P|295:313|286:265,1,80.9999975280763,8|0,0:0|0:0,0:0:0:0:
195,144,56170,6,0,P|182:185|193:233,1,80.9999975280763,2|0,0:0|0:0,0:0:0:0:
371,135,56513,2,0,P|340:143|281:157,1,80.9999975280763,8|0,0:0|0:0,0:0:0:0:
396,44,56856,1,2,0:0:0:0:
289,160,57028,1,2,0:0:0:0:
179,40,57199,2,0,P|188:81|201:131,1,80.9999975280763,8|0,0:0|0:0,0:0:0:0:
10,152,57542,6,0,P|56:133|117:161,1,121.499996292114,2|0,0:0|0:0,0:0:0:0:
122,170,57885,1,8,0:0:0:0:
10,242,58056,1,2,0:0:0:0:
6,244,58142,1,8,0:0:0:0:
2,245,58228,2,0,B|-14:205|-14:205|7:160,1,80.9999975280763,2|2,0:0|0:0,0:0:0:0:
137,288,58570,1,8,0:0:0:0:
0,329,58742,6,0,B|85:314|59:382|151:370,1,161.999995056153,4|2,0:1|0:0,0:0:0:0:
248,240,59256,2,0,P|240:290|230:334,1,80.9999975280763,8|0,0:0|0:0,0:0:0:0:
391,361,59599,2,0,P|350:366|304:346,1,80.9999975280763,2|2,0:0|0:0,0:0:0:0:
456,288,59942,1,8,0:0:0:0:
306,342,60113,6,0,P|394:359|470:372,1,161.999995056153,4|2,0:1|0:0,0:0:0:0:
351,164,60628,2,0,P|358:204|371:261,1,80.9999975280763,8|2,0:0|0:0,0:0:0:0:
364,254,60885,1,8,0:0:0:0:
362,265,60970,5,2,0:0:0:0:
427,120,61142,1,2,3:0:0:0:
279,221,61313,5,8,0:0:0:0:
235,63,61485,1,8,0:0:0:0:
231,61,61570,1,2,0:0:0:0:
226,60,61656,6,0,P|219:100|206:157,1,80.9999975280763,4|0,0:1|0:0,0:0:0:0:
158,0,61999,1,8,0:0:0:0:
315,146,62170,5,2,0:0:0:0:
338,168,62256,1,8,0:0:0:0:
369,176,62342,5,2,0:0:0:0:
400,173,62427,1,2,0:0:0:0:
427,156,62513,2,0,P|435:119|441:96,2,35.9999989013672,2|8|0,0:0|0:0|0:0,0:0:0:0:
328,65,62685,5,8,0:0:0:0:
334,58,62770,1,8,0:0:0:0:
339,52,62856,6,0,P|350:132|363:233,1,161.999995056153,4|2,0:3|0:0,0:0:0:0:
368,219,63370,1,2,0:0:0:0:
245,282,63542,6,0,L|304:295,1,40.4999987640381,10|0,0:0|0:0,0:0:0:0:
359,331,63713,1,12,0:0:0:0:
169,384,63885,6,0,B|158:351|158:351|173:314,1,62.9999980773926,8|8,0:0|0:3,0:0:0:0:
243,273,64056,1,8,0:0:0:0:
80,142,64228,6,0,B|90:175|90:175|80:203,1,62.9999980773926,8|8,0:0|0:0,0:0:0:0:
16,261,64399,6,0,P|77:248|198:221,1,161.999995056153,4|8,0:1|0:0,0:0:0:0:
326,247,64913,1,0,0:0:0:0:
273,97,65085,2,0,P|265:138|254:188,1,80.9999975280763,2|0,0:0|0:0,0:0:0:0:
411,218,65428,2,0,L|326:237,1,80.9999975280763,8|0,0:0|0:0,0:0:0:0:
478,331,65770,6,0,P|486:291|493:251,1,80.9999975280763,2|0,0:0|0:0,0:0:0:0:
411,87,66113,2,0,B|388:117|388:117|412:223,1,121.499996292114,8|0,0:0|0:0,0:0:0:0:
409,208,66456,1,2,0:0:0:0:
314,62,66628,1,2,0:0:0:0:
218,209,66799,2,0,P|203:172|210:131,1,80.9999975280763,8|0,0:0|0:0,0:0:0:0:
392,236,67142,6,0,L|297:258,1,80.9999975280763,2|0,0:0|0:0,0:0:0:0:
166,284,67485,2,0,L|261:306,1,80.9999975280763,8|0,0:0|0:0,0:0:0:0:
114,211,67828,1,2,0:0:0:0:
247,295,67999,1,2,0:0:0:0:
87,375,68170,2,0,B|69:336|69:336|84:294,1,80.9999975280763,8|0,0:0|0:0,0:0:0:0:
355,352,68513,6,0,P|298:365|220:381,1,121.499996292114,2|0,0:0|0:0,0:0:0:0:
229,376,68856,1,8,0:0:0:0:
340,264,69028,1,2,0:0:0:0:
344,262,69114,1,8,0:0:0:0:
348,261,69200,2,0,B|367:302|367:302|352:353,1,80.9999975280763,2|2,0:0|0:0,0:0:0:0:
263,201,69542,1,8,0:0:0:0:
445,258,69713,6,0,P|477:208|432:115,1,161.999995056153,4|2,0:1|0:0,0:0:0:0:
318,64,70228,2,0,P|330:118|342:167,1,80.9999975280763,8|0,0:0|0:0,0:0:0:0:
183,183,70570,2,0,P|218:191|275:203,1,80.9999975280763,2|2,0:0|0:0,0:0:0:0:
114,266,70913,1,8,0:0:0:0:
53,103,71085,6,0,P|43:161|22:281,1,161.999995056153,4|2,0:1|0:0,0:0:0:0:
129,345,71599,2,0,P|118:291|111:252,1,80.9999975280763,8|0,0:0|0:0,0:0:0:0:
115,255,71856,1,8,0:0:0:0:
117,244,71941,5,2,0:0:0:0:
219,369,72113,1,2,3:0:0:0:
293,231,72285,5,8,0:0:0:0:
402,326,72456,1,8,0:0:0:0:
401,330,72542,1,2,0:0:0:0:
401,334,72628,6,0,P|350:325|302:314,1,80.9999975280763,4|2,0:1|0:0,0:0:0:0:
476,269,72970,1,8,0:0:0:0:
309,320,73142,6,0,B|299:285|299:285|316:243,1,62.9999980773926,8|2,0:0|0:0,0:0:0:0:
366,209,73313,1,8,0:0:0:0:
224,91,73485,6,0,B|233:121|233:121|223:150,1,62.9999980773926,8|2,0:0|0:0,0:0:0:0:
81,243,73656,5,8,0:0:0:0:
109,215,73741,1,8,0:0:0:0:
148,206,73827,1,8,0:0:0:0:
186,218,73913,1,8,0:0:0:0:
214,248,73999,6,0,P|204:303|184:376,1,121.499996292114,4|0,0:1|0:0,0:0:0:0:
193,372,74342,2,0,B|233:359|233:359|279:379,1,80.9999975280763,4|8,0:1|0:0,0:0:0:0:
279,373,74599,1,8,0:0:0:0:
292,369,74685,5,2,0:0:0:0:
451,292,74856,1,8,0:0:0:0:
325,221,75028,5,2,0:0:0:0:
362,309,75199,1,2,0:0:0:0:
378,135,75370,6,0,P|340:186|240:165,1,161.999995056153,4|2,0:1|0:0,0:0:0:0:
185,53,75885,1,2,0:0:0:0:
182,64,75970,1,2,0:0:0:0:
178,75,76056,5,2,3:2:0:0:
260,19,76228,1,2,0:0:0:0:
95,104,76399,5,8,0:0:0:0:
227,189,76570,1,2,3:2:0:0:
231,178,76656,1,2,0:0:0:0:
234,167,76741,5,2,0:0:0:0:
127,214,76913,1,2,0:3:0:0:
281,334,77085,5,2,0:0:0:0:
198,276,77256,1,2,0:3:0:0:
399,145,77428,5,10,0:0:0:0:
399,145,77770,6,0,B|419:183|419:183|393:211|396:243,1,108,10|0,0:3|0:0,0:0:0:0:
391,246,78113,6,0,P|343:240|254:230,1,121.499996292114,4|0,0:0|0:0,0:0:0:0:
177,176,78456,2,2,P|202:172|238:166,1,40.4999987640381,2|2,0:3|0:3,0:3:0:0:
128,243,78628,1,2,0:3:0:0:
194,90,78799,1,2,0:0:0:0:
124,255,78970,1,2,0:0:0:0:
76,53,79142,1,8,0:0:0:0:
216,173,79313,6,0,P|158:167|47:157,1,161.999995056153,6|0,0:0|0:0,0:0:0:0:
281,113,79828,2,0,P|291:82|273:19,1,80.9999975280763,8|2,0:0|0:3,0:0:0:0:
120,188,80170,1,2,0:0:0:0:
173,21,80342,1,2,0:0:0:0:
1,115,80513,2,0,P|74:103|156:91,1,121.499996292114,8|0,0:0|0:0,0:0:0:0:
127,96,80856,5,2,0:0:0:0:
113,323,85210,5,2,0:0:0:0:
59,237,85340,2,0,L|67:161,1,76.5000014591217
124,337,85601,5,8,0:0:0:0:
56,140,85862,1,4,0:3:0:0:
233,90,86123,6,0,B|325:107|325:107|379:83,1,153.000002918243,6|0,0:0|0:0,0:0:0:0:
421,0,86514,2,0,P|414:37|411:75,1,76.5000014591217,2|0,0:0|0:0,0:0:0:0:
343,264,86775,2,0,P|340:225|333:188,1,76.5000014591217,8|8,0:0|0:0,0:0:0:0:
233,90,87036,1,0,0:0:0:0:
220,80,87296,5,2,0:0:0:0:
145,168,87427,2,0,L|68:161,1,76.5000014591217
210,71,87688,5,8,0:0:0:0:
43,238,87949,1,4,0:3:0:0:
85,313,88210,6,0,L|69:161,1,153.000002918243,6|0,0:0|0:0,0:0:0:0:
258,126,88601,2,0,P|206:144|156:120,1,114.750002188683,8|0,0:0|0:0,0:0:0:0:
211,71,88862,6,0,B|211:111|225:131|225:131|195:166|216:227,1,153.000002918243,4|0,0:0|0:0,0:0:0:0:
249,325,89253,1,0,0:0:0:0:
288,183,89383,5,2,0:0:0:0:
341,325,89514,2,0,L|264:333,1,76.5000014591217
43,238,89775,5,8,0:0:0:0:
185,384,90036,1,4,0:3:0:0:
153,169,90296,6,0,L|121:318,1,153.000002918243,6|0,0:0|0:0,0:0:0:0:
296,253,90688,2,0,P|258:253|221:259,1,76.5000014591217,2|0,0:0|0:0,0:0:0:0:
112,331,90949,1,8,0:0:0:0:
56,149,91079,2,0,L|39:223,1,76.5000014591217,8|0,0:0|0:0,0:0:0:0:
97,340,91340,1,0,0:0:0:0:
296,253,91470,5,8,0:0:0:0:
153,169,91601,1,8,0:0:0:0:
269,335,91862,5,8,0:0:0:0:
367,157,92123,6,0,P|361:100|344:46,1,114.750002188683,4|0,0:3|0:0,0:0:0:0:
332,25,92383,1,2,0:0:0:0:
166,182,92514,5,6,0:0:0:0:
375,170,92644,1,8,0:0:0:0:
382,181,92905,6,0,P|373:105|351:32,1,153.000002918243,4|8,0:0|0:0,0:0:0:0:
172,197,93296,1,8,0:0:0:0:
191,285,93427,1,8,0:0:0:0:
138,353,93558,5,2,0:0:0:0:
76,190,93688,2,0,L|166:182,1,90
383,181,93949,6,0,L|362:314,1,135,8|0,0:0|0:0,0:0:0:0:
340,384,94209,2,0,P|345:317|325:253,1,135,4|0,0:3|0:0,0:0:0:0:
175,190,94470,6,0,P|257:169|270:85,1,180,6|0,0:0|0:0,0:0:0:0:
110,238,94862,2,0,P|95:196|105:153,1,90,8|0,0:0|0:0,0:0:0:0:
221,328,95123,5,8,0:0:0:0:
344,220,95253,1,0,0:0:0:0:
215,350,95383,2,0,B|251:348|277:328|277:328|309:326|360:343,1,135,4|0,0:3|0:0,0:0:0:0:
372,352,95644,5,6,0:0:0:0:
215,267,95775,1,0,0:0:0:0:
352,206,95905,1,8,0:0:0:0:
207,361,96036,1,8,0:0:0:0:
189,83,96296,6,0,B|190:120|178:151|178:151|200:178|200:178|190:202|207:240,1,168.750006437302,4|0,0:3|0:0,0:0:0:0:
215,267,96688,5,6,0:0:0:0:
25,209,96818,2,0,L|114:202,1,90,2|0,0:0|0:0,0:0:0:0:
367,74,97079,6,0,P|279:89|190:83,1,180,6|8,0:0|0:0,0:0:0:0:
286,324,97470,1,8,0:0:0:0:
321,248,97601,1,8,0:0:0:0:
318,165,97731,5,2,0:0:0:0:
384,330,97862,2,0,L|294:333,1,90
95,219,98123,6,0,B|156:232|156:232|225:210,1,135,8|0,0:0|0:0,0:0:0:0:
318,165,98383,2,0,P|253:178|198:142,1,135,4|0,0:3|0:0,0:0:0:0:
91,42,98644,6,0,P|106:130|94:219,1,180,6|0,0:0|0:0,0:0:0:0:
168,384,99036,2,0,P|154:320|197:271,1,135,2|0,0:0|0:0,0:0:0:0:
226,338,99296,5,8,0:0:0:0:
67,293,99427,1,8,0:0:0:0:
205,151,99557,2,0,P|206:195|213:240,1,90,8|0,0:0|0:0,0:0:0:0:
311,384,99818,5,6,0:0:0:0:
475,193,100079,1,2,0:0:0:0:
415,260,100209,6,0,L|434:126,1,135,6|0,0:0|0:0,0:0:0:0:
439,101,100470,1,2,0:0:0:0:
470,320,100601,6,0,P|386:335|335:267,1,180,6|8,0:0|0:0,0:0:0:0:
258,176,100992,6,0,P|295:145|307:98,2,99.0000030212403,8|2|0,0:0|0:0|0:0,0:0:0:0:
178,199,101644,6,0,L|106:187,1,72,2|2,0:0|0:0,0:0:0:0:
228,104,101905,5,6,0:0:0:0:
253,268,102036,1,2,0:0:0:0:
178,199,102296,5,2,0:0:0:0:
146,297,102557,1,0,0:0:0:0:
214,95,102818,5,10,0:0:0:0:
220,368,103079,1,2,0:0:0:0:
230,355,103470,6,0,P|280:335|334:340,1,108,10|0,0:0|0:0,0:0:0:0:
351,350,103731,2,0,P|342:316|346:281,1,72,2|0,0:0|0:0,0:0:0:0:
474,146,103992,5,2,0:0:0:0:
423,312,104123,1,2,0:0:0:0:
367,197,104383,5,2,0:0:0:0:
423,329,104644,1,0,0:0:0:0:
480,126,104905,5,10,0:0:0:0:
351,350,105166,1,0,0:0:0:0:
344,362,105557,6,0,L|272:372,1,72,8|8,0:0|0:0,0:0:0:0:
218,301,105818,6,0,L|131:296,1,67.5000025749208,2|2,0:0|0:0,0:0:0:0:
94,221,106079,5,10,0:0:0:0:
48,312,110141,6,0,P|126:328|212:346,1,161.999995056153,4|8,0:1|0:0,0:0:0:0:
213,349,110703,1,2,0:3:0:0:
290,197,110891,6,0,P|298:230|303:257,1,40.4999987640381,2|8,0:0|0:0,0:0:0:0:
351,341,111078,2,0,P|360:306|373:242,1,80.9999975280763,2|8,0:3|0:0,0:0:0:0:
446,139,111453,1,2,0:3:0:0:
449,138,111547,1,2,0:0:0:0:
453,137,111641,6,0,B|474:177|474:177|454:228,1,80.9999975280763,2|2,0:0|0:3,0:0:0:0:
317,90,112016,1,8,0:0:0:0:
467,50,112203,1,2,0:3:0:0:
317,90,112391,6,0,B|301:53|301:53|324:12,1,80.9999975280763,2|2,1:2|0:3,0:0:0:0:
239,157,112766,2,0,P|190:148|128:134,1,80.9999975280763,8|2,1:2|0:3,0:0:0:0:
153,141,113047,1,2,0:0:0:0:
147,139,113141,6,0,P|158:182|163:196,1,40.4999987640381,2|8,0:0|0:0,0:0:0:0:
202,73,113328,1,2,0:3:0:0:
64,182,113516,5,8,0:0:0:0:
223,247,113703,1,2,0:3:0:0:
48,302,113891,6,0,L|146:320,1,80.9999975280763,2|2,0:0|0:3,0:0:0:0:
279,355,114266,2,0,L|180:371,1,80.9999975280763,8|2,0:0|0:3,0:0:0:0:
351,235,114641,6,0,P|358:272|364:298,1,40.4999987640381,2|8,0:0|0:0,0:0:0:0:
409,337,114828,1,2,0:3:0:0:
266,274,115016,5,8,0:0:0:0:
425,191,115203,1,2,0:3:0:0:
250,89,115391,5,2,1:2:0:0:
351,235,115578,1,2,0:3:0:0:
444,0,115766,5,2,3:2:0:0:
471,22,115859,1,8,0:0:0:0:
483,56,115953,1,8,0:0:0:0:
475,91,116047,1,8,0:0:0:0:
448,116,116141,6,0,P|396:108|277:88,1,161.999995056153,4|8,0:1|0:0,0:0:0:0:
208,191,116703,1,2,0:3:0:0:
208,191,116891,2,0,P|237:185|293:173,1,80.9999975280763,2|2,0:0|0:3,0:0:0:0:
133,138,117266,1,8,0:0:0:0:
255,262,117453,1,2,0:3:0:0:
258,261,117547,1,2,0:0:0:0:
261,263,117641,6,0,P|267:296|250:343,1,80.9999975280763,2|2,0:0|0:3,0:0:0:0:
83,315,118016,1,8,0:0:0:0:
246,346,118203,1,2,0:3:0:0:
83,315,118391,2,0,L|180:298,1,80.9999975280763,2|2,1:2|0:3,0:0:0:0:
20,248,118766,5,8,1:2:0:0:
132,384,118953,1,2,0:3:0:0:
271,234,119141,6,0,L|281:285,1,40.4999987640381,2|2,0:0|0:0,0:0:0:0:
246,346,119328,1,2,0:3:0:0:
192,183,119516,5,8,0:0:0:0:
361,253,119703,1,2,0:3:0:0:
303,76,119891,6,0,P|311:118|323:169,1,80.9999975280763,2|2,0:0|0:3,0:0:0:0:
354,10,120266,1,8,0:0:0:0:
221,110,120453,1,2,0:3:0:0:
409,225,120641,6,0,P|414:201|426:166,1,40.4999987640381,2|8,0:0|0:0,0:0:0:0:
360,131,120828,1,2,0:3:0:0:
495,236,121016,5,8,0:0:0:0:
331,306,121203,1,2,0:3:0:0:
324,296,121297,1,2,0:0:0:0:
321,284,121391,1,2,0:0:0:0:
505,352,121578,6,8,B|475:359|475:359|441:343,1,58.4999973220826
390,235,121766,6,0,P|400:278|404:296,1,40.4999987640381,2|0,3:0|0:0,0:0:0:0:
305,373,121953,6,8,B|335:380|335:380|369:364,1,58.4999973220826
441,345,122141,6,0,P|375:333|251:312,1,170.999995433807,4|8,0:1|0:0,0:0:0:0:
263,317,122703,1,2,0:3:0:0:
180,220,122891,1,2,0:0:0:0:
176,218,122984,1,2,0:0:0:0:
172,216,123078,1,2,0:3:0:0:
85,352,123266,2,0,B|70:311|70:311|87:271,1,85.4999977169037,8|2,0:0|0:3,0:0:0:0:
91,268,123547,1,8,0:0:0:0:
95,263,123641,6,0,P|56:272|37:276,1,42.7499988584519,2|8,0:0|0:0,0:0:0:0:
0,218,123828,1,2,0:3:0:0:
165,337,124016,5,8,0:0:0:0:
206,182,124203,1,2,0:3:0:0:
346,299,124391,6,0,L|242:279,1,85.4999977169037,2|2,1:2|0:3,0:0:0:0:
444,200,124766,2,0,L|360:216,1,85.4999977169037,8|2,1:2|0:3,0:0:0:0:
479,310,125141,6,0,P|490:282|499:253,1,42.7499988584519,2|8,0:0|0:0,0:0:0:0:
444,200,125328,1,2,0:3:0:0:
280,341,125516,6,0,P|265:302|282:249,1,85.4999977169037,8|2,0:0|0:3,0:0:0:0:
357,384,125891,1,2,0:0:0:0:
192,309,126078,1,2,0:3:0:0:
347,221,126266,1,8,0:0:0:0:
217,155,126453,1,2,0:3:0:0:
347,221,126641,6,0,P|352:200|356:179,1,42.7499988584519,2|8,0:0|0:0,0:0:0:0:
306,119,126828,1,2,0:3:0:0:
406,292,127016,5,8,0:0:0:0:
462,204,127203,1,2,0:3:0:0:
288,298,127391,5,2,1:2:0:0:
288,310,127484,1,2,0:0:0:0:
292,321,127578,1,2,0:3:0:0:
485,116,127766,6,8,B|452:106|452:106|404:117,1,58.4999973220826,8|8,1:2|0:0,0:0:0:0:
296,166,127953,2,8,B|319:160|319:160|352:170,1,58.4999973220826,8|8,1:2|0:0,0:0:0:0:
404,225,128141,6,0,P|391:172|366:53,1,170.999995433807,4|8,0:1|0:0,0:0:0:0:
368,50,128703,1,2,0:3:0:0:
279,202,128891,2,0,P|235:206|184:180,1,85.4999977169037,2|2,0:0|0:3,0:0:0:0:
154,39,129266,2,8,P|139:84|123:126,1,85.4999977169037,8|2,0:0|0:3,0:0:0:0:
121,125,129547,1,8,0:0:0:0:
116,130,129641,6,0,P|109:90|106:68,1,42.7499988584519,2|8,0:0|0:0,0:0:0:0:
50,38,129828,1,2,0:3:0:0:
215,146,130016,5,8,0:0:0:0:
36,196,130203,1,2,0:3:0:0:
215,146,130391,6,0,P|211:167|193:249,1,85.4999977169037,2|2,0:0|0:0,0:0:0:0:
109,361,130766,1,8,0:0:0:0:
258,328,130953,1,2,0:3:0:0:
246,322,131047,1,2,0:0:0:0:
233,317,131141,1,8,1:2:0:0:
318,191,131328,6,0,B|329:225|329:225|316:258,1,58.4999973220826,8|0,1:2|0:0,0:0:0:0:
376,369,131516,2,0,B|366:341|366:341|379:311,1,58.4999973220826,8|2,0:3|0:0,0:0:0:0:
477,164,131704,1,8,0:0:0:0:
484,179,131797,1,2,0:0:0:0:
486,196,131891,5,8,0:3:0:0:
457,232,131984,1,8,0:0:0:0:
413,250,132078,1,8,0:0:0:0:
367,239,132172,1,8,0:0:0:0:
342,199,132266,5,12,0:0:0:0:
490,306,132453,1,12,1:2:0:0:
6,34,134141,6,0,P|11:73|21:141,1,85.4999977169037,4|2,0:0|0:3,0:0:0:0:
98,179,134422,1,0,0:0:0:0:
94,184,134516,2,0,P|98:163|103:142,2,42.7499988584519,8|0|2,0:0|0:0|0:0,0:0:0:0:
24,292,134891,5,2,0:0:0:0:
21,275,134984,1,8,0:0:0:0:
18,257,135078,1,2,0:3:0:0:
268,218,135266,5,8,0:0:0:0:
123,275,135453,1,2,0:3:0:0:
268,218,135641,6,0,P|259:265|247:325,1,85.4999977169037,4|2,0:0|0:3,0:0:0:0:
319,356,135922,1,0,0:0:0:0:
313,359,136016,2,0,P|350:354|377:350,2,42.7499988584519,8|2|0,0:0|0:3|0:0,0:0:0:0:
473,318,136391,5,2,0:0:0:0:
455,315,136484,1,8,0:0:0:0:
438,311,136578,1,2,0:3:0:0:
512,247,136766,5,8,0:0:0:0:
355,353,136953,1,2,0:3:0:0:
303,263,137141,5,4,0:0:0:0:
412,304,143861,6,0,L|396:184,1,90,6|8,0:0|0:0,0:0:0:0:
396,172,144092,1,8,0:0:0:0:
396,172,144170,2,0,P|352:167|308:174,1,90,10|0,0:0|0:0,0:0:0:0:
296,72,144479,6,0,P|238:100|206:132,1,90,2|8,0:0|0:0,0:0:0:0:
204,160,144711,1,8,0:0:0:0:
204,160,144788,2,0,L|220:280,1,90,10|0,0:0|0:0,0:0:0:0:
44,340,145098,5,2,0:0:0:0:
96,224,145252,1,8,0:0:0:0:
96,224,145330,1,8,0:0:0:0:
96,224,145407,1,10,0:0:0:0:
148,328,145562,1,0,0:0:0:0:
0,255,145716,6,0,P|-1:211|10:168,1,90,2|8,0:0|0:0,0:0:0:0:
36,132,145948,1,8,0:0:0:0:
36,132,146025,1,10,0:0:0:0:
96,224,146180,1,8,0:0:0:0:
188,108,146335,6,0,L|296:92,1,90,6|8,0:0|0:0,0:0:0:0:
304,60,146567,1,8,0:0:0:0:
304,60,146644,2,0,L|412:44,1,90,10|0,0:0|0:0,0:0:0:0:
460,124,146953,6,0,P|440:164|444:232,1,90,2|8,0:0|0:0,0:0:0:0:
452,252,147185,1,8,0:0:0:0:
452,252,147263,2,0,P|404:268|336:256,1,90,10|0,0:0|0:0,0:0:0:0:
188,212,147572,5,2,0:0:0:0:
309,128,147726,2,8,L|296:172,1,45
264,284,147881,1,10,0:0:0:0:
174,168,148036,6,8,L|187:211,1,45
264,296,148191,1,10,0:0:0:0:
309,128,148345,5,8,0:0:0:0:
309,128,148422,1,8,0:0:0:0:
309,128,148500,2,10,L|296:172,1,45
174,168,148654,2,10,L|187:211,1,45
263,308,148809,6,0,P|212:332|172:332,1,90,6|8,0:0|0:0,0:0:0:0:
136,316,149041,1,8,0:0:0:0:
136,316,149118,2,0,P|80:308|28:324,1,90,10|0,0:0|0:0,0:0:0:0:
187,211,149428,1,2,0:0:0:0:
84,152,149582,6,8,L|97:195,1,45
46,314,149737,1,10,0:0:0:0:
80,140,149891,5,0,0:0:0:0:
21,228,150046,2,0,L|47:315,1,90,2|8,0:0|0:0,0:0:0:0:
64,356,150278,1,8,0:0:0:0:
64,356,150355,2,0,P|120:344|176:344,1,90,10|0,0:0|0:0,0:0:0:0:
244,296,150665,6,0,P|288:298|332:309,1,90,2|8,0:0|0:0,0:0:0:0:
372,328,150897,1,8,0:0:0:0:
372,328,150974,2,0,P|416:325|460:314,1,90,10|0,0:0|0:0,0:0:0:0:
425,122,151283,6,0,P|407:163|404:208,1,90,6|0,0:0|0:0,0:0:0:0:
412,252,151515,1,8,0:0:0:0:
412,252,151592,1,10,0:0:0:0:
504,188,151747,1,8,0:0:0:0:
390,26,151902,6,0,P|354:52|328:89,1,90,2|8,0:0|0:0,0:0:0:0:
313,131,152134,1,8,0:0:0:0:
313,131,152211,1,10,0:0:0:0:
425,122,152366,1,8,0:0:0:0:
208,68,152520,5,10,0:0:0:0:
208,68,152598,1,0,0:0:0:0:
208,68,152675,2,0,L|216:128,1,45
121,216,152830,2,0,L|116:172,1,45,10|0,0:0|0:0,0:0:0:0:
226,207,152984,6,0,L|232:252,1,45
139,355,153139,2,0,L|134:311,1,45,10|0,0:0|0:0,0:0:0:0:
28,196,153294,5,8,0:0:0:0:
27,151,153371,1,8,0:0:0:0:
47,111,153448,1,8,0:0:0:0:
83,86,153525,1,8,0:0:0:0:
128,81,153603,1,8,0:0:0:0:
170,97,153681,1,0,0:0:0:0:
204,124,153757,6,0,P|248:128|304:116,1,80.9999975280763,6|0,0:0|0:0,0:0:0:0:
360,60,154067,2,0,P|404:56|460:68,1,80.9999975280763,2|0,0:0|0:0,0:0:0:0:
496,140,154376,2,0,L|488:240,1,80.9999975280763,2|0,0:0|0:0,0:0:0:0:
432,296,154685,2,0,L|351:294,1,80.9999975280763,2|0,0:0|0:0,0:0:0:0:
272,236,154995,5,2,0:0:0:0:
192,288,155149,1,0,0:0:0:0:
192,176,155304,5,2,0:0:0:0:
180,296,155458,1,0,0:0:0:0:
92,192,155613,5,2,0:0:0:0:
168,304,155768,1,0,0:0:0:0:
292,160,155922,2,0,P|292:108|284:76,1,80.9999975280763,10|0,0:0|0:0,0:0:0:0:
92,192,156232,6,0,L|192:176,1,80.9999975280763,6|0,0:0|0:0,0:0:0:0:
72,72,156541,6,0,L|91:191,1,121.499996292114,10|0,0:0|0:0,0:0:0:0:
96,232,156850,6,0,L|196:248,1,80.9999975280763,6|0,0:0|0:0,0:0:0:0:
115,112,157159,6,0,L|95:231,1,121.499996292114,10|0,0:0|0:0,0:0:0:0:
88,272,157469,6,0,L|-12:288,1,80.9999975280763,6|8,0:0|0:0,0:0:0:0:
4,244,157701,1,8,0:0:0:0:
4,244,157778,2,0,L|17:164,1,80.9999975280763,10|0,0:0|0:0,0:0:0:0:
168,76,158087,1,12,0:0:0:0:
92,172,158242,5,2,0:0:0:0:
127,190,158319,1,2,0:0:0:0:
167,196,158396,1,10,0:0:0:0:
207,189,158474,1,2,0:0:0:0:
242,170,158551,1,10,0:0:0:0:
270,141,158628,1,2,0:0:0:0:
308,124,158706,6,0,P|368:116|436:136,1,107.999996704102,14|0,0:0|0:0,0:0:0:0:
465,233,159324,2,0,P|412:241|360:232,1,107.999996704102
252,252,159788,5,2,0:0:0:0:
252,252,159866,1,2,0:0:0:0:
252,252,159943,2,0,L|244:140,2,107.999996704102,6|0|0,0:0|0:0|0:0,0:0:0:0:
184,336,160716,5,2,0:0:0:0:
157,343,160793,1,2,0:0:0:0:
130,345,160870,1,2,0:0:0:0:
104,342,160947,1,2,0:0:0:0:
80,336,161025,2,0,P|60:328|52:320,1,26.9999991760254,2|0,0:0|0:0,0:0:0:0:
128,204,161180,5,10,0:0:0:0:
288,268,161489,5,10,0:0:0:0:
116,200,161643,1,10,0:0:0:0:
324,144,161953,5,10,0:0:0:0:
104,196,162263,5,10,0:0:0:0:
288,268,162572,5,10,0:0:0:0:
92,192,162726,1,10,0:0:0:0:
324,144,162881,5,10,0:0:0:0:
80,188,163036,1,10,0:0:0:0:
264,28,163345,5,8,0:0:0:0:
252,192,163500,6,0,L|239:158,1,36,2|0,0:0|0:0,0:0:0:0:
324,144,163654,6,0,L|413:133,1,90,4|0,0:0|0:0,0:0:0:0:
460,128,163886,1,8,0:0:0:0:
460,128,163964,2,0,P|452:188|452:248,1,90,8|8,0:0|0:0,0:0:0:0:
484,340,164273,5,0,0:0:0:0:
356,308,164428,1,8,0:0:0:0:
356,308,164505,1,8,0:0:0:0:
356,308,164582,2,0,P|296:300|252:308,1,90,0|8,0:0|0:0,0:0:0:0:
232,332,164814,1,8,0:0:0:0:
232,332,164891,6,0,P|172:340|128:332,1,90,2|0,0:0|0:0,0:0:0:0:
100,324,165123,1,8,0:0:0:0:
100,324,165201,1,8,0:0:0:0:
184,224,165355,1,8,0:0:0:0:
60,116,165510,6,0,L|52:216,1,90,0|8,0:0|0:0,0:0:0:0:
52,252,165742,1,8,0:0:0:0:
52,252,165819,1,8,0:0:0:0:
184,212,165974,2,8,L|187:167,1,45
248,100,166129,6,0,P|292:88|348:96,1,90,2|0,0:0|0:0,0:0:0:0:
376,112,166361,1,8,0:0:0:0:
376,112,166438,1,8,0:0:0:0:
456,168,166592,1,8,0:0:0:0:
396,300,166747,6,0,P|352:312|296:304,1,90,2|8,0:0|0:0,0:0:0:0:
268,288,166979,1,8,0:0:0:0:
268,288,167056,1,8,0:0:0:0:
196,216,167211,2,8,L|199:171,1,45,8|0,0:0|0:0,0:0:0:0:
260,96,167366,5,12,0:0:0:0:
116,132,167520,1,8,0:0:0:0:
296,196,167675,5,8,0:0:0:0:
100,128,167830,1,8,0:0:0:0:
324,12,167984,5,12,0:0:0:0:
336,20,168293,6,8,L|336:80,1,45
284,188,168448,2,8,L|284:143,1,45
420,40,168603,5,12,0:0:0:0:
80,32,173066,5,4,0:0:0:0:
37,115,173301,1,0,0:0:0:0:
180,187,173534,1,8,0:0:0:0:
130,108,173769,1,0,0:0:0:0:
138,270,174004,1,2,0:0:0:0:
274,185,174237,1,0,0:0:0:0:
88,194,174472,1,8,0:0:0:0:
188,346,174706,1,0,0:0:0:0:
224,109,174941,6,0,P|272:93|332:116,1,90,2|0,0:0|0:0,0:0:0:0:
323,255,175410,2,0,P|285:221|275:157,1,90,8|0,0:0|0:0,0:0:0:0:
399,96,175879,2,0,P|388:145|338:186,1,90,2|0,0:0|0:0,0:0:0:0:
236,262,176348,2,0,P|247:213|297:172,1,90,8|0,0:0|0:0,0:0:0:0:
340,262,176816,5,4,0:0:0:0:
288,352,177051,1,0,0:0:0:0:
136,260,177285,1,8,0:0:0:0:
184,352,177519,1,0,0:0:0:0:
393,351,177754,1,2,0:0:0:0:
390,171,177988,1,0,0:0:0:0:
314,307,178223,1,8,0:0:0:0:
311,128,178456,1,0,0:0:0:0:
469,216,178691,6,0,P|479:157|445:104,1,90,2|0,0:0|0:0,0:0:0:0:
468,130,179043,1,0,0:0:0:0:
468,130,179160,1,8,0:0:0:0:
362,39,179394,5,0,0:0:0:0:
362,39,179512,1,0,0:0:0:0:
362,39,179629,2,0,P|296:48|228:20,1,135,4|0,0:0|0:0,0:0:0:0:
144,0,180097,2,0,P|168:56|168:132,1,135,4|0,0:0|0:0,0:0:0:0:
96,180,180566,6,0,P|168:172|232:224,1,135,4|0,0:0|0:0,0:0:0:0:
228,248,181035,2,0,L|244:344,1,90,8|0,0:0|0:0,0:0:0:0:
352,368,181504,2,0,L|366:279,1,90,2|0,0:0|0:0,0:0:0:0:
464,176,181973,5,8,0:0:0:0:
480,272,182207,1,0,0:0:0:0:
448,80,182441,1,2,0:0:0:0:
368,192,182676,1,0,0:0:0:0:
336,0,182909,1,8,0:0:0:0:
464,176,183144,1,0,0:0:0:0:
272,208,183378,2,0,L|142:230,1,90,2|0,0:0|0:0,0:0:0:0:
80,320,183847,1,8,0:0:0:0:
0,147,184081,6,0,P|64:115|175:153,1,180
272,208,184785,2,0,L|360:192,1,90,8|0,0:0|0:0,0:0:0:0:
512,288,185253,2,0,L|423:272,1,90,2|0,0:0|0:0,0:0:0:0:
464,168,185723,5,8,0:0:0:0:
352,352,185957,1,6,1:0:0:0:
144,336,186426,5,2,1:0:0:0:
112,256,186659,1,2,1:0:0:0:
144,176,186894,1,2,1:0:0:0:
113,96,187128,5,2,1:0:0:0:
157,90,187245,1,2,0:0:0:0:
197,108,187362,1,2,0:0:0:0:
223,144,187480,1,2,0:0:0:0:
272,208,187598,5,10,1:0:0:0:
316,203,187715,1,10,1:0:0:0:
361,198,187832,1,10,1:0:0:0:
406,193,187949,1,10,1:0:0:0:
480,224,188066,5,4,0:0:0:0:
396,113,188301,1,0,0:0:0:0:
353,320,188534,1,8,0:0:0:0:
235,142,188769,1,0,0:0:0:0:
129,190,189003,1,2,0:0:0:0:
246,26,189238,1,0,0:0:0:0:
330,209,189473,1,8,0:0:0:0:
140,75,189707,1,0,0:0:0:0:
341,95,189941,6,0,L|448:80,1,90,2|0,0:0|0:0,0:0:0:0:
512,176,190410,1,8,0:0:0:0:
320,80,190643,2,0,B|288:128|288:128|304:256,1,180
400,320,191347,2,0,L|496:304,1,90,8|0,0:0|0:0,0:0:0:0:
232,345,191816,5,4,0:0:0:0:
139,206,192051,1,0,0:0:0:0:
65,336,192285,1,8,0:0:0:0:
167,308,192519,1,0,0:0:0:0:
111,104,192753,1,2,0:0:0:0:
102,271,192988,1,0,0:0:0:0:
176,141,193223,1,8,0:0:0:0:
46,68,193457,1,0,0:0:0:0:
176,141,193691,6,0,L|272:128,1,90,2|0,0:0|0:0,0:0:0:0:
265,128,194042,1,0,0:0:0:0:
265,128,194160,1,8,0:0:0:0:
464,192,194394,5,0,0:0:0:0:
464,192,194512,1,0,0:0:0:0:
464,192,194628,2,0,P|372:208|320:156,1,135,4|0,0:0|0:0,0:0:0:0:
404,132,195098,2,0,L|392:300,1,135,4|0,0:0|0:0,0:0:0:0:
320,320,195566,6,0,P|256:304|208:320,1,90,4|0,0:0|0:0,0:0:0:0:
128,352,196035,1,8,0:0:0:0:
37,282,196269,1,0,0:0:0:0:
143,239,196504,2,0,P|159:175|143:127,1,90,2|0,0:0|0:0,0:0:0:0:
139,39,196973,1,8,0:0:0:0:
48,109,197207,1,0,0:0:0:0:
244,82,197441,5,2,0:0:0:0:
154,152,197676,1,0,0:0:0:0:
260,195,197910,1,8,0:0:0:0:
170,265,198144,1,0,0:0:0:0:
276,308,198379,2,0,L|384:288,1,90,2|0,0:0|0:0,0:0:0:0:
464,336,198847,1,8,0:0:0:0:
432,208,199082,6,0,B|416:144|416:144|464:16,1,180
368,16,199784,2,0,L|320:128,1,90,8|0,0:0|0:0,0:0:0:0:
278,221,200254,2,0,L|205:123,1,90,2|0,0:0|0:0,0:0:0:0:
145,40,200723,5,8,0:0:0:0:
55,245,200957,1,4,0:0:0:0:
224,304,201426,5,0,0:0:0:0:
304,336,201659,1,8,0:0:0:0:
384,304,201895,1,0,0:0:0:0:
416,224,202129,6,0,L|400:144,1,45,4|0,0:0|0:0,0:0:0:0:
384,80,202363,1,0,0:0:0:0:
352,64,202480,2,8,L|344:28,2,22.5
288,128,202715,1,0,0:0:0:0:
272,144,202832,2,0,L|280:188,1,45,8|0,0:0|0:0,0:0:0:0:
240,288,203066,5,4,0:0:0:0:
240,288,203535,5,8,0:0:0:0:
160,320,203769,1,0,0:0:0:0:
80,288,204003,1,2,0:0:0:0:
64,208,204238,1,0,0:0:0:0:
96,96,204473,5,8,0:0:0:0:
144,32,204707,1,0,0:0:0:0:
175,105,204941,1,2,0:0:0:0:
226,42,205176,1,8,0:0:0:0:
254,114,205410,5,2,0:0:0:0:
206,178,205644,1,8,0:0:0:0:
237,251,205878,1,2,0:0:0:0:
189,314,206113,6,0,P|216:328|240:329,1,31.4999990386963,8|0,0:0|0:0,0:0:0:0:
321,321,206347,2,0,P|294:307|270:306,1,31.4999990386963,8|0,0:0|0:0,0:0:0:0:
402,300,206582,1,0,0:0:0:0:
461,241,206816,5,2,0:0:0:0:
104,171,211597,5,0,0:0:0:0:
145,79,211972,1,0,0:0:0:0:
93,184,212347,6,0,L|190:172,1,90.0000034332277,6|2,0:0|0:0,0:0:0:0:
130,257,212972,1,2,0:0:0:0:
130,257,213097,2,0,L|178:251,1,45.0000017166138,8|2,0:0|0:0,0:0:0:0:
253,240,213472,1,0,0:0:0:0:
395,357,213722,1,8,0:0:0:0:
316,345,213847,2,0,L|245:336,1,67.5000025749208,2|2,0:0|0:0,0:0:0:0:
350,190,214597,2,0,L|343:243,1,45.0000017166138,8|0,0:0|0:0,0:0:0:0:
431,145,214972,2,0,L|437:198,1,45.0000017166138
238,126,215347,6,0,L|286:120,1,45.0000017166138,6|0,0:0|0:0,0:0:0:0:
359,110,215722,1,0,0:0:0:0:
103,78,215972,2,0,L|109:131,2,45.0000017166138,2|8|0,0:0|0:0|0:0,0:0:0:0:
20,186,216347,1,8,0:0:0:0:
20,186,216472,2,0,L|26:133,1,45.0000017166138,2|0,0:0|0:0,0:0:0:0:
102,204,216722,2,0,L|110:275,1,67.5000025749208,2|0,0:0|0:0,0:0:0:0:
120,349,217222,1,2,0:0:0:0:
290,193,217472,1,8,0:0:0:0:
290,193,217597,2,0,L|242:187,1,45.0000017166138,8|0,0:0|0:0,0:0:0:0:
342,111,217972,2,0,L|294:117,1,45.0000017166138,2|0,0:0|0:0,0:0:0:0:
298,204,218347,6,0,L|199:191,1,90.0000034332277,6|2,0:0|0:0,0:0:0:0:
265,279,218972,1,2,0:0:0:0:
265,279,219097,2,0,L|215:272,1,45.0000017166138,8|2,0:0|0:0,0:0:0:0:
143,261,219472,1,0,0:0:0:0:
21,280,219722,2,0,L|71:273,1,45.0000017166138,8|0,0:0|0:0,0:0:0:0:
196,191,220097,1,0,0:0:0:0:
119,179,220223,2,0,L|74:172,1,45.0000017166138,2|0,0:0|0:0,0:0:0:0:
178,60,220597,2,0,L|171:104,1,45.0000017166138,8|0,0:0|0:0,0:0:0:0:
270,149,220847,6,0,L|263:104,1,45.0000017166138
353,177,221222,1,0,0:0:0:0:
353,177,221347,5,6,0:0:0:0:
410,72,221597,2,0,L|365:65,2,45.0000017166138,8|0|0,0:0|0:0|0:0,0:0:0:0:
511,197,221972,1,2,0:0:0:0:
499,120,222098,2,0,L|492:75,1,45.0000017166138,8|0,0:0|0:0,0:0:0:0:
305,171,222347,1,8,0:0:0:0:
382,183,222473,2,0,L|427:190,1,45.0000017166138,2|0,0:0|0:0,0:0:0:0:
477,275,222722,6,0,L|387:261,1,90.0000034332277,2|2,0:0|0:0,0:0:0:0:
395,270,223597,1,8,0:0:0:0:
285,198,223847,1,0,0:0:0:0:
285,198,223973,2,0,L|292:243,1,45.0000017166138,2|0,0:0|0:0,0:0:0:0:
236,321,224347,6,0,L|285:327,1,45.0000017166138,6|0,0:0|0:0,0:0:0:0:
164,252,224722,2,0,L|213:245,1,45.0000017166138
409,215,225097,2,0,L|359:208,1,45.0000017166138,8|2,0:0|0:0,0:0:0:0:
285,198,225472,1,0,0:0:0:0:
446,128,225722,2,0,L|396:135,2,45.0000017166138,8|2|0,0:0|0:0|0:0,0:0:0:0:
354,45,226097,2,0,L|398:51,2,45.0000017166138,0|2|0,0:0|0:0|0:0,0:0:0:0:
270,99,226472,2,0,L|262:46,1,45.0000017166138,0|8,0:0|0:0,0:0:0:0:
261,40,226972,1,0,0:0:0:0:
65,97,227222,1,0,0:0:0:0:
65,97,227347,6,0,L|109:103,1,45.0000017166138,6|0,0:0|0:0,0:0:0:0:
187,115,227722,1,0,0:0:0:0:
328,2,227972,6,0,L|284:8,2,45.0000017166138,2|8|0,0:0|0:0|0:0,0:0:0:0:
310,157,228347,1,8,0:0:0:0:
322,79,228472,2,0,L|261:87,1,45.0000017166138,2|0,0:0|0:0,0:0:0:0:
239,181,228722,2,0,L|318:170,1,67.5000025749208,2|0,0:0|0:0,0:0:0:0:
266,259,229222,2,0,L|317:251,1,45.0000017166138,2|0,0:0|0:0,0:0:0:0:
390,240,229597,1,8,0:0:0:0:
486,361,229846,1,0,0:0:0:0:
406,349,229972,2,0,L|361:342,1,45.0000017166138,2|0,0:0|0:0,0:0:0:0:
473,234,230347,6,0,L|479:283,1,45.0000017166138,6|0,0:0|0:0,0:0:0:0:
392,197,230722,2,0,L|384:241,1,45.0000017166138,0|2,0:0|0:0,0:0:0:0:
325,143,230972,1,2,0:0:0:0:
325,143,231097,1,8,0:0:0:0:
488,164,231347,2,0,L|480:208,1,45.0000017166138,2|0,0:0|0:0,0:0:0:0:
486,305,231722,2,0,L|441:297,1,45.0000017166138,8|2,0:0|0:0,0:0:0:0:
422,291,232222,1,2,0:0:0:0:
392,144,232472,2,0,L|400:189,2,45.0000017166138,2|8|0,0:0|0:0|0:0,0:0:0:0:
293,150,232847,2,0,L|301:105,2,45.0000017166138,2|8|0,0:0|0:0|0:0,0:0:0:0:
289,273,233222,1,0,0:0:0:0:
289,273,233347,6,0,L|280:226,1,45.0000017166138,6|8,0:0|0:0,0:0:0:0:
393,209,233722,2,0,L|384:253,1,45.0000017166138
368,329,234097,1,8,0:0:0:0:
146,292,234347,1,8,0:0:0:0:
146,292,234472,1,2,0:0:0:0:
290,314,234722,2,0,L|213:299,1,67.5000025749208,2|0,0:0|0:0,0:0:0:0:
144,290,235222,1,2,0:0:0:0:
238,176,235597,1,8,0:0:0:0:
290,314,235972,1,2,0:0:0:0:
137,190,236347,5,6,0:0:0:0:
329,227,236722,1,0,0:0:0:0:
264,104,236972,1,2,0:0:0:0:
264,104,237097,2,0,L|187:89,1,67.5000025749208,8|0,0:0|0:0,0:0:0:0:
369,66,237722,1,8,0:0:0:0:
446,79,237847,2,0,L|512:91,1,67.5000025749208,2|2,0:0|0:0,0:0:0:0:
302,79,238597,2,0,L|369:66,1,67.5000025749208,8|0,0:0|0:0,0:0:0:0:
490,239,239347,6,0,L|477:172,1,67.5000025749208,6|0,0:0|0:0,0:0:0:0:
391,285,239972,1,2,0:0:0:0:
391,285,240097,2,0,L|406:208,1,45.0000017166138,8|0,0:0|0:0,0:0:0:0:
302,188,240347,6,0,L|310:232,1,45.0000017166138,8|0,0:0|0:0,0:0:0:0:
209,306,240722,1,2,0:0:0:0:
209,306,240847,2,0,L|224:229,1,67.5000025749208,0|2,0:0|0:0,0:0:0:0:
248,113,241597,1,8,0:0:0:0:
343,199,241972,1,2,0:0:0:0:
132,156,242347,6,0,L|217:137,1,67.5000025749208,6|2,0:0|0:0,0:0:0:0:
125,75,242972,1,2,0:0:0:0:
125,75,243097,2,0,L|173:65,1,45.0000017166138,8|2,0:0|0:0,0:0:0:0:
39,54,243722,1,8,0:0:0:0:
57,132,243847,2,0,L|72:209,1,67.5000025749208,2|2,0:0|0:0,0:0:0:0:
106,357,244597,1,8,0:0:0:0:
11,296,244972,1,2,0:0:0:0:
167,259,245347,5,6,0:0:0:0:
152,312,251591,5,2,0:0:0:0:
104,224,251744,1,2,0:0:0:0:
232,208,251897,6,0,B|288:188|288:188|372:200,1,116.999994644165,4|0,0:0|0:0,0:0:0:0:
412,296,252509,2,0,B|356:316|356:316|272:304,1,116.999994644165,8|0,0:0|0:0,0:0:0:0:
192,288,252968,1,0,0:0:0:0:
296,108,253121,5,2,3:0:0:0:
344,196,253274,1,0,0:0:0:0:
244,192,253427,1,2,0:0:0:0:
460,200,253733,6,0,L|344:196,1,116.999994644165,8|0,0:0|0:0,0:0:0:0:
244,192,254192,1,0,0:0:0:0:
148,88,254345,6,0,B|172:156|132:160|148:216,1,116.999994644165,4|0,0:0|0:0,0:0:0:0:
64,304,254958,2,0,P|120:288|184:308,1,116.999994644165,8|0,0:0|0:0,0:0:0:0:
240,354,255417,1,0,0:0:0:0:
364,214,255570,5,2,3:0:0:0:
280,264,255723,1,0,0:0:0:0:
336,344,255876,1,2,0:0:0:0:
364,214,256182,6,0,P|364:162|336:78,1,116.999994644165,8|0,0:0|0:0,0:0:0:0:
420,34,256641,1,0,0:0:0:0:
292,18,256794,6,0,P|220:22|168:50,1,116.999994644165,2|0,0:0|0:0,0:0:0:0:
104,128,257407,2,0,P|176:132|228:160,1,116.999994644165,8|0,0:0|0:0,0:0:0:0:
284,224,257866,1,0,0:0:0:0:
136,332,258019,5,2,3:0:0:0:
188,244,258172,1,0,0:0:0:0:
236,332,258325,1,2,0:0:0:0:
19,332,258631,6,0,L|136:332,1,116.999994644165,8|0,0:0|0:0,0:0:0:0:
236,332,259090,1,0,0:0:0:0:
352,220,259243,6,0,P|332:276|340:352,1,116.999994644165,2|0,0:0|0:0,0:0:0:0:
464,280,259856,2,0,P|416:292|460:312,1,116.999994644165,8|0,0:0|0:0,0:0:0:0:
352,220,260315,5,0,0:0:0:0:
412,160,260468,2,0,L|404:96,1,58.4999973220826,4|0,0:0|0:0,0:0:0:0:
220,56,260774,1,2,0:0:0:0:
240,136,260927,1,0,0:0:0:0:
300,76,261080,2,0,L|308:12,1,58.4999973220826,8|2,0:0|0:0,0:0:0:0:
352,220,261386,1,8,0:0:0:0:
240,136,261539,1,8,0:0:0:0:
448,68,261692,6,0,L|462:184,1,116.999994644165,4|0,0:0|0:0,0:0:0:0:
508,292,262305,2,0,P|456:284|380:328,1,116.999994644165,8|0,0:0|0:0,0:0:0:0:
320,372,262764,1,0,0:0:0:0:
160,240,262917,5,2,3:0:0:0:
256,208,263070,1,0,0:0:0:0:
236,304,263223,1,2,0:0:0:0:
71,162,263529,6,0,L|159:239,1,116.999994644165,8|0,0:0|0:0,0:0:0:0:
236,304,263988,1,0,0:0:0:0:
312,116,264141,6,0,P|258:171|258:219,1,116.999994644165,4|8,0:0|0:0,0:0:0:0:
408,288,264601,1,8,0:0:0:0:
456,200,264754,2,0,L|340:196,1,116.999994644165,4|8,0:0|0:0,0:0:0:0:
247,36,265213,1,8,0:0:0:0:
195,120,265366,2,0,L|311:116,1,116.999994644165,4|8,0:0|0:0,0:0:0:0:
472,68,265825,1,8,0:0:0:0:
388,16,265978,2,0,L|392:132,1,116.999994644165,4|8,0:0|0:0,0:0:0:0:
396,296,266437,1,8,0:0:0:0:
449,230,266590,6,0,P|381:213|331:241,1,116.999994644165,4|0,0:0|0:0,0:0:0:0:
264,320,267203,2,0,P|200:328|128:312,1,116.999994644165,8|2,0:0|0:0,0:0:0:0:
64,268,267662,1,0,0:0:0:0:
156,120,267815,5,2,0:0:0:0:
152,220,267968,1,8,0:0:0:0:
68,168,268121,1,2,0:0:0:0:
240,172,268274,5,8,0:0:0:0:
240,172,268351,1,8,0:0:0:0:
240,172,268427,1,8,0:0:0:0:
64,268,268580,1,8,0:0:0:0:
152,220,268733,1,8,0:0:0:0:
64,268,268886,1,8,0:0:0:0:
240,172,269039,6,0,L|384:180,1,116.999994644165,4|0,0:0|0:0,0:0:0:0:
496,308,269499,1,2,0:0:0:0:
448,220,269652,2,0,P|456:184|444:136,1,58.4999973220826,8|0,0:0|0:0,0:0:0:0:
356,276,269958,6,0,L|239:282,1,116.999994644165,2|0,0:0|0:0,0:0:0:0:
124,344,270417,1,8,0:0:0:0:
180,204,270570,1,2,0:0:0:0:
63,197,270876,6,0,L|180:204,1,116.999994644165,8|2,0:0|0:0,0:0:0:0:
239,282,271335,1,8,0:0:0:0:
312,148,271488,6,0,L|428:141,1,116.999994644165,2|0,0:0|0:0,0:0:0:0:
460,300,271948,1,2,0:0:0:0:
512,232,272101,2,0,L|452:216,1,58.4999973220826,8|0,0:0|0:0,0:0:0:0:
332,348,272407,6,0,L|320:216,1,116.999994644165,2|0,0:0|0:0,0:0:0:0:
376,132,272866,1,8,0:0:0:0:
228,200,273019,1,2,0:0:0:0:
217,83,273325,6,0,L|229:215,1,116.999994644165,8|2,0:0|0:0,0:0:0:0:
112,328,273784,1,8,0:0:0:0:
122,244,273937,6,0,P|180:278|193:345,1,116.999994644165,2|0,0:0|0:0,0:0:0:0:
44,376,274397,1,2,0:0:0:0:
28,296,274550,2,0,L|16:228,1,58.4999973220826,8|0,0:0|0:0,0:0:0:0:
124,127,274856,6,0,L|122:243,1,116.999994644165,2|0,0:0|0:0,0:0:0:0:
44,376,275315,1,8,0:0:0:0:
194,321,275468,1,0,0:0:0:0:
311,323,275774,6,0,L|194:321,1,116.999994644165,8|0,0:0|0:0,0:0:0:0:
44,376,276233,1,8,0:0:0:0:
121,243,276386,5,2,0:0:0:0:
24,160,281008,6,2,L|104:144,1,45,2|0,3:0|0:0,0:0:0:0:
136,92,281206,6,0,L|268:118,1,135.000005149842,6|0,0:0|0:0,0:0:0:0:
400,236,281502,1,8,0:0:0:0:
364,156,281600,2,0,P|332:180|316:208,1,67.5000025749208,2|0,0:0|0:0,0:0:0:0:
348,308,281798,2,0,P|384:323|417:323,1,67.5000025749208,8|0,0:0|0:0,0:0:0:0:
488,244,281995,2,0,P|483:204|466:176,1,67.5000025749208,2|0,0:0|0:0,0:0:0:0:
268,276,282192,1,0,0:0:0:0:
268,276,282291,1,8,0:0:0:0:
268,276,282390,2,0,L|134:257,1,135.000005149842,2|8,0:0|0:0,0:0:0:0:
20,120,282784,6,0,L|153:139,1,135.000005149842,2|0,0:0|0:0,0:0:0:0:
336,144,283081,1,8,0:0:0:0:
252,88,283179,2,0,L|244:155,1,67.5000025749208,2|0,0:0|0:0,0:0:0:0:
328,211,283377,2,0,L|336:144,1,67.5000025749208,8|0,0:0|0:0,0:0:0:0:
404,288,283574,6,0,L|270:306,1,135.000005149842,6|0,0:0|0:0,0:0:0:0:
72,328,283870,1,8,0:0:0:0:
160,376,283969,2,0,B|180:292|180:292|170:244,1,135.000005149842,6|8,0:0|0:0,0:0:0:0:
72,328,284265,1,8,0:0:0:0:
72,328,284363,6,0,L|58:261,1,67.5000025749208,6|0,0:0|0:0,0:0:0:0:
104,184,284561,2,0,L|90:117,1,67.5000025749208,0|8,0:0|0:0,0:0:0:0:
292,284,284758,2,0,L|278:217,1,67.5000025749208,2|0,0:0|0:0,0:0:0:0:
208,164,284956,2,0,L|194:97,1,67.5000025749208,8|0,0:0|0:0,0:0:0:0:
348,20,285153,6,0,L|340:154,1,135.000005149842,2|0,0:0|0:0,0:0:0:0:
464,296,285449,1,8,0:0:0:0:
436,208,285548,2,0,P|404:224|376:264,1,67.5000025749208,2|0,0:0|0:0,0:0:0:0:
292,284,285745,2,0,P|324:300|352:340,1,67.5000025749208,8|0,0:0|0:0,0:0:0:0:
133,361,285942,6,0,L|268:368,1,135.000005149842,2|0,0:0|0:0,0:0:0:0:
300,218,286238,1,8,0:0:0:0:
300,218,286337,2,0,P|289:249|291:283,1,67.5000025749208,2|0,0:0|0:0,0:0:0:0:
428,299,286534,2,0,P|406:274|376:260,1,67.5000025749208,8|0,0:0|0:0,0:0:0:0:
501,374,286732,6,0,L|512:240,1,135.000005149842,6|0,0:0|0:0,0:0:0:0:
416,80,287028,1,8,0:0:0:0:
368,168,287127,2,0,B|440:168|440:168|512:128,1,135.000005149842,6|8,0:0|0:0,0:0:0:0:
319,79,287423,1,8,0:0:0:0:
319,79,287521,6,0,B|247:79|247:79|192:110,1,135.000005149842,6|0,0:0|0:0,0:0:0:0:
80,216,287817,1,8,0:0:0:0:
86,127,287916,2,0,L|92:60,1,67.5000025749208,2|0,0:0|0:0,0:0:0:0:
192,109,288113,2,0,L|197:41,1,67.5000025749208,8|0,0:0|0:0,0:0:0:0:
314,41,288311,2,0,L|328:196,1,135.000005149842,2|0,0:0|0:0,0:0:0:0:
404,352,288607,1,8,0:0:0:0:
464,284,288706,2,0,P|401:261|335:267,1,135.000005149842,2|8,0:0|0:0,0:0:0:0:
200,328,289100,6,0,P|136:350|69:344,1,135.000005149842,2|0,0:0|0:0,0:0:0:0:
116,180,289396,1,8,0:0:0:0:
159,257,289495,2,0,P|127:267|93:266,1,67.5000025749208,2|0,0:0|0:0,0:0:0:0:
32,208,289692,2,0,P|27:174|34:141,1,67.5000025749208,8|0,0:0|0:0,0:0:0:0:
104,92,289890,2,0,P|137:93|204:184,1,135.000005149842,2|0,0:0|0:0,0:0:0:0:
272,324,290186,1,8,0:0:0:0:
272,324,290284,2,0,P|274:257|315:206,1,135.000005149842,2|8,0:0|0:0,0:0:0:0:
164,104,290679,6,0,P|197:144|192:224,1,135.000005149842,6|0,0:0|0:0,0:0:0:0:
108,372,290975,1,8,0:0:0:0:
80,288,291074,2,0,L|147:295,1,67.5000025749208,2|0,0:0|0:0,0:0:0:0:
263,360,291271,2,0,L|196:368,1,67.5000025749208,8|0,0:0|0:0,0:0:0:0:
58,208,291469,6,0,L|192:223,1,135.000005149842,6|0,0:0|0:0,0:0:0:0:
368,220,291765,1,8,0:0:0:0:
300,159,291863,2,0,P|284:189|279:223,1,67.5000025749208,2|0,0:0|0:0,0:0:0:0:
436,280,292061,2,0,P|451:250|456:216,1,67.5000025749208,8|0,0:0|0:0,0:0:0:0:
410,92,292258,6,0,L|367:220,1,135.000005149842,6|0,0:0|0:0,0:0:0:0:
336,304,292554,1,10,0:0:0:0:
276,368,292653,1,10,0:0:0:0:
188,384,292752,1,10,0:0:0:0:
100,368,292850,1,10,0:0:0:0:
40,304,292949,1,10,0:0:0:0:
24,220,293048,6,0,L|28:108,1,80.9999975280763,6|0,0:0|0:0,0:0:0:0:
128,84,293245,2,0,L|130:164,1,80.9999975280763,2|0,0:0|0:0,0:0:0:0:
40,208,293442,6,0,L|44:96,1,80.9999975280763,6|0,0:0|0:0,0:0:0:0:
144,96,293639,2,0,L|146:176,1,80.9999975280763,2|0,0:0|0:0,0:0:0:0:
256,232,293837,6,0,L|261:97,1,135.000005149842,6|0,0:0|0:0,0:0:0:0:
400,32,294133,1,8,0:0:0:0:
495,63,294232,2,0,P|481:94|455:116,1,67.5000025749208,2|0,0:0|0:0,0:0:0:0:
383,191,294429,2,0,P|364:164|358:131,1,67.5000025749208,8|0,0:0|0:0,0:0:0:0:
480,224,294627,2,0,P|464:256|424:284,1,67.5000025749208,2|0,0:0|0:0,0:0:0:0:
336,304,294824,1,0,0:0:0:0:
336,304,294923,1,8,0:0:0:0:
336,304,295021,2,0,L|160:288,1,135.000005149842,2|8,0:0|0:0,0:0:0:0:
32,208,295416,6,0,L|208:192,1,135.000005149842,2|0,0:0|0:0,0:0:0:0:
352,176,295712,1,8,0:0:0:0:
256,128,295811,2,0,L|248:48,1,67.5000025749208,2|0,0:0|0:0,0:0:0:0:
358,108,296009,2,0,L|350:188,1,67.5000025749208,8|0,0:0|0:0,0:0:0:0:
416,272,296206,6,0,B|380:296|380:296|272:280,1,135.000005149842,6|0,0:0|0:0,0:0:0:0:
128,256,296502,1,8,0:0:0:0:
112,156,296600,2,0,P|32:224|48:304,1,135.000005149842,6|0,0:0|0:0,0:0:0:0:
128,256,296896,1,8,0:0:0:0:
128,256,296995,6,0,L|224:224,1,67.5000025749208,6|0,0:0|0:0,0:0:0:0:
272,112,297192,2,0,L|176:144,1,67.5000025749208,0|8,0:0|0:0,0:0:0:0:
304,208,297390,2,0,L|400:176,1,67.5000025749208,2|0,0:0|0:0,0:0:0:0:
304,0,297587,2,0,L|208:32,1,67.5000025749208,8|0,0:0|0:0,0:0:0:0:
384,80,297784,6,0,B|416:64|432:32|432:32|432:64|448:96,1,135.000005149842,2|0,0:0|0:0,0:0:0:0:
480,224,298081,1,8,0:0:0:0:
400,272,298179,2,0,P|432:304|496:320,1,67.5000025749208,2|0,0:0|0:0,0:0:0:0:
336,336,298377,2,0,P|304:368|240:384,1,67.5000025749208,8|0,0:0|0:0,0:0:0:0:
240,272,298574,6,0,B|208:224|208:224|160:240|96:208,1,135.000005149842,2|0,0:0|0:0,0:0:0:0:
12,276,298870,1,8,0:0:0:0:
12,276,298969,2,0,P|0:236|16:180,1,67.5000025749208,2|0,0:0|0:0,0:0:0:0:
64,80,299166,2,0,P|76:120|60:176,1,67.5000025749208,8|0,0:0|0:0,0:0:0:0:
176,128,299363,6,0,P|224:144|320:112,1,135.000005149842,2|0,0:0|0:0,0:0:0:0:
480,48,299659,1,8,0:0:0:0:
384,16,299758,2,0,L|400:160,1,135.000005149842,2|8,0:0|0:0,0:0:0:0:
480,256,300054,1,8,0:0:0:0:
432,352,300153,6,0,L|528:336,1,67.5000025749208,6|0,0:0|0:0,0:0:0:0:
368,272,300350,2,0,L|272:256,1,67.5000025749208,0|8,0:0|0:0,0:0:0:0:
176,352,300548,2,0,P|224:352|256:336,1,67.5000025749208,2|0,0:0|0:0,0:0:0:0:
96,280,300745,2,0,P|71:321|69:357,1,67.5000025749208,8|0,0:0|0:0,0:0:0:0:
198,246,300942,2,0,P|174:204|144:184,1,67.5000025749208,2|0,0:0|0:0,0:0:0:0:
16,128,301140,2,0,P|40:169|69:189,1,67.5000025749208,0|8,0:0|0:0,0:0:0:0:
159,192,301337,2,0,P|186:173|205:145,1,67.5000025749208,2|0,0:0|0:0,0:0:0:0:
272,32,301534,6,0,P|352:32|288:168,1,270.000010299683,10|0,0:0|0:0,0:0:0:0:
312,96,302028,1,8,0:0:0:0:
224,144,302127,2,0,P|224:192|256:256,1,67.5000025749208,2|0,0:0|0:0,0:0:0:0:
384,272,302324,2,0,L|317:263,1,67.5000025749208,8|0,0:0|0:0,0:0:0:0:
464,176,302521,6,0,B|496:224|496:224|480:320,1,135.000005149842,6|0,0:0|0:0,0:0:0:0:
384,272,302817,1,8,0:0:0:0:
336,352,302916,2,0,P|264:336|228:268,1,135.000005149842,6|8,0:0|0:0,0:0:0:0:
272,112,303212,1,8,0:0:0:0:
208,192,303311,6,0,P|176:152|176:104,1,67.5000025749208,6|0,0:0|0:0,0:0:0:0:
236,16,303508,2,0,P|286:8|328:32,1,67.5000025749208,10|0,0:0|0:0,0:0:0:0:
374,128,303706,2,0,P|355:175|313:199,1,67.5000025749208,10|0,0:0|0:0,0:0:0:0:
200,200,303903,2,0,P|168:160|168:112,1,67.5000025749208,10|0,0:0|0:0,0:0:0:0:
400,16,304100,6,0,P|368:84|320:112,1,72,10|0,0:0|0:0,0:0:0:0:
288,272,304298,2,0,P|245:210|244:154,1,72,10|0,0:0|0:0,0:0:0:0:
122,47,304495,2,0,P|196:40|245:68,1,72,10|0,0:0|0:0,0:0:0:0:
416,24,304692,2,0,P|384:92|336:120,1,72,10|0,0:0|0:0,0:0:0:0:
108,148,304890,5,10,0:0:0:0:
496,96,305087,1,10,0:0:0:0:
108,148,305284,5,10,0:0:0:0:
476,252,305482,6,8,L|485:180,1,72
464,352,305778,5,8,0:0:0:0:
432,336,305877,1,8,0:0:0:0:
400,336,305975,1,8,0:0:0:0:
368,352,306074,2,0,P|336:360|280:352,1,72,2|0,0:0|0:0,0:0:0:0:
284,204,306271,2,0,P|306:227|327:280,1,72,2|0,0:0|0:0,0:0:0:0:
227,286,306469,5,4,0:0:0:0:
256,192,306666,12,2,309627,0:0:0:0:
338,326,315187,6,0,P|272:331|224:287,1,135
300,248,315494,22,0,P|288:216|289:183,1,67.5000025749208
326,105,315648,22,0,P|338:73|337:40,1,67.5000025749208,0|6,0:0|0:0,0:0:0:0:
288,183,315956,5,2,0:0:0:0:
249,204,316032,1,2,0:0:0:0:
205,215,316109,1,2,0:0:0:0:
163,197,316186,1,2,0:0:0:0:
131,164,316263,6,0,L|144:68,1,90,6|0,0:1|0:0,0:0:0:0:
45,222,316725,6,0,L|57:311,1,90,8|0,0:0|0:0,0:0:0:0:
61,326,316956,1,0,0:0:0:0:
64,341,317033,5,8,0:0:0:0:
209,346,317186,1,0,0:0:0:0:
354,351,317340,2,0,L|443:339,1,90,8|0,0:0|0:0,0:0:0:0:
194,328,317648,5,4,0:0:0:0:
166,125,317802,1,0,0:0:0:0:
175,310,317956,1,0,0:0:0:0:
176,115,318110,6,0,P|183:137|184:159,1,45,8|0,0:0|0:0,0:0:0:0:
160,296,318263,1,0,0:0:0:0:
41,148,318417,6,0,P|74:142|107:151,1,67.5000025749208,2|8,0:0|0:0,0:0:0:0:
188,108,318725,6,0,B|238:149|331:137|331:137|283:122|271:93,1,225,6|0,0:0|0:0,0:0:0:0:
353,51,319186,5,8,0:0:0:0:
247,220,319340,1,0,0:0:0:0:
364,147,319494,6,0,L|374:202,1,56.25,2|2,0:0|0:0,0:0:0:0:
310,337,319648,2,0,L|320:281,1,56.25,2|2,0:0|0:0,0:0:0:0:
247,220,319802,5,2,0:0:0:0:
211,197,319878,1,2,0:0:0:0:
170,191,319955,1,2,0:0:0:0:
130,202,320032,1,2,0:0:0:0:
98,229,320110,6,0,B|121:336,1,101.250003862381,6|0,0:0|0:0,0:0:0:0:
127,355,320417,1,8,0:0:0:0:
124,63,320571,6,0,L|98:229,1,168.75
95,258,320879,1,0,0:0:0:0:
25,41,321033,1,8,0:0:0:0:
302,116,321186,6,0,B|265:118|240:132|240:132|199:124|199:124|177:135|139:137,1,168.75,6|0,0:0|0:0,0:0:0:0:
111,146,321494,1,0,0:0:0:0:
305,207,321648,1,8,0:0:0:0:
141,52,321802,1,6,0:0:0:0:
131,39,322110,5,2,0:0:0:0:
98,229,322263,1,8,0:0:0:0:
294,27,322417,6,0,L|302:122,1,90,12|0,0:0|0:0,0:0:0:0:
304,207,322879,5,8,0:0:0:0:
138,137,323033,1,2,0:0:0:0:
146,127,323110,1,2,0:0:0:0:
154,117,323187,1,2,0:0:0:0:
178,224,323340,1,2,0:0:0:0:
202,331,323493,1,2,0:0:0:0:
320,18,323648,6,0,L|304:207,1,188.999994232178,6|8,0:0|0:0,0:0:0:0:
211,359,324110,5,10,0:0:0:0:
178,224,324263,1,2,0:0:0:0:
145,89,324417,1,8,0:0:0:0:
47,168,324571,6,0,L|94:172,1,47.2499985580445,8|0,0:0|0:0,0:0:0:0:
204,246,324725,5,8,0:0:0:0:
256,266,324801,1,8,0:0:0:0:
311,252,324879,1,8,0:0:0:0:
352,213,324956,1,8,0:0:0:0:
370,137,325033,6,0,P|354:89|357:38,1,101.250003862381,2|0,0:0|0:0,0:0:0:0:
368,13,325340,1,6,0:0:0:0:
448,200,325494,5,8,0:0:0:0:
445,218,325571,1,8,0:0:0:0:
442,236,325648,1,8,0:0:0:0:
308,255,325802,1,2,0:0:0:0:
476,314,325956,1,0,0:0:0:0:
291,243,326110,6,0,L|201:254,1,90,6|0,0:0|0:0,0:0:0:0:
6,230,326571,6,0,L|17:140,1,90,8|0,0:0|0:0,0:0:0:0:
22,133,326802,1,0,0:0:0:0:
26,125,326879,5,8,0:0:0:0:
193,106,327033,1,0,0:0:0:0:
308,255,327187,2,0,L|218:263,1,90,8|0,0:0|0:0,0:0:0:0:
428,88,327494,5,6,0:0:0:0:
203,119,327648,1,0,0:0:0:0:
408,109,327802,1,0,0:0:0:0:
192,106,327956,6,0,P|214:98|236:96,1,45,8|0,0:0|0:0,0:0:0:0:
393,125,328109,1,0,0:0:0:0:
219,264,328263,6,0,P|213:220|230:178,1,90,2|8,0:0|0:0,0:0:0:0:
438,269,328571,6,0,B|353:291|295:231|295:231|338:222|369:239,1,225,6|0,0:0|0:0,0:0:0:0:
476,369,329033,6,0,P|432:359|389:369,1,90,8|2,0:0|0:0,0:0:0:0:
384,377,329263,1,0,0:0:0:0:
379,384,329340,5,8,0:0:0:0:
449,258,329494,1,0,0:0:0:0:
393,125,329648,1,8,0:0:0:0:
438,269,329802,1,0,0:0:0:0:
485,97,329956,6,0,L|306:83,1,180,6|8,0:0|0:0,0:0:0:0:
306,83,330571,5,2,0:0:0:0:
423,283,330725,2,0,L|432:193,1,90,2|8,0:3|0:0,0:0:0:0:
294,71,331033,5,6,0:0:0:0:
282,59,331340,2,0,L|394:66,1,112.5,2|8,0:3|0:0,0:0:0:0:
150,200,331648,5,6,0:0:0:0:
138,212,331956,1,2,0:0:0:0:
69,52,332110,1,8,0:0:0:0:
13,227,332263,1,2,0:0:0:0:
10,212,332340,1,2,0:0:0:0:
6,199,332417,6,0,P|72:192|137:211,1,135.000005149842,6|8,0:0|0:0,0:0:0:0:
188,315,332879,5,0,0:0:0:0:
189,348,332955,1,0,0:0:0:0:
176,379,333032,1,8,0:0:0:0:
137,211,333186,1,0,0:0:0:0:
223,92,333340,2,0,L|302:83,1,67.5000025749208,8|0,0:0|0:0,0:0:0:0:
451,281,333648,6,0,L|432:123,1,135,6|0,0:0|0:0,0:0:0:0:
430,119,333956,1,8,0:0:0:0:
272,210,334110,6,0,L|316:212,1,45
407,217,334263,1,8,0:0:0:0:
223,92,334417,1,0,0:0:0:0:
259,299,334571,2,0,L|272:210,1,90,8|0,0:0|0:0,0:0:0:0:
165,9,334879,6,0,B|177:68|177:68|167:113|167:113|181:176,1,168.75,6|0,0:0|0:0,0:0:0:0:
187,204,335186,1,8,0:0:0:0:
50,69,335340,5,0,0:0:0:0:
71,70,335417,1,0,0:0:0:0:
92,72,335494,1,8,0:0:0:0:
205,284,335648,1,0,0:0:0:0:
65,237,335802,1,8,0:0:0:0:
173,136,335956,1,0,0:0:0:0:
145,344,336110,6,0,P|222:367|288:300,1,168.75,6|0,0:0|0:0,0:0:0:0:
291,288,336417,1,8,0:0:0:0:
173,136,336571,5,0,0:0:0:0:
174,177,336648,1,0,0:0:0:0:
192,216,336725,1,8,0:0:0:0:
230,72,336879,1,0,0:0:0:0:
114,229,337033,1,8,0:0:0:0:
347,173,337186,6,0,P|297:175|250:158,1,101.250003862381,8|0,0:0|0:0,0:0:0:0:
108,146,337494,22,0,P|141:147|172:136,1,67.5000025749208
229,72,337648,6,0,P|231:38|219:7,1,67.5,6|0,0:0|0:0,0:0:0:0:
153,55,337956,5,2,0:0:0:0:
199,222,338110,1,0,0:0:0:0:
108,146,338263,1,8,0:0:0:0:
211,332,338417,6,0,L|249:157,1,180,2|0,0:0|0:0,0:0:0:0:
422,226,338879,2,0,L|332:238,1,90,8|2,0:0|0:0,0:0:0:0:
322,235,339110,1,0,0:0:0:0:
312,232,339186,1,8,0:0:0:0:
338,339,339340,5,8,0:0:0:0:
388,125,339494,1,8,0:0:0:0:
436,296,339648,1,8,0:0:0:0:
441,305,339956,5,8,0:0:0:0:
293,224,340110,1,8,0:0:0:0:
144,143,340263,1,8,0:0:0:0:
148,139,340340,1,0,0:0:0:0:
151,135,340417,1,0,0:0:0:0:
199,298,340571,5,8,0:0:0:0:
372,266,340725,1,8,0:0:0:0:
26,330,340879,1,8,0:0:0:0:
21,339,341186,5,2,0:0:0:0:
207,291,341340,1,8,0:0:0:0:
393,243,341494,1,8,0:0:0:0:
303,356,341648,5,8,0:0:0:0:
301,351,341725,1,8,0:0:0:0:
299,346,341802,2,0,P|295:323|293:301,1,45,8|8,0:0|0:0,0:0:0:0:
303,166,341956,2,0,P|304:143|308:121,1,45,8|8,0:0|0:0,0:0:0:0:
473,248,342110,6,0,B|417:279|356:241|356:241|395:238|412:230,1,180,10|0,0:0|0:0,0:0:0:0:
331,145,342571,6,0,P|396:137|344:96,1,168.75,12|0,0:0|0:0,0:0:0:0:
333,105,342879,5,2,0:0:0:0:
293,301,343033,1,0,0:0:0:0:
411,230,343186,1,8,0:0:0:0:
175,368,343340,6,0,B|163:325|176:297|176:297|163:281|156:266|156:266|178:243|175:186,1,180,6|0,0:0|0:0,0:0:0:0:
138,100,343802,2,0,L|227:112,1,90,8|2,0:0|0:0,0:0:0:0:
234,110,344033,1,0,0:0:0:0:
242,107,344110,1,2,0:0:0:0:
85,206,344263,1,0,0:0:0:0:
183,21,344417,1,8,0:0:0:0:
254,263,344571,5,6,0:0:0:0:
268,280,344879,6,0,L|334:291,1,67.5000025749208,8|0,0:0|0:0,0:0:0:0:
420,203,345033,2,0,L|396:139,1,67.5000025749208,8|0,0:0|0:0,0:0:0:0:
278,110,345186,2,0,L|234:161,1,67.5000025749208,8|0,0:0|0:0,0:0:0:0:
273,294,345340,1,2,0:0:0:0:
433,200,345494,6,0,P|427:167|411:138,1,67.5000025749208,8|0,0:0|0:0,0:0:0:0:
273,96,345648,2,0,P|247:117|230:146,1,67.5000025749208,8|0,0:0|0:0,0:0:0:0:
273,306,345802,6,0,P|304:317|338:317,1,67.5000025749208,10|0,0:0|0:0,0:0:0:0:
263,86,346110,2,0,P|230:86|198:97,1,67.5000025749208,10|0,0:0|0:0,0:0:0:0:
76,172,346417,6,0,L|82:205,1,33.7500012874604,10|0,0:0|0:0,0:0:0:0:
26,267,346571,5,2,0:0:0:0:
76,289,346647,1,2,0:0:0:0:
129,274,346724,1,10,0:0:0:0:
159,229,346801,1,2,0:0:0:0:
193,185,346879,5,10,0:0:0:0:
243,163,346955,1,2,0:0:0:0:
296,178,347032,1,2,0:0:0:0:
326,223,347110,1,2,0:0:0:0:
338,235,347186,6,0,L|320:334,1,101.250003862381,2|0,0:0|0:0,0:0:0:0:
319,359,347494,6,0,B|358:355|385:341|385:341|432:351|432:351|455:333|494:333,1,182.250000695229,6|0,0:0|0:0,0:0:0:0:
511,342,347802,5,2,0:0:0:0:
326,223,347956,1,0,0:0:0:0:
434,382,348110,1,8,0:0:0:0:
372,131,348263,6,0,L|334:334,1,207.000003948212,6|0,0:0|0:0,0:0:0:0:
125,256,348725,2,0,L|227:244,1,103.500001974106,8|2,0:0|0:0,0:0:0:0:
236,239,348956,1,0,0:0:0:0:
244,233,349033,1,8,0:0:0:0:
191,351,349186,5,8,0:0:0:0:
134,114,349340,1,8,0:0:0:0:
195,360,349494,1,6,0:0:0:0:
198,371,349802,5,0,0:0:0:0:
410,169,349956,1,8,0:0:0:0:
143,289,350110,1,2,0:0:0:0:
134,284,350186,1,0,0:0:0:0:
125,279,350262,1,2,0:0:0:0:
391,326,350417,5,2,0:0:0:0:
115,274,350571,1,2,0:0:0:0:
410,169,350725,1,8,0:0:0:0:
425,174,351033,5,8,0:0:0:0:
108,268,351186,1,8,0:0:0:0:
440,179,351340,2,0,L|432:75,1,103.500001974106,8|0,0:0|0:0,0:0:0:0:
341,261,351648,5,8,0:0:0:0:
265,124,351802,2,0,L|332:116,1,67.5000025749208,8|0,0:0|0:0,0:0:0:0:
108,268,352110,6,0,L|159:274,1,51.7500009870529,2|0,0:0|0:0,0:0:0:0:
256,287,352263,1,2,0:0:0:0:
32,320,352417,5,6,0:0:0:0:
342,260,352571,2,0,B|341:216|356:191|356:191|358:154|330:111,1,155.250002961159,2|0,0:0|0:0,0:0:0:0:
362,42,352879,6,0,P|297:81|226:57,1,155.250002961159,2|0,0:0|0:0,0:0:0:0:
121,85,353186,5,6,0:0:0:0:
110,71,353494,1,2,0:0:0:0:
164,272,353648,6,0,L|182:170,1,103.500001974106,8|2,0:0|0:0,0:0:0:0:
187,155,353879,1,0,0:0:0:0:
190,140,353956,1,2,0:0:0:0:
351,171,354110,1,8,0:0:0:0:
135,286,354263,5,8,0:0:0:0:
420,238,354417,1,8,0:0:0:0:
429,231,354725,5,0,0:0:0:0:
391,347,354879,1,0,0:0:0:0:
342,162,355033,5,0,0:0:0:0:
333,155,355340,1,0,0:0:0:0:
324,148,355648,2,0,L|272:144,1,51.7500009870529
186,135,355802,5,8,0:0:0:0:
400,82,355956,1,0,0:0:0:0:
170,122,356110,5,10,0:0:0:0:
278,247,356263,1,2,0:0:0:0:
267,119,356417,5,10,0:0:0:0:
210,317,356571,1,2,0:0:0:0:
218,45,356725,5,10,0:0:0:0:
303,343,356879,1,10,0:0:0:0:
505,15,357340,6,0,L|512:0,10,16.8750006437302,14|0|0|0|0|0|0|0|0|0|0,0:0|0:0|0:0|0:0|0:0|0:0|0:0|0:0|0:0|0:0|0:0,0:0:0:0:
