osu file format v14

[General]
AudioFilename: audio.mp3
AudioLeadIn: 0
PreviewTime: 174106
Countdown: 0
SampleSet: Soft
StackLeniency: 0.7
Mode: 0
LetterboxInBreaks: 0
WidescreenStoryboard: 1

[Editor]
Bookmarks: 13250,24698,41868,47198,51540,63579,69500,79072,92198,105224,113316,145487,158908,167395,180816,212987,226013
DistanceSpacing: 1.8
BeatDivisor: 4
GridSize: 16
TimelineZoom: 4.099998

[Metadata]
Title:Yume no Mata Yume
TitleUnicode:夢のまた夢
Artist:yuikonnu
ArtistUnicode:ゆいこんぬ
Creator:Marry
Version:Yume
Source:
Tags:
BeatmapID:1488459
BeatmapSetID:692424

[Difficulty]
HPDrainRate:5
CircleSize:3.3
OverallDifficulty:8.4
ApproachRate:9.4
SliderMultiplier:1.8
SliderTickRate:1

[Events]
//Background and Video events
0,0,"bg.png",0,0
//Break Periods
2,92792,104229
2,145785,158308
//Storyboard Layer 0 (Background)
//Storyboard Layer 1 (Fail)
//Storyboard Layer 2 (Pass)
//Storyboard Layer 3 (Foreground)
//Storyboard Sound Samples

[TimingPoints]
619,394.736842105263,4,2,1,30,1,0
13250,-83.3333333333333,4,2,1,50,0,0
24697,-83.3333333333333,4,2,1,5,0,0
24895,-83.3333333333333,4,2,1,20,0,0
25092,-83.3333333333333,4,2,1,30,0,0
25388,-83.3333333333333,4,2,1,40,0,0
26079,-100,4,2,1,45,0,0
51540,-90.9090909090909,4,2,1,45,0,0
66934,-76.9230769230769,4,2,1,55,0,1
70092,-71.4285714285714,4,2,1,55,0,1
70290,-76.9230769230769,4,2,1,55,0,1
91507,-76.9230769230769,4,2,1,50,0,0
104829,-100,4,2,1,40,0,0
116079,-100,4,2,1,45,0,0
117855,-100,4,2,1,40,0,0
130487,-90.9090909090909,4,2,1,45,0,0
145586,-100,4,2,1,45,0,0
168382,-100,4,2,1,50,0,0
174303,-100,4,2,1,5,0,0
174697,-100,4,2,1,50,0,0
175290,-76.9230769230769,4,2,1,55,0,1
178250,-71.4285714285714,4,2,1,55,0,1
178447,-76.9230769230769,4,2,1,55,0,1
199665,-76.9230769230769,4,2,1,55,0,0

[HitObjects]
80,224,619,6,0,L|128:208,1,45
147,108,816,2,0,L|211:124,1,45
295,190,1014,2,0,L|407:158,1,90,2|0,0:0|0:0,0:0:0:0:
195,279,1408,2,0,L|275:343,1,90,2|0,0:0|0:0,0:0:0:0:
352,64,1803,1,0,0:0:0:0:
226,167,2000,1,0,0:0:0:0:
292,26,2198,1,0,0:0:0:0:
294,219,2395,1,0,0:0:0:0:
114,159,2592,6,0,L|66:47,1,90,2|0,0:0|0:0,0:0:0:0:
294,190,2987,2,0,L|254:282,1,90,2|0,0:0|0:0,0:0:0:0:
403,81,3382,1,0,0:0:0:0:
422,122,3481,1,0,0:0:0:0:
440,161,3579,1,0,0:0:0:0:
309,260,3777,6,0,L|376:241,1,45
228,111,3974,2,0,L|169:132,1,45
140,247,4171,2,0,L|236:212,1,90,2|0,0:0|0:0,0:0:0:0:
464,256,4566,2,0,L|378:226,1,90,2|0,0:0|0:0,0:0:0:0:
230,83,4961,1,0,0:0:0:0:
255,273,5158,1,0,0:0:0:0:
266,105,5356,1,0,0:0:0:0:
171,245,5553,1,0,0:0:0:0:
80,63,5750,2,0,L|115:189,1,90,2|0,0:0|0:0,0:0:0:0:
368,32,6145,5,0,0:0:0:0:
288,176,6342,1,0,0:0:0:0:
208,64,6540,1,0,0:0:0:0:
384,176,6737,1,0,0:0:0:0:
272,288,6935,6,0,L|208:320,1,45
64,208,7132,2,0,L|112:224,1,45
288,192,7329,2,0,L|192:160,1,90,2|0,0:0|0:0,0:0:0:0:
384,16,7724,2,0,L|368:128,1,90,2|0,0:0|0:0,0:0:0:0:
144,176,8119,5,0,0:0:0:0:
320,112,8316,1,0,0:0:0:0:
160,224,8513,1,0,0:0:0:0:
288,64,8711,1,0,0:0:0:0:
240,256,8908,2,0,L|344:221,1,90,2|0,0:0|0:0,0:0:0:0:
192,64,9303,2,0,L|80:96,1,90,2|0,0:0|0:0,0:0:0:0:
304,176,9698,1,0,0:0:0:0:
352,192,9796,1,0,0:0:0:0:
400,208,9895,1,0,0:0:0:0:
224,288,10092,6,0,L|192:240,1,45
32,256,10290,2,0,L|64:208,1,45
230,150,10487,2,0,L|173:74,1,90,2|0,0:0|0:0,0:0:0:0:
400,16,10882,6,0,L|384:80,1,45
288,192,11079,2,0,L|224:176,1,45
128,64,11277,2,0,L|176:48,1,45
32,205,11474,2,0,L|80:221,1,45
236,83,11671,5,0,0:0:0:0:
259,138,11770,1,0,0:0:0:0:
273,181,11869,2,0,L|192:256,1,90,4|0,0:0|0:0,0:0:0:0:
409,300,12263,6,0,L|352:313,1,45,8|0,0:0|0:0,0:0:0:0:
238,184,12461,2,0,L|299:171,1,45,8|0,0:0|0:0,0:0:0:0:
136,280,12658,2,0,L|79:293,1,45,8|0,0:0|0:0,0:0:0:0:
0,134,12856,2,0,L|142:108,1,135,2|0,0:0|0:0,0:0:0:0:
336,43,13250,6,0,P|298:48|280:74,1,53.9999983520508
272,161,13448,2,0,P|234:166|216:192,1,53.9999983520508
176,274,13645,2,0,P|192:322|272:354,1,107.999996704102,6|0,0:0|0:0,0:0:0:0:
402,326,13941,1,0,0:0:0:0:
442,247,14040,2,0,P|425:199|344:168,1,107.999996704102,2|0,0:0|0:0,0:0:0:0:
199,214,14435,2,0,P|222:199|247:166,1,53.9999983520508,2|0,0:0|0:0,0:0:0:0:
289,11,14632,1,0,0:0:0:0:
225,70,14731,1,0,0:0:0:0:
126,78,14829,2,0,P|95:66|95:25,1,53.9999983520508,2|0,0:0|0:0,0:0:0:0:
7,213,15027,2,0,P|33:214|59:222,1,53.9999983520508
217,295,15224,6,0,P|181:308|169:319,1,53.9999983520508,2|0,0:0|0:0,0:0:0:0:
381,326,15421,1,0,0:0:0:0:
381,326,15520,1,0,0:0:0:0:
381,326,15618,2,0,P|419:320|440:295,1,53.9999983520508,2|0,0:0|0:0,0:0:0:0:
305,200,15816,2,0,P|274:196|236:233,1,53.9999983520508
347,80,16013,2,0,P|409:45|478:60,1,107.999996704102,2|0,0:0|0:0,0:0:0:0:
11,90,16408,6,0,P|33:95|59:122,1,53.9999983520508
154,90,16606,2,0,P|175:105|199:140,1,53.9999983520508
127,242,16803,2,0,P|85:264|-19:274,1,107.999996704102,2|0,0:0|0:0,0:0:0:0:
210,340,17099,1,0,0:0:0:0:
302,328,17198,2,0,P|320:315|362:209,1,107.999996704102,2|0,0:0|0:0,0:0:0:0:
436,112,17592,2,0,P|422:89|379:56,1,53.9999983520508,2|0,0:0|0:0,0:0:0:0:
202,31,17790,1,0,0:0:0:0:
127,86,17888,1,0,0:0:0:0:
121,173,17987,2,0,P|139:214|172:229,1,53.9999983520508,2|0,0:0|0:0,0:0:0:0:
337,114,18185,2,0,P|336:92|315:48,1,53.9999983520508
63,248,18382,6,0,L|112:269,1,53.9999983520508,2|0,0:0|0:0,0:0:0:0:
393,207,18579,2,0,L|344:230,1,53.9999983520508
151,313,18777,2,0,L|67:282,2,53.9999983520508
409,88,19171,6,0,B|414:46|375:35|375:35|329:78|412:134,1,161.999995056153,4|0,0:0|0:0,0:0:0:0:
304,179,19566,2,0,P|218:172|210:84,1,161.999995056153,4|0,0:0|0:0,0:0:0:0:
12,45,19961,6,0,P|25:83|51:101,1,53.9999983520508,2|0,0:0|0:0,0:0:0:0:
200,110,20157,1,0,0:0:0:0:
200,110,20256,1,0,0:0:0:0:
200,110,20355,2,0,P|219:176|122:196,1,161.999995056153,2|0,0:0|0:0,0:0:0:0:
0,318,20750,2,0,P|32:302|48:270,1,53.9999983520508,2|0,0:0|0:0,0:0:0:0:
179,115,20948,1,0,0:0:0:0:
134,193,21046,1,0,0:0:0:0:
192,271,21145,2,0,P|230:283|272:271,1,53.9999983520508,2|0,0:0|0:0,0:0:0:0:
376,151,21342,2,0,P|414:161|443:194,1,53.9999983520508
160,31,21540,6,0,L|173:89,1,53.9999983520508,2|0,0:0|0:0,0:0:0:0:
122,222,21737,1,0,0:0:0:0:
219,228,21836,1,0,0:0:0:0:
293,171,21935,2,0,L|323:111,1,53.9999983520508,2|0,0:0|0:0,0:0:0:0:
456,234,22132,2,0,L|426:294,1,53.9999983520508
448,83,22329,2,0,L|318:132,1,107.999996704102,2|0,0:0|0:0,0:0:0:0:
30,193,22724,6,0,L|94:225,1,53.9999983520508
226,193,22921,2,0,L|242:257,1,53.9999983520508
416,240,23119,2,0,L|345:357,1,107.999996704102,2|0,0:0|0:0,0:0:0:0:
222,201,23415,1,0,0:0:0:0:
109,223,23513,2,0,L|145:96,1,107.999996704102,2|0,0:0|0:0,0:0:0:0:
317,58,23908,6,0,L|365:106,1,53.9999983520508,2|0,0:0|0:0,0:0:0:0:
124,296,24106,1,0,0:0:0:0:
213,310,24204,1,0,0:0:0:0:
281,249,24303,2,0,L|249:169,1,53.9999983520508,2|0,0:0|0:0,0:0:0:0:
161,35,24500,2,0,L|129:90,1,53.9999983520508
344,129,24698,2,0,L|408:113,7,53.9999983520508
216,69,25487,5,0,0:0:0:0:
199,102,25586,1,0,0:0:0:0:
180,139,25685,1,0,0:0:0:0:
162,171,25783,1,0,0:0:0:0:
64,224,25882,6,0,L|53:153,1,53.9999983520508
250,206,26079,2,0,L|266:278,1,45
171,346,26277,2,0,L|157:250,1,90,4|0,0:0|0:0,0:0:0:0:
366,114,26671,1,0,0:0:0:0:
339,153,26770,1,0,0:0:0:0:
345,201,26869,1,0,0:0:0:0:
385,227,26967,1,0,0:0:0:0:
421,249,27066,2,0,L|269:286,1,135,2|0,0:0|0:0,0:0:0:0:
212,174,27461,1,0,0:0:0:0:
399,99,27658,2,2,L|300:65,1,90,2|0,0:0|0:0,0:0:0:0:
24,120,28053,6,0,L|88:147,1,45
220,239,28250,2,0,L|156:212,1,45
155,81,28448,1,0,0:0:0:0:
55,226,28645,2,0,L|117:321,1,90,2|0,0:0|0:0,0:0:0:0:
331,199,28941,1,0,0:0:0:0:
244,159,29040,2,0,L|217:49,1,90,2|0,0:0|0:0,0:0:0:0:
423,102,29336,1,0,0:0:0:0:
346,164,29435,2,0,L|502:196,1,135,2|0,0:0|0:0,0:0:0:0:
279,310,29829,5,0,0:0:0:0:
219,273,29928,1,0,0:0:0:0:
276,222,30027,1,0,0:0:0:0:
333,258,30125,1,0,0:0:0:0:
262,313,30224,2,0,L|200:294,1,45,2|0,0:0|0:0,0:0:0:0:
27,270,30421,2,0,L|108:240,1,45,2|0,0:0|0:0,0:0:0:0:
212,182,30618,5,8,0:0:0:0:
297,170,30717,1,8,0:0:0:0:
382,157,30816,1,8,0:0:0:0:
382,149,31211,5,8,0:0:0:0:
297,137,31310,1,8,0:0:0:0:
212,121,31408,1,8,0:0:0:0:
385,141,31606,5,8,0:0:0:0:
304,94,31705,1,8,0:0:0:0:
236,53,31803,2,0,L|167:17,1,45,2|0,0:0|0:0,0:0:0:0:
88,50,32000,2,0,L|16:86,1,45,2|0,0:0|0:0,0:0:0:0:
7,175,32198,5,0,0:0:0:0:
10,191,32296,1,0,0:0:0:0:
134,220,32395,1,0,0:0:0:0:
131,204,32493,1,0,0:0:0:0:
260,163,32592,6,0,L|235:274,1,90,2|0,0:0|0:0,0:0:0:0:
395,316,32888,1,0,0:0:0:0:
400,325,32987,2,0,L|425:214,1,90
378,94,33283,1,0,0:0:0:0:
286,80,33382,2,0,L|184:129,1,90
181,131,33678,2,0,P|146:119|92:56,1,90
227,19,33974,2,0,L|354:36,1,90
86,251,34369,6,0,L|135:230,1,45
216,279,34566,1,0,0:0:0:0:
220,290,34665,1,0,0:0:0:0:
224,303,34763,1,0,0:0:0:0:
229,318,34862,1,0,0:0:0:0:
339,326,34961,2,0,L|345:303,1,22.5,8|0,0:0|0:0,0:0:0:0:
344,304,35060,2,0,L|350:281,1,22.5,8|0,0:0|0:0,0:0:0:0:
441,238,35158,1,0,0:0:0:0:
428,226,35257,1,0,0:0:0:0:
413,214,35356,1,0,0:0:0:0:
396,198,35454,1,0,0:0:0:0:
331,86,35553,6,0,L|369:106,1,22.5,8|0,0:0|0:0,0:0:0:0:
330,103,35651,2,0,L|368:123,1,22.5,8|0,0:0|0:0,0:0:0:0:
295,165,35750,2,0,L|149:192,1,135,2|0,0:0|0:0,0:0:0:0:
116,60,36145,5,0,0:0:0:0:
61,108,36244,1,0,0:0:0:0:
6,87,36342,1,0,0:0:0:0:
55,34,36441,1,0,0:0:0:0:
119,70,36540,2,0,L|109:125,1,45
193,130,36737,2,0,L|177:232,1,90
349,347,37132,6,0,L|304:253,1,90,4|0,0:0|0:0,0:0:0:0:
318,23,37527,2,0,L|288:74,1,45
374,187,37724,2,0,L|345:150,1,45
426,108,37921,2,0,L|397:71,1,45
265,243,38119,2,0,L|206:219,1,45
381,271,38316,2,0,L|322:247,1,45
193,237,38513,2,0,L|134:213,1,45
449,287,38710,2,0,L|390:263,1,45
91,284,38908,6,0,L|209:236,1,90,4|0,0:0|0:0,0:0:0:0:
175,66,39204,1,0,0:0:0:0:
175,66,39303,2,0,L|202:121,1,45
409,88,39500,1,0,0:0:0:0:
416,110,39599,1,0,0:0:0:0:
420,126,39697,2,0,L|338:197,1,90,2|0,0:0|0:0,0:0:0:0:
351,184,39994,1,0,0:0:0:0:
351,184,40092,1,0,0:0:0:0:
103,208,40290,6,0,L|189:181,1,90,0|2,0:0|0:0,0:0:0:0:
332,277,40685,2,0,L|275:295,1,45,8|0,0:0|0:0,0:0:0:0:
90,342,40882,2,0,L|132:328,1,45
384,267,41079,2,0,L|327:285,1,45,8|0,0:0|0:0,0:0:0:0:
142,332,41276,2,0,L|184:318,2,45
348,311,41573,1,0,0:0:0:0:
348,311,41671,1,0,0:0:0:0:
218,122,41869,1,0,0:0:0:0:
230,169,41967,1,0,0:0:0:0:
242,213,42066,1,2,0:0:0:0:
52,183,42263,5,0,0:0:0:0:
43,160,42362,1,0,0:0:0:0:
37,145,42461,2,0,L|57:85,1,45
170,258,42658,1,0,0:0:0:0:
161,235,42757,1,0,0:0:0:0:
157,218,42856,2,0,L|177:158,1,45
399,250,43053,1,0,0:0:0:0:
371,304,43152,1,0,0:0:0:0:
310,312,43251,2,0,L|280:251,1,45
302,94,43448,2,0,L|322:154,1,45,2|0,0:0|0:0,0:0:0:0:
473,171,43645,6,0,L|380:195,1,90,2|0,0:0|0:0,0:0:0:0:
49,212,43941,1,0,0:0:0:0:
49,212,44040,2,0,L|101:169,1,45
160,234,44237,2,0,L|212:191,1,45
344,46,44435,2,0,L|330:100,1,45
177,106,44632,2,0,L|166:63,1,45
265,150,44829,2,0,L|265:278,1,90,4|0,0:0|0:0,0:0:0:0:
265,71,45125,1,0,0:0:0:0:
265,150,45224,6,0,L|264:300,1,135,2|0,0:0|0:0,0:0:0:0:
65,333,45619,2,0,P|88:267|47:212,1,135
170,47,46013,2,0,B|149:75|147:113|145:118,1,45,2|0,0:0|0:0,0:0:0:0:
382,191,46211,1,0,0:0:0:0:
290,204,46310,1,0,0:0:0:0:
189,215,46408,2,0,L|221:256,1,45
384,134,46606,2,0,L|338:55,1,90
177,272,47000,6,0,L|242:257,1,45
432,304,47198,2,0,L|327:329,1,90
112,209,47592,5,0,0:0:0:0:
293,370,47790,1,0,0:0:0:0:
107,333,47987,1,0,0:0:0:0:
107,333,48086,1,0,0:0:0:0:
71,254,48185,1,0,0:0:0:0:
71,254,48283,1,0,0:0:0:0:
151,177,48382,6,0,L|132:233,1,45
137,49,48579,2,0,L|153:106,1,45
308,218,48777,2,0,L|290:106,1,90,2|0,0:0|0:0,0:0:0:0:
294,130,49073,1,0,0:0:0:0:
294,130,49171,1,0,0:0:0:0:
465,137,49369,1,0,0:0:0:0:
455,174,49467,1,0,0:0:0:0:
444,209,49566,1,0,0:0:0:0:
223,234,49763,5,0,0:0:0:0:
223,234,49862,1,0,0:0:0:0:
167,173,49961,5,0,0:0:0:0:
141,244,50060,1,0,0:0:0:0:
77,209,50158,1,0,0:0:0:0:
97,140,50257,1,0,0:0:0:0:
134,197,50356,5,0,0:0:0:0:
200,187,50454,1,0,0:0:0:0:
165,123,50553,1,0,0:0:0:0:
97,140,50652,1,0,0:0:0:0:
133,70,50750,5,0,0:0:0:0:
151,134,50849,1,0,0:0:0:0:
170,198,50948,1,0,0:0:0:0:
190,264,51046,1,0,0:0:0:0:
270,278,51145,2,0,L|338:250,1,45
334,172,51342,2,0,L|402:144,1,45
496,185,51540,6,2,B|495:237|443:232|443:232|485:302,2,148.50000453186
265,81,52231,1,0,0:0:0:0:
270,233,52329,2,0,L|270:56,1,148.50000453186,4|0,0:0|0:0,0:0:0:0:
116,72,52724,2,0,P|85:80|54:104,1,49.5000015106202
98,194,52921,2,0,P|73:201|41:233,1,49.5000015106202
150,303,53118,6,0,P|192:313|263:252,1,99.0000030212403,2|0,0:0|0:0,0:0:0:0:
150,303,53415,2,0,P|183:330|273:306,1,99.0000030212403,2|0,0:0|0:0,0:0:0:0:
373,95,53711,2,0,P|407:98|430:133,1,49.5000015106202
351,184,53908,2,0,L|303:196,1,49.5000015106202
186,48,54106,6,0,P|170:68|156:96,1,49.5000015106202
196,69,54303,2,0,P|180:89|166:117,1,49.5000015106202
382,154,54500,1,0,0:0:0:0:
382,154,54599,1,0,0:0:0:0:
409,234,54698,6,0,P|358:283|312:286,1,99.0000030212403,2|0,0:0|0:0,0:0:0:0:
409,234,54993,2,0,P|376:296|333:313,1,99.0000030212403,2|0,0:0|0:0,0:0:0:0:
65,132,55290,2,0,P|78:108|108:94,1,49.5000015106202
258,140,55487,2,0,L|131:164,1,99.0000030212403,4|0,0:0|0:0,0:0:0:0:
22,283,55783,1,0,0:0:0:0:
117,300,55882,2,0,L|192:315,2,49.5000015106202
16,82,56277,6,0,P|62:107|145:112,1,99.0000030212403,2|0,0:0|0:0,0:0:0:0:
10,87,56573,2,0,P|33:134|97:187,1,99.0000030212403,2|0,0:0|0:0,0:0:0:0:
267,123,56869,2,0,P|315:132|319:155,1,49.5000015106202
174,243,57066,2,0,L|274:206,1,99.0000030212403,4|0,0:0|0:0,0:0:0:0:
229,28,57362,1,0,0:0:0:0:
219,65,57461,1,0,0:0:0:0:
206,103,57560,1,0,0:0:0:0:
288,83,57658,1,0,0:0:0:0:
364,60,57757,1,0,0:0:0:0:
426,110,57856,2,0,L|354:201,1,99.0000030212403,4|0,0:0|0:0,0:0:0:0:
77,86,58250,6,0,P|107:108|122:137,1,49.5000015106202
62,218,58448,2,0,P|92:240|107:269,1,49.5000015106202
284,270,58645,2,0,L|264:205,1,49.5000015106202,2|0,0:0|0:0,0:0:0:0:
245,130,58842,1,0,0:0:0:0:
245,130,58941,1,0,0:0:0:0:
245,130,59040,2,0,L|260:78,1,49.5000015106202
419,197,59237,2,0,L|434:145,1,49.5000015106202
261,229,59435,2,0,L|315:270,1,49.5000015106202,2|0,0:0|0:0,0:0:0:0:
119,240,59632,1,0,0:0:0:0:
105,282,59731,1,0,0:0:0:0:
91,324,59829,1,0,0:0:0:0:
33,115,60027,6,0,L|69:57,1,49.5000015106202
105,167,60224,2,0,L|228:138,1,99.0000030212403
201,144,60520,1,0,0:0:0:0:
118,269,60619,2,0,L|-5:298,1,99.0000030212403
223,355,61013,6,0,L|291:270,1,99.0000030212403,4|0,0:0|0:0,0:0:0:0:
468,124,61408,5,0,0:0:0:0:
314,155,61606,1,0,0:0:0:0:
446,306,61803,2,0,L|361:206,1,99.0000030212403,2|0,0:0|0:0,0:0:0:0:
126,269,62099,1,0,0:0:0:0:
126,269,62198,2,0,L|162:347,1,49.5000015106202
269,206,62395,2,0,L|233:128,1,49.5000015106202
47,160,62592,6,0,L|108:58,1,99.0000030212403,2|0,0:0|0:0,0:0:0:0:
97,75,62888,1,0,0:0:0:0:
97,75,62987,1,0,0:0:0:0:
454,68,63185,5,0,0:0:0:0:
290,126,63382,1,0,0:0:0:0:
311,169,63481,1,0,0:0:0:0:
332,213,63579,1,0,0:0:0:0:
269,303,63777,2,0,L|179:283,1,49.5000015106202
447,275,63974,2,0,L|399:290,1,49.5000015106202
28,330,64171,6,0,L|144:267,1,99.0000030212403,4|0,0:0|0:0,0:0:0:0:
304,141,64467,1,0,0:0:0:0:
307,147,64566,2,0,L|227:189,1,49.5000015106202
0,114,64763,1,0,0:0:0:0:
274,42,64961,6,0,L|322:152,1,99.0000030212403,2|0,0:0|0:0,0:0:0:0:
412,319,65257,1,0,0:0:0:0:
420,316,65356,2,0,L|391:249,1,49.5000015106202
433,34,65553,1,0,0:0:0:0:
421,115,65652,1,0,0:0:0:0:
366,175,65750,2,0,L|227:204,1,99.0000030212403,4|0,0:0|0:0,0:0:0:0:
38,185,66046,1,0,0:0:0:0:
72,256,66145,2,0,L|101:318,1,49.5000015106202
172,125,66342,2,0,L|143:63,1,49.5000015106202
379,123,66540,2,0,L|354:177,1,49.5000015106202
111,48,66934,6,0,B|117:83|117:83|164:92|164:92|175:139,1,116.999994644165
433,222,67329,6,0,L|362:243,1,58.4999973220826
69,175,67527,1,0,0:0:0:0:
96,250,67625,1,0,0:0:0:0:
120,325,67724,2,0,L|196:341,1,58.4999973220826
446,215,67921,2,0,L|366:183,1,58.4999973220826
124,115,68119,2,0,L|148:184,1,58.4999973220826
358,323,68316,5,0,0:0:0:0:
333,246,68415,1,0,0:0:0:0:
387,185,68513,2,0,L|460:127,1,58.4999973220826
258,93,68711,2,0,L|185:151,1,58.4999973220826
40,35,68908,2,0,L|87:183,1,116.999994644165,2|0,0:0|0:0,0:0:0:0:
354,107,69204,1,0,0:0:0:0:
221,128,69303,2,0,L|343:232,1,116.999994644165,2|0,0:0|0:0,0:0:0:0:
176,341,69599,5,0,0:0:0:0:
176,341,69697,2,0,P|199:282|151:211,1,116.999994644165,6|0,0:0|0:0,0:0:0:0:
401,94,69993,1,0,0:0:0:0:
303,36,70092,2,0,P|285:94|315:147,1,125.999996154785,2|0,0:0|0:0,0:0:0:0:
96,132,70388,5,0,0:0:0:0:
179,161,70487,2,0,L|253:189,1,58.4999973220826
476,109,70685,1,0,0:0:0:0:
476,109,70783,1,0,0:0:0:0:
431,177,70882,2,0,L|390:240,1,58.4999973220826
116,254,71079,2,0,L|157:317,1,58.4999973220826
368,347,71277,1,0,0:0:0:0:
93,150,71474,5,0,0:0:0:0:
182,103,71573,1,0,0:0:0:0:
280,131,71671,2,0,L|290:217,1,58.4999973220826
396,264,71869,2,0,L|486:291,1,58.4999973220826
241,319,72066,2,0,L|104:280,1,116.999994644165,2|0,0:0|0:0,0:0:0:0:
137,62,72362,1,0,0:0:0:0:
137,62,72461,2,0,L|59:85,1,58.4999973220826
269,170,72658,2,0,L|206:145,1,58.4999973220826
462,49,72856,2,0,L|333:79,1,116.999994644165,2|0,0:0|0:0,0:0:0:0:
434,297,73152,1,0,0:0:0:0:
439,308,73250,2,0,L|310:278,1,116.999994644165,2|0,0:0|0:0,0:0:0:0:
50,161,73546,5,0,0:0:0:0:
75,234,73645,2,0,L|95:306,1,58.4999973220826,2|0,0:0|0:0,0:0:0:0:
275,144,73842,2,0,L|255:72,1,58.4999973220826
226,347,74040,1,0,0:0:0:0:
50,88,74237,1,0,0:0:0:0:
40,165,74336,1,0,0:0:0:0:
19,241,74435,2,0,L|60:297,1,58.4999973220826,2|0,0:0|0:0,0:0:0:0:
209,112,74632,2,0,L|168:56,1,58.4999973220826
213,299,74829,6,0,L|235:237,1,58.4999973220826,2|0,0:0|0:0,0:0:0:0:
474,275,75027,2,0,L|518:222,1,58.4999973220826
206,66,75224,1,0,0:0:0:0:
456,28,75421,1,0,0:0:0:0:
424,92,75520,1,0,0:0:0:0:
388,151,75619,2,0,L|341:98,1,58.4999973220826,2|0,0:0|0:0,0:0:0:0:
69,120,75816,2,0,L|128:88,1,58.4999973220826
188,320,76013,6,0,L|20:288,1,116.999994644165,2|0,0:0|0:0,0:0:0:0:
323,236,76310,1,0,0:0:0:0:
333,241,76408,2,0,L|360:305,1,58.4999973220826,2|0,0:0|0:0,0:0:0:0:
317,173,76606,2,0,L|344:237,1,58.4999973220826
285,51,76803,6,0,L|339:190,1,116.999994644165,6|0,0:0|0:0,0:0:0:0:
32,214,77099,1,0,0:0:0:0:
116,226,77198,2,0,L|192:241,1,58.4999973220826,2|0,0:0|0:0,0:0:0:0:
266,307,77395,2,0,L|342:322,1,58.4999973220826
407,287,77592,1,2,0:0:0:0:
464,227,77691,1,0,0:0:0:0:
447,137,77790,1,0,0:0:0:0:
369,96,77888,1,0,0:0:0:0:
303,156,77987,2,0,L|330:227,1,58.4999973220826,2|0,0:0|0:0,0:0:0:0:
126,221,78185,2,0,L|99:150,1,58.4999973220826
138,7,78382,6,0,L|85:135,1,116.999994644165,6|0,0:0|0:0,0:0:0:0:
320,97,78678,1,0,0:0:0:0:
273,174,78777,2,0,L|209:282,1,116.999994644165,6|0,0:0|0:0,0:0:0:0:
512,212,79072,1,0,0:0:0:0:
496,283,79171,1,2,0:0:0:0:
429,325,79270,1,0,0:0:0:0:
358,282,79368,1,0,0:0:0:0:
356,201,79467,1,0,0:0:0:0:
432,174,79566,1,2,0:0:0:0:
481,103,79665,1,0,0:0:0:0:
438,42,79763,1,0,0:0:0:0:
359,63,79862,1,0,0:0:0:0:
359,63,79961,6,0,L|308:211,1,116.999994644165,6|0,0:0|0:0,0:0:0:0:
84,289,80257,1,0,0:0:0:0:
84,289,80356,2,0,L|161:269,1,58.4999973220826,2|0,0:0|0:0,0:0:0:0:
179,71,80553,2,0,L|244:121,1,58.4999973220826
0,169,80750,1,2,0:0:0:0:
342,89,80948,1,0,0:0:0:0:
294,159,81046,1,0,0:0:0:0:
235,226,81145,2,0,L|149:187,1,58.4999973220826,2|0,0:0|0:0,0:0:0:0:
359,75,81342,2,0,L|445:114,1,58.4999973220826
142,134,81540,6,0,L|178:59,1,58.4999973220826,2|0,0:0|0:0,0:0:0:0:
359,308,81737,2,0,L|395:233,1,58.4999973220826
365,27,81935,1,2,0:0:0:0:
123,140,82132,6,0,L|159:65,1,58.4999973220826
340,313,82329,2,0,L|403:183,1,116.999994644165,6|0,0:0|0:0,0:0:0:0:
95,27,82724,2,0,L|134:182,1,116.999994644165,6|0,0:0|0:0,0:0:0:0:
219,339,83020,5,0,0:0:0:0:
95,291,83119,2,0,L|25:328,1,58.4999973220826,2|0,0:0|0:0,0:0:0:0:
377,279,83316,2,0,L|447:316,1,58.4999973220826
185,158,83513,2,0,L|157:73,1,58.4999973220826,2|0,0:0|0:0,0:0:0:0:
238,348,83711,1,2,0:0:0:0:
41,344,83908,2,0,L|93:317,1,58.4999973220826,2|0,0:0|0:0,0:0:0:0:
377,279,84105,2,0,L|447:316,1,58.4999973220826
180,165,84302,2,0,L|152:80,1,58.4999973220826,2|0,0:0|0:0,0:0:0:0:
423,83,84500,2,0,L|470:20,1,58.4999973220826
147,78,84698,6,0,L|79:50,1,58.4999973220826,2|0,0:0|0:0,0:0:0:0:
68,252,84895,2,0,L|-16:287,1,58.4999973220826
268,351,85092,1,2,0:0:0:0:
291,269,85191,1,0,0:0:0:0:
313,186,85290,2,0,L|382:151,1,58.4999973220826
73,146,85487,2,0,L|142:181,1,58.4999973220826,2|0,0:0|0:0,0:0:0:0:
503,101,85685,1,0,0:0:0:0:
395,76,85783,1,0,0:0:0:0:
293,48,85882,2,0,L|224:83,1,58.4999973220826,2|0,0:0|0:0,0:0:0:0:
101,333,86079,5,0,0:0:0:0:
101,333,86178,1,0,0:0:0:0:
182,284,86277,2,0,L|142:182,1,58.4999973220826,2|0,0:0|0:0,0:0:0:0:
382,351,86474,2,0,L|392:282,1,58.4999973220826
457,91,86671,2,0,L|399:107,1,58.4999973220826,2|0,0:0|0:0,0:0:0:0:
128,126,86869,2,0,L|209:145,1,58.4999973220826
445,188,87066,2,0,L|400:255,1,58.4999973220826,2|0,0:0|0:0,0:0:0:0:
237,79,87263,2,0,L|281:21,1,58.4999973220826
4,156,87461,1,2,0:0:0:0:
315,176,87658,6,0,L|180:243,2,116.999994644165,0|2|0,0:0|0:0|0:0,0:0:0:0:
123,27,88152,1,0,0:0:0:0:
111,124,88250,2,0,L|98:195,1,58.4999973220826,2|0,0:0|0:0,0:0:0:0:
235,306,88448,2,0,L|289:346,1,58.4999973220826
496,241,88645,2,0,L|417:109,1,116.999994644165,6|0,0:0|0:0,0:0:0:0:
363,249,88941,1,0,0:0:0:0:
497,233,89040,2,0,L|418:101,1,116.999994644165,6|0,0:0|0:0,0:0:0:0:
238,67,89336,1,0,0:0:0:0:
66,106,89435,2,0,L|139:87,1,58.4999973220826,2|0,0:0|0:0,0:0:0:0:
30,233,89632,2,0,L|111:210,1,58.4999973220826
450,108,89829,6,0,L|377:89,1,58.4999973220826,2|0,0:0|0:0,0:0:0:0:
478,246,90026,2,0,L|397:223,1,58.4999973220826
126,356,90224,2,0,L|83:307,1,58.4999973220826,2|0,0:0|0:0,0:0:0:0:
409,345,90421,2,0,L|467:296,1,58.4999973220826
90,160,90619,2,0,L|21:127,1,58.4999973220826,2|0,0:0|0:0,0:0:0:0:
422,160,90816,2,0,L|491:127,1,58.4999973220826
26,20,91013,6,0,L|8:94,1,58.4999973220826,6|0,0:0|0:0,0:0:0:0:
218,172,91211,2,0,L|200:246,1,58.4999973220826,6|0,0:0|0:0,0:0:0:0:
437,299,91408,2,0,L|419:373,1,58.4999973220826,6|0,0:0|0:0,0:0:0:0:
319,159,91605,6,0,L|301:85,1,58.4999973220826
39,207,91902,5,0,0:0:0:0:
111,231,92000,1,0,0:0:0:0:
186,255,92099,1,0,0:0:0:0:
236,139,92198,1,0,0:0:0:0:
303,124,92296,1,0,0:0:0:0:
370,111,92395,1,0,0:0:0:0:
423,98,92494,1,0,0:0:0:0:
423,98,92592,1,6,0:0:0:0:
182,123,104829,5,0,0:0:0:0:
69,76,105027,1,0,0:0:0:0:
53,193,105224,2,0,P|63:231|216:298,1,180,2|0,0:0|0:0,0:0:0:0:
316,46,105816,5,0,0:0:0:0:
316,46,106013,2,0,L|340:151,1,90,2|0,0:0|0:0,0:0:0:0:
163,123,106310,1,0,0:0:0:0:
163,123,106408,2,0,L|141:199,1,45,2|0,0:0|0:0,0:0:0:0:
365,152,106606,2,0,L|387:228,1,45
257,335,106803,2,0,L|257:210,1,90,2|0,0:0|0:0,0:0:0:0:
496,167,107198,6,0,L|427:147,2,45,2|0|0,0:0|0:0|0:0,0:0:0:0:
403,317,107592,5,2,0:0:0:0:
295,243,107790,1,0,0:0:0:0:
152,261,107987,1,2,0:0:0:0:
300,114,108185,1,0,0:0:0:0:
155,141,108382,6,0,L|75:221,1,90,2|0,0:0|0:0,0:0:0:0:
388,286,108777,2,0,L|348:240,1,45,2|0,0:0|0:0,0:0:0:0:
418,135,108974,2,0,L|458:181,1,45
256,289,109171,2,0,L|256:179,1,90,2|0,0:0|0:0,0:0:0:0:
45,201,109467,5,0,0:0:0:0:
48,208,109566,2,0,L|77:241,1,45,2|0,0:0|0:0,0:0:0:0:
127,118,109763,2,0,L|97:84,1,45
303,74,109961,2,0,L|338:171,1,90,2|0,0:0|0:0,0:0:0:0:
495,256,110356,6,0,L|421:237,1,45,2|0,0:0|0:0,0:0:0:0:
256,283,110553,2,0,L|330:302,1,45
475,263,110750,2,0,L|401:244,1,45,2|0,0:0|0:0,0:0:0:0:
236,290,110947,2,0,L|310:309,1,45
348,169,111145,2,0,L|313:116,1,45,2|0,0:0|0:0,0:0:0:0:
155,123,111342,2,0,L|190:176,1,45
38,337,111540,2,0,L|38:145,1,180,4|0,0:0|0:0,0:0:0:0:
344,49,112132,5,0,0:0:0:0:
197,65,112329,2,0,L|146:157,1,90,2|0,0:0|0:0,0:0:0:0:
177,255,112625,1,0,0:0:0:0:
185,250,112724,2,0,L|245:272,1,45,2|0,0:0|0:0,0:0:0:0:
316,222,112921,2,0,L|370:207,1,45
474,182,113119,2,0,L|439:300,1,90,2|0,0:0|0:0,0:0:0:0:
375,126,113513,6,0,L|337:77,1,45,2|0,0:0|0:0,0:0:0:0:
187,164,113711,2,0,L|149:213,1,45
253,323,113908,5,2,0:0:0:0:
282,74,114106,1,0,0:0:0:0:
281,343,114303,1,2,0:0:0:0:
205,107,114500,1,0,0:0:0:0:
350,315,114698,1,2,0:0:0:0:
266,40,114895,6,0,L|268:90,1,45,8|0,0:0|0:0,0:0:0:0:
51,105,115092,2,0,L|53:155,1,45,8|0,0:0|0:0,0:0:0:0:
273,185,115290,2,0,L|275:235,1,45,8|0,0:0|0:0,0:0:0:0:
0,278,115487,6,0,L|54:255,1,45,8|0,0:0|0:0,0:0:0:0:
233,311,115685,2,0,L|287:334,1,45,8|0,0:0|0:0,0:0:0:0:
435,214,115882,2,0,L|489:191,1,45,8|0,0:0|0:0,0:0:0:0:
188,172,116079,6,0,B|211:205|211:205|266:173|266:173|270:210,1,135,4|0,0:0|0:0,0:0:0:0:
396,317,116474,5,2,0:0:0:0:
435,284,116573,1,0,0:0:0:0:
451,233,116671,1,2,0:0:0:0:
445,181,116770,1,0,0:0:0:0:
418,135,116869,1,2,0:0:0:0:
370,114,116967,1,0,0:0:0:0:
337,162,117066,5,8,0:0:0:0:
379,192,117165,1,0,0:0:0:0:
424,156,117263,1,8,0:0:0:0:
436,96,117362,1,8,0:0:0:0:
400,44,117461,1,12,0:0:0:0:
337,46,117560,1,0,0:0:0:0:
298,96,117658,1,0,0:0:0:0:
236,115,117757,1,0,0:0:0:0:
185,84,117855,6,0,P|190:62|228:39,1,45,2|0,0:0|0:0,0:0:0:0:
11,132,118053,2,0,P|36:157|48:191,1,45
242,179,118250,2,0,P|228:199|194:219,1,45,2|0,0:0|0:0,0:0:0:0:
64,332,118448,1,0,0:0:0:0:
64,332,118546,1,0,0:0:0:0:
145,312,118645,2,0,L|216:295,1,45,2|0,0:0|0:0,0:0:0:0:
364,336,118842,2,0,L|293:353,1,45
388,186,119040,2,0,L|345:231,1,45,2|0,0:0|0:0,0:0:0:0:
132,164,119237,2,0,L|170:205,1,45
403,121,119435,6,0,P|386:106|332:96,1,45,2|0,0:0|0:0,0:0:0:0:
136,96,119632,2,0,P|152:110|207:121,1,45,2|0,0:0|0:0,0:0:0:0:
348,33,119829,2,0,L|358:88,1,45,2|0,0:0|0:0,0:0:0:0:
232,182,120027,2,0,L|223:234,1,45
80,287,120224,2,0,B|47:225|47:225|95:227|113:172,1,135
350,92,120619,2,0,P|314:116|309:174,1,90,4|0,0:0|0:0,0:0:0:0:
476,261,120915,5,0,0:0:0:0:
396,279,121013,2,0,P|365:305|361:338,1,45,2|0,0:0|0:0,0:0:0:0:
195,291,121211,2,0,P|183:272|172:234,1,45
255,42,121408,2,0,P|247:75|232:99,1,45,2|0,0:0|0:0,0:0:0:0:
50,143,121605,1,0,0:0:0:0:
50,143,121703,1,0,0:0:0:0:
130,159,121802,2,0,L|183:169,1,45,2|0,0:0|0:0,0:0:0:0:
395,132,122000,2,0,L|347:148,1,45
141,299,122197,2,0,L|182:260,1,45,2|0,0:0|0:0,0:0:0:0:
411,214,122395,2,0,L|370:253,1,45
148,323,122592,6,0,L|224:340,1,45,2|0,0:0|0:0,0:0:0:0:
249,159,122790,2,0,L|217:128,1,45
78,339,122987,2,0,L|122:330,1,45,2|0,0:0|0:0,0:0:0:0:
79,106,123185,2,0,L|47:137,1,45
230,256,123382,6,0,B|182:222|182:222|210:208|211:178|183:131,1,135,4|0,0:0|0:0,0:0:0:0:
408,30,123776,2,0,P|378:77|379:139,1,90,4|0,0:0|0:0,0:0:0:0:
105,84,124073,5,0,0:0:0:0:
187,117,124171,2,0,P|206:141|208:182,1,45,2|0,0:0|0:0,0:0:0:0:
372,280,124369,2,0,P|382:252|397:236,1,45
166,257,124566,2,0,P|160:280|144:303,1,45,2|0,0:0|0:0,0:0:0:0:
2,136,124764,1,0,0:0:0:0:
2,136,124862,1,0,0:0:0:0:
81,121,124961,2,0,L|143:108,1,45,2|0,0:0|0:0,0:0:0:0:
315,29,125158,2,0,L|253:42,1,45
193,236,125355,2,0,P|214:214|237:201,1,45,2|0,0:0|0:0,0:0:0:0:
427,115,125553,2,0,P|446:133|464:169,1,45
344,308,125750,6,0,L|364:261,1,45,2|0,0:0|0:0,0:0:0:0:
225,107,125948,2,0,L|205:154,1,45
14,214,126145,2,0,L|67:250,1,45,2|0,0:0|0:0,0:0:0:0:
233,362,126342,2,0,L|289:330,1,45
435,160,126540,6,0,L|325:195,1,90,2|0,0:0|0:0,0:0:0:0:
230,136,126836,1,0,0:0:0:0:
230,136,126935,2,0,P|239:86|272:53,1,90,2|0,0:0|0:0,0:0:0:0:
21,209,127329,6,0,P|40:232|78:257,1,45,2|0,0:0|0:0,0:0:0:0:
156,279,127526,2,0,P|194:253|246:242,2,90
371,303,128020,1,0,0:0:0:0:
372,319,128119,2,0,P|366:343|345:357,1,45,2|0,0:0|0:0,0:0:0:0:
322,123,128316,2,0,P|340:143|349:161,1,45
84,144,128513,6,0,L|143:110,1,45,2|0,0:0|0:0,0:0:0:0:
252,238,128711,2,0,L|311:204,1,45,2|0,0:0|0:0,0:0:0:0:
34,238,128908,2,0,P|98:244|177:303,2,135,2|4|2,0:0|0:0|0:0,0:0:0:0:
165,19,129599,5,0,0:0:0:0:
100,43,129698,1,0,0:0:0:0:
74,105,129796,1,0,0:0:0:0:
95,156,129895,2,0,P|106:166|123:171,1,22.5
143,172,129994,2,0,P|161:172|174:154,1,22.5
205,139,130092,1,0,0:0:0:0:
271,117,130191,1,0,0:0:0:0:
344,122,130290,1,0,0:0:0:0:
398,167,130388,1,0,0:0:0:0:
437,223,130487,6,0,B|436:275|384:270|384:270|426:340,2,148.50000453186,2|2|2,0:0|0:0|0:0,0:0:0:0:
265,79,131178,1,0,0:0:0:0:
270,231,131276,2,0,L|270:54,1,148.50000453186,4|0,0:0|0:0,0:0:0:0:
121,73,131671,2,0,P|95:81|39:114,1,49.5000015106202
103,186,131868,2,0,P|77:198|42:224,1,49.5000015106202
150,301,132066,6,0,P|192:311|263:250,1,99.0000030212403,2|0,0:0|0:0,0:0:0:0:
150,301,132362,2,0,P|183:328|273:304,1,99.0000030212403,2|0,0:0|0:0,0:0:0:0:
179,180,132658,2,0,P|145:177|122:142,1,49.5000015106202
213,87,132855,2,0,L|261:75,1,49.5000015106202,4|0,0:0|0:0,0:0:0:0:
348,273,133053,6,0,P|364:253|378:225,1,49.5000015106202
342,243,133250,2,0,P|358:223|372:195,1,49.5000015106202
118,228,133447,1,0,0:0:0:0:
118,228,133546,1,0,0:0:0:0:
91,148,133645,6,0,P|142:99|188:96,1,99.0000030212403,2|0,0:0|0:0,0:0:0:0:
91,148,133941,2,0,P|124:86|167:69,1,99.0000030212403,2|0,0:0|0:0,0:0:0:0:
435,250,134237,2,0,P|422:274|392:288,1,49.5000015106202
242,242,134434,2,0,L|369:218,1,99.0000030212403,4|0,0:0|0:0,0:0:0:0:
477,98,134730,1,0,0:0:0:0:
385,84,134829,2,0,L|310:69,2,49.5000015106202
484,300,135224,6,0,P|438:275|355:270,1,99.0000030212403,2|0,0:0|0:0,0:0:0:0:
490,295,135520,2,0,P|467:248|403:195,1,99.0000030212403,2|0,0:0|0:0,0:0:0:0:
233,259,135816,2,0,P|185:250|181:227,1,49.5000015106202
326,139,136013,2,0,L|226:176,1,99.0000030212403,4|0,0:0|0:0,0:0:0:0:
271,354,136309,1,0,0:0:0:0:
281,317,136408,1,0,0:0:0:0:
294,279,136507,1,0,0:0:0:0:
212,299,136605,1,0,0:0:0:0:
136,322,136704,1,0,0:0:0:0:
74,272,136803,2,0,L|146:181,1,99.0000030212403,4|0,0:0|0:0,0:0:0:0:
420,292,137197,6,0,P|400:276|372:246,1,49.5000015106202
435,168,137395,2,0,P|415:152|387:122,1,49.5000015106202
208,123,137592,2,0,L|228:188,1,49.5000015106202,2|0,0:0|0:0,0:0:0:0:
249,265,137789,1,0,0:0:0:0:
249,265,137888,1,0,0:0:0:0:
249,265,137987,2,0,L|234:317,1,49.5000015106202
67,201,138184,2,0,L|52:253,1,49.5000015106202
222,132,138382,2,0,L|168:91,1,49.5000015106202,2|0,0:0|0:0,0:0:0:0:
381,142,138579,1,0,0:0:0:0:
395,100,138678,1,0,0:0:0:0:
409,58,138776,1,0,0:0:0:0:
467,267,138974,6,0,L|431:325,1,49.5000015106202
395,215,139171,2,0,L|272:244,1,99.0000030212403,2|0,0:0|0:0,0:0:0:0:
299,238,139467,1,0,0:0:0:0:
382,113,139566,2,0,L|505:84,1,99.0000030212403
277,27,139960,6,0,L|209:112,1,99.0000030212403,4|0,0:0|0:0,0:0:0:0:
32,258,140355,5,0,0:0:0:0:
186,227,140553,1,0,0:0:0:0:
54,76,140750,2,0,L|139:176,1,99.0000030212403,2|0,0:0|0:0,0:0:0:0:
374,113,141046,1,0,0:0:0:0:
374,113,141145,2,0,L|338:35,1,49.5000015106202
227,176,141342,2,0,L|263:254,1,49.5000015106202
453,222,141539,6,0,L|392:324,1,99.0000030212403,2|0,0:0|0:0,0:0:0:0:
403,307,141835,1,0,0:0:0:0:
403,307,141934,1,0,0:0:0:0:
46,314,142132,5,0,0:0:0:0:
210,256,142329,1,0,0:0:0:0:
189,213,142428,1,0,0:0:0:0:
168,169,142526,1,0,0:0:0:0:
231,79,142724,2,0,L|321:99,1,49.5000015106202
53,107,142921,2,0,L|101:92,1,49.5000015106202
472,52,143118,6,0,L|356:115,1,99.0000030212403,4|0,0:0|0:0,0:0:0:0:
196,241,143414,1,0,0:0:0:0:
193,235,143513,2,0,L|273:193,1,49.5000015106202
500,268,143710,1,0,0:0:0:0:
226,340,143908,6,0,L|178:230,1,99.0000030212403,4|0,0:0|0:0,0:0:0:0:
88,63,144204,1,0,0:0:0:0:
80,66,144303,2,0,L|109:133,1,49.5000015106202
56,338,144500,1,0,0:0:0:0:
80,262,144599,1,0,0:0:0:0:
98,183,144697,2,0,L|237:154,1,99.0000030212403,4|0,0:0|0:0,0:0:0:0:
448,197,144993,1,0,0:0:0:0:
414,126,145092,2,0,L|385:64,1,49.5000015106202
308,262,145289,2,0,L|337:324,1,49.5000015106202
106,246,145487,2,0,L|131:192,1,49.5000015106202,2|0,0:0|0:0,0:0:0:0:
168,68,158908,6,0,L|168:172,1,90
330,145,159303,2,0,L|330:249,1,90
48,217,159599,1,0,0:0:0:0:
48,217,159698,2,0,L|48:283,1,45
213,276,159895,2,0,L|213:342,1,45
401,256,160290,5,0,0:0:0:0:
112,232,160487,2,0,L|205:186,1,90
105,74,160882,2,0,L|198:28,1,90
282,314,161178,1,0,0:0:0:0:
282,314,161277,2,0,L|341:285,1,45
263,140,161474,2,0,L|322:111,1,45
99,36,161869,5,0,0:0:0:0:
408,110,162066,2,0,L|303:85,1,90
21,156,162461,2,0,L|126:131,1,90
378,234,162856,1,0,0:0:0:0:
45,297,163250,1,0,0:0:0:0:
425,352,163645,1,0,0:0:0:0:
117,184,163842,6,0,L|131:244,1,45
198,296,164040,1,0,0:0:0:0:
44,132,164237,1,0,0:0:0:0:
336,233,164435,2,0,L|397:214,1,45
261,64,164632,2,0,L|200:83,1,45
165,289,164829,2,0,L|229:189,1,90
456,120,165224,6,0,L|328:135,1,90
366,130,165520,1,0,0:0:0:0:
366,130,165619,1,0,0:0:0:0:
121,50,165816,1,0,0:0:0:0:
140,141,166013,2,0,L|161:261,1,90
155,229,166310,1,0,0:0:0:0:
155,229,166408,1,0,0:0:0:0:
417,284,166606,1,0,0:0:0:0:
319,302,166803,2,0,L|206:321,1,90
230,316,167099,1,0,0:0:0:0:
230,316,167198,1,0,0:0:0:0:
25,195,167395,5,0,0:0:0:0:
59,216,167494,1,0,0:0:0:0:
193,167,167691,1,0,0:0:0:0:
227,188,167790,1,0,0:0:0:0:
356,147,167987,1,0,0:0:0:0:
390,168,168086,1,0,0:0:0:0:
416,182,168185,6,0,L|466:163,1,45
183,39,168382,2,0,L|197:140,1,90,4|0,0:0|0:0,0:0:0:0:
45,303,168678,1,0,0:0:0:0:
101,245,168777,2,0,L|138:199,1,45
425,169,168974,5,0,0:0:0:0:
399,242,169073,1,0,0:0:0:0:
370,316,169171,2,0,L|269:239,1,90,2|0,0:0|0:0,0:0:0:0:
98,85,169467,1,0,0:0:0:0:
107,158,169566,2,0,L|113:222,1,45
410,45,169763,5,0,0:0:0:0:
389,119,169862,1,0,0:0:0:0:
366,195,169961,2,0,L|234:216,1,90,2|0,0:0|0:0,0:0:0:0:
29,227,170257,1,0,0:0:0:0:
96,274,170356,2,0,L|155:318,1,45
416,304,170553,5,0,0:0:0:0:
448,237,170652,1,0,0:0:0:0:
474,166,170750,2,0,L|385:70,1,90,2|0,0:0|0:0,0:0:0:0:
104,143,171046,1,0,0:0:0:0:
184,130,171145,2,0,L|254:119,1,45
340,173,171342,2,0,L|410:162,1,45
104,59,171540,6,0,L|-15:77,2,90,4|0|2,0:0|0:0|0:0,0:0:0:0:
263,132,172033,1,0,0:0:0:0:
239,215,172132,2,0,L|221:268,1,45
378,331,172329,2,0,L|496:307,2,90,4|0|2,0:0|0:0|0:0,0:0:0:0:
238,215,172823,1,0,0:0:0:0:
264,133,172921,2,0,L|279:91,1,45
46,207,173119,6,0,P|110:186|126:153,1,90,2|0,0:0|0:0,0:0:0:0:
223,39,173415,2,0,P|274:92|267:122,1,90,2|0,0:0|0:0,0:0:0:0:
211,233,173711,2,0,L|257:224,1,45
365,183,173908,2,0,P|399:134|411:90,1,90,2|0,0:0|0:0,0:0:0:0:
75,296,174303,6,0,L|24:285,1,45
272,332,174500,2,0,L|221:321,1,45
147,178,174698,5,8,0:0:0:0:
70,168,174796,1,8,0:0:0:0:
1,158,174895,1,8,0:0:0:0:
310,199,174994,1,8,0:0:0:0:
233,189,175092,1,8,0:0:0:0:
87,76,175290,5,0,0:0:0:0:
87,76,175487,6,0,L|153:50,1,58.4999973220826,6|0,0:0|0:0,0:0:0:0:
457,178,175685,1,0,0:0:0:0:
427,101,175783,1,0,0:0:0:0:
397,27,175882,2,0,L|321:11,1,58.4999973220826,2|0,0:0|0:0,0:0:0:0:
191,142,176079,2,0,L|265:157,1,58.4999973220826
374,280,176277,2,0,L|394:342,1,58.4999973220826,2|0,0:0|0:0,0:0:0:0:
95,281,176474,5,0,0:0:0:0:
188,324,176573,1,0,0:0:0:0:
260,259,176671,2,0,L|250:170,1,58.4999973220826,2|0,0:0|0:0,0:0:0:0:
120,77,176869,2,0,L|41:41,1,58.4999973220826
359,0,177066,2,0,L|334:142,1,116.999994644165,2|0,0:0|0:0,0:0:0:0:
103,146,177362,1,0,0:0:0:0:
205,174,177461,2,0,L|362:227,1,116.999994644165,2|0,0:0|0:0,0:0:0:0:
497,127,177757,5,0,0:0:0:0:
497,127,177855,2,0,P|452:162|414:265,1,116.999994644165,6|0,0:0|0:0,0:0:0:0:
197,347,178151,1,0,0:0:0:0:
267,271,178250,2,0,P|260:222|179:169,1,125.999996154785,2|0,0:0|0:0,0:0:0:0:
493,145,178546,5,0,0:0:0:0:
405,113,178645,2,0,L|331:85,1,58.4999973220826,2|0,0:0|0:0,0:0:0:0:
53,207,178843,1,0,0:0:0:0:
117,132,178941,1,0,0:0:0:0:
204,173,179040,2,0,L|227:249,1,58.4999973220826,2|0,0:0|0:0,0:0:0:0:
4,97,179237,2,0,L|37:27,1,58.4999973220826
86,274,179435,1,2,0:0:0:0:
245,60,179632,5,0,0:0:0:0:
245,60,179731,1,0,0:0:0:0:
309,130,179829,2,0,L|360:188,1,58.4999973220826,2|0,0:0|0:0,0:0:0:0:
94,216,180026,2,0,L|80:315,1,58.4999973220826,2|0,0:0|0:0,0:0:0:0:
303,234,180224,2,0,L|436:207,1,116.999994644165,2|0,0:0|0:0,0:0:0:0:
241,364,180520,1,0,0:0:0:0:
265,365,180619,2,0,L|323:315,1,58.4999973220826,2|0,0:0|0:0,0:0:0:0:
235,148,180816,2,0,L|177:198,1,58.4999973220826,2|0,0:0|0:0,0:0:0:0:
79,347,181014,2,0,L|52:189,1,116.999994644165,2|0,0:0|0:0,0:0:0:0:
170,79,181310,1,0,0:0:0:0:
153,57,181408,2,0,L|282:87,1,116.999994644165,2|0,0:0|0:0,0:0:0:0:
426,267,181704,5,0,0:0:0:0:
404,184,181803,2,0,L|384:112,1,58.4999973220826,2|0,0:0|0:0,0:0:0:0:
224,279,182000,2,0,L|244:351,1,58.4999973220826
80,158,182198,6,0,L|18:152,1,58.4999973220826,2|0,0:0|0:0,0:0:0:0:
294,66,182395,2,0,L|364:40,1,58.4999973220826
102,180,182592,2,0,L|40:209,1,58.4999973220826,2|0,0:0|0:0,0:0:0:0:
251,57,182790,2,0,L|274:0,1,58.4999973220826
143,236,182987,2,0,L|99:296,1,58.4999973220826,2|0,0:0|0:0,0:0:0:0:
130,47,183185,2,0,L|72:-34,1,58.4999973220826
124,284,183382,2,0,L|199:305,1,58.4999973220826,2|0,0:0|0:0,0:0:0:0:
279,93,183579,2,0,L|363:64,1,58.4999973220826
164,85,183777,2,0,L|89:106,1,58.4999973220826,2|0,0:0|0:0,0:0:0:0:
330,290,183974,2,0,L|245:266,1,58.4999973220826
324,62,184171,6,0,L|492:94,1,116.999994644165,2|0,0:0|0:0,0:0:0:0:
182,174,184467,1,0,0:0:0:0:
172,174,184566,2,0,L|145:110,1,58.4999973220826,2|0,0:0|0:0,0:0:0:0:
188,242,184764,2,0,L|161:178,1,58.4999973220826
220,364,184961,2,0,L|166:225,1,116.999994644165,6|0,0:0|0:0,0:0:0:0:
480,170,185257,1,0,0:0:0:0:
396,158,185356,2,0,L|320:143,1,58.4999973220826,2|0,0:0|0:0,0:0:0:0:
246,77,185553,2,0,L|170:62,1,58.4999973220826
97,76,185750,1,2,0:0:0:0:
34,140,185849,1,0,0:0:0:0:
46,228,185948,1,0,0:0:0:0:
132,271,186046,1,0,0:0:0:0:
209,228,186145,2,0,L|182:157,1,58.4999973220826,2|0,0:0|0:0,0:0:0:0:
386,163,186343,2,0,L|413:234,1,58.4999973220826
374,377,186540,6,0,L|427:249,1,116.999994644165,6|0,0:0|0:0,0:0:0:0:
192,287,186836,1,0,0:0:0:0:
239,210,186934,2,0,L|303:102,1,116.999994644165,6|0,0:0|0:0,0:0:0:0:
51,125,187230,1,0,0:0:0:0:
101,70,187329,1,2,0:0:0:0:
186,74,187428,1,0,0:0:0:0:
219,144,187526,1,0,0:0:0:0:
179,214,187625,1,0,0:0:0:0:
100,198,187724,1,2,0:0:0:0:
21,234,187823,1,0,0:0:0:0:
26,308,187921,1,0,0:0:0:0:
105,331,188020,1,0,0:0:0:0:
105,331,188118,6,0,L|148:179,1,116.999994644165,2|0,0:0|0:0,0:0:0:0:
428,95,188415,1,0,0:0:0:0:
428,95,188513,2,0,L|351:115,1,58.4999973220826,2|0,0:0|0:0,0:0:0:0:
333,313,188711,2,0,L|268:263,1,58.4999973220826
512,215,188908,1,2,0:0:0:0:
170,295,189106,1,0,0:0:0:0:
218,225,189204,1,0,0:0:0:0:
269,149,189303,2,0,L|355:188,1,58.4999973220826,2|0,0:0|0:0,0:0:0:0:
153,309,189500,2,0,L|67:270,1,58.4999973220826
370,250,189698,6,0,L|334:325,1,58.4999973220826,2|0,0:0|0:0,0:0:0:0:
153,76,189895,2,0,L|117:151,1,58.4999973220826
147,357,190092,1,2,0:0:0:0:
389,244,190290,6,0,L|353:319,1,58.4999973220826
172,71,190487,2,0,L|109:201,1,116.999994644165,6|0,0:0|0:0,0:0:0:0:
417,357,190882,2,0,L|378:202,1,116.999994644165,6|0,0:0|0:0,0:0:0:0:
293,45,191178,5,0,0:0:0:0:
417,93,191276,2,0,L|487:56,1,58.4999973220826,2|0,0:0|0:0,0:0:0:0:
135,105,191474,2,0,L|65:68,1,58.4999973220826
327,226,191671,2,0,L|355:311,1,58.4999973220826,2|0,0:0|0:0,0:0:0:0:
274,36,191869,1,0,0:0:0:0:
471,40,192066,2,0,L|419:67,1,58.4999973220826,2|0,0:0|0:0,0:0:0:0:
135,105,192263,2,0,L|65:68,1,58.4999973220826
332,219,192460,2,0,L|360:304,1,58.4999973220826,2|0,0:0|0:0,0:0:0:0:
89,301,192658,2,0,L|42:364,1,58.4999973220826
340,303,192856,6,0,L|408:331,1,58.4999973220826,2|0,0:0|0:0,0:0:0:0:
469,108,193053,2,0,L|415:130,1,58.4999973220826
76,38,193250,1,2,0:0:0:0:
39,128,193349,1,0,0:0:0:0:
127,182,193447,2,0,L|181:159,1,58.4999973220826
461,230,193645,2,0,L|392:195,1,58.4999973220826,2|0,0:0|0:0,0:0:0:0:
38,290,193843,5,0,0:0:0:0:
123,314,193941,1,0,0:0:0:0:
215,336,194040,2,0,L|284:301,1,58.4999973220826,2|0,0:0|0:0,0:0:0:0:
418,63,194237,5,0,0:0:0:0:
418,63,194336,1,0,0:0:0:0:
334,100,194434,2,0,L|374:202,1,58.4999973220826,2|0,0:0|0:0,0:0:0:0:
134,41,194632,2,0,L|124:110,1,58.4999973220826
55,293,194829,2,0,L|113:277,1,58.4999973220826,2|0,0:0|0:0,0:0:0:0:
384,258,195027,2,0,L|303:239,1,58.4999973220826
67,196,195224,2,0,L|112:129,1,58.4999973220826,2|0,0:0|0:0,0:0:0:0:
275,305,195421,2,0,L|231:363,1,58.4999973220826
508,228,195619,1,2,0:0:0:0:
197,208,195816,6,0,L|332:141,2,116.999994644165,2|2|0,0:0|0:0|0:0,0:0:0:0:
386,356,196310,1,0,0:0:0:0:
401,260,196408,2,0,L|414:189,1,58.4999973220826,2|0,0:0|0:0,0:0:0:0:
277,78,196606,2,0,L|223:38,1,58.4999973220826
16,143,196803,2,0,L|95:275,1,116.999994644165,6|0,0:0|0:0,0:0:0:0:
149,135,197099,1,0,0:0:0:0:
15,151,197197,2,0,L|94:283,1,116.999994644165,6|0,0:0|0:0,0:0:0:0:
280,319,197494,1,0,0:0:0:0:
446,278,197593,2,0,L|373:297,1,58.4999973220826,2|0,0:0|0:0,0:0:0:0:
482,151,197790,2,0,L|401:174,1,58.4999973220826
62,276,197987,6,0,L|135:295,1,58.4999973220826,2|0,0:0|0:0,0:0:0:0:
34,138,198184,2,0,L|115:161,1,58.4999973220826
386,28,198382,2,0,L|429:77,1,58.4999973220826,2|0,0:0|0:0,0:0:0:0:
103,39,198579,2,0,L|45:88,1,58.4999973220826
422,224,198777,2,0,L|491:257,1,58.4999973220826,2|0,0:0|0:0,0:0:0:0:
90,224,198974,2,0,L|21:257,1,58.4999973220826
486,364,199171,6,0,L|504:290,1,58.4999973220826,6|0,0:0|0:0,0:0:0:0:
294,212,199369,2,0,L|312:138,1,58.4999973220826,6|0,0:0|0:0,0:0:0:0:
75,85,199566,2,0,L|93:11,1,58.4999973220826,6|0,0:0|0:0,0:0:0:0:
216,208,199763,6,0,L|234:282,1,58.4999973220826
473,177,200060,5,0,0:0:0:0:
401,153,200158,1,0,0:0:0:0:
326,129,200257,1,0,0:0:0:0:
274,243,200356,1,0,0:0:0:0:
202,260,200454,1,0,0:0:0:0:
137,275,200553,1,0,0:0:0:0:
84,288,200652,1,0,0:0:0:0:
84,288,200750,1,6,0:0:0:0:
