osu file format v14

[General]
AudioFilename: audio.mp3
AudioLeadIn: 0
PreviewTime: 174228
Countdown: 0
SampleSet: Soft
StackLeniency: 0.5
Mode: 0
LetterboxInBreaks: 0
WidescreenStoryboard: 1

[Editor]
DistanceSpacing: 1.4
BeatDivisor: 4
GridSize: 4
TimelineZoom: 3.100005

[Metadata]
Title:Yume no Mata Yume
TitleUnicode:夢のまた夢
Artist:yuikonnu
ArtistUnicode:ゆいこんぬ
Creator:Kyuukai
Version:Insane
Source:
Tags:夢見がちなクリームパッフル yumemigachi na cream puffle white chocolate full version utaite cover mafumafu yuiko a dream within alternate style yaleufeu
BeatmapID:1706376
BeatmapSetID:812160

[Difficulty]
HPDrainRate:5.2
CircleSize:3.8
OverallDifficulty:8
ApproachRate:8.8
SliderMultiplier:1.6
SliderTickRate:1

[Events]
//Background and Video events
0,0,"feelsbad.jpg",0,0
//Break Periods
2,95974,104458
2,148079,151826
2,154395,158142
//Storyboard Layer 0 (Background)
//Storyboard Layer 1 (Fail)
//Storyboard Layer 2 (Pass)
//Storyboard Layer 3 (Foreground)
//Storyboard Sound Samples

[TimingPoints]
10511,394.736842105263,4,2,1,40,1,0
11892,-133.333333333333,4,2,1,60,0,0
12188,-133.333333333333,4,2,1,5,0,0
12287,-100,4,2,1,40,0,0
12484,-86.9565217391304,4,2,1,45,0,0
12682,-80,4,2,1,50,0,0
12879,-74.0740740740741,4,2,1,55,0,0
13274,-200,4,2,1,40,0,0
13372,-200,4,2,1,5,0,0
13471,-200,4,2,1,40,0,0
13570,-200,4,2,1,5,0,0
13668,-80,4,2,1,55,0,0
19195,-133.333333333333,4,2,1,45,0,0
19491,-133.333333333333,4,2,1,5,0,0
19589,-100,4,2,1,50,0,0
19885,-100,4,2,1,5,0,0
19984,-80,4,2,1,55,0,0
20280,-80,4,2,1,5,0,0
20379,-80,4,2,1,55,0,0
24721,-133.333333333333,4,2,1,45,0,0
25017,-133.333333333333,4,2,1,5,0,0
25116,-100,4,2,1,50,0,0
25412,-100,4,2,1,5,0,0
25510,-80,4,2,1,55,0,0
26300,-100,4,2,1,50,0,0
38932,-90.9090909090909,4,2,1,55,0,0
49984,-133.333333333333,4,2,1,50,0,0
50182,-133.333333333333,4,2,1,5,0,0
50280,-100,4,2,1,55,0,0
50478,-100,4,2,1,5,0,0
50576,-80,4,2,1,60,0,0
51563,-100,4,2,1,55,0,0
51760,-100,4,2,1,5,0,0
51859,-133.333333333333,4,2,1,50,0,0
52057,-133.333333333333,4,2,1,5,0,0
52155,-133.333333333333,4,2,1,50,0,0
52353,-200,4,2,1,60,0,0
53142,-100,4,2,1,55,0,0
53339,-100,4,2,1,5,0,0
53438,-133.333333333333,4,2,1,50,0,0
53635,-133.333333333333,4,2,1,5,0,0
53734,-133.333333333333,4,2,1,50,0,0
53932,-80,4,2,1,60,0,0
54721,-100,4,2,1,55,0,0
54918,-100,4,2,1,5,0,0
55017,-133.333333333333,4,2,1,50,0,0
55214,-133.333333333333,4,2,1,5,0,0
55313,-133.333333333333,4,2,1,50,0,0
55510,-200,4,2,1,60,0,0
56300,-100,4,2,1,55,0,0
56497,-100,4,2,1,5,0,0
56596,-133.333333333333,4,2,1,50,0,0
56793,-133.333333333333,4,2,1,5,0,0
56892,-133.333333333333,4,2,1,50,0,0
57089,-80,4,2,1,60,0,0
57385,-80,4,2,1,5,0,0
57484,-100,4,2,1,55,0,0
57879,-86.9565217391304,4,2,1,60,0,0
64195,-80,4,2,1,65,0,0
66563,-200,4,2,1,50,0,0
66859,-200,4,2,1,5,0,0
66958,-133.333333333333,4,2,1,65,0,0
67254,-133.333333333333,4,2,1,5,0,0
67353,-66.6666666666667,4,2,1,75,0,1
79195,-55.5555555555556,4,2,1,80,0,1
79787,-55.5555555555556,4,2,1,80,0,0
79984,-66.6666666666667,4,2,1,75,0,1
89458,-62.5,4,2,1,75,0,1
91037,-55.5555555555556,4,2,1,80,0,1
91629,-66.6666666666667,4,2,1,60,0,1
92616,-80,4,2,1,60,0,0
105247,-133.333333333333,4,2,1,40,0,0
116103,-100,4,2,1,45,0,0
117879,-86.9565217391304,4,2,1,50,0,0
120247,-133.333333333333,4,2,1,40,0,0
120642,-105.263157894737,4,2,1,45,0,0
121037,-86.9565217391304,4,2,1,50,0,0
123405,-133.333333333333,4,2,1,40,0,0
123800,-105.263157894737,4,2,1,45,0,0
124195,-86.9565217391304,4,2,1,50,0,0
128932,-133.333333333333,4,2,1,45,0,0
129129,-133.333333333333,4,2,1,5,0,0
129228,-100,4,2,1,50,0,0
129425,-100,4,2,1,5,0,0
129524,-80,4,2,1,60,0,0
130510,-100,4,2,1,55,0,0
130708,-100,4,2,1,5,0,0
130806,-133.333333333333,4,2,1,55,0,0
131004,-133.333333333333,4,2,1,5,0,0
131103,-133.333333333333,4,2,1,50,0,0
131300,-200,4,2,1,60,0,0
132089,-100,4,2,1,55,0,0
132287,-100,4,2,1,5,0,0
132385,-133.333333333333,4,2,1,50,0,0
132583,-133.333333333333,4,2,1,5,0,0
132682,-133.333333333333,4,2,1,50,0,0
132879,-80,4,2,1,60,0,0
133668,-100,4,2,1,55,0,0
133866,-100,4,2,1,5,0,0
133964,-133.333333333333,4,2,1,50,0,0
134162,-133.333333333333,4,2,1,5,0,0
134260,-133.333333333333,4,2,1,50,0,0
134458,-200,4,2,1,60,0,0
135247,-100,4,2,1,55,0,0
135445,-100,4,2,1,5,0,0
135543,-133.333333333333,4,2,1,50,0,0
135741,-133.333333333333,4,2,1,5,0,0
135839,-133.333333333333,4,2,1,50,0,0
136037,-80,4,2,1,60,0,0
136333,-80,4,2,1,5,0,0
136432,-100,4,2,1,55,0,0
136826,-86.9565217391304,4,2,1,60,0,0
143142,-80,4,2,1,65,0,0
146300,-333.333333333333,4,2,1,20,0,0
146892,-333.333333333333,4,2,1,5,0,0
147089,-333.333333333333,4,2,1,20,0,0
147682,-333.333333333333,4,2,1,5,0,0
147879,-333.333333333333,4,2,1,20,0,0
152616,-333.333333333333,4,2,1,20,0,0
153208,-333.333333333333,4,2,1,5,0,0
153405,-333.333333333333,4,2,1,20,0,0
153997,-333.333333333333,4,2,1,5,0,0
154195,-333.333333333333,4,2,1,20,0,0
158932,-200,4,2,1,30,0,0
165247,-133.333333333333,4,2,1,35,0,0
166826,-100,4,2,1,40,0,0
168405,-86.9565217391304,4,2,1,55,0,0
171563,-80,4,2,1,60,0,0
172353,-74.0740740740741,4,2,1,65,0,0
173142,-66.6666666666667,4,2,1,70,0,0
173537,-66.6666666666667,4,2,1,75,0,0
173932,-500,4,2,1,80,0,0
174030,-500,4,2,1,5,0,0
174721,-200,4,2,1,40,0,0
175412,-200,4,2,1,5,0,0
175510,394.736842105263,4,2,1,75,1,1
175510,-62.5,4,2,1,75,0,1
182615,-66.6666666666667,4,2,1,75,0,1
183010,-71.4285714285714,4,2,1,75,0,1
183404,-66.6666666666667,4,2,1,75,0,1
183799,-62.5,4,2,1,75,0,1
184194,-58.8235294117647,4,2,1,75,0,1
184588,-55.5555555555556,4,2,1,75,0,1
184983,-62.5,4,2,1,75,0,1
187352,-50,4,2,1,80,0,1
187944,-50,4,2,1,80,0,0
188141,-62.5,4,2,1,75,0,1
197615,-55.5555555555556,4,2,1,80,0,1
198404,-52.6315789473684,4,2,1,80,0,1
199194,-50,4,2,1,80,0,1
199588,-62.5,4,2,1,60,0,1
200773,-80,4,2,1,70,0,0
206299,-100,4,2,1,70,0,0
206595,-100,4,2,1,5,0,0
206694,-133.333333333333,4,2,1,70,0,0
206990,-133.333333333333,4,2,1,5,0,0
207088,-200,4,2,1,60,0,0
207483,-55.5555555555556,4,2,1,75,0,0

[Colours]
Combo1 : 192,192,192
Combo2 : 0,128,255
Combo3 : 255,128,128
Combo4 : 128,128,255

[HitObjects]
256,192,10510,12,8,11695,0:0:0:0:
72,312,11892,6,0,P|114:324|158:313,1,90.0000034332277,4|0,0:0|0:0,0:0:0:0:
224,260,12287,2,0,P|248:256|280:264,1,40,8|0,0:0|0:0,0:0:0:0:
275,379,12484,2,0,P|258:364|247:343,1,46.0000008773804,8|0,0:0|0:0,0:0:0:0:
344,264,12682,2,0,P|340:288|327:309,1,50,8|0,0:0|0:0,0:0:0:0:
224,260,12879,1,8,0:0:0:0:
224,260,13274,6,0,L|220:228,1,20,2|0,0:0|0:0,0:0:0:0:
136,232,13471,2,0,L|138:251,1,20,2|0,0:0|0:0,0:0:0:0:
188,164,13668,6,0,P|124:148|68:180,1,100,4|0,0:0|0:0,0:0:0:0:
228,68,14063,2,0,P|292:84|348:52,1,100,8|0,0:0|0:0,0:0:0:0:
448,16,14458,2,0,L|440:124,1,100,2|2,0:0|0:0,0:0:0:0:
436,164,14754,1,2,0:0:0:0:
436,164,14853,1,8,0:0:0:0:
420,332,15050,1,2,0:0:0:0:
476,264,15247,6,0,P|408:248|360:268,1,100,2|2,0:0|0:0,0:0:0:0:
332,272,15543,1,2,0:0:0:0:
332,272,15642,1,8,0:0:0:0:
176,336,15839,1,2,0:0:0:0:
259,357,16037,2,0,P|256:307|227:267,1,100,2|0,0:0|0:0,0:0:0:0:
28,336,16432,1,8,0:0:0:0:
176,336,16629,1,2,0:0:0:0:
103,142,16826,6,0,B|92:192|92:192|104:240,1,100,2|0,0:0|0:0,0:0:0:0:
257,142,17221,2,0,B|268:92|268:92|256:44,1,100,8|0,0:0|0:0,0:0:0:0:
208,224,17616,2,0,B|258:235|258:235|306:223,1,100,2|2,0:0|0:0,0:0:0:0:
352,208,17912,1,2,0:0:0:0:
352,208,18010,1,8,0:0:0:0:
452,360,18208,1,2,0:0:0:0:
500,284,18405,6,0,B|450:273|450:273|402:285,1,100,2|0,0:0|0:0,0:0:0:0:
208,336,18800,2,0,B|258:347|258:347|306:335,1,100,8|2,0:0|0:0,0:0:0:0:
408,195,19195,6,0,L|402:284,1,90.0000034332277,4|0,0:0|0:0,0:0:0:0:
468,132,19589,6,0,P|432:112|344:136,1,120,4|0,0:0|0:0,0:0:0:0:
179,204,19984,6,0,B|252:224|252:224|324:204,1,150,4|0,0:0|0:0,0:0:0:0:
324,203,20379,6,0,L|316:309,1,100,8|0,0:0|0:0,0:0:0:0:
140,380,20774,2,0,L|132:280,1,100,2|2,0:0|0:0,0:0:0:0:
128,232,21070,1,2,0:0:0:0:
128,232,21168,1,8,0:0:0:0:
176,48,21366,1,2,0:0:0:0:
220,128,21563,6,0,L|80:116,1,100,2|2,0:0|0:0,0:0:0:0:
72,116,21859,1,2,0:0:0:0:
72,116,21958,1,8,0:0:0:0:
128,232,22155,1,2,0:0:0:0:
275,56,22353,2,0,L|176:48,1,100,2|0,0:0|0:0,0:0:0:0:
384,4,22747,1,8,0:0:0:0:
288,192,22945,1,2,0:0:0:0:
408,124,23142,6,0,L|507:116,1,100,2|0,0:0|0:0,0:0:0:0:
288,192,23537,2,0,L|189:184,1,100,8|0,0:0|0:0,0:0:0:0:
32,300,23932,2,0,P|80:287|128:297,1,100,2|2,0:0|0:0,0:0:0:0:
172,320,24228,1,2,0:0:0:0:
172,320,24326,1,4,0:0:0:0:
288,192,24524,1,2,0:0:0:0:
377,337,24721,6,0,P|336:318|292:312,1,90.0000034332277,4|0,0:0|0:0,0:0:0:0:
364,232,25116,6,0,P|424:223|479:198,1,120,4|0,0:0|0:0,0:0:0:0:
415,124,25510,6,0,P|366:126|318:112,1,100,4|2,0:0|0:0,0:0:0:0:
276,88,25807,1,2,0:0:0:0:
232,68,25905,1,2,0:0:0:0:
180,68,26004,1,2,0:0:0:0:
132,88,26103,1,2,0:0:0:0:
104,128,26201,1,2,0:0:0:0:
92,180,26300,6,0,L|96:260,1,80,4|0,0:0|0:0,0:0:0:0:
200,376,26695,1,8,0:0:0:0:
40,352,26892,1,2,0:0:0:0:
40,352,26991,1,2,0:0:0:0:
40,352,27089,1,2,0:0:0:0:
95,259,27287,1,2,0:0:0:0:
95,259,27682,6,0,B|172:244|172:244|252:259,1,160,8|2,0:0|0:0,0:0:0:0:
352,360,28274,2,0,P|344:324|364:256,1,80,8|2,0:0|0:0,0:0:0:0:
464,216,28668,1,2,0:0:0:0:
448,320,28866,1,2,0:0:0:0:
334,177,29063,1,8,0:0:0:0:
350,281,29261,1,2,0:0:0:0:
424,120,29458,6,0,L|412:32,1,80,2|2,0:0|0:0,0:0:0:0:
220,0,29853,1,8,0:0:0:0:
256,164,30050,1,0,0:0:0:0:
256,164,30149,1,0,0:0:0:0:
256,164,30247,1,2,0:0:0:0:
328,88,30445,1,2,0:0:0:0:
328,88,30839,6,0,P|252:76|168:100,1,160,8|2,0:0|0:0,0:0:0:0:
140,120,31333,1,2,0:0:0:0:
140,120,31432,1,8,0:0:0:0:
16,244,31629,1,2,0:0:0:0:
53,229,31727,1,2,0:0:0:0:
92,229,31826,1,2,0:0:0:0:
184,344,32024,1,2,0:0:0:0:
68,312,32221,1,8,0:0:0:0:
212,224,32418,1,8,0:0:0:0:
212,224,32517,1,8,0:0:0:0:
212,224,32616,6,0,L|324:232,1,80,6|2,0:0|0:0,0:0:0:0:
468,312,33010,1,8,0:0:0:0:
436,132,33208,1,2,0:0:0:0:
436,132,33307,1,2,0:0:0:0:
436,132,33405,1,2,0:0:0:0:
371,234,33603,1,2,0:0:0:0:
371,234,33997,6,0,L|212:224,1,160,8|2,0:0|0:0,0:0:0:0:
48,120,34589,1,8,0:0:0:0:
192,80,34787,1,2,0:0:0:0:
192,80,34885,1,2,0:0:0:0:
192,80,34984,1,2,0:0:0:0:
48,204,35182,1,2,0:0:0:0:
212,224,35379,1,8,0:0:0:0:
48,288,35576,1,2,0:0:0:0:
48,288,35675,1,2,0:0:0:0:
48,288,35774,6,0,P|92:288|140:304,1,80,2|2,0:0|0:0,0:0:0:0:
164,316,36070,1,2,0:0:0:0:
168,320,36168,1,8,0:0:0:0:
328,264,36366,1,2,0:0:0:0:
328,264,36464,1,2,0:0:0:0:
328,264,36563,1,2,0:0:0:0:
272,364,36760,1,2,0:0:0:0:
220,208,36958,1,8,0:0:0:0:
344,104,37155,6,0,L|328:264,1,160,4|2,0:0|0:0,0:0:0:0:
220,208,37747,1,8,0:0:0:0:
340,348,37945,1,2,0:0:0:0:
376,333,38043,1,2,0:0:0:0:
402,303,38142,1,8,0:0:0:0:
321,187,38339,1,2,0:0:0:0:
314,226,38437,1,2,0:0:0:0:
328,263,38536,1,8,0:0:0:0:
456,100,38734,1,8,0:0:0:0:
492,196,38932,6,0,P|392:180|352:112,1,176.000005371094,4|8,0:0|0:0,0:0:0:0:
196,48,39524,1,0,0:0:0:0:
276,12,39721,2,0,P|280:72|256:112,1,88.000002685547,2|0,0:0|0:0,0:0:0:0:
244,132,40017,2,0,L|100:124,1,132.00000402832,2|2,0:0|0:0,0:0:0:0:
0,296,40510,6,0,L|87:292,1,88.000002685547,2|0,0:0|0:0,0:0:0:0:
187,211,40905,2,0,L|100:208,1,88.000002685547,8|0,0:0|0:0,0:0:0:0:
256,352,41300,1,2,0:0:0:0:
276,216,41497,1,2,0:0:0:0:
356,336,41695,1,8,0:0:0:0:
372,252,41892,1,8,0:0:0:0:
476,312,42089,6,0,P|504:240|468:140,1,176.000005371094,2|8,0:0|0:0,0:0:0:0:
332,56,42682,1,0,0:0:0:0:
416,36,42879,2,0,P|412:84|380:128,1,88.000002685547,2|0,0:0|0:0,0:0:0:0:
356,140,43175,2,0,P|264:128|208:144,1,132.00000402832,2|2,0:0|0:0,0:0:0:0:
60,192,43668,5,2,0:0:0:0:
228,224,43866,1,0,0:0:0:0:
88,112,44063,1,8,0:0:0:0:
128,292,44260,1,2,0:0:0:0:
128,292,44359,1,0,0:0:0:0:
128,292,44458,2,0,P|176:308|208:352,1,88.000002685547,4|2,0:0|0:0,0:0:0:0:
292,384,44754,1,2,0:0:0:0:
292,384,44853,2,0,P|322:353|364:341,1,88.000002685547,4|2,0:0|0:0,0:0:0:0:
460,384,45149,1,2,0:0:0:0:
460,384,45247,6,0,L|468:200,1,176.000005371094,4|8,0:0|0:0,0:0:0:0:
304,240,45839,1,0,0:0:0:0:
382,288,46037,2,0,L|385:200,1,88.000002685547,2|0,0:0|0:0,0:0:0:0:
388,156,46333,2,0,P|312:128|224:140,1,132.00000402832,2|2,0:0|0:0,0:0:0:0:
96,72,46826,6,0,P|140:124|140:168,1,88.000002685547,2|0,0:0|0:0,0:0:0:0:
15,227,47221,2,0,P|23:184|52:152,1,88.000002685547,8|0,0:0|0:0,0:0:0:0:
216,240,47616,1,2,0:0:0:0:
104,224,47813,1,2,0:0:0:0:
256,324,48010,1,8,0:0:0:0:
144,340,48207,1,8,0:0:0:0:
308,248,48405,6,0,B|352:228|352:228|512:256,1,176.000005371094,2|8,0:0|0:0,0:0:0:0:
444,60,48997,1,0,0:0:0:0:
492,132,49195,2,0,B|452:148|452:148|388:136,1,88.000002685547,2|0,0:0|0:0,0:0:0:0:
368,124,49491,2,0,B|304:108|304:108|216:124,1,132.00000402832,2|2,0:0|0:0,0:0:0:0:
140,144,49885,1,0,0:0:0:0:
140,144,49984,6,0,L|144:64,1,60.0000022888184,4|0,0:0|0:0,0:0:0:0:
28,120,50280,6,0,L|32:200,1,80,4|0,0:0|0:0,0:0:0:0:
0,312,50576,6,0,P|52:280|108:288,1,100,4|0,0:0|0:0,0:0:0:0:
136,292,50872,1,8,3:0:0:0:
172,328,50971,1,8,3:0:0:0:
224,340,51070,1,8,3:0:0:0:
280,324,51168,1,2,3:2:0:0:
328,280,51267,1,8,3:2:0:0:
400,276,51366,1,8,3:0:0:0:
464,312,51464,1,8,3:0:0:0:
508,252,51563,6,0,L|500:160,1,80,8|0,3:0|0:0,0:0:0:0:
492,88,51859,2,0,P|456:92|420:84,1,60.0000022888184,8|0,3:0|0:0,0:0:0:0:
348,32,52155,2,0,L|348:62,1,30.0000011444092,8|2,3:0|0:0,0:0:0:0:
392,180,52353,2,0,P|332:156|272:164,1,120,4|8,0:0|0:0,0:0:0:0:
80,260,53142,6,0,L|71:180,1,80,8|0,3:0|0:0,0:0:0:0:
152,148,53438,2,0,L|158:207,1,60.0000022888184,8|0,3:0|0:0,0:0:0:0:
213,301,53734,2,0,L|216:272,1,30.0000011444092,8|2,3:0|0:0,0:0:0:0:
307,339,53932,2,0,L|296:240,1,100,4|8,0:0|0:0,0:0:0:0:
288,192,54228,1,8,0:0:0:0:
280,144,54326,1,8,0:0:0:0:
272,96,54425,1,8,0:0:0:0:
264,48,54524,2,0,P|236:44|196:52,1,50,8|8,0:0|0:0,0:0:0:0:
344,4,54721,6,0,P|388:20|452:12,1,80,8|0,3:0|0:0,0:0:0:0:
488,100,55017,2,0,P|452:100|420:116,1,60.0000022888184,8|0,3:0|0:0,0:0:0:0:
468,213,55313,2,0,L|472:184,1,30.0000011444092,8|2,3:0|0:0,0:0:0:0:
500,296,55510,2,0,P|448:296|388:248,1,120,4|8,0:0|0:0,0:0:0:0:
261,336,56300,6,0,P|290:308|305:271,1,80,8|0,3:0|0:0,0:0:0:0:
208,201,56596,2,0,L|220:260,1,60.0000022888184,8|0,3:0|0:0,0:0:0:0:
294,158,56892,2,0,L|292:188,1,30.0000011444092,8|2,3:0|0:0,0:0:0:0:
338,85,57089,2,0,B|360:112|364:140|364:140|288:140|239:88,1,200,4|8,0:0|0:0,0:0:0:0:
192,52,57583,1,8,0:0:0:0:
136,32,57682,1,8,0:0:0:0:
80,52,57780,1,8,0:0:0:0:
32,88,57879,6,0,L|40:200,1,92.0000017547608,4|0,0:0|0:0,0:0:0:0:
40,216,58175,1,2,0:0:0:0:
42,252,58274,1,8,0:0:0:0:
188,200,58471,1,2,0:0:0:0:
178,364,58668,6,0,L|186:252,1,92.0000017547608,2|0,0:0|0:0,0:0:0:0:
186,236,58964,1,2,0:0:0:0:
188,200,59063,1,8,0:0:0:0:
332,252,59260,1,2,0:0:0:0:
322,88,59458,6,0,L|330:200,1,92.0000017547608,2|0,0:0|0:0,0:0:0:0:
330,216,59754,1,2,0:0:0:0:
332,252,59853,1,8,0:0:0:0:
476,200,60050,1,0,0:0:0:0:
466,364,60247,6,0,L|474:252,1,92.0000017547608,2|0,0:0|0:0,0:0:0:0:
474,236,60543,1,2,0:0:0:0:
476,200,60642,1,8,0:0:0:0:
322,88,60839,2,0,L|326:147,1,46.0000008773804,8|8,0:0|0:0,0:0:0:0:
239,226,61037,6,0,P|281:215|355:222,1,92.0000017547608,4|0,0:0|0:0,0:0:0:0:
368,224,61333,1,2,0:0:0:0:
368,224,61432,2,0,L|360:280,1,46.0000008773804,0|0,3:0|0:0,0:0:0:0:
286,357,61629,2,0,L|280:312,1,46.0000008773804,2|0,0:0|0:0,0:0:0:0:
152,172,61826,6,0,L|139:263,1,92.0000017547608,0|0,3:0|0:0,0:0:0:0:
132,304,62122,1,2,0:0:0:0:
132,304,62221,2,0,L|76:292,1,46.0000008773804,0|0,3:0|0:0,0:0:0:0:
0,220,62418,2,0,L|56:208,1,46.0000008773804,8|0,0:0|0:0,0:0:0:0:
116,76,62616,6,0,P|176:84|224:72,1,92.0000017547608,0|0,3:0|0:0,0:0:0:0:
244,64,62912,1,0,0:0:0:0:
244,64,63010,2,0,P|268:60|308:64,1,46.0000008773804,0|0,3:0|0:0,0:0:0:0:
381,135,63208,2,0,P|358:131|336:132,1,46.0000008773804,0|0,0:0|0:0,0:0:0:0:
176,228,63405,6,0,B|224:216|224:216|276:228,1,92.0000017547608,0|0,3:0|0:0,0:0:0:0:
304,240,63701,1,2,0:0:0:0:
304,240,63800,2,0,L|312:292,1,46.0000008773804,0|0,3:0|0:0,0:0:0:0:
396,348,63997,2,0,L|402:302,1,46.0000008773804,8|0,0:0|0:0,0:0:0:0:
480,168,64195,6,0,P|424:168|364:148,1,100,4|0,0:0|0:0,0:0:0:0:
308,112,64491,1,2,0:0:0:0:
308,112,64589,2,0,P|272:108|232:112,1,50,8|0,0:0|0:0,0:0:0:0:
228,28,64787,2,0,P|194:42|162:66,1,50,8|0,0:0|0:0,0:0:0:0:
52,148,64984,6,0,P|108:148|168:168,1,100,2|0,0:0|0:0,0:0:0:0:
224,204,65280,1,2,0:0:0:0:
224,204,65379,2,0,P|260:208|296:204,1,50,8|0,0:0|0:0,0:0:0:0:
304,288,65576,2,0,P|337:273|369:250,1,50,8|2,0:0|0:0,0:0:0:0:
479,111,65774,5,4,0:0:0:0:
441,143,65872,1,0,0:0:0:0:
393,154,65971,1,2,0:0:0:0:
345,143,66070,1,2,0:0:0:0:
307,111,66168,1,2,0:0:0:0:
288,60,66267,1,2,0:0:0:0:
240,24,66366,1,8,0:0:0:0:
176,20,66464,1,2,0:0:0:0:
116,56,66563,6,0,P|84:60|44:52,1,60,4|0,3:0|0:0,0:0:0:0:
40,156,66958,6,0,P|80:144|140:164,1,90.0000034332277,2|0,3:0|0:0,0:0:0:0:
188,224,67353,6,0,L|332:216,1,120.000004577637,6|0,0:0|0:0,0:0:0:0:
392,240,67649,1,8,0:0:0:0:
392,240,67747,2,0,P|392:200|384:172,1,60.0000022888184,2|0,0:0|0:0,0:0:0:0:
452,120,67945,2,0,P|417:100|389:92,1,60.0000022888184,8|0,0:0|0:0,0:0:0:0:
420,8,68142,2,0,P|376:8|316:60,1,120.000004577637,2|0,0:0|0:0,0:0:0:0:
288,136,68438,1,8,0:0:0:0:
288,136,68537,2,0,P|252:140|200:128,1,60.0000022888184,2|0,0:0|0:0,0:0:0:0:
160,80,68734,2,0,P|124:76|72:88,1,60.0000022888184,8|0,0:0|0:0,0:0:0:0:
8,196,68932,6,0,P|64:176|124:180,1,120.000004577637,2|0,0:0|0:0,0:0:0:0:
204,224,69228,1,8,0:0:0:0:
204,224,69326,2,0,P|216:256|220:304,1,60.0000022888184,2|0,0:0|0:0,0:0:0:0:
184,363,69524,2,0,P|155:374|126:378,1,60.0000022888184,8|0,0:0|0:0,0:0:0:0:
276,352,69721,2,0,P|334:362|393:350,1,120.000004577637,6|2,0:0|0:0,0:0:0:0:
436,328,70017,1,8,0:0:0:0:
468,292,70116,1,6,0:0:0:0:
248,192,70313,1,8,0:0:0:0:
472,148,70510,6,0,B|412:160|412:160|336:132,1,120.000004577637,6|0,0:0|0:0,0:0:0:0:
276,96,70807,1,8,0:0:0:0:
276,96,70905,2,0,B|244:92|244:92|180:100,1,60.0000022888184,2|0,0:0|0:0,0:0:0:0:
128,64,71103,2,0,B|124:96|124:96|132:160,1,60.0000022888184,8|0,0:0|0:0,0:0:0:0:
176,200,71300,2,0,B|188:260|188:260|160:336,1,120.000004577637,2|0,0:0|0:0,0:0:0:0:
108,384,71596,1,8,0:0:0:0:
108,384,71695,2,0,L|24:376,1,60.0000022888184,2|0,0:0|0:0,0:0:0:0:
20,292,71892,2,0,L|79:286,1,60.0000022888184,8|0,0:0|0:0,0:0:0:0:
176,200,72089,6,0,L|295:209,1,120.000004577637,2|0,0:0|0:0,0:0:0:0:
384,216,72385,1,8,0:0:0:0:
384,216,72484,2,0,P|372:248|376:280,1,60.0000022888184,2|0,0:0|0:0,0:0:0:0:
452,320,72682,2,0,P|464:288|460:256,1,60.0000022888184,8|0,0:0|0:0,0:0:0:0:
464,176,72879,2,0,P|424:136|344:136,1,120.000004577637,6|2,0:0|0:0,0:0:0:0:
320,152,73175,1,8,0:0:0:0:
296,196,73274,1,6,0:0:0:0:
372,364,73471,1,8,0:0:0:0:
164,280,73668,6,0,L|156:144,1,120.000004577637,6|0,0:0|0:0,0:0:0:0:
152,72,73964,1,8,0:0:0:0:
152,72,74063,2,0,P|184:72|228:56,1,60.0000022888184,2|0,0:0|0:0,0:0:0:0:
292,24,74260,2,0,P|324:24|368:40,1,60.0000022888184,8|0,0:0|0:0,0:0:0:0:
440,12,74458,2,0,L|448:160,1,120.000004577637,2|0,0:0|0:0,0:0:0:0:
452,220,74754,1,8,0:0:0:0:
452,220,74853,2,0,L|380:208,1,60.0000022888184,2|0,0:0|0:0,0:0:0:0:
292,301,75050,2,0,L|352:292,1,60.0000022888184,8|0,0:0|0:0,0:0:0:0:
204,376,75247,6,0,L|184:257,1,120.000004577637,2|0,0:0|0:0,0:0:0:0:
100,216,75543,1,8,0:0:0:0:
100,216,75642,2,0,L|108:144,1,60.0000022888184,2|0,0:0|0:0,0:0:0:0:
176,100,75839,2,0,L|168:28,1,60.0000022888184,8|0,0:0|0:0,0:0:0:0:
274,16,76037,2,0,L|260:136,1,120.000004577637,2|0,0:0|0:0,0:0:0:0:
308,212,76333,1,8,0:0:0:0:
308,212,76432,2,0,P|368:196|436:224,1,120.000004577637,2|8,0:0|0:0,0:0:0:0:
208,308,76826,6,0,P|148:324|80:296,1,120.000004577637,6|0,0:0|0:0,0:0:0:0:
24,252,77122,1,8,0:0:0:0:
24,252,77221,2,0,L|20:188,1,60.0000022888184,2|0,0:0|0:0,0:0:0:0:
103,68,77418,2,0,L|100:128,1,60.0000022888184,8|0,0:0|0:0,0:0:0:0:
236,192,77616,2,0,L|229:72,1,120.000004577637,2|0,0:0|0:0,0:0:0:0:
292,8,77912,1,8,0:0:0:0:
292,8,78010,2,0,P|316:0|356:4,1,60.0000022888184,2|0,0:0|0:0,0:0:0:0:
482,81,78208,2,0,P|453:73|424:76,1,60.0000022888184,8|0,0:0|0:0,0:0:0:0:
236,192,78405,6,0,P|288:164|372:176,1,120.000004577637,6|8,0:0|3:0,0:0:0:0:
404,180,78701,1,8,3:0:0:0:
448,224,78800,1,8,3:0:0:0:
456,284,78899,1,8,3:0:0:0:
420,332,78997,1,8,3:0:0:0:
360,344,79096,1,8,3:0:0:0:
304,312,79195,6,0,P|264:304|216:320,1,71.9999978027344,6|0,0:0|0:0,0:0:0:0:
74,329,79392,2,0,P|108:319|136:296,1,71.9999978027344,10|0,0:0|0:0,0:0:0:0:
272,216,79589,6,0,P|241:189|191:178,1,71.9999978027344,6|0,0:0|0:0,0:0:0:0:
64,240,79786,2,0,P|88:213|100:180,1,71.9999978027344,10|0,0:0|0:0,0:0:0:0:
44,44,79984,6,0,P|102:56|160:43,1,120.000004577637,6|0,0:0|0:0,0:0:0:0:
240,0,80280,1,8,0:0:0:0:
240,0,80379,2,0,L|312:8,1,60.0000022888184,2|0,0:0|0:0,0:0:0:0:
380,48,80576,2,0,L|452:40,1,60.0000022888184,8|0,0:0|0:0,0:0:0:0:
512,96,80774,2,0,L|496:232,1,120.000004577637,2|0,0:0|0:0,0:0:0:0:
484,304,81070,1,8,0:0:0:0:
484,304,81168,2,0,P|460:292|404:288,1,60.0000022888184,2|0,0:0|0:0,0:0:0:0:
388,204,81366,2,0,P|361:205|310:230,1,60.0000022888184,8|0,0:0|0:0,0:0:0:0:
180,296,81563,6,0,P|237:312|294:298,1,120.000004577637,2|0,0:0|0:0,0:0:0:0:
330,216,81859,1,8,0:0:0:0:
330,216,81958,2,0,L|324:132,1,60.0000022888184,2|0,0:0|0:0,0:0:0:0:
240,124,82155,2,0,L|235:183,1,60.0000022888184,8|0,0:0|0:0,0:0:0:0:
128,208,82353,2,0,L|120:89,1,120.000004577637,6|2,0:0|0:0,0:0:0:0:
176,17,82649,1,8,0:0:0:0:
176,17,82747,2,0,P|228:45|308:13,1,120.000004577637,6|8,0:0|0:0,0:0:0:0:
488,67,83142,6,0,P|431:56|379:84,1,120.000004577637,6|0,0:0|0:0,0:0:0:0:
325,156,83438,1,8,0:0:0:0:
325,156,83537,2,0,L|329:215,1,60.0000022888184,2|0,0:0|0:0,0:0:0:0:
400,272,83734,2,0,L|396:331,1,60.0000022888184,8|0,0:0|0:0,0:0:0:0:
316,372,83932,2,0,P|248:344|172:356,1,120.000004577637,2|0,0:0|0:0,0:0:0:0:
116,364,84228,1,8,0:0:0:0:
116,364,84326,2,0,P|116:324|128:292,1,60.0000022888184,2|0,0:0|0:0,0:0:0:0:
196,256,84524,2,0,P|196:216|184:184,1,60.0000022888184,8|0,0:0|0:0,0:0:0:0:
84,96,84721,6,0,B|120:116|120:116|208:92,1,120.000004577637,2|0,0:0|0:0,0:0:0:0:
280,64,85017,1,8,0:0:0:0:
280,64,85116,2,0,L|348:76,1,60.0000022888184,2|0,0:0|0:0,0:0:0:0:
384,152,85313,2,0,L|316:164,1,60.0000022888184,8|0,0:0|0:0,0:0:0:0:
272,236,85510,2,0,L|390:257,1,120.000004577637,6|2,0:0|0:0,0:0:0:0:
440,264,85807,1,8,0:0:0:0:
488,272,85905,1,6,0:0:0:0:
312,352,86103,1,8,0:0:0:0:
312,352,86201,1,0,0:0:0:0:
312,352,86300,6,0,L|194:373,1,120.000004577637,6|0,0:0|0:0,0:0:0:0:
120,320,86596,1,8,0:0:0:0:
120,320,86695,2,0,L|104:232,1,60.0000022888184,2|0,0:0|0:0,0:0:0:0:
48,196,86892,2,0,L|64:108,1,60.0000022888184,8|0,0:0|0:0,0:0:0:0:
76,48,87089,2,0,P|136:60|204:44,1,120.000004577637,2|0,0:0|0:0,0:0:0:0:
236,32,87385,1,8,0:0:0:0:
272,0,87484,1,2,0:0:0:0:
444,96,87682,6,0,B|388:112|344:80|344:80|300:80|272:124|272:124|300:116|336:132,1,240.000009155274,4|0,0:3|0:0,0:0:0:0:
384,188,88175,1,8,0:0:0:0:
384,188,88274,2,0,P|420:188|464:180,1,60.0000022888184,2|0,0:0|0:0,0:0:0:0:
316,248,88471,2,0,P|280:248|236:240,1,60.0000022888184,8|0,0:0|0:0,0:0:0:0:
220,352,88668,2,0,P|278:342|336:357,1,120.000004577637,6|2,0:0|0:0,0:0:0:0:
428,384,88964,1,8,0:0:0:0:
428,384,89063,2,0,L|440:244,1,120.000004577637,6|0,0:0|0:0,0:0:0:0:
317,125,89458,5,6,0:0:0:0:
256,244,89655,1,8,0:0:0:0:
256,244,89754,1,0,0:0:0:0:
256,244,89853,1,2,0:0:0:0:
438,264,90050,1,8,0:0:0:0:
216,148,90247,1,8,0:0:0:0:
416,100,90445,1,8,0:0:0:0:
416,100,90543,1,8,0:0:0:0:
416,100,90642,2,0,L|428:192,1,64,8|8,0:0|0:0,0:0:0:0:
308,61,90839,2,0,L|316:124,1,64,8|8,0:0|0:0,0:0:0:0:
256,344,91037,5,10,0:0:0:0:
424,163,91234,1,10,0:0:0:0:
144,244,91432,1,10,0:0:0:0:
96,168,91629,6,0,L|36:172,2,60.0000022888184,2|2|2,0:0|0:0|0:0,0:0:0:0:
144,244,91925,1,2,0:0:0:0:
144,244,92024,2,0,L|204:240,1,60.0000022888184,2|2,0:0|0:0,0:0:0:0:
332,296,92221,1,8,0:0:0:0:
335,236,92320,1,8,0:3:0:0:
339,176,92418,1,8,0:0:0:0:
200,120,92616,5,6,0:0:0:0:
256,192,92714,12,2,95774,0:0:0:0:
8,36,105247,6,0,L|132:24,1,120.000004577637,4|2,0:0|0:0,0:0:0:0:
246,105,106037,2,0,L|256:16,2,90.0000034332277,2|2|2,0:0|0:0|0:0,0:0:0:0:
292,180,106826,2,0,P|216:184|172:152,1,120.000004577637,2|2,0:0|0:0,0:0:0:0:
108,116,107418,1,0,0:0:0:0:
28,136,107616,1,2,0:0:0:0:
0,216,107813,1,0,0:0:0:0:
28,296,108010,1,2,0:0:0:0:
108,324,108208,1,0,0:0:0:0:
180,280,108405,6,0,B|220:264|220:264|316:284,1,120.000004577637,2|2,0:0|0:0,0:0:0:0:
448,276,109195,2,0,L|428:380,2,90.0000034332277,2|2|2,0:0|0:0|0:0,0:0:0:0:
464,192,109984,1,2,0:0:0:0:
464,192,110379,1,2,0:0:0:0:
444,108,110576,1,2,0:1:0:0:
448,180,110774,1,2,0:0:0:0:
428,96,110971,1,2,0:1:0:0:
432,168,111168,1,2,0:0:0:0:
412,84,111366,5,2,0:1:0:0:
396,72,111464,1,2,0:1:0:0:
380,60,111563,2,0,L|248:60,1,120.000004577637,4|2,0:0|0:0,0:0:0:0:
120,104,112353,2,0,P|152:68|148:20,2,90.0000034332277,2|2|2,0:0|0:0|0:0,0:0:0:0:
52,156,113142,2,0,L|60:292,1,120.000004577637,2|2,0:0|0:0,0:0:0:0:
64,360,113734,1,0,0:0:0:0:
148,380,113932,1,2,0:0:0:0:
232,360,114129,1,0,0:0:0:0:
316,380,114326,1,2,0:0:0:0:
400,360,114523,1,0,0:0:0:0:
448,288,114721,6,0,L|456:212,1,60.0000022888184,2|8,0:0|0:0,0:0:0:0:
464,108,115116,1,8,0:0:0:0:
454,228,115313,1,8,0:0:0:0:
392,64,115510,1,8,0:0:0:0:
352,228,115708,1,8,0:0:0:0:
312,28,115905,1,8,0:0:0:0:
312,28,116004,1,8,0:0:0:0:
312,28,116103,6,0,L|144:36,1,160,4|8,0:0|0:0,0:0:0:0:
112,40,116596,1,2,0:0:0:0:
80,64,116695,1,8,0:0:0:0:
60,100,116793,1,2,0:0:0:0:
60,140,116892,1,8,0:0:0:0:
80,176,116991,1,2,0:0:0:0:
116,192,117089,5,8,0:0:0:0:
155,190,117187,1,8,0:0:0:0:
195,188,117286,1,8,0:0:0:0:
235,186,117385,1,8,0:0:0:0:
275,184,117483,5,14,0:0:0:0:
328,220,117583,1,10,0:0:0:0:
360,276,117682,1,10,0:0:0:0:
348,340,117780,1,10,0:0:0:0:
300,380,117879,6,0,B|212:352|212:352|125:381,1,184.000003509522,6|8,0:0|0:0,0:0:0:0:
8,336,118471,1,0,0:0:0:0:
124,276,118668,1,2,0:0:0:0:
8,232,118866,1,0,0:0:0:0:
124,172,119063,1,8,0:0:0:0:
8,128,119260,1,0,0:0:0:0:
124,276,119458,6,0,P|172:284|224:276,1,92.0000017547608,2|0,0:0|0:0,0:0:0:0:
304,228,119853,1,8,0:0:0:0:
384,168,120050,1,0,0:0:0:0:
508,248,120247,2,0,P|476:244|432:256,1,60.0000022888184,4|2,0:0|0:0,0:0:0:0:
384,304,120543,1,8,0:0:0:0:
384,304,120642,2,0,L|280:300,1,75.9999979705811,4|2,0:0|0:0,0:0:0:0:
220,296,120938,1,8,0:0:0:0:
220,296,121037,6,0,L|200:108,1,184.000003509522,4|8,0:0|0:0,0:0:0:0:
252,24,121629,1,0,0:0:0:0:
356,24,121826,1,2,0:0:0:0:
408,112,122024,1,0,0:0:0:0:
304,112,122221,1,8,0:0:0:0:
356,200,122418,1,0,0:0:0:0:
460,24,122616,6,0,L|364:24,1,92.0000017547608,2|0,0:0|0:0,0:0:0:0:
200,112,123010,1,8,0:0:0:0:
304,112,123207,1,2,0:0:0:0:
128,40,123405,2,0,P|100:92|96:112,1,60.0000022888184,4|2,0:0|0:0,0:0:0:0:
32,144,123701,1,8,0:0:0:0:
32,144,123800,2,0,P|33:203|40:222,1,75.9999979705811,4|2,0:0|0:0,0:0:0:0:
28,304,124096,1,8,0:0:0:0:
28,303,124195,6,0,P|118:287|208:303,1,184.000003509522,4|8,0:0|0:0,0:0:0:0:
300,352,124787,1,0,0:0:0:0:
296,248,124984,1,2,0:0:0:0:
208,303,125182,1,0,0:0:0:0:
204,199,125379,1,8,0:0:0:0:
116,252,125576,1,0,0:0:0:0:
296,248,125774,6,0,P|304:176|296:152,1,92.0000017547608,2|0,0:0|0:0,0:0:0:0:
116,148,126168,1,8,0:0:0:0:
204,199,126366,1,0,0:0:0:0:
284,56,126563,2,0,L|404:60,1,92.0000017547608,2|0,0:0|0:0,0:0:0:0:
488,188,126958,2,0,L|397:192,1,92.0000017547608,8|0,0:0|0:0,0:0:0:0:
204,199,127353,5,2,0:0:0:0:
298,158,127550,1,0,0:0:0:0:
204,284,127747,1,8,0:0:0:0:
110,243,127944,1,0,0:0:0:0:
204,368,128142,1,2,0:0:0:0:
298,327,128339,1,8,0:0:0:0:
110,243,128537,1,8,0:0:0:0:
298,158,128734,1,8,0:0:0:0:
112,80,128932,6,0,L|112:140,1,60.0000022888184,4|0,0:0|0:0,0:0:0:0:
110,243,129228,6,0,P|139:216|184:204,1,80,4|0,0:0|0:0,0:0:0:0:
298,158,129524,6,0,L|289:257,1,100,4|0,0:0|0:0,0:0:0:0:
288,308,129820,1,0,0:0:0:0:
308,352,129918,1,2,0:0:0:0:
348,380,130017,1,2,0:0:0:0:
400,384,130116,1,10,0:0:0:0:
448,368,130214,1,10,0:0:0:0:
480,332,130313,1,10,0:0:0:0:
492,284,130412,1,10,0:0:0:0:
480,236,130510,6,0,P|472:192|480:148,1,80,8|0,3:0|0:0,0:0:0:0:
504,56,130807,2,0,B|472:60|472:60|428:44,1,60.0000022888184,8|0,3:0|0:0,0:0:0:0:
368,16,131103,2,0,L|332:20,1,30.0000011444092,8|2,3:0|0:0,0:0:0:0:
216,104,131300,2,0,L|335:118,1,120,4|8,0:0|0:0,0:0:0:0:
152,48,132089,6,0,P|132:96|136:128,1,80,8|0,3:0|0:0,0:0:0:0:
62,221,132385,2,0,P|90:209|120:208,1,60.0000022888184,8|0,3:0|0:0,0:0:0:0:
223,162,132682,2,0,P|209:168|200:180,1,30.0000011444092,8|2,3:0|0:0,0:0:0:0:
112,312,132879,2,0,P|164:304|216:312,1,100,4|10,0:0|0:0,0:0:0:0:
256,328,133175,1,8,0:0:0:0:
292,364,133274,1,10,0:0:0:0:
340,376,133372,1,8,0:0:0:0:
388,364,133471,1,8,0:0:0:0:
424,328,133570,1,8,0:0:0:0:
440,280,133668,6,0,B|448:240|448:240|440:201,1,80,8|0,3:0|0:0,0:0:0:0:
376,144,133964,2,0,L|380:56,1,60.0000022888184,8|0,3:0|0:0,0:0:0:0:
300,18,134260,2,0,L|300:48,1,30.0000011444092,8|2,3:0|0:0,0:0:0:0:
202,145,134458,2,0,P|259:138|300:180,1,120,4|8,0:0|0:0,0:0:0:0:
256,328,135247,6,0,B|196:320|196:320|152:336,1,80,8|0,3:0|0:0,0:0:0:0:
108,376,135543,2,0,P|92:336|96:304,1,60.0000022888184,8|0,3:0|0:0,0:0:0:0:
16,280,135839,2,0,P|24:264|44:248,1,30.0000011444092,8|2,3:0|0:0,0:0:0:0:
0,140,136037,2,0,P|96:161|193:141,1,200,4|8,0:0|0:0,0:0:0:0:
244,108,136530,1,8,0:0:0:0:
304,96,136629,1,8,0:0:0:0:
364,108,136728,1,8,0:0:0:0:
416,140,136826,6,0,B|428:184|428:184|412:244,1,92.0000017547608,4|0,0:0|0:0,0:0:0:0:
404,264,137122,1,2,0:0:0:0:
392,300,137221,1,8,0:0:0:0:
184,208,137418,1,2,0:0:0:0:
344,184,137616,6,0,B|300:172|300:172|240:188,1,92.0000017547608,2|0,0:0|0:0,0:0:0:0:
220,196,137912,1,2,0:0:0:0:
184,208,138011,1,8,0:0:0:0:
296,260,138208,1,2,0:0:0:0:
136,284,138406,6,0,B|180:296|180:296|240:280,1,92.0000017547608,2|0,0:0|0:0,0:0:0:0:
260,272,138702,1,2,0:0:0:0:
296,260,138801,1,8,0:0:0:0:
88,168,138997,1,2,0:0:0:0:
64,328,139195,6,0,B|52:284|52:284|68:224,1,92.0000017547608,2|0,0:0|0:0,0:0:0:0:
76,204,139491,1,2,0:0:0:0:
88,168,139590,1,8,0:0:0:0:
296,260,139787,2,0,L|292:204,1,46.0000008773804,8|8,0:0|0:0,0:0:0:0:
240,104,139984,6,0,P|292:116|340:96,1,92.0000017547608,4|0,0:0|0:0,0:0:0:0:
400,52,140280,1,0,0:0:0:0:
400,52,140379,2,0,L|468:56,1,46.0000008773804,0|0,3:0|0:0,0:0:0:0:
488,136,140576,2,0,L|420:140,1,46.0000008773804,2|0,0:0|0:0,0:0:0:0:
292,214,140774,6,0,L|428:222,1,92.0000017547608,0|0,3:0|0:0,0:0:0:0:
472,224,141070,1,2,0:0:0:0:
472,224,141168,2,0,L|468:280,1,46.0000008773804,0|0,3:0|0:0,0:0:0:0:
392,316,141366,2,0,L|395:361,1,46.0000008773804,8|0,0:0|0:0,0:0:0:0:
276,384,141563,6,0,L|284:292,1,92.0000017547608,0|0,3:0|0:0,0:0:0:0:
292,204,141859,1,2,0:0:0:0:
292,204,141958,2,0,P|256:200|224:208,1,46.0000008773804,0|0,3:0|0:0,0:0:0:0:
220,116,142155,2,0,P|186:130|163:153,1,46.0000008773804,2|0,0:0|0:0,0:0:0:0:
48,96,142353,6,0,P|84:148|76:200,1,92.0000017547608,0|0,3:0|0:0,0:0:0:0:
48,256,142649,1,0,0:0:0:0:
48,256,142747,2,0,L|60:312,1,46.0000008773804,0|0,3:0|0:0,0:0:0:0:
136,344,142945,2,0,L|145:299,1,46.0000008773804,8|0,0:0|0:0,0:0:0:0:
246,201,143142,6,0,L|372:208,1,100,4|0,0:0|0:0,0:0:0:0:
408,272,143438,1,2,0:0:0:0:
408,272,143537,2,0,L|480:264,1,50,8|0,0:0|0:0,0:0:0:0:
512,196,143734,2,0,L|504:124,1,50,8|0,0:0|0:0,0:0:0:0:
412,72,143932,6,0,L|286:65,1,100,2|0,0:0|0:0,0:0:0:0:
250,1,144228,1,2,0:0:0:0:
250,1,144327,2,0,L|178:9,1,50,8|0,0:0|0:0,0:0:0:0:
146,77,144524,2,0,L|154:149,1,50,8|2,0:0|0:0,0:0:0:0:
240,244,144721,5,12,0:0:0:0:
197,219,144819,1,0,0:0:0:0:
148,223,144918,1,2,0:0:0:0:
109,254,145017,1,2,0:0:0:0:
94,301,145115,1,2,0:0:0:0:
109,348,145214,1,2,0:0:0:0:
147,379,145313,1,2,0:0:0:0:
196,383,145411,1,2,0:0:0:0:
239,360,145510,1,8,0:0:0:0:
239,360,146300,6,0,B|272:368|272:368|316:356,1,71.9999978027344,0|0,0:0|0:0,0:0:0:0:
336,348,147089,2,0,B|369:340|369:340|413:352,1,71.9999978027344,0|0,0:0|0:0,0:0:0:0:
434,358,147879,1,0,0:0:0:0:
273,24,152616,6,0,B|240:16|240:16|196:28,1,71.9999978027344,0|0,0:0|0:0,0:0:0:0:
176,36,153405,2,0,B|143:44|143:44|99:32,1,71.9999978027344,0|0,0:0|0:0,0:0:0:0:
78,26,154195,1,0,0:0:0:0:
24,20,158932,6,0,P|72:40|116:32,1,80,2|0,0:0|0:0,0:0:0:0:
184,20,159524,1,0,0:0:0:0:
184,20,159721,2,0,L|280:28,1,80,0|0,0:0|0:0,0:0:0:0:
348,32,160313,5,0,0:0:0:0:
348,32,160510,2,0,P|356:80|340:116,1,80,2|0,0:0|0:0,0:0:0:0:
284,168,161103,1,0,0:0:0:0:
284,168,161300,2,0,P|276:216|292:252,1,80,0|0,0:0|0:0,0:0:0:0:
332,316,161892,1,0,0:0:0:0:
332,316,162089,6,0,P|372:308|424:316,1,80,2|0,0:0|0:0,0:0:0:0:
240,360,162879,2,0,P|200:368|148:360,1,80,0|0,0:0|0:0,0:0:0:0:
240,180,163668,2,0,L|248:260,1,80,2|0,0:0|0:0,0:0:0:0:
168,76,165050,1,0,0:0:0:0:
252,56,165247,6,0,L|380:64,1,120.000004577637,2|0,0:0|0:0,0:0:0:0:
512,164,165839,1,0,0:0:0:0:
492,80,166037,2,0,P|440:116|428:184,1,120.000004577637,0|0,0:0|0:0,0:0:0:0:
476,328,166629,1,0,0:0:0:0:
508,248,166826,2,0,L|344:252,1,160,2|0,0:0|0:0,0:0:0:0:
164,304,167418,1,0,0:0:0:0:
240,348,167616,2,0,P|260:280|240:184,1,160,0|2,0:0|0:0,0:0:0:0:
112,32,168208,1,0,0:0:0:0:
76,128,168405,6,0,P|124:120|176:120,1,92.0000017547608,4|0,0:0|0:0,0:0:0:0:
212,124,168701,1,2,0:0:0:0:
256,140,168800,1,8,0:0:0:0:
76,232,168997,1,2,0:0:0:0:
76,232,169195,6,0,P|124:224|176:224,1,92.0000017547608,2|0,0:0|0:0,0:0:0:0:
212,228,169491,1,2,0:0:0:0:
256,244,169590,1,8,0:0:0:0:
72,336,169786,1,0,0:0:0:0:
72,336,169885,1,2,0:0:0:0:
72,336,169984,5,2,0:0:0:0:
117,328,170083,1,2,0:0:0:0:
163,327,170182,1,2,0:0:0:0:
208,332,170281,1,2,0:0:0:0:
252,348,170380,1,8,0:0:0:0:
388,232,170576,1,2,0:0:0:0:
388,232,170675,1,2,0:0:0:0:
388,232,170774,6,0,L|380:348,1,92.0000017547608,2|2,0:0|0:0,0:0:0:0:
424,344,171070,1,2,0:0:0:0:
464,364,171168,1,8,0:0:0:0:
472,172,171366,1,2,0:0:0:0:
472,172,171464,1,2,0:0:0:0:
472,172,171563,6,0,P|424:136|352:136,1,100,4|2,0:0|0:0,0:0:0:0:
336,136,171859,1,2,0:0:0:0:
304,172,171958,1,8,0:0:0:0:
392,356,172155,1,2,0:0:0:0:
448,268,172353,6,0,L|316:268,1,108.000000411987,4|2,0:0|0:0,0:0:0:0:
284,268,172649,1,2,0:0:0:0:
232,268,172747,1,8,0:0:0:0:
120,356,172945,1,2,0:0:0:0:
120,356,173043,1,2,0:0:0:0:
120,356,173142,6,0,L|108:288,1,60.0000022888184,4|0,0:0|0:0,0:0:0:0:
44,236,173339,2,0,L|56:168,1,60.0000022888184,8|0,0:0|0:0,0:0:0:0:
40,76,173537,2,0,P|72:88|120:76,1,60.0000022888184,10|0,0:0|0:0,0:0:0:0:
184,32,173734,2,0,P|216:20|264:32,1,60.0000022888184,10|0,0:0|0:0,0:0:0:0:
360,48,173932,5,10,0:0:0:0:
360,48,174721,5,8,0:0:0:0:
361,67,174819,1,2,0:0:0:0:
363,87,174918,1,2,0:0:0:0:
365,107,175017,1,2,0:0:0:0:
367,127,175115,1,8,0:0:0:0:
367,127,175510,6,0,P|304:116|232:132,1,128,6|0,0:0|0:0,0:0:0:0:
168,176,175806,1,8,0:0:0:0:
168,176,175904,2,0,P|124:180|92:172,1,64,2|0,0:0|0:0,0:0:0:0:
20,148,176102,2,0,P|16:192|24:224,1,64,8|0,0:0|0:0,0:0:0:0:
72,284,176299,2,0,P|133:267|194:283,1,128,2|0,0:0|0:0,0:0:0:0:
260,344,176595,1,8,0:0:0:0:
260,344,176694,2,0,B|296:344|296:344|332:324,1,64,2|0,0:0|0:0,0:0:0:0:
396,380,176891,2,0,B|414:348|414:348|414:307,1,64,8|0,0:0|0:0,0:0:0:0:
476,176,177088,6,0,P|414:192|353:175,1,128,2|0,0:0|0:0,0:0:0:0:
272,136,177385,1,8,0:0:0:0:
272,136,177483,2,0,L|272:68,1,64,2|0,0:0|0:0,0:0:0:0:
356,32,177681,2,0,L|356:96,1,64,8|0,0:0|0:0,0:0:0:0:
280,224,177878,2,0,P|212:204|184:148,1,128,6|2,0:0|0:0,0:0:0:0:
184,112,178174,1,8,0:0:0:0:
184,68,178273,1,6,0:0:0:0:
0,132,178470,1,8,0:0:0:0:
88,68,178667,6,0,L|88:196,1,128,6|0,0:0|0:0,0:0:0:0:
20,256,178963,1,8,0:0:0:0:
20,256,179062,2,0,P|56:280|84:284,1,64,2|0,0:0|0:0,0:0:0:0:
136,352,179260,2,0,P|179:354|205:344,1,64,8|0,0:0|0:0,0:0:0:0:
264,288,179457,2,0,P|328:276|412:296,1,128,2|0,0:0|0:0,0:0:0:0:
472,324,179753,1,8,0:0:0:0:
472,324,179852,2,0,P|480:288|476:248,1,64,2|0,0:0|0:0,0:0:0:0:
412,200,180049,2,0,P|404:164|408:124,1,64,8|0,0:0|0:0,0:0:0:0:
480,16,180246,6,0,B|408:36|408:36|344:12,1,128,2|0,0:0|0:0,0:0:0:0:
276,56,180542,1,8,0:0:0:0:
276,56,180641,2,0,P|240:52|188:64,1,64,2|0,0:0|0:0,0:0:0:0:
136,104,180838,2,0,L|140:176,1,64,8|0,0:0|0:0,0:0:0:0:
144,255,181036,2,0,P|206:244|269:254,1,128,6|2,0:0|0:0,0:0:0:0:
308,276,181332,1,8,0:0:0:0:
324,316,181431,1,6,0:0:0:0:
476,232,181628,1,8,0:0:0:0:
384,156,181825,6,0,P|320:168|240:148,1,128,6|0,0:0|0:0,0:0:0:0:
180,112,182121,1,8,0:0:0:0:
180,112,182220,1,2,0:0:0:0:
312,64,182417,1,8,0:0:0:0:
212,228,182615,1,2,0:0:0:0:
80,180,182812,1,8,0:0:0:0:
80,180,182911,1,8,0:0:0:0:
80,180,183010,1,2,0:0:0:0:
180,344,183207,1,8,0:0:0:0:
180,112,183404,5,2,0:0:0:0:
64,280,183602,1,8,0:0:0:0:
64,280,183700,1,8,0:0:0:0:
64,280,183799,1,2,0:0:0:0:
96,92,183996,1,8,0:0:0:0:
196,284,184194,1,2,0:0:0:0:
0,160,184391,1,8,0:0:0:0:
0,160,184490,1,8,0:0:0:0:
0,160,184588,1,2,0:0:0:0:
200,328,184786,1,8,0:0:0:0:
180,112,184983,6,0,L|192:256,1,128,6|0,0:0|0:0,0:0:0:0:
196,284,185279,1,8,0:0:0:0:
200,328,185378,1,2,0:0:0:0:
308,180,185575,1,8,0:0:0:0:
204,372,185773,6,0,P|142:388|81:372,1,128,2|0,0:0|0:0,0:0:0:0:
44,344,186069,1,8,0:0:0:0:
40,300,186167,1,2,0:0:0:0:
36,140,186365,1,8,0:0:0:0:
36,140,186463,1,0,0:0:0:0:
36,140,186562,6,0,B|96:156|96:156|160:140,1,128,6|8,0:0|3:0,0:0:0:0:
220,120,186858,1,8,3:0:0:0:
284,128,186957,1,8,3:0:0:0:
332,168,187056,1,8,3:0:0:0:
392,184,187154,1,8,3:0:0:0:
456,168,187253,1,8,3:0:0:0:
504,128,187352,6,0,P|512:84|500:40,1,80,6|0,0:0|0:0,0:0:0:0:
352,49,187549,2,0,P|390:61|420:88,1,80,10|0,0:0|0:0,0:0:0:0:
196,220,187746,6,0,P|188:176|200:132,1,80,6|0,0:0|0:0,0:0:0:0:
347,141,187943,2,0,P|309:152|279:179,1,80,10|0,0:0|0:0,0:0:0:0:
196,328,188141,6,0,P|134:344|73:328,1,128,6|0,0:0|0:0,0:0:0:0:
8,268,188437,1,8,0:0:0:0:
8,268,188536,2,0,P|4:232|12:188,1,64,2|0,0:0|0:0,0:0:0:0:
72,143,188733,2,0,P|76:112|72:80,1,64,8|0,0:0|0:0,0:0:0:0:
140,24,188931,2,0,P|171:19|203:23,1,64,2|0,0:0|0:0,0:0:0:0:
288,0,189128,1,0,0:0:0:0:
372,24,189227,1,8,0:0:0:0:
456,8,189325,2,0,L|452:164,1,128,2|8,0:0|0:0,0:0:0:0:
512,256,189720,6,0,B|448:240|448:240|387:255,1,128,2|0,0:0|0:0,0:0:0:0:
320,312,190016,1,8,0:0:0:0:
320,312,190115,2,0,B|284:320|284:320|228:304,1,64,2|0,0:0|0:0,0:0:0:0:
172,284,190312,2,0,B|136:276|136:276|80:292,1,64,8|0,0:0|0:0,0:0:0:0:
76,168,190510,2,0,B|140:184|140:184|200:168,1,128,6|2,0:0|0:0,0:0:0:0:
244,156,190806,1,8,0:0:0:0:
288,144,190904,1,6,0:0:0:0:
140,76,191102,1,8,0:0:0:0:
336,31,191299,6,0,P|399:23|462:32,1,128,6|0,0:0|0:0,0:0:0:0:
512,108,191595,1,8,0:0:0:0:
512,108,191694,2,0,P|492:144|488:196,1,64,2|0,0:0|0:0,0:0:0:0:
400,144,191891,2,0,P|400:185|423:232,1,64,8|0,0:0|0:0,0:0:0:0:
436,292,192088,6,0,P|372:300|309:291,1,128,2|0,0:0|0:0,0:0:0:0:
224,264,192385,1,8,0:0:0:0:
224,264,192483,2,0,P|188:260|152:268,1,64,2|0,0:0|0:0,0:0:0:0:
88,320,192681,2,0,P|56:324|24:320,1,64,8|0,0:0|0:0,0:0:0:0:
56,172,192878,6,0,L|56:236,1,64,2|0,0:0|0:0,0:0:0:0:
160,172,193075,2,0,L|160:108,1,64,8|0,0:0|0:0,0:0:0:0:
72,152,193273,6,0,L|72:216,1,64,2|0,0:0|0:0,0:0:0:0:
176,152,193470,2,0,L|176:88,1,64,8|0,0:0|0:0,0:0:0:0:
280,24,193667,6,0,L|280:152,1,128,2|2,0:0|0:0,0:0:0:0:
280,196,193963,1,8,0:0:0:0:
280,240,194062,1,2,0:0:0:0:
428,88,194260,1,8,0:0:0:0:
487,211,194457,6,0,P|425:195|364:209,1,128,6|0,0:0|0:0,0:0:0:0:
280,240,194753,1,8,0:0:0:0:
280,240,194852,2,0,L|284:312,1,64,2|0,0:0|0:0,0:0:0:0:
228,372,195049,2,0,P|192:376|156:368,1,64,8|0,0:0|0:0,0:0:0:0:
80,340,195246,2,0,L|72:192,1,128,2|0,0:0|0:0,0:0:0:0:
72,168,195542,1,8,0:0:0:0:
72,124,195641,1,2,0:0:0:0:
240,8,195838,6,0,B|176:31|116:0|116:0|176:31|211:100,1,256,4|0,0:3|0:0,0:0:0:0:
228,176,196332,1,8,0:0:0:0:
228,176,196431,2,0,P|264:180|304:176,1,64,2|0,0:0|0:0,0:0:0:0:
364,124,196628,2,0,P|400:120|440:124,1,64,8|0,0:0|0:0,0:0:0:0:
512,256,196825,6,0,P|450:239|389:256,1,128,6|2,0:0|0:0,0:0:0:0:
316,308,197121,1,8,0:0:0:0:
316,308,197220,2,0,P|254:324|193:307,1,128,6|8,0:0|0:0,0:0:0:0:
16,192,197615,5,6,0:0:0:0:
168,176,197812,1,8,0:0:0:0:
168,176,197911,1,0,0:0:0:0:
168,176,198010,1,2,0:0:0:0:
16,344,198207,1,8,0:0:0:0:
84,112,198404,1,8,0:0:0:0:
193,307,198602,1,8,0:0:0:0:
193,307,198700,1,8,0:0:0:0:
193,307,198799,6,0,L|288:296,1,75.9999979705811,8|8,0:0|0:0,0:0:0:0:
428,208,198996,2,0,L|352:199,1,75.9999979705811,8|8,0:0|0:0,0:0:0:0:
168,176,199194,1,10,0:0:0:0:
428,292,199391,1,10,0:0:0:0:
268,88,199588,1,10,0:0:0:0:
356,108,199786,6,0,L|363:45,2,64,2|2|2,0:0|0:0|0:0,0:0:0:0:
292,176,200082,1,2,0:0:0:0:
292,176,200181,2,0,L|299:239,1,64,2|2,0:0|0:0,0:0:0:0:
372,360,200378,1,8,0:0:0:0:
311,343,200476,1,8,0:3:0:0:
252,367,200575,1,8,0:0:0:0:
132,300,200773,6,0,L|117:153,1,100,6|0,0:0|0:0,0:0:0:0:
60,96,201167,2,0,P|112:108|160:76,1,100,8|0,0:0|0:0,0:0:0:0:
236,24,201562,2,0,P|288:12|336:44,1,100,2|2,0:0|0:0,0:0:0:0:
360,68,201858,1,2,0:0:0:0:
360,68,201957,1,8,0:0:0:0:
300,264,202154,1,2,0:0:0:0:
368,184,202352,6,0,L|252:164,1,100,2|2,0:0|0:0,0:0:0:0:
220,160,202648,1,2,0:0:0:0:
220,160,202746,1,8,0:0:0:0:
80,296,202944,1,8,0:0:0:0:
80,296,203042,1,8,0:0:0:0:
80,296,203141,2,0,L|196:276,1,100,2|2,0:0|0:0,0:0:0:0:
300,348,203536,1,8,0:0:0:0:
220,160,203733,1,2,0:0:0:0:
356,280,203931,6,0,P|400:300|456:292,1,100,2|0,0:0|0:0,0:0:0:0:
475,141,204325,2,0,P|435:170|416:216,1,100,8|0,0:0|0:0,0:0:0:0:
300,348,204720,2,0,P|280:302|240:273,1,100,2|2,0:0|0:0,0:0:0:0:
196,256,205016,1,2,0:0:0:0:
196,256,205115,1,8,0:0:0:0:
16,324,205312,1,2,0:0:0:0:
112,364,205510,6,0,L|96:236,1,100,2|0,0:0|0:0,0:0:0:0:
96,216,205806,1,0,0:0:0:0:
96,216,205904,1,8,0:0:0:0:
208,72,206102,1,8,0:0:0:0:
208,72,206200,1,8,0:0:0:0:
208,72,206299,6,0,P|252:104|324:88,1,120,6|0,0:0|0:0,0:0:0:0:
432,60,206694,6,0,P|400:96|400:144,1,90.0000034332277,6|0,0:0|0:0,0:0:0:0:
424,220,207088,6,0,L|456:216,2,20,8|8|8,0:3|0:3|0:3,0:0:0:0:
352,276,207483,5,6,0:0:0:0:
