osu file format v14

[General]
AudioFilename: audio.mp3
AudioLeadIn: 0
PreviewTime: 56799
Countdown: 0
SampleSet: None
StackLeniency: 0.7
Mode: 3
LetterboxInBreaks: 0
SpecialStyle: 0
WidescreenStoryboard: 1

[Editor]
DistanceSpacing: 0.9
BeatDivisor: 4
GridSize: 4
TimelineZoom: 3.299999

[Metadata]
Title:Yume Chizu
TitleUnicode:夢地図
Artist:yuikonnu
ArtistUnicode:ゆいこんぬ
Creator:moni
Version:Sweetie
Source:
Tags:utaite cover 40mp vocaloid
BeatmapID:931632
BeatmapSetID:430268

[Difficulty]
HPDrainRate:7
CircleSize:4
OverallDifficulty:7
ApproachRate:5
SliderMultiplier:1.4
SliderTickRate:1

[Events]
//Background and Video events
0,0,"xd.jpg",0,0
//Break Periods
//Storyboard Layer 0 (Background)
//Storyboard Layer 1 (Fail)
//Storyboard Layer 2 (Pass)
//Storyboard Layer 3 (Foreground)
//Storyboard Sound Samples

[TimingPoints]
1572,340.909090909091,4,1,0,100,1,0
56543,6.07533414337789,4,1,0,100,1,0
56583,487.80487804878,4,1,0,100,1,0
56799,6.07533414337789,4,1,0,100,1,0
56839,487.80487804878,4,1,0,100,1,0
57140,6.07533414337789,4,1,0,100,1,0
57180,487.80487804878,4,1,0,100,1,0
57481,340.909090909091,4,1,0,100,1,0
57481,-100,4,1,0,100,0,1
67196,272.727272727273,4,1,0,100,1,1
67282,454.545454545455,4,1,0,100,1,1
67367,272.727272727273,4,1,0,100,1,1
67452,454.545454545455,4,1,0,100,1,1
67537,272.727272727273,4,1,0,100,1,1
67623,454.545454545455,4,1,0,100,1,1
67708,340.909090909091,4,1,0,100,1,1
68389,340.909090909091,4,1,0,100,1,1
79299,-100,4,1,0,100,0,0
90208,-100,4,1,0,100,0,1
106572,-100,4,1,0,100,0,0
143389,227.272727272727,4,1,0,100,1,0
143474,681.818181818182,4,1,0,100,1,0
143559,227.272727272727,4,1,0,100,1,0
143644,681.818181818182,4,1,0,100,1,0
143729,340.909090909091,4,1,0,100,1,0
144751,681.818181818182,4,1,0,100,1,0
149864,1363.63636363636,4,1,0,100,1,0
150206,454.545454545455,4,1,0,100,1,0
153956,340.909090909091,4,1,0,100,1,0
154297,340.909090909091,4,1,0,100,1,0
155662,-100,4,1,0,100,0,1
165037,-100,4,1,0,100,0,0
166572,-100,4,1,0,100,0,1
174753,-100,4,1,0,100,0,0
177308,454.545454545455,4,1,0,100,1,0
177649,340.909090909091,4,1,0,100,1,0
178842,340.909090909091,4,1,0,100,1,0
180035,454.545454545455,4,1,0,100,1,0
180376,340.909090909091,4,1,0,100,1,0
181569,340.909090909091,4,1,0,100,1,0
182762,454.545454545455,4,1,0,100,1,0
183103,340.909090909091,4,1,0,100,1,0
185489,681.818181818182,4,1,0,100,1,0
186682,340.909090909091,4,1,0,100,1,0

[HitObjects]
64,192,2594,5,0,0:0:0:0:
448,192,2594,1,0,0:0:0:0:
448,192,2850,1,0,0:0:0:0:
320,192,2893,1,0,0:0:0:0:
64,192,2935,128,0,3447:0:0:0:0:
192,192,2935,1,0,0:0:0:0:
192,192,3447,1,0,0:0:0:0:
448,192,3447,128,0,3958:0:0:0:0:
64,192,3958,1,0,0:0:0:0:
320,192,3958,128,0,4128:0:0:0:0:
448,192,4128,1,0,0:0:0:0:
192,192,4128,128,0,4469:0:0:0:0:
448,192,4469,1,0,0:0:0:0:
64,192,4469,128,0,4810:0:0:0:0:
192,192,4640,1,0,0:0:0:0:
320,192,4640,1,0,0:0:0:0:
320,192,4981,1,0,0:0:0:0:
448,192,4981,1,0,0:0:0:0:
192,192,4981,128,0,5151:0:0:0:0:
64,192,5322,1,0,0:0:0:0:
448,192,5322,1,0,0:0:0:0:
320,192,5322,128,0,5492:0:0:0:0:
64,192,5577,1,0,0:0:0:0:
192,192,5620,1,0,0:0:0:0:
320,192,5662,1,0,0:0:0:0:
448,192,5662,128,0,6174:0:0:0:0:
320,192,6174,128,0,6685:0:0:0:0:
64,192,6174,1,0,0:0:0:0:
192,192,6685,128,0,6856:0:0:0:0:
448,192,6685,1,0,0:0:0:0:
64,192,6856,128,0,7197:0:0:0:0:
320,192,6856,1,0,0:0:0:0:
448,192,7197,128,0,7708:0:0:0:0:
192,192,7197,1,0,0:0:0:0:
320,192,7367,1,0,0:0:0:0:
64,192,7367,1,0,0:0:0:0:
64,192,7708,128,0,8049:0:0:0:0:
192,192,7708,1,0,0:0:0:0:
320,192,7708,1,0,0:0:0:0:
320,192,7878,1,0,0:0:0:0:
448,192,7878,1,0,0:0:0:0:
320,192,8049,128,0,8390:0:0:0:0:
192,192,8049,1,0,0:0:0:0:
448,192,8049,1,0,0:0:0:0:
64,192,8390,128,0,8901:0:0:0:0:
192,192,8390,1,0,0:0:0:0:
448,192,8390,1,0,0:0:0:0:
448,192,8901,128,0,9412:0:0:0:0:
320,192,8901,1,0,0:0:0:0:
64,192,9412,128,0,9583:0:0:0:0:
192,192,9412,1,0,0:0:0:0:
320,192,9583,128,0,10094:0:0:0:0:
448,192,9583,1,0,0:0:0:0:
64,192,9753,1,0,0:0:0:0:
192,192,9753,1,0,0:0:0:0:
448,192,9753,1,0,0:0:0:0:
192,192,10094,128,0,10435:0:0:0:0:
448,192,10094,1,0,0:0:0:0:
448,192,10435,128,0,10776:0:0:0:0:
320,192,10435,1,0,0:0:0:0:
64,192,10776,128,0,11117:0:0:0:0:
192,192,10776,1,0,0:0:0:0:
192,192,11117,1,0,0:0:0:0:
448,192,11117,1,0,0:0:0:0:
320,192,11117,128,0,11287:0:0:0:0:
64,192,11287,1,0,0:0:0:0:
320,192,11458,128,0,11628:0:0:0:0:
192,192,11458,1,0,0:0:0:0:
448,192,11458,1,0,0:0:0:0:
64,192,11628,1,0,0:0:0:0:
320,192,11799,128,0,11969:0:0:0:0:
192,192,11799,1,0,0:0:0:0:
448,192,11799,1,0,0:0:0:0:
64,192,11969,1,0,0:0:0:0:
448,192,12140,128,0,12310:0:0:0:0:
192,192,12140,1,0,0:0:0:0:
320,192,12140,1,0,0:0:0:0:
192,192,12310,1,0,0:0:0:0:
320,192,12310,1,0,0:0:0:0:
64,192,12310,128,0,12481:0:0:0:0:
448,192,12651,1,0,0:0:0:0:
64,192,12651,1,0,0:0:0:0:
320,192,12694,1,0,0:0:0:0:
192,192,12736,1,0,0:0:0:0:
64,192,12779,1,0,0:0:0:0:
448,192,12822,128,0,13162:0:0:0:0:
320,192,12822,1,0,0:0:0:0:
192,192,12822,1,0,0:0:0:0:
320,192,12992,1,0,0:0:0:0:
192,192,13162,1,0,0:0:0:0:
64,192,13162,1,0,0:0:0:0:
192,192,13333,1,0,0:0:0:0:
320,192,13333,1,0,0:0:0:0:
320,192,13503,1,0,0:0:0:0:
448,192,13503,1,0,0:0:0:0:
64,192,13589,1,0,0:0:0:0:
192,192,13589,1,0,0:0:0:0:
320,192,13674,1,0,0:0:0:0:
448,192,13674,1,0,0:0:0:0:
64,192,13844,128,0,15208:0:0:0:0:
448,192,14356,128,0,14526:0:0:0:0:
448,192,14867,128,0,15037:0:0:0:0:
320,192,15037,128,0,15208:0:0:0:0:
192,192,15378,128,0,15890:0:0:0:0:
448,192,15890,128,0,16231:0:0:0:0:
320,192,16231,128,0,16572:0:0:0:0:
64,192,16572,128,0,17765:0:0:0:0:
448,192,17083,128,0,17253:0:0:0:0:
448,192,17594,128,0,17765:0:0:0:0:
192,192,17765,128,0,18276:0:0:0:0:
448,192,18276,128,0,18617:0:0:0:0:
64,192,18617,128,0,18958:0:0:0:0:
192,192,18958,128,0,19128:0:0:0:0:
448,192,19128,128,0,19469:0:0:0:0:
64,192,19469,128,0,19640:0:0:0:0:
320,192,19640,128,0,20151:0:0:0:0:
64,192,20322,128,0,20662:0:0:0:0:
448,192,20662,128,0,21344:0:0:0:0:
320,192,21344,128,0,21515:0:0:0:0:
64,192,21515,128,0,21856:0:0:0:0:
320,192,21856,128,0,22197:0:0:0:0:
448,192,22197,128,0,22367:0:0:0:0:
192,192,22367,128,0,22708:0:0:0:0:
320,192,22708,128,0,22878:0:0:0:0:
64,192,22878,128,0,23219:0:0:0:0:
320,192,23219,128,0,23390:0:0:0:0:
320,192,23560,128,0,23731:0:0:0:0:
192,192,23901,128,0,24072:0:0:0:0:
192,192,24242,128,0,24412:0:0:0:0:
