osu file format v14

[General]
AudioFilename: audio.mp3
AudioLeadIn: 0
PreviewTime: 56799
Countdown: 0
SampleSet: Normal
StackLeniency: 0.7
Mode: 3
LetterboxInBreaks: 0
SpecialStyle: 0
WidescreenStoryboard: 0

[Editor]
DistanceSpacing: 0.9
BeatDivisor: 4
GridSize: 4
TimelineZoom: 3.299999

[Metadata]
Title:Yume Chizu
TitleUnicode:夢地図
Artist:yuikonnu
ArtistUnicode:ゆいこんぬ
Creator:moni
Version:Lovely
Source:
Tags:utaite cover 40mp vocaloid
BeatmapID:928228
BeatmapSetID:430268

[Difficulty]
HPDrainRate:6
CircleSize:7
OverallDifficulty:0
ApproachRate:5
SliderMultiplier:1.4
SliderTickRate:1

[Events]
//Background and Video events
0,0,"xd.jpg",0,0
//Break Periods
//Storyboard Layer 0 (Background)
//Storyboard Layer 1 (Fail)
//Storyboard Layer 2 (Pass)
//Storyboard Layer 3 (Foreground)
//Storyboard Sound Samples

[TimingPoints]
1572,340.909090909091,4,1,0,0,1,0
56543,6.07533414337789,4,1,0,0,1,0
56583,487.80487804878,4,1,0,0,1,0
56799,6.07533414337789,4,1,0,0,1,0
56839,487.80487804878,4,1,0,0,1,0
57140,6.07533414337789,4,1,0,0,1,0
57180,487.80487804878,4,1,0,0,1,0
57481,340.909090909091,4,1,0,0,1,0
57481,-100,4,1,0,0,0,1
67196,272.727272727273,4,1,0,0,1,1
67282,454.545454545455,4,1,0,0,1,1
67367,272.727272727273,4,1,0,0,1,1
67452,454.545454545455,4,1,0,0,1,1
67537,272.727272727273,4,1,0,0,1,1
67623,454.545454545455,4,1,0,0,1,1
67708,272.727272727273,4,1,0,0,1,1
67793,454.545454545455,4,1,0,0,1,1
67878,272.727272727273,4,1,0,0,1,1
67963,454.545454545455,4,1,0,0,1,1
68048,340.909090909091,4,1,0,0,1,1
68389,340.909090909091,4,1,0,0,1,1
79299,-100,4,1,0,0,0,0
90208,-100,4,1,0,0,0,1
106572,-100,4,1,0,0,0,0
143389,227.272727272727,4,1,0,0,1,0
143474,681.818181818182,4,1,0,0,1,0
143559,227.272727272727,4,1,0,0,1,0
143644,681.818181818182,4,1,0,0,1,0
143729,340.909090909091,4,1,0,0,1,0
144751,681.818181818182,4,1,0,0,1,0
149864,1363.63636363636,4,1,0,0,1,0
150206,454.545454545455,4,1,0,0,1,0
153956,340.909090909091,4,1,0,0,1,0
154297,340.909090909091,4,1,0,0,1,0
155662,-100,4,1,0,0,0,1
165037,-100,4,1,0,0,0,0
166572,-100,4,1,0,0,0,1
174753,-100,4,1,0,0,0,0
177308,454.545454545455,4,1,0,0,1,0
177649,340.909090909091,4,1,0,0,1,0
178842,340.909090909091,4,1,0,0,1,0
180035,454.545454545455,4,1,0,0,1,0
180376,340.909090909091,4,1,0,0,1,0
181569,340.909090909091,4,1,0,0,1,0
182762,454.545454545455,4,1,0,0,1,0
183103,340.909090909091,4,1,0,0,1,0
185489,681.818181818182,4,1,0,0,1,0
186682,340.909090909091,4,1,0,0,1,0

[HitObjects]
182,192,2594,5,0,0:0:0:0:
329,192,2594,1,0,0:0:0:0:
402,192,2850,1,0,0:0:0:0:
256,192,2893,1,0,0:0:0:0:
109,192,2935,128,0,3447:0:0:0:0:
256,192,3447,1,0,0:0:0:0:
402,192,3447,128,0,3958:0:0:0:0:
182,192,3958,128,0,4128:0:0:0:0:
329,192,3958,1,0,0:0:0:0:
36,192,4128,128,0,4469:0:0:0:0:
475,192,4128,1,0,0:0:0:0:
256,192,4469,1,0,0:0:0:0:
475,192,4469,128,0,4810:0:0:0:0:
402,192,4469,1,0,0:0:0:0:
36,192,4640,1,0,0:0:0:0:
182,192,4640,1,0,0:0:0:0:
329,192,4640,1,0,0:0:0:0:
36,192,4981,128,0,5322:0:0:0:0:
109,192,4981,1,0,0:0:0:0:
182,192,4981,1,0,0:0:0:0:
329,192,4981,1,0,0:0:0:0:
475,192,4981,1,0,0:0:0:0:
475,192,5322,128,0,5662:0:0:0:0:
402,192,5322,1,0,0:0:0:0:
256,192,5322,1,0,0:0:0:0:
109,192,5322,1,0,0:0:0:0:
402,192,5577,1,0,0:0:0:0:
329,192,5620,1,0,0:0:0:0:
36,192,5662,1,0,0:0:0:0:
182,192,5662,1,0,0:0:0:0:
109,192,5662,1,0,0:0:0:0:
256,192,5662,128,0,6174:0:0:0:0:
109,192,6174,1,0,0:0:0:0:
402,192,6174,128,0,6685:0:0:0:0:
256,192,6685,128,0,6856:0:0:0:0:
109,192,6685,1,0,0:0:0:0:
109,192,6856,128,0,7197:0:0:0:0:
402,192,6856,1,0,0:0:0:0:
475,192,7197,128,0,7708:0:0:0:0:
402,192,7197,1,0,0:0:0:0:
256,192,7197,1,0,0:0:0:0:
329,192,7367,1,0,0:0:0:0:
182,192,7367,1,0,0:0:0:0:
36,192,7367,1,0,0:0:0:0:
329,192,7708,128,0,8049:0:0:0:0:
402,192,7708,1,0,0:0:0:0:
36,192,7708,1,0,0:0:0:0:
182,192,7708,1,0,0:0:0:0:
36,192,7878,1,0,0:0:0:0:
402,192,7878,1,0,0:0:0:0:
182,192,7878,1,0,0:0:0:0:
182,192,8049,128,0,8390:0:0:0:0:
475,192,8049,1,0,0:0:0:0:
256,192,8049,1,0,0:0:0:0:
36,192,8390,128,0,8901:0:0:0:0:
256,192,8390,1,0,0:0:0:0:
109,192,8390,1,0,0:0:0:0:
329,192,8390,1,0,0:0:0:0:
475,192,8390,1,0,0:0:0:0:
256,192,8901,128,0,9412:0:0:0:0:
402,192,8901,1,0,0:0:0:0:
475,192,9412,128,0,9583:0:0:0:0:
329,192,9412,1,0,0:0:0:0:
109,192,9583,128,0,10094:0:0:0:0:
256,192,9583,1,0,0:0:0:0:
182,192,9753,1,0,0:0:0:0:
36,192,9753,1,0,0:0:0:0:
329,192,9753,1,0,0:0:0:0:
475,192,9753,1,0,0:0:0:0:
475,192,10094,1,0,0:0:0:0:
329,192,10094,128,0,10435:0:0:0:0:
182,192,10435,128,0,10776:0:0:0:0:
36,192,10435,1,0,0:0:0:0:
329,192,10776,128,0,11117:0:0:0:0:
256,192,10776,1,0,0:0:0:0:
256,192,11117,128,0,11458:0:0:0:0:
109,192,11117,1,0,0:0:0:0:
402,192,11117,1,0,0:0:0:0:
182,192,11117,1,0,0:0:0:0:
36,192,11287,1,0,0:0:0:0:
475,192,11287,1,0,0:0:0:0:
475,192,11458,128,0,11799:0:0:0:0:
329,192,11458,1,0,0:0:0:0:
182,192,11458,1,0,0:0:0:0:
402,192,11628,1,0,0:0:0:0:
109,192,11628,1,0,0:0:0:0:
36,192,11799,128,0,12140:0:0:0:0:
329,192,11799,1,0,0:0:0:0:
182,192,11799,1,0,0:0:0:0:
256,192,11799,1,0,0:0:0:0:
402,192,11969,1,0,0:0:0:0:
109,192,11969,1,0,0:0:0:0:
402,192,12140,128,0,12310:0:0:0:0:
329,192,12140,1,0,0:0:0:0:
182,192,12140,1,0,0:0:0:0:
256,192,12140,1,0,0:0:0:0:
182,192,12310,1,0,0:0:0:0:
36,192,12310,1,0,0:0:0:0:
475,192,12310,1,0,0:0:0:0:
329,192,12310,1,0,0:0:0:0:
109,192,12310,128,0,12651:0:0:0:0:
402,192,12651,1,0,0:0:0:0:
36,192,12651,1,0,0:0:0:0:
182,192,12651,1,0,0:0:0:0:
475,192,12651,1,0,0:0:0:0:
329,192,12694,1,0,0:0:0:0:
256,192,12736,1,0,0:0:0:0:
182,192,12779,1,0,0:0:0:0:
36,192,12822,128,0,13162:0:0:0:0:
475,192,12822,128,0,13162:0:0:0:0:
402,192,12822,1,0,0:0:0:0:
109,192,12822,1,0,0:0:0:0:
182,192,12992,1,0,0:0:0:0:
329,192,12992,1,0,0:0:0:0:
109,192,13162,1,0,0:0:0:0:
256,192,13162,1,0,0:0:0:0:
402,192,13162,1,0,0:0:0:0:
182,192,13333,1,0,0:0:0:0:
329,192,13333,1,0,0:0:0:0:
475,192,13333,1,0,0:0:0:0:
182,192,13503,1,0,0:0:0:0:
329,192,13503,1,0,0:0:0:0:
475,192,13503,1,0,0:0:0:0:
402,192,13589,1,0,0:0:0:0:
256,192,13589,1,0,0:0:0:0:
109,192,13589,1,0,0:0:0:0:
329,192,13674,1,0,0:0:0:0:
182,192,13674,1,0,0:0:0:0:
36,192,13674,1,0,0:0:0:0:
109,192,13844,1,0,0:0:0:0:
256,192,13844,1,0,0:0:0:0:
402,192,13844,1,0,0:0:0:0:
475,192,13844,128,0,15208:0:0:0:0:
329,192,14015,1,0,0:0:0:0:
182,192,14015,1,0,0:0:0:0:
256,192,14185,1,0,0:0:0:0:
402,192,14185,1,0,0:0:0:0:
109,192,14185,1,0,0:0:0:0:
36,192,14185,1,0,0:0:0:0:
329,192,14356,1,0,0:0:0:0:
36,192,14356,128,0,14697:0:0:0:0:
182,192,14356,1,0,0:0:0:0:
402,192,14526,1,0,0:0:0:0:
109,192,14526,1,0,0:0:0:0:
256,192,14526,1,0,0:0:0:0:
182,192,14697,1,0,0:0:0:0:
329,192,14697,1,0,0:0:0:0:
109,192,14867,128,0,15037:0:0:0:0:
36,192,14867,1,0,0:0:0:0:
182,192,14867,1,0,0:0:0:0:
402,192,14867,1,0,0:0:0:0:
329,192,14867,1,0,0:0:0:0:
256,192,15037,128,0,15208:0:0:0:0:
402,192,15037,1,0,0:0:0:0:
329,192,15208,1,0,0:0:0:0:
182,192,15208,1,0,0:0:0:0:
402,192,15378,128,0,15890:0:0:0:0:
256,192,15378,1,0,0:0:0:0:
109,192,15378,1,0,0:0:0:0:
182,192,15549,1,0,0:0:0:0:
36,192,15549,1,0,0:0:0:0:
329,192,15549,1,0,0:0:0:0:
475,192,15549,1,0,0:0:0:0:
256,192,15719,1,0,0:0:0:0:
109,192,15719,1,0,0:0:0:0:
109,192,15890,128,0,16231:0:0:0:0:
329,192,15890,1,0,0:0:0:0:
475,192,15890,1,0,0:0:0:0:
182,192,15890,1,0,0:0:0:0:
256,192,16060,1,0,0:0:0:0:
402,192,16060,1,0,0:0:0:0:
329,192,16231,128,0,16572:0:0:0:0:
256,192,16231,1,0,0:0:0:0:
36,192,16231,1,0,0:0:0:0:
475,192,16231,1,0,0:0:0:0:
402,192,16231,1,0,0:0:0:0:
182,192,16401,1,0,0:0:0:0:
36,192,16401,1,0,0:0:0:0:
402,192,16572,1,0,0:0:0:0:
256,192,16572,1,0,0:0:0:0:
109,192,16572,1,0,0:0:0:0:
36,192,16572,128,0,17765:0:0:0:0:
475,192,16572,1,0,0:0:0:0:
182,192,16742,1,0,0:0:0:0:
329,192,16742,1,0,0:0:0:0:
402,192,16912,1,0,0:0:0:0:
256,192,16912,1,0,0:0:0:0:
109,192,16912,1,0,0:0:0:0:
475,192,16912,1,0,0:0:0:0:
475,192,17083,128,0,17424:0:0:0:0:
182,192,17083,1,0,0:0:0:0:
329,192,17083,1,0,0:0:0:0:
402,192,17253,1,0,0:0:0:0:
256,192,17253,1,0,0:0:0:0:
109,192,17253,1,0,0:0:0:0:
329,192,17424,1,0,0:0:0:0:
182,192,17424,1,0,0:0:0:0:
402,192,17594,128,0,17765:0:0:0:0:
256,192,17594,1,0,0:0:0:0:
109,192,17594,1,0,0:0:0:0:
475,192,17594,1,0,0:0:0:0:
256,192,17765,128,0,18276:0:0:0:0:
182,192,17765,1,0,0:0:0:0:
109,192,17935,1,0,0:0:0:0:
329,192,17935,1,0,0:0:0:0:
182,192,18106,1,0,0:0:0:0:
402,192,18106,1,0,0:0:0:0:
109,192,18276,128,0,18617:0:0:0:0:
182,192,18276,1,0,0:0:0:0:
36,192,18276,1,0,0:0:0:0:
475,192,18276,1,0,0:0:0:0:
329,192,18276,1,0,0:0:0:0:
256,192,18447,1,0,0:0:0:0:
402,192,18447,1,0,0:0:0:0:
402,192,18617,128,0,18958:0:0:0:0:
182,192,18617,1,0,0:0:0:0:
329,192,18617,1,0,0:0:0:0:
109,192,18787,1,0,0:0:0:0:
256,192,18787,1,0,0:0:0:0:
182,192,18958,128,0,19128:0:0:0:0:
475,192,18958,1,0,0:0:0:0:
329,192,18958,1,0,0:0:0:0:
36,192,18958,1,0,0:0:0:0:
329,192,19128,128,0,19469:0:0:0:0:
402,192,19128,1,0,0:0:0:0:
256,192,19128,1,0,0:0:0:0:
182,192,19299,1,0,0:0:0:0:
36,192,19299,1,0,0:0:0:0:
109,192,19469,128,0,19640:0:0:0:0:
402,192,19469,1,0,0:0:0:0:
256,192,19469,1,0,0:0:0:0:
402,192,19640,128,0,20151:0:0:0:0:
475,192,19640,1,0,0:0:0:0:
36,192,19640,1,0,0:0:0:0:
182,192,19640,1,0,0:0:0:0:
329,192,19640,1,0,0:0:0:0:
109,192,19810,1,0,0:0:0:0:
256,192,19810,1,0,0:0:0:0:
109,192,19981,1,0,0:0:0:0:
256,192,19981,1,0,0:0:0:0:
329,192,20151,1,0,0:0:0:0:
182,192,20151,1,0,0:0:0:0:
109,192,20322,128,0,20662:0:0:0:0:
182,192,20322,1,0,0:0:0:0:
36,192,20322,1,0,0:0:0:0:
329,192,20322,1,0,0:0:0:0:
475,192,20322,1,0,0:0:0:0:
402,192,20492,1,0,0:0:0:0:
256,192,20492,1,0,0:0:0:0:
256,192,20662,128,0,21344:0:0:0:0:
182,192,20662,1,0,0:0:0:0:
475,192,20662,1,0,0:0:0:0:
36,192,20662,1,0,0:0:0:0:
402,192,20662,1,0,0:0:0:0:
329,192,20833,1,0,0:0:0:0:
109,192,20833,1,0,0:0:0:0:
182,192,21003,1,0,0:0:0:0:
36,192,21003,1,0,0:0:0:0:
402,192,21003,1,0,0:0:0:0:
475,192,21003,1,0,0:0:0:0:
109,192,21174,1,0,0:0:0:0:
402,192,21174,1,0,0:0:0:0:
402,192,21344,128,0,21515:0:0:0:0:
329,192,21344,1,0,0:0:0:0:
36,192,21344,1,0,0:0:0:0:
182,192,21344,1,0,0:0:0:0:
109,192,21515,128,0,21856:0:0:0:0:
475,192,21515,1,0,0:0:0:0:
329,192,21515,1,0,0:0:0:0:
36,192,21685,1,0,0:0:0:0:
402,192,21685,1,0,0:0:0:0:
256,192,21685,1,0,0:0:0:0:
402,192,21856,128,0,22197:0:0:0:0:
256,192,21856,1,0,0:0:0:0:
36,192,22026,1,0,0:0:0:0:
182,192,22026,1,0,0:0:0:0:
109,192,22197,128,0,22367:0:0:0:0:
329,192,22197,1,0,0:0:0:0:
475,192,22197,1,0,0:0:0:0:
329,192,22367,128,0,22708:0:0:0:0:
182,192,22367,1,0,0:0:0:0:
36,192,22367,1,0,0:0:0:0:
475,192,22367,1,0,0:0:0:0:
256,192,22367,1,0,0:0:0:0:
109,192,22537,1,0,0:0:0:0:
402,192,22537,1,0,0:0:0:0:
36,192,22708,128,0,22878:0:0:0:0:
475,192,22708,1,0,0:0:0:0:
256,192,22708,1,0,0:0:0:0:
256,192,22878,128,0,23219:0:0:0:0:
402,192,22878,1,0,0:0:0:0:
109,192,22878,1,0,0:0:0:0:
182,192,23049,1,0,0:0:0:0:
36,192,23049,1,0,0:0:0:0:
475,192,23049,1,0,0:0:0:0:
329,192,23049,1,0,0:0:0:0:
402,192,23219,128,0,23390:0:0:0:0:
182,192,23219,1,0,0:0:0:0:
329,192,23219,1,0,0:0:0:0:
256,192,23390,1,0,0:0:0:0:
109,192,23390,1,0,0:0:0:0:
182,192,23560,1,0,0:0:0:0:
36,192,23560,1,0,0:0:0:0:
402,192,23560,128,0,23731:0:0:0:0:
329,192,23560,1,0,0:0:0:0:
109,192,23731,1,0,0:0:0:0:
256,192,23731,1,0,0:0:0:0:
475,192,23731,1,0,0:0:0:0:
182,192,23901,1,0,0:0:0:0:
329,192,23901,1,0,0:0:0:0:
109,192,23901,128,0,24072:0:0:0:0:
256,192,24072,1,0,0:0:0:0:
402,192,24072,1,0,0:0:0:0:
36,192,24072,1,0,0:0:0:0:
109,192,24242,128,0,24412:0:0:0:0:
329,192,24242,1,0,0:0:0:0:
475,192,24242,1,0,0:0:0:0:
182,192,24242,1,0,0:0:0:0:
402,192,24412,1,0,0:0:0:0:
256,192,24412,1,0,0:0:0:0:
36,192,24412,1,0,0:0:0:0:
182,192,24498,1,0,0:0:0:0:
329,192,24498,1,0,0:0:0:0:
256,192,24583,1,0,0:0:0:0:
109,192,24583,1,0,0:0:0:0:
475,192,24583,1,0,0:0:0:0:
36,192,24753,128,0,26287:0:0:0:0:
182,192,24753,1,0,0:0:0:0:
402,192,24753,1,0,0:0:0:0:
256,192,24924,1,0,0:0:0:0:
329,192,25094,128,0,25265:0:0:0:0:
402,192,25094,1,0,0:0:0:0:
109,192,25094,1,0,0:0:0:0:
475,192,25265,128,0,25435:0:0:0:0:
182,192,25265,1,0,0:0:0:0:
256,192,25435,128,0,25606:0:0:0:0:
109,192,25435,1,0,0:0:0:0:
329,192,25435,1,0,0:0:0:0:
402,192,25606,128,0,25776:0:0:0:0:
475,192,25606,1,0,0:0:0:0:
182,192,25776,128,0,25947:0:0:0:0:
109,192,25776,1,0,0:0:0:0:
329,192,25776,1,0,0:0:0:0:
329,192,25947,128,0,26287:0:0:0:0:
402,192,25947,1,0,0:0:0:0:
256,192,26117,1,0,0:0:0:0:
475,192,26117,1,0,0:0:0:0:
182,192,26287,128,0,26628:0:0:0:0:
402,192,26287,1,0,0:0:0:0:
256,192,26458,1,0,0:0:0:0:
475,192,26458,1,0,0:0:0:0:
329,192,26628,128,0,26969:0:0:0:0:
475,192,26628,128,0,26969:0:0:0:0:
109,192,26628,1,0,0:0:0:0:
182,192,26799,1,0,0:0:0:0:
36,192,26799,1,0,0:0:0:0:
256,192,26969,128,0,27310:0:0:0:0:
402,192,26969,128,0,27310:0:0:0:0:
109,192,26969,1,0,0:0:0:0:
36,192,27140,1,0,0:0:0:0:
182,192,27140,1,0,0:0:0:0:
109,192,27310,1,0,0:0:0:0:
329,192,27310,1,0,0:0:0:0:
475,192,27310,1,0,0:0:0:0:
109,192,27481,128,0,27651:0:0:0:0:
256,192,27481,1,0,0:0:0:0:
402,192,27481,1,0,0:0:0:0:
256,192,27651,128,0,27822:0:0:0:0:
182,192,27651,1,0,0:0:0:0:
402,192,27822,128,0,28162:0:0:0:0:
329,192,27822,1,0,0:0:0:0:
475,192,27822,1,0,0:0:0:0:
182,192,27992,1,0,0:0:0:0:
36,192,28162,128,0,28333:0:0:0:0:
109,192,28162,1,0,0:0:0:0:
256,192,28162,1,0,0:0:0:0:
182,192,28333,128,0,28503:0:0:0:0:
402,192,28333,1,0,0:0:0:0:
329,192,28503,128,0,28674:0:0:0:0:
109,192,28503,1,0,0:0:0:0:
256,192,28503,1,0,0:0:0:0:
475,192,28674,128,0,29015:0:0:0:0:
36,192,28674,1,0,0:0:0:0:
182,192,28844,1,0,0:0:0:0:
329,192,28844,1,0,0:0:0:0:
256,192,29015,128,0,29867:0:0:0:0:
109,192,29015,1,0,0:0:0:0:
182,192,29185,1,0,0:0:0:0:
329,192,29185,1,0,0:0:0:0:
402,192,29356,128,0,29526:0:0:0:0:
109,192,29356,1,0,0:0:0:0:
36,192,29526,1,0,0:0:0:0:
475,192,29526,1,0,0:0:0:0:
109,192,29697,128,0,29867:0:0:0:0:
402,192,29697,1,0,0:0:0:0:
182,192,29867,1,0,0:0:0:0:
329,192,29867,1,0,0:0:0:0:
256,192,30037,1,0,0:0:0:0:
109,192,30037,1,0,0:0:0:0:
402,192,30037,1,0,0:0:0:0:
36,192,30208,128,0,31572:0:0:0:0:
182,192,30208,1,0,0:0:0:0:
475,192,30208,1,0,0:0:0:0:
256,192,30378,1,0,0:0:0:0:
329,192,30549,128,0,30719:0:0:0:0:
109,192,30549,1,0,0:0:0:0:
402,192,30549,1,0,0:0:0:0:
475,192,30719,128,0,30890:0:0:0:0:
182,192,30719,1,0,0:0:0:0:
256,192,30890,128,0,31060:0:0:0:0:
329,192,30890,1,0,0:0:0:0:
109,192,30890,1,0,0:0:0:0:
402,192,31060,128,0,31231:0:0:0:0:
182,192,31060,1,0,0:0:0:0:
182,192,31231,128,0,31401:0:0:0:0:
329,192,31231,1,0,0:0:0:0:
475,192,31231,1,0,0:0:0:0:
329,192,31401,128,0,31572:0:0:0:0:
256,192,31401,1,0,0:0:0:0:
475,192,31572,128,0,32935:0:0:0:0:
182,192,31572,1,0,0:0:0:0:
402,192,31572,1,0,0:0:0:0:
109,192,31742,128,0,31912:0:0:0:0:
256,192,31742,1,0,0:0:0:0:
329,192,31912,1,0,0:0:0:0:
182,192,31912,1,0,0:0:0:0:
182,192,32083,128,0,32253:0:0:0:0:
402,192,32083,1,0,0:0:0:0:
256,192,32083,1,0,0:0:0:0:
36,192,32083,1,0,0:0:0:0:
329,192,32253,1,0,0:0:0:0:
109,192,32253,1,0,0:0:0:0:
256,192,32424,128,0,32594:0:0:0:0:
402,192,32424,1,0,0:0:0:0:
182,192,32424,1,0,0:0:0:0:
36,192,32424,1,0,0:0:0:0:
329,192,32594,1,0,0:0:0:0:
109,192,32594,1,0,0:0:0:0:
329,192,32765,128,0,32935:0:0:0:0:
182,192,32765,1,0,0:0:0:0:
36,192,32765,1,0,0:0:0:0:
402,192,32765,1,0,0:0:0:0:
36,192,32935,128,0,33276:0:0:0:0:
109,192,32935,1,0,0:0:0:0:
256,192,32935,1,0,0:0:0:0:
329,192,33106,1,0,0:0:0:0:
475,192,33106,1,0,0:0:0:0:
402,192,33276,1,0,0:0:0:0:
256,192,33276,1,0,0:0:0:0:
109,192,33276,1,0,0:0:0:0:
475,192,33447,1,0,0:0:0:0:
329,192,33447,1,0,0:0:0:0:
109,192,33447,128,0,33617:0:0:0:0:
402,192,33617,1,0,0:0:0:0:
182,192,33617,1,0,0:0:0:0:
36,192,33617,1,0,0:0:0:0:
182,192,33787,128,0,33958:0:0:0:0:
329,192,33787,1,0,0:0:0:0:
475,192,33787,1,0,0:0:0:0:
256,192,33958,1,0,0:0:0:0:
36,192,33958,1,0,0:0:0:0:
402,192,33958,1,0,0:0:0:0:
256,192,34128,128,0,34299:0:0:0:0:
109,192,34128,1,0,0:0:0:0:
329,192,34128,1,0,0:0:0:0:
182,192,34299,1,0,0:0:0:0:
475,192,34299,1,0,0:0:0:0:
36,192,34299,1,0,0:0:0:0:
329,192,34469,128,0,34640:0:0:0:0:
402,192,34469,1,0,0:0:0:0:
109,192,34469,1,0,0:0:0:0:
36,192,34640,1,0,0:0:0:0:
475,192,34640,1,0,0:0:0:0:
182,192,34640,1,0,0:0:0:0:
402,192,34810,128,0,34981:0:0:0:0:
109,192,34810,1,0,0:0:0:0:
256,192,34810,1,0,0:0:0:0:
329,192,34981,1,0,0:0:0:0:
182,192,34981,1,0,0:0:0:0:
36,192,34981,1,0,0:0:0:0:
475,192,35151,128,0,35662:0:0:0:0:
402,192,35151,1,0,0:0:0:0:
256,192,35151,1,0,0:0:0:0:
329,192,35322,1,0,0:0:0:0:
36,192,35322,1,0,0:0:0:0:
182,192,35322,1,0,0:0:0:0:
256,192,35492,1,0,0:0:0:0:
109,192,35662,128,0,35833:0:0:0:0:
182,192,35662,1,0,0:0:0:0:
36,192,35662,1,0,0:0:0:0:
402,192,35662,1,0,0:0:0:0:
329,192,35662,1,0,0:0:0:0:
256,192,35833,1,0,0:0:0:0:
402,192,35833,1,0,0:0:0:0:
329,192,36003,1,0,0:0:0:0:
475,192,36003,1,0,0:0:0:0:
182,192,36003,1,0,0:0:0:0:
256,192,36174,128,0,36344:0:0:0:0:
402,192,36174,1,0,0:0:0:0:
109,192,36174,1,0,0:0:0:0:
182,192,36344,1,0,0:0:0:0:
36,192,36344,1,0,0:0:0:0:
475,192,36344,1,0,0:0:0:0:
256,192,36515,1,0,0:0:0:0:
402,192,36515,1,0,0:0:0:0:
329,192,36685,1,0,0:0:0:0:
36,192,36685,1,0,0:0:0:0:
182,192,36685,1,0,0:0:0:0:
256,192,36856,1,0,0:0:0:0:
109,192,36856,1,0,0:0:0:0:
402,192,36856,128,0,37026:0:0:0:0:
475,192,37026,1,0,0:0:0:0:
182,192,37026,1,0,0:0:0:0:
329,192,37026,1,0,0:0:0:0:
109,192,37197,1,0,0:0:0:0:
256,192,37197,1,0,0:0:0:0:
475,192,37367,1,0,0:0:0:0:
36,192,37367,1,0,0:0:0:0:
329,192,37367,1,0,0:0:0:0:
182,192,37537,128,0,37708:0:0:0:0:
402,192,37537,1,0,0:0:0:0:
256,192,37537,1,0,0:0:0:0:
109,192,37708,1,0,0:0:0:0:
36,192,37708,1,0,0:0:0:0:
329,192,37708,1,0,0:0:0:0:
329,192,37878,128,0,38049:0:0:0:0:
475,192,37878,1,0,0:0:0:0:
256,192,37878,1,0,0:0:0:0:
36,192,38049,1,0,0:0:0:0:
402,192,38049,1,0,0:0:0:0:
182,192,38049,1,0,0:0:0:0:
256,192,38219,1,0,0:0:0:0:
109,192,38219,1,0,0:0:0:0:
402,192,38219,128,0,38390:0:0:0:0:
36,192,38390,128,0,38560:0:0:0:0:
475,192,38390,1,0,0:0:0:0:
182,192,38390,1,0,0:0:0:0:
329,192,38390,1,0,0:0:0:0:
402,192,38560,1,0,0:0:0:0:
256,192,38560,1,0,0:0:0:0:
109,192,38731,1,0,0:0:0:0:
329,192,38731,1,0,0:0:0:0:
475,192,38731,1,0,0:0:0:0:
182,192,38901,128,0,39072:0:0:0:0:
402,192,38901,1,0,0:0:0:0:
256,192,38901,1,0,0:0:0:0:
36,192,39072,1,0,0:0:0:0:
329,192,39072,1,0,0:0:0:0:
475,192,39072,1,0,0:0:0:0:
329,192,39242,1,0,0:0:0:0:
182,192,39242,1,0,0:0:0:0:
109,192,39412,1,0,0:0:0:0:
402,192,39412,1,0,0:0:0:0:
256,192,39412,1,0,0:0:0:0:
329,192,39583,128,0,39753:0:0:0:0:
182,192,39583,1,0,0:0:0:0:
36,192,39583,1,0,0:0:0:0:
256,192,39753,1,0,0:0:0:0:
402,192,39753,1,0,0:0:0:0:
109,192,39753,1,0,0:0:0:0:
182,192,39924,1,0,0:0:0:0:
475,192,39924,1,0,0:0:0:0:
36,192,40094,1,0,0:0:0:0:
182,192,40094,1,0,0:0:0:0:
329,192,40094,1,0,0:0:0:0:
475,192,40265,128,0,40435:0:0:0:0:
402,192,40265,1,0,0:0:0:0:
256,192,40265,1,0,0:0:0:0:
182,192,40435,1,0,0:0:0:0:
329,192,40435,1,0,0:0:0:0:
36,192,40435,1,0,0:0:0:0:
256,192,40606,128,0,40776:0:0:0:0:
329,192,40606,1,0,0:0:0:0:
475,192,40606,1,0,0:0:0:0:
182,192,40776,1,0,0:0:0:0:
402,192,40776,1,0,0:0:0:0:
109,192,40776,1,0,0:0:0:0:
36,192,40947,1,0,0:0:0:0:
256,192,40947,128,0,41117:0:0:0:0:
402,192,40947,1,0,0:0:0:0:
109,192,41117,128,0,41287:0:0:0:0:
182,192,41117,1,0,0:0:0:0:
329,192,41117,1,0,0:0:0:0:
475,192,41117,1,0,0:0:0:0:
329,192,41287,1,0,0:0:0:0:
475,192,41287,1,0,0:0:0:0:
109,192,41458,1,0,0:0:0:0:
402,192,41458,1,0,0:0:0:0:
256,192,41458,1,0,0:0:0:0:
36,192,41628,128,0,41799:0:0:0:0:
256,192,41628,1,0,0:0:0:0:
402,192,41628,1,0,0:0:0:0:
329,192,41799,1,0,0:0:0:0:
475,192,41799,1,0,0:0:0:0:
182,192,41799,1,0,0:0:0:0:
182,192,41969,1,0,0:0:0:0:
329,192,41969,1,0,0:0:0:0:
256,192,42140,1,0,0:0:0:0:
402,192,42140,1,0,0:0:0:0:
109,192,42140,1,0,0:0:0:0:
475,192,42310,128,0,42481:0:0:0:0:
109,192,42310,1,0,0:0:0:0:
256,192,42310,1,0,0:0:0:0:
182,192,42481,1,0,0:0:0:0:
329,192,42481,1,0,0:0:0:0:
36,192,42481,1,0,0:0:0:0:
36,192,42651,1,0,0:0:0:0:
256,192,42651,1,0,0:0:0:0:
182,192,42822,1,0,0:0:0:0:
402,192,42822,1,0,0:0:0:0:
109,192,42822,1,0,0:0:0:0:
475,192,42992,128,0,43162:0:0:0:0:
36,192,42992,1,0,0:0:0:0:
329,192,42992,1,0,0:0:0:0:
109,192,43162,1,0,0:0:0:0:
329,192,43162,1,0,0:0:0:0:
182,192,43162,1,0,0:0:0:0:
36,192,43333,128,0,43503:0:0:0:0:
256,192,43333,1,0,0:0:0:0:
402,192,43333,1,0,0:0:0:0:
182,192,43503,1,0,0:0:0:0:
402,192,43503,1,0,0:0:0:0:
256,192,43503,1,0,0:0:0:0:
109,192,43674,128,0,43844:0:0:0:0:
329,192,43674,1,0,0:0:0:0:
475,192,43674,1,0,0:0:0:0:
256,192,43844,1,0,0:0:0:0:
475,192,43844,1,0,0:0:0:0:
402,192,44015,128,0,44100:0:0:0:0:
329,192,44015,128,0,44100:0:0:0:0:
109,192,44015,1,0,0:0:0:0:
402,192,44185,128,0,44270:0:0:0:0:
329,192,44185,128,0,44270:0:0:0:0:
36,192,44185,1,0,0:0:0:0:
182,192,44185,1,0,0:0:0:0:
256,192,44356,128,0,44526:0:0:0:0:
475,192,44356,128,0,44526:0:0:0:0:
109,192,44356,1,0,0:0:0:0:
182,192,44526,1,0,0:0:0:0:
329,192,44526,1,0,0:0:0:0:
182,192,44697,128,0,44782:0:0:0:0:
109,192,44697,128,0,44782:0:0:0:0:
402,192,44697,1,0,0:0:0:0:
182,192,44867,128,0,44952:0:0:0:0:
109,192,44867,128,0,44952:0:0:0:0:
329,192,44867,1,0,0:0:0:0:
475,192,44867,1,0,0:0:0:0:
36,192,45037,128,0,45378:0:0:0:0:
256,192,45037,128,0,45378:0:0:0:0:
329,192,45037,1,0,0:0:0:0:
475,192,45037,1,0,0:0:0:0:
402,192,45208,1,0,0:0:0:0:
329,192,45378,1,0,0:0:0:0:
182,192,45378,1,0,0:0:0:0:
475,192,45378,128,0,45549:0:0:0:0:
256,192,45549,1,0,0:0:0:0:
402,192,45549,1,0,0:0:0:0:
36,192,45549,1,0,0:0:0:0:
256,192,45719,128,0,45890:0:0:0:0:
109,192,45719,1,0,0:0:0:0:
329,192,45890,1,0,0:0:0:0:
475,192,45890,1,0,0:0:0:0:
36,192,46060,128,0,46231:0:0:0:0:
256,192,46060,1,0,0:0:0:0:
109,192,46060,1,0,0:0:0:0:
402,192,46060,1,0,0:0:0:0:
182,192,46231,1,0,0:0:0:0:
329,192,46231,1,0,0:0:0:0:
475,192,46231,1,0,0:0:0:0:
182,192,46401,1,0,0:0:0:0:
329,192,46401,1,0,0:0:0:0:
256,192,46486,1,0,0:0:0:0:
109,192,46486,1,0,0:0:0:0:
182,192,46572,1,0,0:0:0:0:
36,192,46572,1,0,0:0:0:0:
475,192,46572,1,0,0:0:0:0:
329,192,46572,1,0,0:0:0:0:
402,192,46572,128,0,47594:0:0:0:0:
329,192,46912,1,0,0:0:0:0:
182,192,46912,1,0,0:0:0:0:
256,192,47083,1,0,0:0:0:0:
109,192,47083,1,0,0:0:0:0:
182,192,47253,1,0,0:0:0:0:
36,192,47253,1,0,0:0:0:0:
329,192,47253,1,0,0:0:0:0:
36,192,47594,128,0,47765:0:0:0:0:
182,192,47594,1,0,0:0:0:0:
329,192,47594,1,0,0:0:0:0:
182,192,47765,128,0,47935:0:0:0:0:
256,192,47765,1,0,0:0:0:0:
402,192,47765,1,0,0:0:0:0:
109,192,47765,1,0,0:0:0:0:
475,192,47935,128,0,48106:0:0:0:0:
36,192,47935,1,0,0:0:0:0:
329,192,47935,1,0,0:0:0:0:
329,192,48106,128,0,48276:0:0:0:0:
109,192,48106,1,0,0:0:0:0:
256,192,48106,1,0,0:0:0:0:
402,192,48106,1,0,0:0:0:0:
109,192,48276,128,0,48617:0:0:0:0:
182,192,48276,1,0,0:0:0:0:
475,192,48276,1,0,0:0:0:0:
402,192,48617,128,0,48958:0:0:0:0:
329,192,48617,1,0,0:0:0:0:
182,192,48617,1,0,0:0:0:0:
36,192,48617,1,0,0:0:0:0:
475,192,48617,1,0,0:0:0:0:
256,192,48958,128,0,49299:0:0:0:0:
182,192,48958,1,0,0:0:0:0:
36,192,48958,1,0,0:0:0:0:
475,192,48958,1,0,0:0:0:0:
109,192,49128,1,0,0:0:0:0:
182,192,49128,1,0,0:0:0:0:
329,192,49128,1,0,0:0:0:0:
402,192,49128,1,0,0:0:0:0:
36,192,49299,128,0,50322:0:0:0:0:
109,192,49299,1,0,0:0:0:0:
475,192,49299,1,0,0:0:0:0:
256,192,49640,1,0,0:0:0:0:
402,192,49640,1,0,0:0:0:0:
329,192,49810,1,0,0:0:0:0:
475,192,49810,1,0,0:0:0:0:
402,192,49981,1,0,0:0:0:0:
256,192,49981,1,0,0:0:0:0:
109,192,49981,1,0,0:0:0:0:
329,192,50151,1,0,0:0:0:0:
475,192,50322,128,0,50492:0:0:0:0:
256,192,50322,1,0,0:0:0:0:
109,192,50322,1,0,0:0:0:0:
329,192,50492,128,0,50662:0:0:0:0:
182,192,50492,1,0,0:0:0:0:
36,192,50492,1,0,0:0:0:0:
402,192,50492,1,0,0:0:0:0:
36,192,50662,128,0,50833:0:0:0:0:
256,192,50662,1,0,0:0:0:0:
475,192,50662,1,0,0:0:0:0:
182,192,50833,128,0,51003:0:0:0:0:
402,192,50833,1,0,0:0:0:0:
329,192,50833,1,0,0:0:0:0:
109,192,50833,1,0,0:0:0:0:
402,192,51003,128,0,51515:0:0:0:0:
256,192,51003,1,0,0:0:0:0:
475,192,51003,1,0,0:0:0:0:
36,192,51003,128,0,51089:0:0:0:0:
182,192,51089,128,0,51174:0:0:0:0:
329,192,51174,128,0,51259:0:0:0:0:
109,192,51259,128,0,51344:0:0:0:0:
475,192,51344,1,0,0:0:0:0:
182,192,51344,1,0,0:0:0:0:
256,192,51344,128,0,51429:0:0:0:0:
36,192,51429,128,0,51515:0:0:0:0:
182,192,51515,128,0,51600:0:0:0:0:
329,192,51600,128,0,51685:0:0:0:0:
109,192,51685,128,0,52026:0:0:0:0:
475,192,51685,1,0,0:0:0:0:
256,192,51685,1,0,0:0:0:0:
36,192,51685,1,0,0:0:0:0:
182,192,51856,1,0,0:0:0:0:
475,192,51856,1,0,0:0:0:0:
256,192,51941,1,0,0:0:0:0:
402,192,51941,1,0,0:0:0:0:
182,192,52026,1,0,0:0:0:0:
329,192,52026,1,0,0:0:0:0:
36,192,52026,128,0,52282:0:0:0:0:
475,192,52026,128,0,52282:0:0:0:0:
256,192,52197,1,0,0:0:0:0:
109,192,52367,128,0,52537:0:0:0:0:
182,192,52367,1,0,0:0:0:0:
329,192,52367,1,0,0:0:0:0:
36,192,52367,1,0,0:0:0:0:
475,192,52367,1,0,0:0:0:0:
402,192,52537,128,0,53049:0:0:0:0:
256,192,52537,1,0,0:0:0:0:
182,192,52708,1,0,0:0:0:0:
36,192,52708,1,0,0:0:0:0:
329,192,52708,1,0,0:0:0:0:
109,192,52878,1,0,0:0:0:0:
256,192,52878,1,0,0:0:0:0:
256,192,53049,128,0,53219:0:0:0:0:
182,192,53049,1,0,0:0:0:0:
36,192,53049,1,0,0:0:0:0:
329,192,53049,1,0,0:0:0:0:
475,192,53049,1,0,0:0:0:0:
402,192,53219,1,0,0:0:0:0:
109,192,53219,1,0,0:0:0:0:
182,192,53390,1,0,0:0:0:0:
329,192,53390,1,0,0:0:0:0:
36,192,53390,128,0,53645:0:0:0:0:
475,192,53390,128,0,53645:0:0:0:0:
256,192,53560,1,0,0:0:0:0:
402,192,53731,128,0,53901:0:0:0:0:
182,192,53731,1,0,0:0:0:0:
36,192,53731,1,0,0:0:0:0:
329,192,53731,1,0,0:0:0:0:
475,192,53731,1,0,0:0:0:0:
109,192,53901,128,0,54412:0:0:0:0:
256,192,53901,1,0,0:0:0:0:
182,192,54072,1,0,0:0:0:0:
329,192,54072,1,0,0:0:0:0:
475,192,54072,1,0,0:0:0:0:
256,192,54242,1,0,0:0:0:0:
402,192,54242,1,0,0:0:0:0:
256,192,54412,128,0,54583:0:0:0:0:
182,192,54412,1,0,0:0:0:0:
36,192,54412,1,0,0:0:0:0:
329,192,54412,1,0,0:0:0:0:
475,192,54412,1,0,0:0:0:0:
109,192,54583,1,0,0:0:0:0:
402,192,54583,1,0,0:0:0:0:
36,192,54753,1,0,0:0:0:0:
182,192,54753,1,0,0:0:0:0:
256,192,54753,1,0,0:0:0:0:
402,192,54753,1,0,0:0:0:0:
109,192,54924,1,0,0:0:0:0:
256,192,54924,1,0,0:0:0:0:
329,192,54924,1,0,0:0:0:0:
475,192,54924,1,0,0:0:0:0:
182,192,55094,1,0,0:0:0:0:
329,192,55094,1,0,0:0:0:0:
402,192,55094,1,0,0:0:0:0:
36,192,55094,1,0,0:0:0:0:
256,192,55265,1,0,0:0:0:0:
402,192,55265,1,0,0:0:0:0:
475,192,55265,1,0,0:0:0:0:
109,192,55265,1,0,0:0:0:0:
329,192,55435,1,0,0:0:0:0:
475,192,55435,1,0,0:0:0:0:
36,192,55435,1,0,0:0:0:0:
182,192,55435,1,0,0:0:0:0:
256,192,55606,1,0,0:0:0:0:
402,192,55606,1,0,0:0:0:0:
475,192,55606,1,0,0:0:0:0:
109,192,55606,1,0,0:0:0:0:
182,192,55776,1,0,0:0:0:0:
329,192,55776,1,0,0:0:0:0:
402,192,55776,1,0,0:0:0:0:
36,192,55776,1,0,0:0:0:0:
109,192,55947,1,0,0:0:0:0:
256,192,55947,1,0,0:0:0:0:
329,192,55947,1,0,0:0:0:0:
475,192,55947,1,0,0:0:0:0:
256,192,56117,1,0,0:0:0:0:
182,192,56117,1,0,0:0:0:0:
36,192,56117,128,0,56202:0:0:0:0:
402,192,56117,128,0,56202:0:0:0:0:
329,192,56287,1,0,0:0:0:0:
256,192,56287,1,0,0:0:0:0:
109,192,56287,128,0,56373:0:0:0:0:
475,192,56287,128,0,56373:0:0:0:0:
402,192,56458,128,0,56543:0:0:0:0:
256,192,56458,1,0,0:0:0:0:
36,192,56458,128,0,56543:0:0:0:0:
182,192,56458,1,0,0:0:0:0:
109,192,56799,1,0,0:0:0:0:
402,192,57140,1,0,0:0:0:0:
475,192,57481,128,0,58503:0:0:0:0:
36,192,57481,1,0,0:0:0:0:
182,192,57481,1,0,0:0:0:0:
329,192,57481,1,0,0:0:0:0:
402,192,57566,1,0,0:0:0:0:
256,192,57651,1,0,0:0:0:0:
109,192,57651,1,0,0:0:0:0:
329,192,57736,1,0,0:0:0:0:
36,192,57821,1,0,0:0:0:0:
402,192,57821,1,0,0:0:0:0:
182,192,57821,1,0,0:0:0:0:
329,192,57907,1,0,0:0:0:0:
36,192,57992,128,0,58333:0:0:0:0:
109,192,57992,1,0,0:0:0:0:
256,192,57992,1,0,0:0:0:0:
402,192,58077,1,0,0:0:0:0:
329,192,58162,1,0,0:0:0:0:
109,192,58162,1,0,0:0:0:0:
182,192,58162,1,0,0:0:0:0:
256,192,58248,1,0,0:0:0:0:
402,192,58333,1,0,0:0:0:0:
329,192,58333,1,0,0:0:0:0:
182,192,58418,1,0,0:0:0:0:
256,192,58503,128,0,58674:0:0:0:0:
329,192,58503,1,0,0:0:0:0:
109,192,58503,1,0,0:0:0:0:
36,192,58503,1,0,0:0:0:0:
36,192,58674,128,0,59526:0:0:0:0:
182,192,58674,1,0,0:0:0:0:
402,192,58674,1,0,0:0:0:0:
475,192,58674,1,0,0:0:0:0:
256,192,58759,1,0,0:0:0:0:
329,192,58844,1,0,0:0:0:0:
109,192,58844,1,0,0:0:0:0:
182,192,58929,1,0,0:0:0:0:
256,192,59015,1,0,0:0:0:0:
475,192,59015,1,0,0:0:0:0:
402,192,59100,1,0,0:0:0:0:
329,192,59185,1,0,0:0:0:0:
182,192,59185,1,0,0:0:0:0:
109,192,59185,1,0,0:0:0:0:
475,192,59270,1,0,0:0:0:0:
329,192,59356,1,0,0:0:0:0:
182,192,59356,1,0,0:0:0:0:
402,192,59441,1,0,0:0:0:0:
329,192,59526,128,0,59952:0:0:0:0:
475,192,59526,1,0,0:0:0:0:
256,192,59526,1,0,0:0:0:0:
109,192,59526,1,0,0:0:0:0:
402,192,59611,128,0,59867:0:0:0:0:
182,192,59611,1,0,0:0:0:0:
475,192,59696,128,0,59782:0:0:0:0:
109,192,59696,1,0,0:0:0:0:
182,192,59782,128,0,60208:0:0:0:0:
36,192,59782,1,0,0:0:0:0:
109,192,59867,128,0,60123:0:0:0:0:
475,192,59867,1,0,0:0:0:0:
256,192,59867,1,0,0:0:0:0:
36,192,59952,128,0,60037:0:0:0:0:
402,192,59952,1,0,0:0:0:0:
329,192,60037,1,0,0:0:0:0:
36,192,60123,1,0,0:0:0:0:
402,192,60123,1,0,0:0:0:0:
475,192,60208,128,0,61231:0:0:0:0:
109,192,60208,1,0,0:0:0:0:
329,192,60208,1,0,0:0:0:0:
256,192,60208,1,0,0:0:0:0:
182,192,60293,1,0,0:0:0:0:
402,192,60378,1,0,0:0:0:0:
256,192,60378,1,0,0:0:0:0:
182,192,60463,1,0,0:0:0:0:
109,192,60549,1,0,0:0:0:0:
36,192,60549,1,0,0:0:0:0:
329,192,60549,1,0,0:0:0:0:
256,192,60634,1,0,0:0:0:0:
36,192,60719,128,0,61060:0:0:0:0:
402,192,60719,1,0,0:0:0:0:
109,192,60719,1,0,0:0:0:0:
256,192,60804,1,0,0:0:0:0:
329,192,60890,1,0,0:0:0:0:
182,192,60890,1,0,0:0:0:0:
402,192,60890,1,0,0:0:0:0:
109,192,60975,1,0,0:0:0:0:
182,192,61060,1,0,0:0:0:0:
329,192,61060,1,0,0:0:0:0:
402,192,61145,1,0,0:0:0:0:
256,192,61231,128,0,61401:0:0:0:0:
329,192,61231,1,0,0:0:0:0:
36,192,61231,1,0,0:0:0:0:
109,192,61231,1,0,0:0:0:0:
36,192,61401,128,0,61912:0:0:0:0:
475,192,61401,1,0,0:0:0:0:
182,192,61401,1,0,0:0:0:0:
402,192,61401,1,0,0:0:0:0:
256,192,61486,1,0,0:0:0:0:
109,192,61571,1,0,0:0:0:0:
329,192,61571,1,0,0:0:0:0:
182,192,61657,1,0,0:0:0:0:
256,192,61742,1,0,0:0:0:0:
402,192,61742,1,0,0:0:0:0:
182,192,61827,1,0,0:0:0:0:
475,192,61912,128,0,62253:0:0:0:0:
109,192,61912,1,0,0:0:0:0:
256,192,61912,1,0,0:0:0:0:
402,192,61912,1,0,0:0:0:0:
182,192,61998,1,0,0:0:0:0:
329,192,62083,1,0,0:0:0:0:
109,192,62083,1,0,0:0:0:0:
182,192,62168,1,0,0:0:0:0:
36,192,62253,1,0,0:0:0:0:
109,192,62253,128,0,62679:0:0:0:0:
329,192,62253,1,0,0:0:0:0:
256,192,62253,1,0,0:0:0:0:
182,192,62338,128,0,62594:0:0:0:0:
402,192,62338,1,0,0:0:0:0:
256,192,62424,128,0,62509:0:0:0:0:
475,192,62424,1,0,0:0:0:0:
402,192,62509,128,0,62935:0:0:0:0:
329,192,62594,128,0,62850:0:0:0:0:
36,192,62594,1,0,0:0:0:0:
475,192,62594,1,0,0:0:0:0:
256,192,62679,128,0,62765:0:0:0:0:
36,192,62765,1,0,0:0:0:0:
109,192,62850,1,0,0:0:0:0:
475,192,62935,1,0,0:0:0:0:
182,192,62935,1,0,0:0:0:0:
256,192,62935,1,0,0:0:0:0:
36,192,62935,128,0,63276:0:0:0:0:
402,192,63020,1,0,0:0:0:0:
256,192,63106,128,0,63276:0:0:0:0:
329,192,63106,1,0,0:0:0:0:
109,192,63106,1,0,0:0:0:0:
402,192,63191,1,0,0:0:0:0:
182,192,63276,128,0,63617:0:0:0:0:
109,192,63276,1,0,0:0:0:0:
329,192,63276,1,0,0:0:0:0:
475,192,63276,1,0,0:0:0:0:
256,192,63361,1,0,0:0:0:0:
402,192,63446,128,0,63617:0:0:0:0:
329,192,63446,1,0,0:0:0:0:
109,192,63446,1,0,0:0:0:0:
256,192,63532,1,0,0:0:0:0:
329,192,63617,128,0,63958:0:0:0:0:
36,192,63617,1,0,0:0:0:0:
109,192,63617,1,0,0:0:0:0:
475,192,63617,1,0,0:0:0:0:
256,192,63702,1,0,0:0:0:0:
109,192,63787,128,0,63958:0:0:0:0:
182,192,63787,1,0,0:0:0:0:
402,192,63787,1,0,0:0:0:0:
256,192,63873,1,0,0:0:0:0:
475,192,63958,128,0,64299:0:0:0:0:
402,192,63958,1,0,0:0:0:0:
182,192,63958,1,0,0:0:0:0:
36,192,63958,1,0,0:0:0:0:
109,192,64043,1,0,0:0:0:0:
256,192,64128,128,0,64299:0:0:0:0:
329,192,64128,1,0,0:0:0:0:
182,192,64128,1,0,0:0:0:0:
109,192,64213,1,0,0:0:0:0:
36,192,64299,128,0,64640:0:0:0:0:
329,192,64299,1,0,0:0:0:0:
402,192,64299,1,0,0:0:0:0:
182,192,64299,1,0,0:0:0:0:
475,192,64384,1,0,0:0:0:0:
256,192,64469,128,0,64640:0:0:0:0:
329,192,64469,1,0,0:0:0:0:
182,192,64469,1,0,0:0:0:0:
402,192,64554,1,0,0:0:0:0:
475,192,64640,128,0,64981:0:0:0:0:
329,192,64640,1,0,0:0:0:0:
182,192,64640,1,0,0:0:0:0:
109,192,64725,1,0,0:0:0:0:
256,192,64810,128,0,64981:0:0:0:0:
182,192,64810,1,0,0:0:0:0:
329,192,64810,1,0,0:0:0:0:
402,192,64895,1,0,0:0:0:0:
36,192,64981,128,0,65236:0:0:0:0:
109,192,64981,128,0,65066:0:0:0:0:
182,192,64981,1,0,0:0:0:0:
329,192,64981,1,0,0:0:0:0:
182,192,65151,128,0,65407:0:0:0:0:
109,192,65151,128,0,65236:0:0:0:0:
402,192,65151,1,0,0:0:0:0:
329,192,65151,1,0,0:0:0:0:
475,192,65321,128,0,65577:0:0:0:0:
402,192,65321,128,0,65407:0:0:0:0:
109,192,65321,128,0,65407:0:0:0:0:
36,192,65321,128,0,65407:0:0:0:0:
256,192,65321,1,0,0:0:0:0:
329,192,65321,1,0,0:0:0:0:
402,192,65492,128,0,65577:0:0:0:0:
329,192,65492,128,0,65748:0:0:0:0:
182,192,65492,1,0,0:0:0:0:
109,192,65492,1,0,0:0:0:0:
402,192,65662,128,0,65748:0:0:0:0:
475,192,65662,128,0,65748:0:0:0:0:
256,192,65662,1,0,0:0:0:0:
36,192,65662,128,0,66003:0:0:0:0:
109,192,65662,1,0,0:0:0:0:
182,192,65748,1,0,0:0:0:0:
109,192,65833,1,0,0:0:0:0:
402,192,65833,1,0,0:0:0:0:
329,192,65918,1,0,0:0:0:0:
475,192,66003,128,0,66344:0:0:0:0:
256,192,66003,1,0,0:0:0:0:
402,192,66003,1,0,0:0:0:0:
109,192,66003,1,0,0:0:0:0:
182,192,66088,1,0,0:0:0:0:
256,192,66174,1,0,0:0:0:0:
109,192,66174,1,0,0:0:0:0:
329,192,66259,1,0,0:0:0:0:
109,192,66344,128,0,66685:0:0:0:0:
256,192,66344,1,0,0:0:0:0:
36,192,66344,1,0,0:0:0:0:
402,192,66344,1,0,0:0:0:0:
182,192,66429,1,0,0:0:0:0:
475,192,66515,1,0,0:0:0:0:
329,192,66515,1,0,0:0:0:0:
256,192,66600,1,0,0:0:0:0:
402,192,66685,128,0,66856:0:0:0:0:
36,192,66685,1,0,0:0:0:0:
182,192,66685,1,0,0:0:0:0:
329,192,66685,1,0,0:0:0:0:
109,192,66770,1,0,0:0:0:0:
256,192,66856,128,0,67196:0:0:0:0:
475,192,66856,1,0,0:0:0:0:
36,192,66856,1,0,0:0:0:0:
402,192,66941,1,0,0:0:0:0:
109,192,67026,1,0,0:0:0:0:
329,192,67026,1,0,0:0:0:0:
182,192,67111,1,0,0:0:0:0:
109,192,67196,1,0,0:0:0:0:
36,192,67196,1,0,0:0:0:0:
329,192,67196,1,0,0:0:0:0:
402,192,67196,1,0,0:0:0:0:
109,192,67367,1,0,0:0:0:0:
182,192,67367,1,0,0:0:0:0:
402,192,67367,1,0,0:0:0:0:
475,192,67367,1,0,0:0:0:0:
36,192,67367,128,0,67537:0:0:0:0:
475,192,67537,128,0,67708:0:0:0:0:
182,192,67537,1,0,0:0:0:0:
256,192,67537,1,0,0:0:0:0:
329,192,67537,1,0,0:0:0:0:
256,192,67708,128,0,68048:0:0:0:0:
109,192,67708,1,0,0:0:0:0:
36,192,67708,1,0,0:0:0:0:
329,192,67708,1,0,0:0:0:0:
402,192,67708,1,0,0:0:0:0:
182,192,67878,1,0,0:0:0:0:
109,192,67878,1,0,0:0:0:0:
402,192,67878,1,0,0:0:0:0:
475,192,67878,1,0,0:0:0:0:
109,192,68048,1,0,0:0:0:0:
36,192,68048,1,0,0:0:0:0:
329,192,68048,1,0,0:0:0:0:
402,192,68048,1,0,0:0:0:0:
182,192,68134,1,0,0:0:0:0:
475,192,68134,1,0,0:0:0:0:
402,192,68219,1,0,0:0:0:0:
109,192,68219,1,0,0:0:0:0:
329,192,68304,1,0,0:0:0:0:
36,192,68304,1,0,0:0:0:0:
402,192,68389,1,0,0:0:0:0:
109,192,68389,1,0,0:0:0:0:
475,192,68389,128,0,69070:0:0:0:0:
182,192,68389,128,0,68729:0:0:0:0:
329,192,68474,1,0,0:0:0:0:
256,192,68559,1,0,0:0:0:0:
36,192,68559,1,0,0:0:0:0:
402,192,68644,1,0,0:0:0:0:
109,192,68729,1,0,0:0:0:0:
36,192,68729,1,0,0:0:0:0:
256,192,68729,1,0,0:0:0:0:
329,192,68815,1,0,0:0:0:0:
256,192,68900,128,0,69241:0:0:0:0:
182,192,68900,1,0,0:0:0:0:
36,192,68900,1,0,0:0:0:0:
109,192,68985,1,0,0:0:0:0:
329,192,69070,128,0,69241:0:0:0:0:
182,192,69070,1,0,0:0:0:0:
36,192,69070,1,0,0:0:0:0:
402,192,69070,1,0,0:0:0:0:
475,192,69156,1,0,0:0:0:0:
402,192,69241,128,0,69582:0:0:0:0:
182,192,69241,1,0,0:0:0:0:
36,192,69241,1,0,0:0:0:0:
109,192,69326,1,0,0:0:0:0:
329,192,69411,128,0,69582:0:0:0:0:
36,192,69411,1,0,0:0:0:0:
182,192,69411,1,0,0:0:0:0:
475,192,69411,1,0,0:0:0:0:
256,192,69496,1,0,0:0:0:0:
182,192,69582,128,0,69923:0:0:0:0:
109,192,69582,1,0,0:0:0:0:
475,192,69582,1,0,0:0:0:0:
402,192,69667,1,0,0:0:0:0:
256,192,69752,128,0,69923:0:0:0:0:
329,192,69752,1,0,0:0:0:0:
475,192,69752,1,0,0:0:0:0:
36,192,69752,1,0,0:0:0:0:
109,192,69837,1,0,0:0:0:0:
36,192,69923,128,0,70264:0:0:0:0:
402,192,69923,1,0,0:0:0:0:
475,192,69923,1,0,0:0:0:0:
329,192,70008,1,0,0:0:0:0:
109,192,70093,128,0,70264:0:0:0:0:
256,192,70093,1,0,0:0:0:0:
402,192,70093,1,0,0:0:0:0:
475,192,70093,1,0,0:0:0:0:
182,192,70178,1,0,0:0:0:0:
329,192,70264,1,0,0:0:0:0:
475,192,70264,1,0,0:0:0:0:
182,192,70349,1,0,0:0:0:0:
36,192,70434,128,0,70775:0:0:0:0:
109,192,70434,1,0,0:0:0:0:
256,192,70434,1,0,0:0:0:0:
475,192,70434,1,0,0:0:0:0:
329,192,70519,1,0,0:0:0:0:
182,192,70604,128,0,70775:0:0:0:0:
475,192,70604,1,0,0:0:0:0:
402,192,70604,1,0,0:0:0:0:
329,192,70690,1,0,0:0:0:0:
109,192,70775,1,0,0:0:0:0:
402,192,70775,1,0,0:0:0:0:
475,192,70775,128,0,71116:0:0:0:0:
256,192,70775,128,0,70945:0:0:0:0:
182,192,70860,1,0,0:0:0:0:
329,192,70945,128,0,71116:0:0:0:0:
109,192,70945,1,0,0:0:0:0:
36,192,70945,1,0,0:0:0:0:
182,192,71031,1,0,0:0:0:0:
36,192,71116,128,0,71457:0:0:0:0:
109,192,71116,1,0,0:0:0:0:
256,192,71116,1,0,0:0:0:0:
402,192,71116,1,0,0:0:0:0:
329,192,71201,1,0,0:0:0:0:
182,192,71286,128,0,71457:0:0:0:0:
475,192,71286,1,0,0:0:0:0:
256,192,71286,1,0,0:0:0:0:
109,192,71286,1,0,0:0:0:0:
402,192,71371,1,0,0:0:0:0:
109,192,71457,128,0,71798:0:0:0:0:
256,192,71457,1,0,0:0:0:0:
329,192,71457,1,0,0:0:0:0:
475,192,71457,1,0,0:0:0:0:
402,192,71542,1,0,0:0:0:0:
256,192,71627,128,0,71798:0:0:0:0:
329,192,71627,1,0,0:0:0:0:
182,192,71627,1,0,0:0:0:0:
475,192,71712,1,0,0:0:0:0:
182,192,71798,128,0,72139:0:0:0:0:
329,192,71798,1,0,0:0:0:0:
402,192,71798,1,0,0:0:0:0:
36,192,71798,1,0,0:0:0:0:
475,192,71883,1,0,0:0:0:0:
329,192,71968,128,0,72139:0:0:0:0:
402,192,71968,1,0,0:0:0:0:
109,192,71968,1,0,0:0:0:0:
475,192,72053,1,0,0:0:0:0:
256,192,72139,128,0,72309:0:0:0:0:
109,192,72139,128,0,72309:0:0:0:0:
36,192,72139,1,0,0:0:0:0:
402,192,72139,1,0,0:0:0:0:
329,192,72309,1,0,0:0:0:0:
475,192,72309,1,0,0:0:0:0:
182,192,72309,128,0,72735:0:0:0:0:
36,192,72309,128,0,72735:0:0:0:0:
256,192,72394,1,0,0:0:0:0:
475,192,72479,128,0,72820:0:0:0:0:
402,192,72479,1,0,0:0:0:0:
109,192,72479,1,0,0:0:0:0:
256,192,72565,1,0,0:0:0:0:
329,192,72650,128,0,72820:0:0:0:0:
402,192,72650,1,0,0:0:0:0:
256,192,72735,1,0,0:0:0:0:
402,192,72820,128,0,73161:0:0:0:0:
182,192,72820,1,0,0:0:0:0:
109,192,72820,1,0,0:0:0:0:
36,192,72906,1,0,0:0:0:0:
256,192,72991,128,0,73161:0:0:0:0:
182,192,72991,1,0,0:0:0:0:
329,192,72991,1,0,0:0:0:0:
109,192,73076,1,0,0:0:0:0:
329,192,73161,128,0,73502:0:0:0:0:
36,192,73161,1,0,0:0:0:0:
182,192,73161,1,0,0:0:0:0:
475,192,73161,1,0,0:0:0:0:
256,192,73246,1,0,0:0:0:0:
182,192,73332,128,0,73502:0:0:0:0:
36,192,73332,1,0,0:0:0:0:
402,192,73332,1,0,0:0:0:0:
109,192,73417,1,0,0:0:0:0:
256,192,73502,128,0,73673:0:0:0:0:
402,192,73502,128,0,73673:0:0:0:0:
36,192,73502,1,0,0:0:0:0:
475,192,73502,1,0,0:0:0:0:
109,192,73587,1,0,0:0:0:0:
475,192,73673,128,0,74014:0:0:0:0:
329,192,73673,128,0,74014:0:0:0:0:
182,192,73673,1,0,0:0:0:0:
36,192,73673,1,0,0:0:0:0:
256,192,73758,1,0,0:0:0:0:
402,192,73843,1,0,0:0:0:0:
109,192,73843,1,0,0:0:0:0:
182,192,73928,1,0,0:0:0:0:
109,192,74014,128,0,74184:0:0:0:0:
256,192,74014,128,0,74184:0:0:0:0:
36,192,74014,1,0,0:0:0:0:
402,192,74014,1,0,0:0:0:0:
475,192,74099,1,0,0:0:0:0:
182,192,74184,128,0,74525:0:0:0:0:
329,192,74184,128,0,74525:0:0:0:0:
402,192,74184,1,0,0:0:0:0:
36,192,74184,1,0,0:0:0:0:
256,192,74269,1,0,0:0:0:0:
109,192,74354,1,0,0:0:0:0:
402,192,74354,1,0,0:0:0:0:
256,192,74440,1,0,0:0:0:0:
109,192,74525,128,0,74866:0:0:0:0:
402,192,74525,128,0,74866:0:0:0:0:
36,192,74525,1,0,0:0:0:0:
475,192,74525,1,0,0:0:0:0:
182,192,74610,1,0,0:0:0:0:
329,192,74695,1,0,0:0:0:0:
256,192,74695,1,0,0:0:0:0:
182,192,74781,1,0,0:0:0:0:
475,192,74866,128,0,75207:0:0:0:0:
36,192,74866,1,0,0:0:0:0:
256,192,74866,128,0,75207:0:0:0:0:
329,192,74866,1,0,0:0:0:0:
109,192,74951,1,0,0:0:0:0:
182,192,75036,1,0,0:0:0:0:
402,192,75036,1,0,0:0:0:0:
329,192,75121,1,0,0:0:0:0:
109,192,75207,1,0,0:0:0:0:
36,192,75207,1,0,0:0:0:0:
182,192,75207,128,0,75889:0:0:0:0:
402,192,75207,1,0,0:0:0:0:
256,192,75292,1,0,0:0:0:0:
329,192,75377,1,0,0:0:0:0:
475,192,75377,1,0,0:0:0:0:
402,192,75462,1,0,0:0:0:0:
109,192,75548,1,0,0:0:0:0:
36,192,75548,1,0,0:0:0:0:
256,192,75548,1,0,0:0:0:0:
475,192,75548,1,0,0:0:0:0:
402,192,75633,1,0,0:0:0:0:
109,192,75718,1,0,0:0:0:0:
329,192,75718,1,0,0:0:0:0:
256,192,75803,1,0,0:0:0:0:
329,192,75889,128,0,76400:0:0:0:0:
36,192,75889,1,0,0:0:0:0:
402,192,75889,1,0,0:0:0:0:
256,192,75974,1,0,0:0:0:0:
182,192,76059,1,0,0:0:0:0:
109,192,76059,1,0,0:0:0:0:
475,192,76059,1,0,0:0:0:0:
402,192,76144,1,0,0:0:0:0:
36,192,76229,1,0,0:0:0:0:
182,192,76229,1,0,0:0:0:0:
475,192,76229,1,0,0:0:0:0:
109,192,76229,1,0,0:0:0:0:
256,192,76315,1,0,0:0:0:0:
109,192,76400,128,0,76741:0:0:0:0:
182,192,76400,1,0,0:0:0:0:
475,192,76400,1,0,0:0:0:0:
329,192,76485,1,0,0:0:0:0:
256,192,76570,1,0,0:0:0:0:
36,192,76570,1,0,0:0:0:0:
402,192,76656,1,0,0:0:0:0:
256,192,76741,128,0,76911:0:0:0:0:
182,192,76741,1,0,0:0:0:0:
36,192,76741,1,0,0:0:0:0:
475,192,76741,1,0,0:0:0:0:
329,192,76741,1,0,0:0:0:0:
109,192,76826,1,0,0:0:0:0:
475,192,76911,128,0,77934:0:0:0:0:
329,192,76911,1,0,0:0:0:0:
36,192,76911,1,0,0:0:0:0:
402,192,76911,1,0,0:0:0:0:
182,192,76911,1,0,0:0:0:0:
256,192,76996,1,0,0:0:0:0:
109,192,77082,1,0,0:0:0:0:
329,192,77082,1,0,0:0:0:0:
402,192,77167,1,0,0:0:0:0:
36,192,77252,128,0,77423:0:0:0:0:
109,192,77252,1,0,0:0:0:0:
182,192,77252,1,0,0:0:0:0:
256,192,77252,1,0,0:0:0:0:
329,192,77337,1,0,0:0:0:0:
182,192,77423,128,0,77593:0:0:0:0:
256,192,77423,1,0,0:0:0:0:
402,192,77423,1,0,0:0:0:0:
109,192,77508,1,0,0:0:0:0:
36,192,77593,1,0,0:0:0:0:
256,192,77593,1,0,0:0:0:0:
402,192,77593,1,0,0:0:0:0:
329,192,77593,1,0,0:0:0:0:
182,192,77678,1,0,0:0:0:0:
109,192,77764,128,0,77934:0:0:0:0:
402,192,77764,1,0,0:0:0:0:
329,192,77764,1,0,0:0:0:0:
256,192,77849,1,0,0:0:0:0:
402,192,77934,1,0,0:0:0:0:
36,192,77934,1,0,0:0:0:0:
182,192,77934,1,0,0:0:0:0:
256,192,78104,128,0,78275:0:0:0:0:
475,192,78104,1,0,0:0:0:0:
402,192,78104,1,0,0:0:0:0:
109,192,78104,1,0,0:0:0:0:
36,192,78104,1,0,0:0:0:0:
329,192,78275,1,0,0:0:0:0:
402,192,78275,1,0,0:0:0:0:
109,192,78275,1,0,0:0:0:0:
182,192,78275,1,0,0:0:0:0:
109,192,78445,128,0,78616:0:0:0:0:
256,192,78445,1,0,0:0:0:0:
36,192,78445,1,0,0:0:0:0:
402,192,78445,128,0,78616:0:0:0:0:
475,192,78445,1,0,0:0:0:0:
182,192,78616,1,0,0:0:0:0:
329,192,78616,1,0,0:0:0:0:
475,192,78616,1,0,0:0:0:0:
36,192,78616,1,0,0:0:0:0:
256,192,78786,128,0,78957:0:0:0:0:
402,192,78786,1,0,0:0:0:0:
109,192,78786,1,0,0:0:0:0:
182,192,78786,1,0,0:0:0:0:
329,192,78786,1,0,0:0:0:0:
182,192,78957,1,0,0:0:0:0:
329,192,78957,1,0,0:0:0:0:
36,192,78957,1,0,0:0:0:0:
475,192,78957,1,0,0:0:0:0:
109,192,79042,1,0,0:0:0:0:
402,192,79042,1,0,0:0:0:0:
256,192,79042,1,0,0:0:0:0:
36,192,79127,1,0,0:0:0:0:
182,192,79127,1,0,0:0:0:0:
329,192,79127,1,0,0:0:0:0:
475,192,79127,1,0,0:0:0:0:
109,192,79298,1,0,0:0:0:0:
256,192,79298,1,0,0:0:0:0:
402,192,79298,1,0,0:0:0:0:
36,192,79298,128,0,79639:0:0:0:0:
475,192,79298,128,0,79639:0:0:0:0:
182,192,79639,1,0,0:0:0:0:
109,192,79639,128,0,79979:0:0:0:0:
402,192,79639,1,0,0:0:0:0:
329,192,79639,1,0,0:0:0:0:
182,192,79979,1,0,0:0:0:0:
329,192,79979,1,0,0:0:0:0:
475,192,79979,1,0,0:0:0:0:
402,192,80150,128,0,80491:0:0:0:0:
36,192,80150,1,0,0:0:0:0:
329,192,80150,1,0,0:0:0:0:
475,192,80150,1,0,0:0:0:0:
182,192,80150,1,0,0:0:0:0:
256,192,80320,1,0,0:0:0:0:
109,192,80320,1,0,0:0:0:0:
182,192,80491,128,0,80832:0:0:0:0:
329,192,80491,1,0,0:0:0:0:
475,192,80491,1,0,0:0:0:0:
36,192,80491,128,0,80832:0:0:0:0:
109,192,80491,1,0,0:0:0:0:
329,192,80832,128,0,81173:0:0:0:0:
109,192,80832,1,0,0:0:0:0:
256,192,80832,1,0,0:0:0:0:
402,192,80832,1,0,0:0:0:0:
182,192,81002,1,0,0:0:0:0:
36,192,81002,1,0,0:0:0:0:
402,192,81002,1,0,0:0:0:0:
475,192,81002,1,0,0:0:0:0:
182,192,81173,128,0,81514:0:0:0:0:
256,192,81173,1,0,0:0:0:0:
329,192,81343,1,0,0:0:0:0:
475,192,81343,1,0,0:0:0:0:
109,192,81514,128,0,81854:0:0:0:0:
402,192,81514,1,0,0:0:0:0:
256,192,81514,1,0,0:0:0:0:
36,192,81514,1,0,0:0:0:0:
329,192,81684,1,0,0:0:0:0:
475,192,81684,1,0,0:0:0:0:
182,192,81684,1,0,0:0:0:0:
256,192,81769,1,0,0:0:0:0:
402,192,81769,1,0,0:0:0:0:
329,192,81854,1,0,0:0:0:0:
182,192,81854,1,0,0:0:0:0:
475,192,81940,1,0,0:0:0:0:
182,192,82025,128,0,82366:0:0:0:0:
36,192,82025,128,0,82366:0:0:0:0:
402,192,82025,1,0,0:0:0:0:
256,192,82025,1,0,0:0:0:0:
109,192,82025,1,0,0:0:0:0:
402,192,82366,128,0,82707:0:0:0:0:
109,192,82366,1,0,0:0:0:0:
475,192,82366,1,0,0:0:0:0:
329,192,82366,1,0,0:0:0:0:
256,192,82707,128,0,83048:0:0:0:0:
182,192,82707,1,0,0:0:0:0:
36,192,82707,1,0,0:0:0:0:
109,192,82877,1,0,0:0:0:0:
329,192,82877,1,0,0:0:0:0:
402,192,82877,1,0,0:0:0:0:
475,192,82877,1,0,0:0:0:0:
182,192,83048,1,0,0:0:0:0:
36,192,83048,1,0,0:0:0:0:
402,192,83048,1,0,0:0:0:0:
182,192,83218,128,0,83559:0:0:0:0:
329,192,83218,128,0,83559:0:0:0:0:
109,192,83218,1,0,0:0:0:0:
256,192,83218,1,0,0:0:0:0:
475,192,83218,1,0,0:0:0:0:
36,192,83559,128,0,83900:0:0:0:0:
256,192,83559,1,0,0:0:0:0:
402,192,83559,1,0,0:0:0:0:
109,192,83559,1,0,0:0:0:0:
329,192,83729,1,0,0:0:0:0:
475,192,83729,1,0,0:0:0:0:
182,192,83729,1,0,0:0:0:0:
109,192,83729,1,0,0:0:0:0:
475,192,83900,128,0,84241:0:0:0:0:
256,192,83900,1,0,0:0:0:0:
402,192,83900,1,0,0:0:0:0:
329,192,84070,1,0,0:0:0:0:
182,192,84070,1,0,0:0:0:0:
36,192,84070,1,0,0:0:0:0:
256,192,84241,128,0,84582:0:0:0:0:
109,192,84241,1,0,0:0:0:0:
329,192,84241,1,0,0:0:0:0:
402,192,84241,1,0,0:0:0:0:
182,192,84411,1,0,0:0:0:0:
36,192,84411,1,0,0:0:0:0:
329,192,84496,1,0,0:0:0:0:
475,192,84496,1,0,0:0:0:0:
182,192,84582,1,0,0:0:0:0:
36,192,84582,1,0,0:0:0:0:
329,192,84667,1,0,0:0:0:0:
182,192,84752,128,0,85093:0:0:0:0:
36,192,84752,128,0,85093:0:0:0:0:
109,192,84752,1,0,0:0:0:0:
256,192,84752,1,0,0:0:0:0:
475,192,84752,1,0,0:0:0:0:
402,192,84752,1,0,0:0:0:0:
329,192,85093,128,0,85434:0:0:0:0:
109,192,85093,1,0,0:0:0:0:
256,192,85093,1,0,0:0:0:0:
475,192,85093,1,0,0:0:0:0:
182,192,85434,1,0,0:0:0:0:
36,192,85434,1,0,0:0:0:0:
402,192,85434,1,0,0:0:0:0:
182,192,85604,128,0,85945:0:0:0:0:
109,192,85604,1,0,0:0:0:0:
256,192,85604,1,0,0:0:0:0:
329,192,85604,1,0,0:0:0:0:
475,192,85604,1,0,0:0:0:0:
402,192,85775,1,0,0:0:0:0:
36,192,85775,1,0,0:0:0:0:
329,192,85945,128,0,86286:0:0:0:0:
475,192,85945,128,0,86286:0:0:0:0:
109,192,85945,1,0,0:0:0:0:
256,192,85945,1,0,0:0:0:0:
402,192,85945,1,0,0:0:0:0:
109,192,86286,128,0,86627:0:0:0:0:
36,192,86286,1,0,0:0:0:0:
256,192,86286,1,0,0:0:0:0:
402,192,86457,1,0,0:0:0:0:
475,192,86457,1,0,0:0:0:0:
329,192,86457,1,0,0:0:0:0:
182,192,86457,1,0,0:0:0:0:
182,192,86627,128,0,86968:0:0:0:0:
256,192,86627,1,0,0:0:0:0:
329,192,86798,1,0,0:0:0:0:
475,192,86798,1,0,0:0:0:0:
256,192,86968,128,0,87309:0:0:0:0:
109,192,86968,1,0,0:0:0:0:
402,192,86968,1,0,0:0:0:0:
36,192,86968,1,0,0:0:0:0:
329,192,87139,1,0,0:0:0:0:
475,192,87139,1,0,0:0:0:0:
182,192,87224,1,0,0:0:0:0:
36,192,87224,1,0,0:0:0:0:
329,192,87309,1,0,0:0:0:0:
475,192,87309,1,0,0:0:0:0:
109,192,87394,1,0,0:0:0:0:
475,192,87479,128,0,89695:0:0:0:0:
402,192,87479,1,0,0:0:0:0:
256,192,87479,1,0,0:0:0:0:
36,192,87479,1,0,0:0:0:0:
36,192,87820,1,0,0:0:0:0:
256,192,87820,1,0,0:0:0:0:
402,192,87820,1,0,0:0:0:0:
182,192,87820,1,0,0:0:0:0:
36,192,87991,128,0,88332:0:0:0:0:
329,192,87991,1,0,0:0:0:0:
402,192,88161,1,0,0:0:0:0:
256,192,88161,1,0,0:0:0:0:
109,192,88332,128,0,88673:0:0:0:0:
329,192,88332,1,0,0:0:0:0:
182,192,88332,1,0,0:0:0:0:
402,192,88502,1,0,0:0:0:0:
36,192,88502,1,0,0:0:0:0:
256,192,88502,1,0,0:0:0:0:
182,192,88673,128,0,89014:0:0:0:0:
256,192,88673,1,0,0:0:0:0:
402,192,88673,1,0,0:0:0:0:
36,192,88673,1,0,0:0:0:0:
256,192,89014,128,0,89354:0:0:0:0:
109,192,89014,1,0,0:0:0:0:
329,192,89014,1,0,0:0:0:0:
36,192,89184,1,0,0:0:0:0:
182,192,89184,1,0,0:0:0:0:
402,192,89184,1,0,0:0:0:0:
329,192,89354,128,0,89695:0:0:0:0:
36,192,89354,1,0,0:0:0:0:
182,192,89354,1,0,0:0:0:0:
256,192,89525,1,0,0:0:0:0:
402,192,89525,1,0,0:0:0:0:
109,192,89525,1,0,0:0:0:0:
402,192,89695,128,0,89866:0:0:0:0:
256,192,89695,1,0,0:0:0:0:
36,192,89695,1,0,0:0:0:0:
182,192,89695,1,0,0:0:0:0:
109,192,89866,1,0,0:0:0:0:
256,192,89866,1,0,0:0:0:0:
182,192,89866,1,0,0:0:0:0:
329,192,89951,1,0,0:0:0:0:
475,192,89951,1,0,0:0:0:0:
402,192,90036,1,0,0:0:0:0:
36,192,90036,1,0,0:0:0:0:
182,192,90036,1,0,0:0:0:0:
109,192,90036,1,0,0:0:0:0:
329,192,90079,1,0,0:0:0:0:
256,192,90121,1,0,0:0:0:0:
182,192,90164,1,0,0:0:0:0:
109,192,90207,1,0,0:0:0:0:
36,192,90207,128,0,90548:0:0:0:0:
329,192,90207,128,0,90292:0:0:0:0:
475,192,90207,128,0,90292:0:0:0:0:
402,192,90292,128,0,90377:0:0:0:0:
256,192,90292,128,0,90377:0:0:0:0:
329,192,90377,128,0,90462:0:0:0:0:
182,192,90377,128,0,90462:0:0:0:0:
109,192,90462,128,0,90548:0:0:0:0:
256,192,90462,128,0,90548:0:0:0:0:
182,192,90548,1,0,0:0:0:0:
475,192,90548,1,0,0:0:0:0:
329,192,90548,128,0,90633:0:0:0:0:
402,192,90548,128,0,90633:0:0:0:0:
256,192,90633,128,0,90718:0:0:0:0:
109,192,90633,128,0,90718:0:0:0:0:
182,192,90718,128,0,91059:0:0:0:0:
329,192,90718,128,0,90803:0:0:0:0:
475,192,90718,128,0,90803:0:0:0:0:
256,192,90803,128,0,90889:0:0:0:0:
109,192,90803,128,0,90889:0:0:0:0:
36,192,90889,1,0,0:0:0:0:
329,192,90889,128,0,90974:0:0:0:0:
475,192,90889,128,0,90974:0:0:0:0:
256,192,90974,128,0,91059:0:0:0:0:
402,192,90974,128,0,91059:0:0:0:0:
109,192,91059,128,0,91144:0:0:0:0:
329,192,91059,128,0,91144:0:0:0:0:
402,192,91144,128,0,91229:0:0:0:0:
256,192,91144,128,0,91229:0:0:0:0:
329,192,91229,128,0,91570:0:0:0:0:
109,192,91229,1,0,0:0:0:0:
475,192,91229,1,0,0:0:0:0:
182,192,91229,128,0,91315:0:0:0:0:
36,192,91229,128,0,91315:0:0:0:0:
256,192,91315,128,0,91400:0:0:0:0:
402,192,91315,128,0,91400:0:0:0:0:
182,192,91400,128,0,91485:0:0:0:0:
109,192,91400,128,0,91485:0:0:0:0:
402,192,91485,128,0,91570:0:0:0:0:
475,192,91485,128,0,91570:0:0:0:0:
182,192,91570,1,0,0:0:0:0:
256,192,91570,128,0,91656:0:0:0:0:
36,192,91570,128,0,91656:0:0:0:0:
109,192,91656,128,0,91741:0:0:0:0:
329,192,91656,128,0,91741:0:0:0:0:
475,192,91741,128,0,92082:0:0:0:0:
182,192,91741,128,0,91826:0:0:0:0:
402,192,91741,128,0,91826:0:0:0:0:
36,192,91826,128,0,91911:0:0:0:0:
329,192,91826,128,0,91911:0:0:0:0:
109,192,91911,1,0,0:0:0:0:
256,192,91911,1,0,0:0:0:0:
182,192,91911,128,0,91996:0:0:0:0:
402,192,91911,128,0,91996:0:0:0:0:
329,192,91996,128,0,92082:0:0:0:0:
36,192,91996,128,0,92082:0:0:0:0:
182,192,92082,128,0,92167:0:0:0:0:
402,192,92082,128,0,92167:0:0:0:0:
256,192,92167,128,0,92252:0:0:0:0:
475,192,92167,128,0,92252:0:0:0:0:
109,192,92252,128,0,92593:0:0:0:0:
329,192,92252,1,0,0:0:0:0:
402,192,92252,128,0,92337:0:0:0:0:
182,192,92252,128,0,92337:0:0:0:0:
256,192,92337,128,0,92423:0:0:0:0:
36,192,92337,128,0,92423:0:0:0:0:
182,192,92423,128,0,92508:0:0:0:0:
402,192,92423,128,0,92508:0:0:0:0:
329,192,92508,128,0,92593:0:0:0:0:
475,192,92508,128,0,92593:0:0:0:0:
256,192,92593,128,0,92934:0:0:0:0:
402,192,92593,1,0,0:0:0:0:
182,192,92593,128,0,92678:0:0:0:0:
36,192,92593,128,0,92678:0:0:0:0:
329,192,92678,128,0,92764:0:0:0:0:
475,192,92678,128,0,92764:0:0:0:0:
182,192,92764,128,0,92849:0:0:0:0:
36,192,92764,128,0,92849:0:0:0:0:
109,192,92849,128,0,92934:0:0:0:0:
329,192,92849,128,0,92934:0:0:0:0:
402,192,92934,128,0,93275:0:0:0:0:
475,192,92934,1,0,0:0:0:0:
182,192,92934,128,0,93019:0:0:0:0:
36,192,92934,128,0,93019:0:0:0:0:
109,192,93019,128,0,93104:0:0:0:0:
329,192,93019,128,0,93104:0:0:0:0:
256,192,93104,128,0,93190:0:0:0:0:
36,192,93104,128,0,93190:0:0:0:0:
182,192,93190,128,0,93275:0:0:0:0:
475,192,93190,128,0,93275:0:0:0:0:
36,192,93275,1,0,0:0:0:0:
256,192,93275,1,0,0:0:0:0:
109,192,93275,128,0,93360:0:0:0:0:
329,192,93275,128,0,93360:0:0:0:0:
182,192,93360,128,0,93445:0:0:0:0:
475,192,93360,128,0,93445:0:0:0:0:
36,192,93445,128,0,93786:0:0:0:0:
402,192,93445,128,0,93531:0:0:0:0:
256,192,93445,128,0,93531:0:0:0:0:
182,192,93531,128,0,93616:0:0:0:0:
329,192,93531,128,0,93616:0:0:0:0:
109,192,93616,1,0,0:0:0:0:
256,192,93616,128,0,93701:0:0:0:0:
475,192,93616,128,0,93701:0:0:0:0:
329,192,93701,128,0,93786:0:0:0:0:
402,192,93701,128,0,93786:0:0:0:0:
256,192,93786,128,0,93871:0:0:0:0:
109,192,93786,128,0,93871:0:0:0:0:
402,192,93871,128,0,93957:0:0:0:0:
475,192,93871,128,0,93957:0:0:0:0:
182,192,93957,128,0,94298:0:0:0:0:
329,192,93957,1,0,0:0:0:0:
256,192,93957,1,0,0:0:0:0:
109,192,93957,128,0,94042:0:0:0:0:
36,192,93957,128,0,94042:0:0:0:0:
402,192,94042,128,0,94127:0:0:0:0:
475,192,94042,128,0,94127:0:0:0:0:
256,192,94127,128,0,94212:0:0:0:0:
109,192,94127,128,0,94212:0:0:0:0:
329,192,94212,128,0,94298:0:0:0:0:
402,192,94212,128,0,94298:0:0:0:0:
109,192,94298,1,0,0:0:0:0:
475,192,94298,128,0,94383:0:0:0:0:
36,192,94298,128,0,94383:0:0:0:0:
402,192,94383,128,0,94468:0:0:0:0:
256,192,94383,128,0,94468:0:0:0:0:
329,192,94468,128,0,94809:0:0:0:0:
182,192,94468,128,0,94553:0:0:0:0:
36,192,94468,128,0,94553:0:0:0:0:
256,192,94553,128,0,94639:0:0:0:0:
475,192,94553,128,0,94639:0:0:0:0:
182,192,94639,1,0,0:0:0:0:
36,192,94639,1,0,0:0:0:0:
109,192,94639,128,0,94724:0:0:0:0:
402,192,94639,128,0,94724:0:0:0:0:
256,192,94724,128,0,94809:0:0:0:0:
475,192,94724,128,0,94809:0:0:0:0:
182,192,94809,128,0,94894:0:0:0:0:
402,192,94809,128,0,94894:0:0:0:0:
109,192,94894,128,0,94979:0:0:0:0:
329,192,94894,128,0,94979:0:0:0:0:
475,192,94979,128,0,95320:0:0:0:0:
402,192,94979,1,0,0:0:0:0:
182,192,94979,128,0,95065:0:0:0:0:
36,192,94979,128,0,95065:0:0:0:0:
256,192,95065,128,0,95150:0:0:0:0:
329,192,95065,128,0,95150:0:0:0:0:
182,192,95150,128,0,95235:0:0:0:0:
109,192,95150,128,0,95235:0:0:0:0:
329,192,95235,128,0,95320:0:0:0:0:
402,192,95235,128,0,95320:0:0:0:0:
109,192,95320,128,0,95661:0:0:0:0:
36,192,95320,1,0,0:0:0:0:
256,192,95320,128,0,95406:0:0:0:0:
182,192,95320,128,0,95406:0:0:0:0:
402,192,95406,128,0,95491:0:0:0:0:
475,192,95406,128,0,95491:0:0:0:0:
329,192,95491,128,0,95576:0:0:0:0:
256,192,95491,128,0,95576:0:0:0:0:
475,192,95576,128,0,95661:0:0:0:0:
36,192,95576,128,0,95661:0:0:0:0:
329,192,95661,128,0,96002:0:0:0:0:
402,192,95661,1,0,0:0:0:0:
182,192,95661,128,0,95746:0:0:0:0:
256,192,95661,128,0,95746:0:0:0:0:
109,192,95746,128,0,95832:0:0:0:0:
36,192,95746,128,0,95832:0:0:0:0:
402,192,95832,128,0,95917:0:0:0:0:
475,192,95832,128,0,95917:0:0:0:0:
256,192,95917,128,0,96002:0:0:0:0:
182,192,95917,128,0,96002:0:0:0:0:
475,192,96002,1,0,0:0:0:0:
36,192,96002,1,0,0:0:0:0:
109,192,96002,128,0,96087:0:0:0:0:
402,192,96002,128,0,96087:0:0:0:0:
182,192,96087,128,0,96173:0:0:0:0:
329,192,96087,128,0,96173:0:0:0:0:
36,192,96173,128,0,96514:0:0:0:0:
109,192,96173,128,0,96258:0:0:0:0:
256,192,96173,128,0,96258:0:0:0:0:
329,192,96258,128,0,96343:0:0:0:0:
475,192,96258,128,0,96343:0:0:0:0:
109,192,96343,1,0,0:0:0:0:
256,192,96343,128,0,96428:0:0:0:0:
402,192,96343,128,0,96428:0:0:0:0:
182,192,96428,128,0,96514:0:0:0:0:
329,192,96428,128,0,96514:0:0:0:0:
256,192,96514,128,0,96599:0:0:0:0:
402,192,96514,128,0,96599:0:0:0:0:
182,192,96599,128,0,96684:0:0:0:0:
329,192,96599,128,0,96684:0:0:0:0:
36,192,96684,1,0,0:0:0:0:
475,192,96684,1,0,0:0:0:0:
402,192,96684,128,0,97025:0:0:0:0:
256,192,96684,128,0,96769:0:0:0:0:
109,192,96684,128,0,96769:0:0:0:0:
182,192,96769,128,0,96854:0:0:0:0:
329,192,96769,128,0,96854:0:0:0:0:
256,192,96854,128,0,96940:0:0:0:0:
109,192,96854,128,0,96940:0:0:0:0:
36,192,96940,128,0,97025:0:0:0:0:
182,192,96940,128,0,97025:0:0:0:0:
475,192,97025,1,0,0:0:0:0:
109,192,97025,128,0,97110:0:0:0:0:
256,192,97025,128,0,97110:0:0:0:0:
182,192,97110,128,0,97195:0:0:0:0:
329,192,97110,128,0,97195:0:0:0:0:
109,192,97195,128,0,97536:0:0:0:0:
256,192,97195,128,0,97281:0:0:0:0:
402,192,97195,128,0,97281:0:0:0:0:
329,192,97281,128,0,97366:0:0:0:0:
475,192,97281,128,0,97366:0:0:0:0:
182,192,97366,1,0,0:0:0:0:
36,192,97366,1,0,0:0:0:0:
256,192,97366,128,0,97451:0:0:0:0:
402,192,97366,128,0,97451:0:0:0:0:
329,192,97451,128,0,97536:0:0:0:0:
475,192,97451,128,0,97536:0:0:0:0:
256,192,97536,128,0,97621:0:0:0:0:
402,192,97536,128,0,97621:0:0:0:0:
329,192,97621,128,0,97707:0:0:0:0:
182,192,97621,128,0,97707:0:0:0:0:
475,192,97707,128,0,98048:0:0:0:0:
36,192,97707,1,0,0:0:0:0:
256,192,97707,128,0,97792:0:0:0:0:
402,192,97707,128,0,97792:0:0:0:0:
329,192,97792,128,0,97877:0:0:0:0:
109,192,97792,128,0,97877:0:0:0:0:
36,192,97877,128,0,97962:0:0:0:0:
256,192,97877,128,0,97962:0:0:0:0:
182,192,97962,128,0,98048:0:0:0:0:
109,192,97962,128,0,98048:0:0:0:0:
329,192,98048,128,0,98389:0:0:0:0:
402,192,98048,1,0,0:0:0:0:
36,192,98048,128,0,98133:0:0:0:0:
256,192,98048,128,0,98133:0:0:0:0:
182,192,98133,128,0,98218:0:0:0:0:
475,192,98133,128,0,98218:0:0:0:0:
109,192,98218,128,0,98303:0:0:0:0:
402,192,98218,128,0,98303:0:0:0:0:
256,192,98303,128,0,98389:0:0:0:0:
36,192,98303,128,0,98389:0:0:0:0:
475,192,98389,1,0,0:0:0:0:
182,192,98389,128,0,98729:0:0:0:0:
109,192,98389,128,0,98474:0:0:0:0:
402,192,98389,128,0,98474:0:0:0:0:
36,192,98474,128,0,98559:0:0:0:0:
329,192,98474,128,0,98559:0:0:0:0:
109,192,98559,128,0,98644:0:0:0:0:
475,192,98559,128,0,98644:0:0:0:0:
402,192,98644,128,0,98729:0:0:0:0:
256,192,98644,128,0,98729:0:0:0:0:
475,192,98729,128,0,98900:0:0:0:0:
36,192,98729,1,0,0:0:0:0:
109,192,98729,128,0,98815:0:0:0:0:
329,192,98729,128,0,98815:0:0:0:0:
182,192,98815,128,0,98900:0:0:0:0:
402,192,98815,128,0,98900:0:0:0:0:
329,192,98900,128,0,99241:0:0:0:0:
256,192,98900,128,0,98985:0:0:0:0:
109,192,98900,128,0,98985:0:0:0:0:
182,192,98985,128,0,99070:0:0:0:0:
402,192,98985,128,0,99070:0:0:0:0:
256,192,99070,1,0,0:0:0:0:
475,192,99070,128,0,99156:0:0:0:0:
36,192,99070,128,0,99156:0:0:0:0:
182,192,99156,128,0,99241:0:0:0:0:
109,192,99156,128,0,99241:0:0:0:0:
36,192,99241,128,0,99582:0:0:0:0:
402,192,99241,128,0,99326:0:0:0:0:
475,192,99241,128,0,99326:0:0:0:0:
329,192,99326,128,0,99411:0:0:0:0:
256,192,99326,128,0,99411:0:0:0:0:
475,192,99411,1,0,0:0:0:0:
109,192,99411,1,0,0:0:0:0:
182,192,99411,128,0,99496:0:0:0:0:
402,192,99411,128,0,99496:0:0:0:0:
329,192,99496,128,0,99582:0:0:0:0:
256,192,99496,128,0,99582:0:0:0:0:
475,192,99582,128,0,99667:0:0:0:0:
182,192,99582,128,0,99923:0:0:0:0:
109,192,99582,128,0,99667:0:0:0:0:
256,192,99667,128,0,99752:0:0:0:0:
402,192,99667,128,0,99752:0:0:0:0:
36,192,99752,1,0,0:0:0:0:
329,192,99752,128,0,99837:0:0:0:0:
109,192,99752,128,0,99837:0:0:0:0:
256,192,99837,128,0,99923:0:0:0:0:
402,192,99837,128,0,99923:0:0:0:0:
475,192,99923,128,0,100093:0:0:0:0:
109,192,99923,128,0,99965:0:0:0:0:
36,192,99923,1,0,0:0:0:0:
329,192,99923,1,0,0:0:0:0:
402,192,100008,128,0,100050:0:0:0:0:
329,192,100093,128,0,100264:0:0:0:0:
256,192,100093,1,0,0:0:0:0:
36,192,100093,1,0,0:0:0:0:
182,192,100093,1,0,0:0:0:0:
109,192,100178,128,0,100221:0:0:0:0:
182,192,100264,128,0,100434:0:0:0:0:
256,192,100264,1,0,0:0:0:0:
402,192,100349,128,0,100391:0:0:0:0:
36,192,100434,128,0,100604:0:0:0:0:
256,192,100434,1,0,0:0:0:0:
109,192,100434,1,0,0:0:0:0:
329,192,100434,1,0,0:0:0:0:
475,192,100434,1,0,0:0:0:0:
182,192,100519,128,0,100562:0:0:0:0:
402,192,100604,128,0,100775:0:0:0:0:
109,192,100604,1,0,0:0:0:0:
256,192,100604,1,0,0:0:0:0:
475,192,100604,1,0,0:0:0:0:
329,192,100690,128,0,100732:0:0:0:0:
256,192,100775,128,0,100945:0:0:0:0:
182,192,100775,1,0,0:0:0:0:
36,192,100775,1,0,0:0:0:0:
329,192,100860,1,0,0:0:0:0:
475,192,100860,1,0,0:0:0:0:
182,192,100945,1,0,0:0:0:0:
36,192,100945,1,0,0:0:0:0:
109,192,100945,128,0,101116:0:0:0:0:
329,192,101031,1,0,0:0:0:0:
402,192,101031,1,0,0:0:0:0:
36,192,101116,128,0,101371:0:0:0:0:
182,192,101116,128,0,101201:0:0:0:0:
475,192,101116,128,0,101286:0:0:0:0:
256,192,101116,128,0,101371:0:0:0:0:
329,192,101201,128,0,101371:0:0:0:0:
402,192,101201,128,0,101286:0:0:0:0:
182,192,101286,128,0,101457:0:0:0:0:
109,192,101286,128,0,101457:0:0:0:0:
475,192,101371,128,0,101712:0:0:0:0:
402,192,101371,128,0,101542:0:0:0:0:
256,192,101457,128,0,101712:0:0:0:0:
36,192,101457,128,0,101627:0:0:0:0:
329,192,101457,1,0,0:0:0:0:
182,192,101542,128,0,101712:0:0:0:0:
109,192,101542,128,0,101627:0:0:0:0:
329,192,101627,128,0,101798:0:0:0:0:
402,192,101627,128,0,101798:0:0:0:0:
109,192,101712,128,0,102139:0:0:0:0:
36,192,101712,128,0,101883:0:0:0:0:
475,192,101798,128,0,101968:0:0:0:0:
256,192,101798,128,0,102053:0:0:0:0:
182,192,101798,1,0,0:0:0:0:
402,192,101883,128,0,101968:0:0:0:0:
329,192,101883,128,0,102053:0:0:0:0:
36,192,101968,1,0,0:0:0:0:
182,192,101968,128,0,102139:0:0:0:0:
402,192,102053,128,0,102479:0:0:0:0:
475,192,102053,128,0,102224:0:0:0:0:
329,192,102139,1,0,0:0:0:0:
256,192,102139,128,0,102394:0:0:0:0:
36,192,102139,128,0,102309:0:0:0:0:
182,192,102224,128,0,102394:0:0:0:0:
109,192,102224,128,0,102309:0:0:0:0:
329,192,102309,128,0,102394:0:0:0:0:
475,192,102309,128,0,102479:0:0:0:0:
36,192,102394,128,0,102565:0:0:0:0:
109,192,102394,128,0,102820:0:0:0:0:
182,192,102479,1,0,0:0:0:0:
256,192,102479,128,0,102650:0:0:0:0:
329,192,102479,128,0,102650:0:0:0:0:
402,192,102565,128,0,102735:0:0:0:0:
475,192,102565,128,0,102735:0:0:0:0:
36,192,102650,128,0,102820:0:0:0:0:
182,192,102650,128,0,102735:0:0:0:0:
329,192,102735,128,0,102906:0:0:0:0:
256,192,102735,128,0,102991:0:0:0:0:
475,192,102820,1,0,0:0:0:0:
182,192,102820,128,0,102991:0:0:0:0:
402,192,102820,128,0,103076:0:0:0:0:
36,192,102906,128,0,103076:0:0:0:0:
109,192,102906,128,0,103076:0:0:0:0:
329,192,102991,128,0,103161:0:0:0:0:
475,192,102991,128,0,103417:0:0:0:0:
256,192,103076,128,0,103161:0:0:0:0:
182,192,103076,128,0,103246:0:0:0:0:
109,192,103161,1,0,0:0:0:0:
402,192,103161,128,0,103332:0:0:0:0:
36,192,103161,128,0,103587:0:0:0:0:
329,192,103246,128,0,103332:0:0:0:0:
256,192,103246,128,0,103417:0:0:0:0:
109,192,103332,128,0,103587:0:0:0:0:
182,192,103332,128,0,103417:0:0:0:0:
402,192,103417,128,0,103502:0:0:0:0:
329,192,103417,128,0,103502:0:0:0:0:
475,192,103502,128,0,103928:0:0:0:0:
182,192,103502,128,0,103758:0:0:0:0:
256,192,103502,1,0,0:0:0:0:
329,192,103587,128,0,103673:0:0:0:0:
402,192,103587,128,0,103928:0:0:0:0:
109,192,103673,128,0,103758:0:0:0:0:
36,192,103673,128,0,103758:0:0:0:0:
256,192,103758,128,0,103843:0:0:0:0:
329,192,103758,128,0,103843:0:0:0:0:
109,192,103843,128,0,104184:0:0:0:0:
182,192,103843,1,0,0:0:0:0:
36,192,103843,128,0,104099:0:0:0:0:
329,192,103928,128,0,104099:0:0:0:0:
256,192,103928,128,0,104014:0:0:0:0:
402,192,104014,128,0,104099:0:0:0:0:
475,192,104014,128,0,104781:0:0:0:0:
256,192,104099,128,0,104269:0:0:0:0:
182,192,104099,128,0,104184:0:0:0:0:
402,192,104184,128,0,104440:0:0:0:0:
36,192,104184,128,0,104354:0:0:0:0:
329,192,104184,1,0,0:0:0:0:
182,192,104269,128,0,104440:0:0:0:0:
109,192,104269,128,0,104354:0:0:0:0:
329,192,104354,128,0,104610:0:0:0:0:
256,192,104354,128,0,104440:0:0:0:0:
109,192,104440,128,0,104525:0:0:0:0:
36,192,104440,128,0,104525:0:0:0:0:
182,192,104525,1,0,0:0:0:0:
256,192,104525,128,0,104610:0:0:0:0:
402,192,104525,128,0,104781:0:0:0:0:
109,192,104610,128,0,104695:0:0:0:0:
36,192,104610,128,0,105036:0:0:0:0:
256,192,104695,128,0,105207:0:0:0:0:
329,192,104695,128,0,104781:0:0:0:0:
182,192,104781,128,0,104866:0:0:0:0:
109,192,104781,128,0,104866:0:0:0:0:
475,192,104866,128,0,105121:0:0:0:0:
402,192,104866,1,0,0:0:0:0:
329,192,104866,128,0,104951:0:0:0:0:
182,192,104951,128,0,105207:0:0:0:0:
109,192,104951,128,0,105036:0:0:0:0:
329,192,105036,128,0,105121:0:0:0:0:
402,192,105036,128,0,105121:0:0:0:0:
109,192,105121,128,0,105292:0:0:0:0:
36,192,105121,128,0,105292:0:0:0:0:
329,192,105207,1,0,0:0:0:0:
475,192,105207,128,0,105548:0:0:0:0:
402,192,105207,128,0,105377:0:0:0:0:
256,192,105292,128,0,105718:0:0:0:0:
182,192,105292,128,0,105462:0:0:0:0:
109,192,105377,128,0,105462:0:0:0:0:
36,192,105377,128,0,105462:0:0:0:0:
329,192,105462,128,0,105718:0:0:0:0:
402,192,105462,128,0,105548:0:0:0:0:
109,192,105548,128,0,105633:0:0:0:0:
36,192,105548,128,0,105803:0:0:0:0:
182,192,105548,1,0,0:0:0:0:
402,192,105633,128,0,105803:0:0:0:0:
475,192,105633,128,0,106144:0:0:0:0:
182,192,105718,128,0,105803:0:0:0:0:
109,192,105718,128,0,105889:0:0:0:0:
256,192,105803,128,0,105889:0:0:0:0:
329,192,105803,128,0,105974:0:0:0:0:
36,192,105889,128,0,106144:0:0:0:0:
402,192,105889,128,0,106059:0:0:0:0:
182,192,105889,1,0,0:0:0:0:
109,192,105974,128,0,106400:0:0:0:0:
256,192,105974,128,0,106059:0:0:0:0:
329,192,106059,128,0,106144:0:0:0:0:
182,192,106059,128,0,106144:0:0:0:0:
256,192,106144,128,0,106229:0:0:0:0:
402,192,106144,128,0,106229:0:0:0:0:
36,192,106229,128,0,106485:0:0:0:0:
475,192,106229,128,0,106485:0:0:0:0:
182,192,106229,128,0,106315:0:0:0:0:
329,192,106229,1,0,0:0:0:0:
256,192,106315,128,0,106400:0:0:0:0:
402,192,106315,128,0,106485:0:0:0:0:
182,192,106400,128,0,106485:0:0:0:0:
329,192,106400,128,0,106485:0:0:0:0:
109,192,106485,128,0,106570:0:0:0:0:
256,192,106485,128,0,106570:0:0:0:0:
182,192,106570,1,0,0:0:0:0:
329,192,106570,1,0,0:0:0:0:
402,192,106570,1,0,0:0:0:0:
475,192,106570,128,0,106826:0:0:0:0:
36,192,106570,1,0,0:0:0:0:
256,192,106656,1,0,0:0:0:0:
109,192,106656,1,0,0:0:0:0:
182,192,106741,1,0,0:0:0:0:
36,192,106741,1,0,0:0:0:0:
329,192,106741,1,0,0:0:0:0:
402,192,106826,1,0,0:0:0:0:
256,192,106826,1,0,0:0:0:0:
329,192,106911,128,0,107082:0:0:0:0:
36,192,106911,1,0,0:0:0:0:
475,192,106911,1,0,0:0:0:0:
109,192,106911,1,0,0:0:0:0:
182,192,106911,1,0,0:0:0:0:
402,192,106996,1,0,0:0:0:0:
256,192,106996,1,0,0:0:0:0:
182,192,107082,128,0,107423:0:0:0:0:
475,192,107082,1,0,0:0:0:0:
109,192,107082,1,0,0:0:0:0:
36,192,107082,1,0,0:0:0:0:
256,192,107167,1,0,0:0:0:0:
402,192,107167,1,0,0:0:0:0:
329,192,107252,1,0,0:0:0:0:
36,192,107252,1,0,0:0:0:0:
475,192,107252,1,0,0:0:0:0:
256,192,107337,1,0,0:0:0:0:
402,192,107337,1,0,0:0:0:0:
36,192,107423,128,0,107764:0:0:0:0:
329,192,107423,1,0,0:0:0:0:
109,192,107423,1,0,0:0:0:0:
475,192,107423,1,0,0:0:0:0:
256,192,107508,1,0,0:0:0:0:
402,192,107508,1,0,0:0:0:0:
109,192,107593,1,0,0:0:0:0:
182,192,107593,1,0,0:0:0:0:
475,192,107593,1,0,0:0:0:0:
329,192,107593,1,0,0:0:0:0:
256,192,107678,1,0,0:0:0:0:
402,192,107678,1,0,0:0:0:0:
182,192,107764,128,0,108104:0:0:0:0:
329,192,107764,1,0,0:0:0:0:
475,192,107764,1,0,0:0:0:0:
109,192,107764,1,0,0:0:0:0:
36,192,107849,1,0,0:0:0:0:
402,192,107849,1,0,0:0:0:0:
256,192,107934,1,0,0:0:0:0:
475,192,107934,1,0,0:0:0:0:
329,192,108019,1,0,0:0:0:0:
109,192,108019,1,0,0:0:0:0:
402,192,108104,128,0,108445:0:0:0:0:
475,192,108104,1,0,0:0:0:0:
256,192,108104,1,0,0:0:0:0:
36,192,108104,1,0,0:0:0:0:
329,192,108190,1,0,0:0:0:0:
182,192,108190,1,0,0:0:0:0:
256,192,108275,1,0,0:0:0:0:
475,192,108275,1,0,0:0:0:0:
109,192,108275,1,0,0:0:0:0:
36,192,108275,1,0,0:0:0:0:
329,192,108360,1,0,0:0:0:0:
182,192,108360,1,0,0:0:0:0:
109,192,108445,128,0,108786:0:0:0:0:
256,192,108445,1,0,0:0:0:0:
475,192,108445,1,0,0:0:0:0:
182,192,108531,1,0,0:0:0:0:
402,192,108531,1,0,0:0:0:0:
256,192,108616,1,0,0:0:0:0:
36,192,108616,1,0,0:0:0:0:
475,192,108616,1,0,0:0:0:0:
402,192,108701,1,0,0:0:0:0:
329,192,108701,1,0,0:0:0:0:
475,192,108786,128,0,109127:0:0:0:0:
36,192,108786,1,0,0:0:0:0:
256,192,108786,1,0,0:0:0:0:
182,192,108871,1,0,0:0:0:0:
329,192,108871,1,0,0:0:0:0:
256,192,108957,1,0,0:0:0:0:
402,192,108957,1,0,0:0:0:0:
109,192,108957,1,0,0:0:0:0:
329,192,109042,1,0,0:0:0:0:
36,192,109042,1,0,0:0:0:0:
182,192,109127,128,0,109639:0:0:0:0:
109,192,109127,1,0,0:0:0:0:
256,192,109127,1,0,0:0:0:0:
329,192,109212,1,0,0:0:0:0:
475,192,109212,1,0,0:0:0:0:
256,192,109298,1,0,0:0:0:0:
36,192,109298,1,0,0:0:0:0:
109,192,109298,1,0,0:0:0:0:
402,192,109298,1,0,0:0:0:0:
329,192,109383,1,0,0:0:0:0:
475,192,109383,1,0,0:0:0:0:
402,192,109468,1,0,0:0:0:0:
109,192,109468,1,0,0:0:0:0:
475,192,109553,1,0,0:0:0:0:
329,192,109553,1,0,0:0:0:0:
402,192,109639,128,0,109809:0:0:0:0:
36,192,109639,128,0,109724:0:0:0:0:
109,192,109639,1,0,0:0:0:0:
256,192,109639,1,0,0:0:0:0:
329,192,109681,128,0,109766:0:0:0:0:
36,192,109809,1,0,0:0:0:0:
109,192,109809,128,0,109894:0:0:0:0:
329,192,109809,1,0,0:0:0:0:
182,192,109809,1,0,0:0:0:0:
475,192,109809,128,0,109979:0:0:0:0:
256,192,109809,1,0,0:0:0:0:
402,192,109852,128,0,109937:0:0:0:0:
402,192,109979,1,0,0:0:0:0:
36,192,109979,128,0,110065:0:0:0:0:
109,192,109979,1,0,0:0:0:0:
256,192,109979,128,0,110235:0:0:0:0:
329,192,109979,1,0,0:0:0:0:
182,192,110022,128,0,110107:0:0:0:0:
182,192,110150,1,0,0:0:0:0:
36,192,110150,1,0,0:0:0:0:
109,192,110150,128,0,110235:0:0:0:0:
402,192,110150,128,0,110320:0:0:0:0:
329,192,110150,1,0,0:0:0:0:
475,192,110192,128,0,110278:0:0:0:0:
36,192,110320,1,0,0:0:0:0:
256,192,110320,1,0,0:0:0:0:
329,192,110320,128,0,110406:0:0:0:0:
182,192,110320,128,0,110491:0:0:0:0:
475,192,110320,1,0,0:0:0:0:
109,192,110363,128,0,110448:0:0:0:0:
475,192,110491,1,0,0:0:0:0:
256,192,110491,128,0,110576:0:0:0:0:
109,192,110491,1,0,0:0:0:0:
329,192,110491,128,0,110661:0:0:0:0:
36,192,110491,1,0,0:0:0:0:
402,192,110533,128,0,110619:0:0:0:0:
36,192,110661,1,0,0:0:0:0:
402,192,110661,1,0,0:0:0:0:
475,192,110661,128,0,110746:0:0:0:0:
182,192,110661,128,0,110832:0:0:0:0:
109,192,110661,1,0,0:0:0:0:
256,192,110704,128,0,110789:0:0:0:0:
256,192,110832,1,0,0:0:0:0:
475,192,110832,1,0,0:0:0:0:
402,192,110832,128,0,110917:0:0:0:0:
36,192,110832,128,0,111002:0:0:0:0:
329,192,110832,1,0,0:0:0:0:
109,192,110874,128,0,110960:0:0:0:0:
109,192,111002,1,0,0:0:0:0:
402,192,111002,1,0,0:0:0:0:
475,192,111002,128,0,111087:0:0:0:0:
256,192,111002,128,0,111173:0:0:0:0:
182,192,111002,1,0,0:0:0:0:
329,192,111045,128,0,111130:0:0:0:0:
475,192,111173,1,0,0:0:0:0:
402,192,111173,128,0,111258:0:0:0:0:
182,192,111173,1,0,0:0:0:0:
109,192,111173,128,0,111343:0:0:0:0:
329,192,111173,1,0,0:0:0:0:
36,192,111215,128,0,111300:0:0:0:0:
475,192,111343,1,0,0:0:0:0:
36,192,111343,1,0,0:0:0:0:
182,192,111343,128,0,111428:0:0:0:0:
329,192,111343,128,0,111514:0:0:0:0:
256,192,111343,1,0,0:0:0:0:
402,192,111386,128,0,111471:0:0:0:0:
182,192,111514,128,0,111684:0:0:0:0:
402,192,111514,1,0,0:0:0:0:
475,192,111514,1,0,0:0:0:0:
256,192,111514,128,0,111599:0:0:0:0:
36,192,111514,1,0,0:0:0:0:
109,192,111556,128,0,111641:0:0:0:0:
256,192,111684,1,0,0:0:0:0:
36,192,111684,1,0,0:0:0:0:
329,192,111684,1,0,0:0:0:0:
402,192,111684,128,0,111854:0:0:0:0:
475,192,111727,128,0,111812:0:0:0:0:
109,192,111769,1,0,0:0:0:0:
182,192,111769,1,0,0:0:0:0:
256,192,111854,128,0,112025:0:0:0:0:
36,192,111854,1,0,0:0:0:0:
475,192,111854,1,0,0:0:0:0:
182,192,111897,128,0,111982:0:0:0:0:
329,192,111940,1,0,0:0:0:0:
402,192,111940,1,0,0:0:0:0:
109,192,112025,1,0,0:0:0:0:
36,192,112025,1,0,0:0:0:0:
475,192,112025,1,0,0:0:0:0:
402,192,112025,128,0,112366:0:0:0:0:
182,192,112025,1,0,0:0:0:0:
109,192,112366,1,0,0:0:0:0:
182,192,112366,1,0,0:0:0:0:
256,192,112366,1,0,0:0:0:0:
475,192,112366,1,0,0:0:0:0:
36,192,112366,128,0,112707:0:0:0:0:
329,192,112536,128,0,112707:0:0:0:0:
402,192,112536,1,0,0:0:0:0:
475,192,112707,128,0,112877:0:0:0:0:
182,192,112707,1,0,0:0:0:0:
256,192,112877,128,0,113048:0:0:0:0:
109,192,112877,1,0,0:0:0:0:
36,192,112877,1,0,0:0:0:0:
329,192,112877,1,0,0:0:0:0:
402,192,113048,128,0,113218:0:0:0:0:
182,192,113048,1,0,0:0:0:0:
475,192,113048,1,0,0:0:0:0:
182,192,113218,128,0,113559:0:0:0:0:
329,192,113218,1,0,0:0:0:0:
256,192,113218,1,0,0:0:0:0:
109,192,113218,1,0,0:0:0:0:
36,192,113218,1,0,0:0:0:0:
402,192,113559,128,0,114070:0:0:0:0:
256,192,113559,1,0,0:0:0:0:
109,192,113559,1,0,0:0:0:0:
36,192,113559,1,0,0:0:0:0:
475,192,113559,1,0,0:0:0:0:
109,192,113729,1,0,0:0:0:0:
182,192,113729,1,0,0:0:0:0:
329,192,113729,1,0,0:0:0:0:
475,192,113729,1,0,0:0:0:0:
256,192,113900,1,0,0:0:0:0:
109,192,113900,128,0,114070:0:0:0:0:
182,192,114070,1,0,0:0:0:0:
36,192,114070,1,0,0:0:0:0:
329,192,114070,1,0,0:0:0:0:
475,192,114070,1,0,0:0:0:0:
109,192,114241,1,0,0:0:0:0:
256,192,114241,1,0,0:0:0:0:
402,192,114241,1,0,0:0:0:0:
475,192,114411,1,0,0:0:0:0:
182,192,114411,1,0,0:0:0:0:
402,192,114496,1,0,0:0:0:0:
109,192,114496,1,0,0:0:0:0:
329,192,114582,1,0,0:0:0:0:
182,192,114582,128,0,114752:0:0:0:0:
36,192,114582,1,0,0:0:0:0:
256,192,114667,1,0,0:0:0:0:
475,192,114667,1,0,0:0:0:0:
109,192,114752,128,0,115093:0:0:0:0:
402,192,114752,1,0,0:0:0:0:
329,192,114752,1,0,0:0:0:0:
36,192,114752,1,0,0:0:0:0:
256,192,114923,1,0,0:0:0:0:
475,192,115093,128,0,115434:0:0:0:0:
36,192,115093,1,0,0:0:0:0:
329,192,115093,1,0,0:0:0:0:
402,192,115093,1,0,0:0:0:0:
182,192,115264,128,0,115434:0:0:0:0:
36,192,115434,128,0,115604:0:0:0:0:
256,192,115434,1,0,0:0:0:0:
329,192,115434,1,0,0:0:0:0:
256,192,115604,128,0,115775:0:0:0:0:
182,192,115604,1,0,0:0:0:0:
109,192,115604,1,0,0:0:0:0:
402,192,115604,1,0,0:0:0:0:
475,192,115604,1,0,0:0:0:0:
109,192,115775,128,0,115945:0:0:0:0:
329,192,115775,1,0,0:0:0:0:
182,192,115775,1,0,0:0:0:0:
36,192,115775,1,0,0:0:0:0:
329,192,115945,128,0,116286:0:0:0:0:
256,192,115945,1,0,0:0:0:0:
402,192,115945,1,0,0:0:0:0:
475,192,115945,1,0,0:0:0:0:
36,192,115945,1,0,0:0:0:0:
182,192,116286,128,0,116798:0:0:0:0:
109,192,116286,1,0,0:0:0:0:
36,192,116286,1,0,0:0:0:0:
402,192,116286,1,0,0:0:0:0:
475,192,116286,1,0,0:0:0:0:
109,192,116457,1,0,0:0:0:0:
36,192,116457,1,0,0:0:0:0:
402,192,116457,1,0,0:0:0:0:
329,192,116457,1,0,0:0:0:0:
256,192,116627,1,0,0:0:0:0:
329,192,116798,1,0,0:0:0:0:
475,192,116798,1,0,0:0:0:0:
109,192,116798,1,0,0:0:0:0:
182,192,116968,1,0,0:0:0:0:
36,192,116968,1,0,0:0:0:0:
256,192,116968,1,0,0:0:0:0:
402,192,116968,1,0,0:0:0:0:
36,192,117139,1,0,0:0:0:0:
475,192,117139,1,0,0:0:0:0:
329,192,117139,1,0,0:0:0:0:
109,192,117224,1,0,0:0:0:0:
402,192,117224,1,0,0:0:0:0:
256,192,117224,1,0,0:0:0:0:
36,192,117309,1,0,0:0:0:0:
329,192,117309,1,0,0:0:0:0:
182,192,117309,1,0,0:0:0:0:
109,192,117394,1,0,0:0:0:0:
256,192,117394,1,0,0:0:0:0:
402,192,117394,1,0,0:0:0:0:
36,192,117479,1,0,0:0:0:0:
329,192,117479,1,0,0:0:0:0:
475,192,117479,1,0,0:0:0:0:
182,192,117479,128,0,118502:0:0:0:0:
475,192,117650,128,0,117735:0:0:0:0:
256,192,117650,1,0,0:0:0:0:
402,192,117820,128,0,117906:0:0:0:0:
109,192,117820,1,0,0:0:0:0:
36,192,117820,1,0,0:0:0:0:
329,192,117820,1,0,0:0:0:0:
329,192,117991,128,0,118076:0:0:0:0:
256,192,117991,1,0,0:0:0:0:
402,192,118161,128,0,118246:0:0:0:0:
109,192,118161,1,0,0:0:0:0:
329,192,118161,1,0,0:0:0:0:
475,192,118332,128,0,118417:0:0:0:0:
256,192,118332,1,0,0:0:0:0:
402,192,118332,1,0,0:0:0:0:
402,192,118502,128,0,118587:0:0:0:0:
329,192,118502,1,0,0:0:0:0:
475,192,118502,1,0,0:0:0:0:
36,192,118502,1,0,0:0:0:0:
329,192,118673,128,0,120036:0:0:0:0:
182,192,118673,1,0,0:0:0:0:
256,192,118843,1,0,0:0:0:0:
36,192,119014,128,0,119354:0:0:0:0:
402,192,119014,1,0,0:0:0:0:
182,192,119014,1,0,0:0:0:0:
475,192,119184,1,0,0:0:0:0:
109,192,119184,1,0,0:0:0:0:
256,192,119184,1,0,0:0:0:0:
109,192,119354,128,0,119695:0:0:0:0:
402,192,119354,1,0,0:0:0:0:
256,192,119525,1,0,0:0:0:0:
475,192,119525,1,0,0:0:0:0:
182,192,119695,128,0,120036:0:0:0:0:
402,192,119695,1,0,0:0:0:0:
36,192,119695,1,0,0:0:0:0:
256,192,119866,1,0,0:0:0:0:
109,192,119866,1,0,0:0:0:0:
475,192,119866,1,0,0:0:0:0:
402,192,120036,1,0,0:0:0:0:
109,192,120207,128,0,121229:0:0:0:0:
182,192,120207,1,0,0:0:0:0:
329,192,120207,1,0,0:0:0:0:
402,192,120377,1,0,0:0:0:0:
475,192,120548,128,0,120633:0:0:0:0:
182,192,120548,1,0,0:0:0:0:
36,192,120548,1,0,0:0:0:0:
329,192,120548,1,0,0:0:0:0:
402,192,120718,128,0,120803:0:0:0:0:
256,192,120718,1,0,0:0:0:0:
329,192,120889,128,0,120974:0:0:0:0:
182,192,120889,1,0,0:0:0:0:
36,192,120889,1,0,0:0:0:0:
402,192,121059,128,0,121144:0:0:0:0:
329,192,121059,1,0,0:0:0:0:
475,192,121059,1,0,0:0:0:0:
475,192,121229,128,0,121315:0:0:0:0:
182,192,121229,1,0,0:0:0:0:
36,192,121229,1,0,0:0:0:0:
256,192,121229,1,0,0:0:0:0:
402,192,121229,1,0,0:0:0:0:
402,192,121400,128,0,122082:0:0:0:0:
109,192,121400,1,0,0:0:0:0:
182,192,121400,1,0,0:0:0:0:
329,192,121400,1,0,0:0:0:0:
256,192,121741,1,0,0:0:0:0:
109,192,121741,1,0,0:0:0:0:
36,192,121911,128,0,122082:0:0:0:0:
182,192,121911,1,0,0:0:0:0:
329,192,121911,1,0,0:0:0:0:
475,192,121911,1,0,0:0:0:0:
182,192,122082,128,0,122252:0:0:0:0:
109,192,122082,1,0,0:0:0:0:
256,192,122082,1,0,0:0:0:0:
475,192,122082,1,0,0:0:0:0:
329,192,122252,128,0,122423:0:0:0:0:
475,192,122423,128,0,122593:0:0:0:0:
182,192,122423,1,0,0:0:0:0:
36,192,122423,1,0,0:0:0:0:
109,192,122593,128,0,122764:0:0:0:0:
329,192,122593,1,0,0:0:0:0:
256,192,122764,128,0,122934:0:0:0:0:
182,192,122764,1,0,0:0:0:0:
36,192,122764,1,0,0:0:0:0:
402,192,122764,1,0,0:0:0:0:
402,192,122934,128,0,123275:0:0:0:0:
329,192,122934,1,0,0:0:0:0:
475,192,122934,1,0,0:0:0:0:
109,192,122934,1,0,0:0:0:0:
36,192,123275,128,0,123616:0:0:0:0:
182,192,123275,128,0,123616:0:0:0:0:
109,192,123275,1,0,0:0:0:0:
329,192,123275,1,0,0:0:0:0:
475,192,123275,1,0,0:0:0:0:
256,192,123445,1,0,0:0:0:0:
475,192,123616,128,0,123786:0:0:0:0:
402,192,123616,1,0,0:0:0:0:
109,192,123616,1,0,0:0:0:0:
329,192,123786,128,0,123957:0:0:0:0:
182,192,123786,1,0,0:0:0:0:
36,192,123786,1,0,0:0:0:0:
256,192,123786,1,0,0:0:0:0:
182,192,123957,128,0,124127:0:0:0:0:
109,192,123957,1,0,0:0:0:0:
402,192,123957,1,0,0:0:0:0:
402,192,124127,128,0,124468:0:0:0:0:
256,192,124127,1,0,0:0:0:0:
475,192,124127,1,0,0:0:0:0:
36,192,124127,1,0,0:0:0:0:
109,192,124468,128,0,124979:0:0:0:0:
182,192,124468,1,0,0:0:0:0:
36,192,124468,1,0,0:0:0:0:
329,192,124468,1,0,0:0:0:0:
475,192,124468,1,0,0:0:0:0:
182,192,124639,1,0,0:0:0:0:
329,192,124639,1,0,0:0:0:0:
475,192,124639,1,0,0:0:0:0:
256,192,124809,1,0,0:0:0:0:
402,192,124809,1,0,0:0:0:0:
329,192,124979,1,0,0:0:0:0:
475,192,124979,1,0,0:0:0:0:
182,192,124979,1,0,0:0:0:0:
402,192,125150,1,0,0:0:0:0:
256,192,125150,1,0,0:0:0:0:
109,192,125150,1,0,0:0:0:0:
475,192,125320,1,0,0:0:0:0:
36,192,125320,1,0,0:0:0:0:
182,192,125320,1,0,0:0:0:0:
402,192,125406,1,0,0:0:0:0:
256,192,125406,1,0,0:0:0:0:
109,192,125406,1,0,0:0:0:0:
475,192,125491,1,0,0:0:0:0:
329,192,125491,1,0,0:0:0:0:
182,192,125491,1,0,0:0:0:0:
402,192,125576,1,0,0:0:0:0:
256,192,125576,1,0,0:0:0:0:
109,192,125576,1,0,0:0:0:0:
329,192,125661,128,0,126002:0:0:0:0:
475,192,125661,1,0,0:0:0:0:
182,192,125661,1,0,0:0:0:0:
36,192,125661,1,0,0:0:0:0:
256,192,125832,1,0,0:0:0:0:
182,192,126002,128,0,126343:0:0:0:0:
109,192,126002,1,0,0:0:0:0:
402,192,126002,1,0,0:0:0:0:
475,192,126002,1,0,0:0:0:0:
329,192,126343,1,0,0:0:0:0:
36,192,126514,128,0,126684:0:0:0:0:
109,192,126514,1,0,0:0:0:0:
256,192,126514,1,0,0:0:0:0:
402,192,126514,1,0,0:0:0:0:
475,192,126514,1,0,0:0:0:0:
182,192,126684,128,0,126854:0:0:0:0:
109,192,126684,1,0,0:0:0:0:
329,192,126684,1,0,0:0:0:0:
475,192,126684,1,0,0:0:0:0:
329,192,126854,128,0,127195:0:0:0:0:
36,192,126854,1,0,0:0:0:0:
256,192,126854,1,0,0:0:0:0:
402,192,126854,1,0,0:0:0:0:
475,192,127195,128,0,127536:0:0:0:0:
109,192,127195,1,0,0:0:0:0:
36,192,127195,1,0,0:0:0:0:
256,192,127195,1,0,0:0:0:0:
402,192,127195,1,0,0:0:0:0:
36,192,127366,1,0,0:0:0:0:
109,192,127366,1,0,0:0:0:0:
256,192,127366,1,0,0:0:0:0:
402,192,127366,1,0,0:0:0:0:
329,192,127536,1,0,0:0:0:0:
182,192,127536,1,0,0:0:0:0:
402,192,127707,128,0,127877:0:0:0:0:
256,192,127707,1,0,0:0:0:0:
109,192,127707,1,0,0:0:0:0:
475,192,127707,1,0,0:0:0:0:
109,192,127877,128,0,128218:0:0:0:0:
182,192,127877,1,0,0:0:0:0:
36,192,127877,1,0,0:0:0:0:
329,192,127877,1,0,0:0:0:0:
475,192,128048,1,0,0:0:0:0:
329,192,128048,1,0,0:0:0:0:
182,192,128048,1,0,0:0:0:0:
36,192,128048,1,0,0:0:0:0:
402,192,128133,1,0,0:0:0:0:
256,192,128133,1,0,0:0:0:0:
329,192,128218,1,0,0:0:0:0:
182,192,128218,1,0,0:0:0:0:
256,192,128303,1,0,0:0:0:0:
109,192,128303,1,0,0:0:0:0:
182,192,128389,1,0,0:0:0:0:
36,192,128389,1,0,0:0:0:0:
329,192,128389,1,0,0:0:0:0:
475,192,128389,1,0,0:0:0:0:
402,192,128389,128,0,128729:0:0:0:0:
109,192,128474,1,0,0:0:0:0:
329,192,128559,1,0,0:0:0:0:
182,192,128559,1,0,0:0:0:0:
256,192,128644,1,0,0:0:0:0:
182,192,128729,1,0,0:0:0:0:
36,192,128729,1,0,0:0:0:0:
329,192,128729,1,0,0:0:0:0:
475,192,128729,1,0,0:0:0:0:
109,192,128815,1,0,0:0:0:0:
402,192,128900,1,0,0:0:0:0:
256,192,128900,1,0,0:0:0:0:
109,192,128985,1,0,0:0:0:0:
256,192,129070,128,0,129241:0:0:0:0:
182,192,129070,1,0,0:0:0:0:
329,192,129070,1,0,0:0:0:0:
475,192,129070,1,0,0:0:0:0:
402,192,129156,1,0,0:0:0:0:
109,192,129241,128,0,129582:0:0:0:0:
182,192,129241,1,0,0:0:0:0:
36,192,129241,1,0,0:0:0:0:
329,192,129241,1,0,0:0:0:0:
475,192,129241,1,0,0:0:0:0:
402,192,129326,1,0,0:0:0:0:
182,192,129411,1,0,0:0:0:0:
36,192,129411,1,0,0:0:0:0:
329,192,129411,1,0,0:0:0:0:
475,192,129411,1,0,0:0:0:0:
256,192,129496,1,0,0:0:0:0:
329,192,129582,128,0,129923:0:0:0:0:
402,192,129582,1,0,0:0:0:0:
182,192,129582,1,0,0:0:0:0:
256,192,129667,1,0,0:0:0:0:
475,192,129752,1,0,0:0:0:0:
36,192,129752,1,0,0:0:0:0:
182,192,129837,1,0,0:0:0:0:
402,192,129923,1,0,0:0:0:0:
36,192,129923,1,0,0:0:0:0:
182,192,130008,1,0,0:0:0:0:
329,192,130093,128,0,130264:0:0:0:0:
256,192,130093,1,0,0:0:0:0:
109,192,130093,1,0,0:0:0:0:
36,192,130093,1,0,0:0:0:0:
475,192,130093,1,0,0:0:0:0:
402,192,130178,1,0,0:0:0:0:
182,192,130264,1,0,0:0:0:0:
36,192,130264,1,0,0:0:0:0:
256,192,130349,1,0,0:0:0:0:
329,192,130434,128,0,130604:0:0:0:0:
109,192,130434,1,0,0:0:0:0:
402,192,130434,1,0,0:0:0:0:
182,192,130434,1,0,0:0:0:0:
36,192,130519,1,0,0:0:0:0:
182,192,130604,128,0,130945:0:0:0:0:
256,192,130604,1,0,0:0:0:0:
475,192,130604,1,0,0:0:0:0:
402,192,130604,1,0,0:0:0:0:
329,192,130690,1,0,0:0:0:0:
36,192,130775,1,0,0:0:0:0:
109,192,130775,1,0,0:0:0:0:
475,192,130775,1,0,0:0:0:0:
402,192,130775,1,0,0:0:0:0:
329,192,130860,1,0,0:0:0:0:
402,192,130945,128,0,131116:0:0:0:0:
109,192,130945,128,0,131116:0:0:0:0:
256,192,130945,1,0,0:0:0:0:
36,192,131116,1,0,0:0:0:0:
182,192,131116,1,0,0:0:0:0:
475,192,131116,1,0,0:0:0:0:
329,192,131116,1,0,0:0:0:0:
109,192,131286,1,0,0:0:0:0:
256,192,131286,1,0,0:0:0:0:
329,192,131286,1,0,0:0:0:0:
36,192,131286,1,0,0:0:0:0:
109,192,131457,1,0,0:0:0:0:
182,192,131457,1,0,0:0:0:0:
329,192,131457,1,0,0:0:0:0:
402,192,131457,1,0,0:0:0:0:
182,192,131627,1,0,0:0:0:0:
256,192,131627,1,0,0:0:0:0:
402,192,131627,1,0,0:0:0:0:
475,192,131627,1,0,0:0:0:0:
182,192,131798,1,0,0:0:0:0:
109,192,131798,1,0,0:0:0:0:
402,192,131798,1,0,0:0:0:0:
329,192,131798,1,0,0:0:0:0:
109,192,131968,1,0,0:0:0:0:
36,192,131968,1,0,0:0:0:0:
329,192,131968,1,0,0:0:0:0:
256,192,131968,1,0,0:0:0:0:
329,192,132139,1,0,0:0:0:0:
109,192,132139,1,0,0:0:0:0:
182,192,132139,1,0,0:0:0:0:
402,192,132139,1,0,0:0:0:0:
256,192,132224,1,0,0:0:0:0:
36,192,132224,1,0,0:0:0:0:
475,192,132224,1,0,0:0:0:0:
109,192,132309,1,0,0:0:0:0:
182,192,132309,1,0,0:0:0:0:
329,192,132309,1,0,0:0:0:0:
402,192,132309,1,0,0:0:0:0:
182,192,132479,1,0,0:0:0:0:
256,192,132479,1,0,0:0:0:0:
402,192,132479,1,0,0:0:0:0:
475,192,132479,1,0,0:0:0:0:
182,192,132650,1,0,0:0:0:0:
109,192,132650,1,0,0:0:0:0:
402,192,132650,1,0,0:0:0:0:
329,192,132650,1,0,0:0:0:0:
109,192,132820,1,0,0:0:0:0:
182,192,132820,1,0,0:0:0:0:
402,192,132820,1,0,0:0:0:0:
329,192,132820,1,0,0:0:0:0:
109,192,132991,1,0,0:0:0:0:
36,192,132991,1,0,0:0:0:0:
329,192,132991,1,0,0:0:0:0:
256,192,132991,1,0,0:0:0:0:
36,192,133161,1,0,0:0:0:0:
109,192,133161,1,0,0:0:0:0:
256,192,133161,1,0,0:0:0:0:
329,192,133161,1,0,0:0:0:0:
402,192,133246,1,0,0:0:0:0:
182,192,133246,1,0,0:0:0:0:
475,192,133332,1,0,0:0:0:0:
256,192,133332,1,0,0:0:0:0:
182,192,133417,1,0,0:0:0:0:
402,192,133417,1,0,0:0:0:0:
109,192,133502,1,0,0:0:0:0:
36,192,133502,1,0,0:0:0:0:
329,192,133502,1,0,0:0:0:0:
256,192,133502,1,0,0:0:0:0:
36,192,133673,1,0,0:0:0:0:
329,192,133673,1,0,0:0:0:0:
182,192,133673,1,0,0:0:0:0:
475,192,133673,1,0,0:0:0:0:
256,192,133673,128,0,136229:0:0:0:0:
109,192,134014,1,0,0:0:0:0:
402,192,134014,1,0,0:0:0:0:
182,192,136229,128,0,136570:0:0:0:0:
329,192,136229,128,0,136570:0:0:0:0:
109,192,136570,128,0,137849:0:0:0:0:
402,192,136570,128,0,137849:0:0:0:0:
36,192,136570,1,0,0:0:0:0:
475,192,136570,1,0,0:0:0:0:
256,192,136570,1,0,0:0:0:0:
475,192,137891,1,0,0:0:0:0:
329,192,137934,1,0,0:0:0:0:
182,192,137977,1,0,0:0:0:0:
36,192,138019,128,0,138957:0:0:0:0:
256,192,138957,128,0,139298:0:0:0:0:
182,192,139298,1,0,0:0:0:0:
36,192,139298,1,0,0:0:0:0:
402,192,139298,1,0,0:0:0:0:
475,192,139298,128,0,140150:0:0:0:0:
329,192,140150,128,0,140320:0:0:0:0:
182,192,140320,128,0,140491:0:0:0:0:
36,192,140491,128,0,140661:0:0:0:0:
109,192,140661,1,0,0:0:0:0:
182,192,140661,1,0,0:0:0:0:
329,192,140661,1,0,0:0:0:0:
475,192,140661,1,0,0:0:0:0:
402,192,140661,128,0,141002:0:0:0:0:
256,192,141002,128,0,141173:0:0:0:0:
109,192,141173,128,0,141514:0:0:0:0:
329,192,141514,128,0,141854:0:0:0:0:
182,192,141854,128,0,142877:0:0:0:0:
36,192,142025,1,0,0:0:0:0:
109,192,142025,1,0,0:0:0:0:
329,192,142025,1,0,0:0:0:0:
475,192,142025,1,0,0:0:0:0:
109,192,142877,1,0,0:0:0:0:
329,192,142877,1,0,0:0:0:0:
475,192,142877,1,0,0:0:0:0:
36,192,142877,1,0,0:0:0:0:
182,192,143048,1,0,0:0:0:0:
402,192,143048,1,0,0:0:0:0:
256,192,143048,1,0,0:0:0:0:
36,192,143389,1,0,0:0:0:0:
109,192,143389,1,0,0:0:0:0:
329,192,143389,1,0,0:0:0:0:
475,192,143389,1,0,0:0:0:0:
109,192,143559,1,0,0:0:0:0:
182,192,143559,1,0,0:0:0:0:
329,192,143559,1,0,0:0:0:0:
475,192,143559,1,0,0:0:0:0:
182,192,143729,1,0,0:0:0:0:
256,192,143729,1,0,0:0:0:0:
329,192,143729,1,0,0:0:0:0:
475,192,143729,1,0,0:0:0:0:
36,192,143729,128,0,144069:0:0:0:0:
402,192,143729,128,0,144069:0:0:0:0:
256,192,144069,1,0,0:0:0:0:
256,192,144240,1,0,0:0:0:0:
182,192,144410,1,0,0:0:0:0:
329,192,144410,1,0,0:0:0:0:
182,192,144751,1,0,0:0:0:0:
329,192,144751,1,0,0:0:0:0:
475,192,144751,128,0,145773:0:0:0:0:
182,192,144921,1,0,0:0:0:0:
109,192,145091,1,0,0:0:0:0:
256,192,145091,1,0,0:0:0:0:
36,192,145262,1,0,0:0:0:0:
182,192,145432,1,0,0:0:0:0:
329,192,145432,1,0,0:0:0:0:
109,192,145603,1,0,0:0:0:0:
256,192,145773,1,0,0:0:0:0:
402,192,145773,1,0,0:0:0:0:
109,192,145944,1,0,0:0:0:0:
36,192,145944,128,0,146455:0:0:0:0:
329,192,146114,1,0,0:0:0:0:
475,192,146114,1,0,0:0:0:0:
182,192,146285,1,0,0:0:0:0:
256,192,146455,1,0,0:0:0:0:
402,192,146455,1,0,0:0:0:0:
109,192,146626,1,0,0:0:0:0:
182,192,146796,1,0,0:0:0:0:
329,192,146796,1,0,0:0:0:0:
475,192,146796,128,0,146966:0:0:0:0:
36,192,146966,1,0,0:0:0:0:
109,192,147137,1,0,0:0:0:0:
256,192,147137,1,0,0:0:0:0:
402,192,147137,128,0,147307:0:0:0:0:
329,192,147478,1,0,0:0:0:0:
182,192,147478,1,0,0:0:0:0:
36,192,147478,128,0,148501:0:0:0:0:
329,192,147648,1,0,0:0:0:0:
402,192,147819,1,0,0:0:0:0:
256,192,147819,1,0,0:0:0:0:
475,192,147989,1,0,0:0:0:0:
329,192,148160,1,0,0:0:0:0:
182,192,148160,1,0,0:0:0:0:
402,192,148330,1,0,0:0:0:0:
256,192,148501,1,0,0:0:0:0:
109,192,148501,1,0,0:0:0:0:
402,192,148671,1,0,0:0:0:0:
475,192,148671,128,0,149182:0:0:0:0:
36,192,148841,1,0,0:0:0:0:
182,192,148841,1,0,0:0:0:0:
329,192,149012,1,0,0:0:0:0:
256,192,149182,1,0,0:0:0:0:
109,192,149182,1,0,0:0:0:0:
402,192,149353,1,0,0:0:0:0:
329,192,149523,1,0,0:0:0:0:
182,192,149523,1,0,0:0:0:0:
36,192,149523,128,0,149694:0:0:0:0:
475,192,149694,1,0,0:0:0:0:
402,192,149864,1,0,0:0:0:0:
256,192,149864,1,0,0:0:0:0:
109,192,149864,128,0,150206:0:0:0:0:
36,192,150206,1,0,0:0:0:0:
182,192,150206,1,0,0:0:0:0:
329,192,150206,1,0,0:0:0:0:
475,192,150206,1,0,0:0:0:0:
402,192,150376,1,0,0:0:0:0:
475,192,150376,1,0,0:0:0:0:
182,192,150546,1,0,0:0:0:0:
256,192,150546,1,0,0:0:0:0:
109,192,150546,1,0,0:0:0:0:
36,192,150546,1,0,0:0:0:0:
329,192,150717,1,0,0:0:0:0:
402,192,150717,1,0,0:0:0:0:
182,192,150887,1,0,0:0:0:0:
109,192,150887,1,0,0:0:0:0:
36,192,150887,1,0,0:0:0:0:
475,192,150887,1,0,0:0:0:0:
256,192,151058,1,0,0:0:0:0:
329,192,151058,1,0,0:0:0:0:
36,192,151228,1,0,0:0:0:0:
109,192,151228,1,0,0:0:0:0:
475,192,151228,1,0,0:0:0:0:
402,192,151228,1,0,0:0:0:0:
256,192,151399,1,0,0:0:0:0:
182,192,151399,1,0,0:0:0:0:
36,192,151569,1,0,0:0:0:0:
402,192,151569,1,0,0:0:0:0:
475,192,151569,1,0,0:0:0:0:
329,192,151569,1,0,0:0:0:0:
109,192,151740,1,0,0:0:0:0:
182,192,151740,1,0,0:0:0:0:
256,192,151910,1,0,0:0:0:0:
329,192,151910,1,0,0:0:0:0:
402,192,151910,1,0,0:0:0:0:
475,192,151910,128,0,152081:0:0:0:0:
36,192,152081,1,0,0:0:0:0:
109,192,152081,1,0,0:0:0:0:
256,192,152251,1,0,0:0:0:0:
329,192,152251,1,0,0:0:0:0:
182,192,152251,1,0,0:0:0:0:
402,192,152251,128,0,152421:0:0:0:0:
109,192,152421,1,0,0:0:0:0:
36,192,152421,1,0,0:0:0:0:
256,192,152592,1,0,0:0:0:0:
402,192,152592,1,0,0:0:0:0:
475,192,152592,1,0,0:0:0:0:
329,192,152592,128,0,152762:0:0:0:0:
182,192,152762,1,0,0:0:0:0:
109,192,152762,1,0,0:0:0:0:
402,192,152933,1,0,0:0:0:0:
475,192,152933,1,0,0:0:0:0:
36,192,152933,1,0,0:0:0:0:
329,192,152933,128,0,153103:0:0:0:0:
256,192,153103,1,0,0:0:0:0:
182,192,153103,1,0,0:0:0:0:
475,192,153274,1,0,0:0:0:0:
36,192,153274,1,0,0:0:0:0:
109,192,153274,1,0,0:0:0:0:
402,192,153274,128,0,153444:0:0:0:0:
329,192,153444,1,0,0:0:0:0:
256,192,153444,1,0,0:0:0:0:
36,192,153615,1,0,0:0:0:0:
109,192,153615,1,0,0:0:0:0:
182,192,153615,1,0,0:0:0:0:
475,192,153615,128,0,153785:0:0:0:0:
402,192,153785,1,0,0:0:0:0:
329,192,153785,1,0,0:0:0:0:
475,192,153956,1,0,0:0:0:0:
36,192,153956,1,0,0:0:0:0:
256,192,153956,1,0,0:0:0:0:
109,192,153956,1,0,0:0:0:0:
402,192,153956,1,0,0:0:0:0:
402,192,154126,1,0,0:0:0:0:
329,192,154126,1,0,0:0:0:0:
182,192,154126,1,0,0:0:0:0:
109,192,154126,1,0,0:0:0:0:
256,192,154126,128,0,154382:0:0:0:0:
256,192,154467,5,0,0:0:0:0:
475,192,154467,1,0,0:0:0:0:
36,192,154467,1,0,0:0:0:0:
182,192,154510,1,0,0:0:0:0:
402,192,154510,1,0,0:0:0:0:
109,192,154552,1,0,0:0:0:0:
329,192,154552,1,0,0:0:0:0:
36,192,154595,1,0,0:0:0:0:
256,192,154595,1,0,0:0:0:0:
475,192,154595,1,0,0:0:0:0:
182,192,154637,1,0,0:0:0:0:
402,192,154637,1,0,0:0:0:0:
109,192,154680,1,0,0:0:0:0:
329,192,154680,1,0,0:0:0:0:
475,192,154723,1,0,0:0:0:0:
36,192,154723,1,0,0:0:0:0:
256,192,154723,1,0,0:0:0:0:
402,192,154765,1,0,0:0:0:0:
182,192,154765,1,0,0:0:0:0:
329,192,154808,1,0,0:0:0:0:
109,192,154808,1,0,0:0:0:0:
256,192,154850,1,0,0:0:0:0:
36,192,154850,1,0,0:0:0:0:
475,192,154850,1,0,0:0:0:0:
182,192,154893,1,0,0:0:0:0:
402,192,154893,1,0,0:0:0:0:
109,192,154936,1,0,0:0:0:0:
329,192,154936,1,0,0:0:0:0:
475,192,154978,1,0,0:0:0:0:
36,192,154978,1,0,0:0:0:0:
182,192,154978,1,0,0:0:0:0:
402,192,154978,1,0,0:0:0:0:
256,192,154978,1,0,0:0:0:0:
256,192,155149,1,0,0:0:0:0:
109,192,155149,1,0,0:0:0:0:
402,192,155149,1,0,0:0:0:0:
475,192,155319,1,0,0:0:0:0:
36,192,155319,1,0,0:0:0:0:
256,192,155319,1,0,0:0:0:0:
182,192,155404,1,0,0:0:0:0:
109,192,155404,1,0,0:0:0:0:
329,192,155490,1,0,0:0:0:0:
402,192,155490,1,0,0:0:0:0:
109,192,155575,1,0,0:0:0:0:
182,192,155575,1,0,0:0:0:0:
36,192,155660,128,0,155916:0:0:0:0:
475,192,155660,128,0,155916:0:0:0:0:
402,192,155660,1,0,0:0:0:0:
329,192,155660,1,0,0:0:0:0:
256,192,155660,1,0,0:0:0:0:
109,192,155745,128,0,155831:0:0:0:0:
182,192,155745,1,0,0:0:0:0:
256,192,155831,128,0,156086:0:0:0:0:
329,192,155831,1,0,0:0:0:0:
402,192,155916,1,0,0:0:0:0:
182,192,155916,128,0,156001:0:0:0:0:
109,192,155916,128,0,155958:0:0:0:0:
329,192,156001,128,0,156257:0:0:0:0:
475,192,156001,128,0,156257:0:0:0:0:
36,192,156001,128,0,156044:0:0:0:0:
402,192,156086,128,0,156172:0:0:0:0:
182,192,156086,128,0,156129:0:0:0:0:
109,192,156172,1,0,0:0:0:0:
36,192,156172,1,0,0:0:0:0:
256,192,156172,128,0,156427:0:0:0:0:
182,192,156257,128,0,156342:0:0:0:0:
402,192,156257,128,0,156299:0:0:0:0:
109,192,156342,128,0,156598:0:0:0:0:
36,192,156342,128,0,156598:0:0:0:0:
475,192,156342,1,0,0:0:0:0:
329,192,156342,128,0,156385:0:0:0:0:
182,192,156427,128,0,156512:0:0:0:0:
402,192,156512,1,0,0:0:0:0:
329,192,156512,128,0,156768:0:0:0:0:
256,192,156598,128,0,156683:0:0:0:0:
475,192,156598,1,0,0:0:0:0:
182,192,156598,128,0,156640:0:0:0:0:
402,192,156683,128,0,156939:0:0:0:0:
36,192,156683,128,0,156939:0:0:0:0:
109,192,156683,128,0,156725:0:0:0:0:
475,192,156768,128,0,156853:0:0:0:0:
256,192,156768,128,0,156811:0:0:0:0:
329,192,156853,128,0,157109:0:0:0:0:
182,192,156853,1,0,0:0:0:0:
109,192,156853,1,0,0:0:0:0:
256,192,156939,128,0,157024:0:0:0:0:
109,192,157024,1,0,0:0:0:0:
182,192,157024,1,0,0:0:0:0:
36,192,157024,128,0,157620:0:0:0:0:
475,192,157024,128,0,157279:0:0:0:0:
402,192,157109,128,0,157194:0:0:0:0:
256,192,157194,128,0,157450:0:0:0:0:
182,192,157194,1,0,0:0:0:0:
329,192,157279,128,0,157365:0:0:0:0:
109,192,157279,1,0,0:0:0:0:
402,192,157279,128,0,157322:0:0:0:0:
182,192,157365,128,0,157620:0:0:0:0:
475,192,157365,128,0,157407:0:0:0:0:
109,192,157450,128,0,157535:0:0:0:0:
329,192,157450,128,0,157493:0:0:0:0:
402,192,157535,1,0,0:0:0:0:
475,192,157535,1,0,0:0:0:0:
256,192,157535,128,0,157791:0:0:0:0:
109,192,157620,128,0,157663:0:0:0:0:
329,192,157620,128,0,157706:0:0:0:0:
182,192,157706,128,0,157748:0:0:0:0:
36,192,157706,1,0,0:0:0:0:
402,192,157706,128,0,157961:0:0:0:0:
475,192,157706,128,0,157961:0:0:0:0:
329,192,157791,128,0,157876:0:0:0:0:
182,192,157876,128,0,158132:0:0:0:0:
109,192,157876,1,0,0:0:0:0:
256,192,157961,128,0,158047:0:0:0:0:
329,192,157961,128,0,158004:0:0:0:0:
36,192,157961,1,0,0:0:0:0:
109,192,158047,128,0,158302:0:0:0:0:
402,192,158047,128,0,158089:0:0:0:0:
475,192,158047,128,0,158302:0:0:0:0:
36,192,158132,128,0,158217:0:0:0:0:
256,192,158132,128,0,158174:0:0:0:0:
329,192,158217,1,0,0:0:0:0:
402,192,158217,1,0,0:0:0:0:
182,192,158217,128,0,158473:0:0:0:0:
256,192,158302,128,0,158387:0:0:0:0:
329,192,158387,1,0,0:0:0:0:
402,192,158387,1,0,0:0:0:0:
36,192,158387,128,0,158643:0:0:0:0:
475,192,158387,128,0,158643:0:0:0:0:
109,192,158473,128,0,158558:0:0:0:0:
329,192,158558,1,0,0:0:0:0:
256,192,158558,128,0,158814:0:0:0:0:
402,192,158643,1,0,0:0:0:0:
182,192,158643,128,0,158728:0:0:0:0:
109,192,158643,128,0,158686:0:0:0:0:
36,192,158728,128,0,158771:0:0:0:0:
329,192,158728,128,0,158984:0:0:0:0:
475,192,158728,128,0,158984:0:0:0:0:
182,192,158814,128,0,158856:0:0:0:0:
402,192,158814,128,0,158899:0:0:0:0:
109,192,158899,1,0,0:0:0:0:
36,192,158899,1,0,0:0:0:0:
256,192,158899,128,0,159154:0:0:0:0:
182,192,158984,128,0,159069:0:0:0:0:
402,192,158984,128,0,159069:0:0:0:0:
329,192,159069,128,0,159112:0:0:0:0:
475,192,159069,1,0,0:0:0:0:
109,192,159069,128,0,159325:0:0:0:0:
36,192,159069,128,0,159325:0:0:0:0:
182,192,159154,128,0,159240:0:0:0:0:
329,192,159240,128,0,159495:0:0:0:0:
402,192,159240,1,0,0:0:0:0:
475,192,159325,1,0,0:0:0:0:
256,192,159325,128,0,159410:0:0:0:0:
182,192,159325,128,0,159368:0:0:0:0:
402,192,159410,128,0,159666:0:0:0:0:
36,192,159410,128,0,159495:0:0:0:0:
109,192,159410,128,0,159453:0:0:0:0:
475,192,159495,128,0,159581:0:0:0:0:
256,192,159495,128,0,159538:0:0:0:0:
109,192,159581,1,0,0:0:0:0:
182,192,159581,1,0,0:0:0:0:
329,192,159581,128,0,159836:0:0:0:0:
36,192,159581,128,0,160348:0:0:0:0:
256,192,159666,128,0,159751:0:0:0:0:
475,192,159751,128,0,160007:0:0:0:0:
182,192,159751,1,0,0:0:0:0:
109,192,159751,1,0,0:0:0:0:
402,192,159836,128,0,159922:0:0:0:0:
182,192,159922,1,0,0:0:0:0:
256,192,159922,128,0,160177:0:0:0:0:
109,192,160007,1,0,0:0:0:0:
329,192,160007,128,0,160092:0:0:0:0:
402,192,160007,128,0,160049:0:0:0:0:
475,192,160092,128,0,160135:0:0:0:0:
182,192,160092,128,0,160348:0:0:0:0:
109,192,160177,128,0,160262:0:0:0:0:
329,192,160177,128,0,160220:0:0:0:0:
256,192,160262,128,0,160518:0:0:0:0:
402,192,160262,1,0,0:0:0:0:
475,192,160262,1,0,0:0:0:0:
109,192,160348,128,0,160390:0:0:0:0:
329,192,160348,128,0,160433:0:0:0:0:
182,192,160433,128,0,160475:0:0:0:0:
36,192,160433,1,0,0:0:0:0:
402,192,160433,128,0,160689:0:0:0:0:
475,192,160433,128,0,160689:0:0:0:0:
329,192,160518,128,0,160603:0:0:0:0:
182,192,160603,128,0,160859:0:0:0:0:
109,192,160603,1,0,0:0:0:0:
329,192,160689,128,0,160731:0:0:0:0:
256,192,160689,128,0,160774:0:0:0:0:
36,192,160689,1,0,0:0:0:0:
109,192,160774,128,0,161029:0:0:0:0:
402,192,160774,128,0,160816:0:0:0:0:
475,192,160774,128,0,161029:0:0:0:0:
36,192,160859,128,0,160944:0:0:0:0:
256,192,160859,1,0,0:0:0:0:
329,192,160944,1,0,0:0:0:0:
402,192,160944,1,0,0:0:0:0:
182,192,160944,128,0,161200:0:0:0:0:
256,192,161029,128,0,161115:0:0:0:0:
475,192,161115,128,0,161370:0:0:0:0:
109,192,161115,128,0,161370:0:0:0:0:
329,192,161115,1,0,0:0:0:0:
402,192,161115,1,0,0:0:0:0:
36,192,161200,128,0,161285:0:0:0:0:
182,192,161285,128,0,161370:0:0:0:0:
256,192,161285,1,0,0:0:0:0:
329,192,161370,128,0,161413:0:0:0:0:
402,192,161370,1,0,0:0:0:0:
256,192,161456,128,0,161711:0:0:0:0:
36,192,161456,128,0,162137:0:0:0:0:
475,192,161456,128,0,161711:0:0:0:0:
109,192,161456,128,0,161498:0:0:0:0:
182,192,161541,128,0,161626:0:0:0:0:
402,192,161541,128,0,161583:0:0:0:0:
329,192,161626,128,0,161882:0:0:0:0:
109,192,161626,1,0,0:0:0:0:
402,192,161711,128,0,161797:0:0:0:0:
182,192,161797,128,0,162052:0:0:0:0:
475,192,161797,128,0,161839:0:0:0:0:
109,192,161882,128,0,161967:0:0:0:0:
256,192,161882,128,0,161924:0:0:0:0:
402,192,161967,1,0,0:0:0:0:
475,192,161967,1,0,0:0:0:0:
329,192,162052,128,0,162137:0:0:0:0:
182,192,162137,128,0,162393:0:0:0:0:
475,192,162137,128,0,162393:0:0:0:0:
256,192,162137,128,0,162180:0:0:0:0:
402,192,162137,1,0,0:0:0:0:
109,192,162223,128,0,162308:0:0:0:0:
329,192,162223,128,0,162265:0:0:0:0:
256,192,162308,128,0,162478:0:0:0:0:
36,192,162308,1,0,0:0:0:0:
402,192,162308,128,0,162350:0:0:0:0:
329,192,162393,128,0,162478:0:0:0:0:
402,192,162478,128,0,162564:0:0:0:0:
36,192,162478,1,0,0:0:0:0:
109,192,162478,1,0,0:0:0:0:
475,192,162478,128,0,163160:0:0:0:0:
329,192,162564,128,0,162649:0:0:0:0:
182,192,162564,1,0,0:0:0:0:
256,192,162649,128,0,162734:0:0:0:0:
36,192,162649,1,0,0:0:0:0:
109,192,162649,1,0,0:0:0:0:
329,192,162734,128,0,162819:0:0:0:0:
182,192,162734,1,0,0:0:0:0:
402,192,162819,128,0,162904:0:0:0:0:
36,192,162819,1,0,0:0:0:0:
256,192,162819,1,0,0:0:0:0:
329,192,162904,128,0,162990:0:0:0:0:
182,192,162904,1,0,0:0:0:0:
256,192,162990,128,0,163075:0:0:0:0:
109,192,162990,1,0,0:0:0:0:
36,192,162990,1,0,0:0:0:0:
182,192,163075,128,0,163160:0:0:0:0:
402,192,163075,1,0,0:0:0:0:
109,192,163160,128,0,163245:0:0:0:0:
329,192,163160,1,0,0:0:0:0:
256,192,163160,1,0,0:0:0:0:
36,192,163160,128,0,163672:0:0:0:0:
402,192,163245,1,0,0:0:0:0:
182,192,163245,128,0,163331:0:0:0:0:
475,192,163331,1,0,0:0:0:0:
109,192,163331,1,0,0:0:0:0:
256,192,163331,128,0,163416:0:0:0:0:
182,192,163416,1,0,0:0:0:0:
329,192,163416,128,0,163501:0:0:0:0:
256,192,163501,128,0,163586:0:0:0:0:
402,192,163501,1,0,0:0:0:0:
475,192,163501,1,0,0:0:0:0:
109,192,163501,1,0,0:0:0:0:
182,192,163586,128,0,163672:0:0:0:0:
329,192,163586,1,0,0:0:0:0:
256,192,163672,128,0,163757:0:0:0:0:
402,192,163672,1,0,0:0:0:0:
109,192,163672,128,0,164012:0:0:0:0:
329,192,163757,128,0,163842:0:0:0:0:
475,192,163757,1,0,0:0:0:0:
402,192,163842,128,0,163927:0:0:0:0:
182,192,163842,1,0,0:0:0:0:
36,192,163842,1,0,0:0:0:0:
475,192,163927,128,0,164012:0:0:0:0:
329,192,163927,1,0,0:0:0:0:
36,192,164012,128,0,164183:0:0:0:0:
402,192,164012,128,0,164098:0:0:0:0:
256,192,164012,1,0,0:0:0:0:
329,192,164098,128,0,164183:0:0:0:0:
182,192,164098,1,0,0:0:0:0:
475,192,164183,128,0,165035:0:0:0:0:
256,192,164183,128,0,164268:0:0:0:0:
402,192,164183,1,0,0:0:0:0:
109,192,164183,1,0,0:0:0:0:
182,192,164268,128,0,164353:0:0:0:0:
329,192,164268,1,0,0:0:0:0:
109,192,164353,128,0,164439:0:0:0:0:
402,192,164353,1,0,0:0:0:0:
36,192,164353,1,0,0:0:0:0:
182,192,164439,128,0,164524:0:0:0:0:
329,192,164439,1,0,0:0:0:0:
256,192,164524,128,0,164609:0:0:0:0:
36,192,164524,1,0,0:0:0:0:
109,192,164524,1,0,0:0:0:0:
329,192,164609,128,0,164694:0:0:0:0:
182,192,164609,1,0,0:0:0:0:
256,192,164694,128,0,164779:0:0:0:0:
402,192,164694,1,0,0:0:0:0:
109,192,164694,1,0,0:0:0:0:
182,192,164779,128,0,164865:0:0:0:0:
329,192,164779,1,0,0:0:0:0:
109,192,164865,128,0,164950:0:0:0:0:
256,192,164865,1,0,0:0:0:0:
402,192,164865,1,0,0:0:0:0:
36,192,164950,128,0,165035:0:0:0:0:
182,192,164950,1,0,0:0:0:0:
109,192,165035,1,0,0:0:0:0:
256,192,165035,1,0,0:0:0:0:
402,192,165035,128,0,165291:0:0:0:0:
329,192,165035,128,0,165291:0:0:0:0:
182,192,165206,1,0,0:0:0:0:
109,192,165206,1,0,0:0:0:0:
329,192,165376,128,0,165632:0:0:0:0:
256,192,165376,128,0,165632:0:0:0:0:
182,192,165376,1,0,0:0:0:0:
36,192,165376,1,0,0:0:0:0:
475,192,165376,1,0,0:0:0:0:
402,192,165547,1,0,0:0:0:0:
109,192,165547,1,0,0:0:0:0:
182,192,165547,1,0,0:0:0:0:
256,192,165717,128,0,165973:0:0:0:0:
182,192,165717,128,0,165973:0:0:0:0:
329,192,165717,1,0,0:0:0:0:
475,192,165717,1,0,0:0:0:0:
36,192,165717,1,0,0:0:0:0:
109,192,165887,1,0,0:0:0:0:
402,192,165887,1,0,0:0:0:0:
329,192,165887,1,0,0:0:0:0:
256,192,166058,128,0,166314:0:0:0:0:
329,192,166058,128,0,166314:0:0:0:0:
182,192,166058,1,0,0:0:0:0:
36,192,166058,1,0,0:0:0:0:
475,192,166058,1,0,0:0:0:0:
36,192,166228,1,0,0:0:0:0:
402,192,166228,1,0,0:0:0:0:
109,192,166314,1,0,0:0:0:0:
475,192,166314,1,0,0:0:0:0:
182,192,166399,1,0,0:0:0:0:
402,192,166399,1,0,0:0:0:0:
109,192,166484,1,0,0:0:0:0:
329,192,166484,1,0,0:0:0:0:
475,192,166569,1,0,0:0:0:0:
182,192,166569,1,0,0:0:0:0:
36,192,166569,1,0,0:0:0:0:
402,192,166569,128,0,166868:0:0:0:0:
256,192,166569,128,0,166612:0:0:0:0:
329,192,166654,128,0,166868:0:0:0:0:
182,192,166654,128,0,166697:0:0:0:0:
256,192,166740,128,0,166868:0:0:0:0:
109,192,166740,128,0,166782:0:0:0:0:
475,192,166740,1,0,0:0:0:0:
182,192,166825,128,0,166910:0:0:0:0:
36,192,166825,128,0,166868:0:0:0:0:
475,192,166910,1,0,0:0:0:0:
402,192,166910,1,0,0:0:0:0:
109,192,166910,128,0,167208:0:0:0:0:
256,192,166910,128,0,166953:0:0:0:0:
182,192,166995,128,0,167208:0:0:0:0:
329,192,166995,128,0,167038:0:0:0:0:
256,192,167081,128,0,167208:0:0:0:0:
402,192,167081,128,0,167123:0:0:0:0:
36,192,167081,1,0,0:0:0:0:
329,192,167166,128,0,167251:0:0:0:0:
475,192,167166,128,0,167208:0:0:0:0:
36,192,167251,1,0,0:0:0:0:
109,192,167251,1,0,0:0:0:0:
402,192,167251,128,0,167549:0:0:0:0:
256,192,167251,128,0,167294:0:0:0:0:
329,192,167336,128,0,167549:0:0:0:0:
182,192,167336,128,0,167379:0:0:0:0:
256,192,167422,128,0,167549:0:0:0:0:
109,192,167422,128,0,167464:0:0:0:0:
475,192,167422,1,0,0:0:0:0:
182,192,167507,128,0,167592:0:0:0:0:
36,192,167507,128,0,167549:0:0:0:0:
402,192,167592,1,0,0:0:0:0:
475,192,167592,1,0,0:0:0:0:
109,192,167592,128,0,167890:0:0:0:0:
256,192,167592,128,0,167635:0:0:0:0:
182,192,167677,128,0,167890:0:0:0:0:
329,192,167677,128,0,167720:0:0:0:0:
256,192,167762,128,0,167890:0:0:0:0:
402,192,167762,128,0,167805:0:0:0:0:
36,192,167762,1,0,0:0:0:0:
329,192,167848,128,0,167933:0:0:0:0:
475,192,167848,128,0,167890:0:0:0:0:
36,192,167933,1,0,0:0:0:0:
109,192,167933,1,0,0:0:0:0:
402,192,167933,128,0,168231:0:0:0:0:
256,192,167933,128,0,167975:0:0:0:0:
329,192,168018,128,0,168231:0:0:0:0:
182,192,168018,128,0,168061:0:0:0:0:
256,192,168103,128,0,168231:0:0:0:0:
109,192,168103,128,0,168146:0:0:0:0:
475,192,168103,1,0,0:0:0:0:
182,192,168189,128,0,168274:0:0:0:0:
36,192,168189,128,0,168231:0:0:0:0:
402,192,168274,1,0,0:0:0:0:
475,192,168274,1,0,0:0:0:0:
109,192,168274,128,0,168572:0:0:0:0:
256,192,168274,128,0,168316:0:0:0:0:
182,192,168359,128,0,168572:0:0:0:0:
329,192,168359,128,0,168402:0:0:0:0:
256,192,168444,128,0,168572:0:0:0:0:
402,192,168444,128,0,168487:0:0:0:0:
36,192,168444,1,0,0:0:0:0:
329,192,168529,128,0,168615:0:0:0:0:
475,192,168529,128,0,168572:0:0:0:0:
36,192,168615,1,0,0:0:0:0:
109,192,168615,1,0,0:0:0:0:
402,192,168615,128,0,168913:0:0:0:0:
256,192,168615,128,0,168657:0:0:0:0:
329,192,168700,128,0,168913:0:0:0:0:
182,192,168700,128,0,168743:0:0:0:0:
256,192,168785,128,0,168913:0:0:0:0:
109,192,168785,128,0,168828:0:0:0:0:
475,192,168785,1,0,0:0:0:0:
182,192,168870,128,0,168956:0:0:0:0:
36,192,168870,128,0,168913:0:0:0:0:
402,192,168956,1,0,0:0:0:0:
475,192,168956,1,0,0:0:0:0:
109,192,168956,128,0,169254:0:0:0:0:
256,192,168956,128,0,168998:0:0:0:0:
182,192,169041,128,0,169254:0:0:0:0:
329,192,169041,128,0,169083:0:0:0:0:
256,192,169126,128,0,169254:0:0:0:0:
402,192,169126,128,0,169169:0:0:0:0:
36,192,169126,1,0,0:0:0:0:
329,192,169211,128,0,169297:0:0:0:0:
475,192,169211,128,0,169254:0:0:0:0:
475,192,169297,128,0,169424:0:0:0:0:
182,192,169297,1,0,0:0:0:0:
36,192,169297,128,0,169382:0:0:0:0:
256,192,169297,1,0,0:0:0:0:
402,192,169382,128,0,169510:0:0:0:0:
109,192,169382,128,0,169467:0:0:0:0:
329,192,169467,128,0,169595:0:0:0:0:
182,192,169467,128,0,169552:0:0:0:0:
256,192,169552,128,0,169637:0:0:0:0:
36,192,169637,1,0,0:0:0:0:
475,192,169637,1,0,0:0:0:0:
182,192,169637,128,0,169765:0:0:0:0:
329,192,169637,128,0,169723:0:0:0:0:
109,192,169723,128,0,169850:0:0:0:0:
402,192,169723,128,0,169808:0:0:0:0:
36,192,169808,128,0,169936:0:0:0:0:
475,192,169808,128,0,169893:0:0:0:0:
256,192,169893,128,0,169978:0:0:0:0:
182,192,169978,1,0,0:0:0:0:
36,192,169978,128,0,170106:0:0:0:0:
475,192,169978,128,0,170064:0:0:0:0:
329,192,169978,1,0,0:0:0:0:
109,192,170064,128,0,170191:0:0:0:0:
402,192,170064,128,0,170149:0:0:0:0:
182,192,170149,128,0,170277:0:0:0:0:
329,192,170149,128,0,170234:0:0:0:0:
256,192,170234,128,0,170319:0:0:0:0:
36,192,170319,1,0,0:0:0:0:
475,192,170319,1,0,0:0:0:0:
329,192,170319,128,0,170447:0:0:0:0:
182,192,170319,128,0,170404:0:0:0:0:
402,192,170404,128,0,170532:0:0:0:0:
109,192,170404,128,0,170490:0:0:0:0:
475,192,170490,128,0,170618:0:0:0:0:
36,192,170490,128,0,170575:0:0:0:0:
256,192,170575,128,0,170660:0:0:0:0:
182,192,170660,1,0,0:0:0:0:
329,192,170660,1,0,0:0:0:0:
36,192,170660,128,0,170745:0:0:0:0:
475,192,170660,128,0,170788:0:0:0:0:
109,192,170745,128,0,170831:0:0:0:0:
402,192,170745,128,0,170873:0:0:0:0:
182,192,170831,128,0,170916:0:0:0:0:
329,192,170831,128,0,170958:0:0:0:0:
256,192,170916,128,0,171001:0:0:0:0:
36,192,171001,1,0,0:0:0:0:
475,192,171001,1,0,0:0:0:0:
329,192,171001,128,0,171086:0:0:0:0:
182,192,171001,128,0,171129:0:0:0:0:
402,192,171086,128,0,171172:0:0:0:0:
109,192,171086,128,0,171214:0:0:0:0:
475,192,171172,128,0,171257:0:0:0:0:
36,192,171172,128,0,171299:0:0:0:0:
256,192,171257,128,0,171342:0:0:0:0:
182,192,171342,1,0,0:0:0:0:
329,192,171342,1,0,0:0:0:0:
36,192,171342,128,0,171470:0:0:0:0:
475,192,171342,128,0,171427:0:0:0:0:
109,192,171427,128,0,171555:0:0:0:0:
402,192,171427,128,0,171512:0:0:0:0:
182,192,171512,128,0,171640:0:0:0:0:
329,192,171512,128,0,171598:0:0:0:0:
256,192,171598,128,0,171683:0:0:0:0:
109,192,171683,1,0,0:0:0:0:
402,192,171683,1,0,0:0:0:0:
36,192,171683,128,0,171939:0:0:0:0:
475,192,171683,128,0,171939:0:0:0:0:
109,192,171768,128,0,171939:0:0:0:0:
182,192,171768,1,0,0:0:0:0:
329,192,171768,1,0,0:0:0:0:
402,192,171768,128,0,171939:0:0:0:0:
182,192,171853,128,0,171939:0:0:0:0:
329,192,171853,128,0,171939:0:0:0:0:
256,192,171853,1,0,0:0:0:0:
182,192,172024,1,0,0:0:0:0:
256,192,172024,1,0,0:0:0:0:
402,192,172024,1,0,0:0:0:0:
475,192,172024,128,0,172279:0:0:0:0:
329,192,172024,128,0,172279:0:0:0:0:
36,192,172024,128,0,172066:0:0:0:0:
109,192,172109,128,0,172152:0:0:0:0:
402,192,172194,1,0,0:0:0:0:
36,192,172194,1,0,0:0:0:0:
182,192,172194,128,0,172237:0:0:0:0:
256,192,172279,128,0,172322:0:0:0:0:
109,192,172365,128,0,172450:0:0:0:0:
475,192,172365,1,0,0:0:0:0:
329,192,172365,1,0,0:0:0:0:
402,192,172365,128,0,172620:0:0:0:0:
36,192,172365,128,0,172620:0:0:0:0:
182,192,172450,128,0,172535:0:0:0:0:
256,192,172535,128,0,172620:0:0:0:0:
109,192,172535,1,0,0:0:0:0:
475,192,172535,1,0,0:0:0:0:
329,192,172620,128,0,172706:0:0:0:0:
36,192,172706,1,0,0:0:0:0:
402,192,172706,1,0,0:0:0:0:
475,192,172706,128,0,172961:0:0:0:0:
109,192,172706,128,0,172961:0:0:0:0:
182,192,172706,128,0,172748:0:0:0:0:
256,192,172791,128,0,172833:0:0:0:0:
182,192,172876,1,0,0:0:0:0:
36,192,172876,1,0,0:0:0:0:
329,192,172876,128,0,172919:0:0:0:0:
402,192,172961,128,0,173004:0:0:0:0:
475,192,173047,1,0,0:0:0:0:
109,192,173047,1,0,0:0:0:0:
256,192,173047,128,0,173132:0:0:0:0:
182,192,173047,128,0,173302:0:0:0:0:
36,192,173047,128,0,173302:0:0:0:0:
329,192,173132,128,0,173217:0:0:0:0:
402,192,173217,128,0,173302:0:0:0:0:
475,192,173217,1,0,0:0:0:0:
109,192,173217,1,0,0:0:0:0:
329,192,173302,128,0,173387:0:0:0:0:
256,192,173387,1,0,0:0:0:0:
109,192,173387,1,0,0:0:0:0:
182,192,173387,128,0,173643:0:0:0:0:
36,192,173387,128,0,173643:0:0:0:0:
475,192,173387,128,0,173430:0:0:0:0:
402,192,173473,128,0,173515:0:0:0:0:
109,192,173558,1,0,0:0:0:0:
475,192,173558,1,0,0:0:0:0:
329,192,173558,128,0,173600:0:0:0:0:
256,192,173643,128,0,173686:0:0:0:0:
36,192,173728,1,0,0:0:0:0:
402,192,173728,128,0,173814:0:0:0:0:
182,192,173728,1,0,0:0:0:0:
475,192,173728,128,0,173984:0:0:0:0:
109,192,173728,128,0,173984:0:0:0:0:
329,192,173814,128,0,173899:0:0:0:0:
256,192,173899,128,0,173984:0:0:0:0:
36,192,173899,1,0,0:0:0:0:
402,192,173899,1,0,0:0:0:0:
182,192,173984,128,0,174069:0:0:0:0:
402,192,174069,1,0,0:0:0:0:
109,192,174069,1,0,0:0:0:0:
36,192,174069,128,0,174325:0:0:0:0:
475,192,174069,128,0,174325:0:0:0:0:
329,192,174069,128,0,174112:0:0:0:0:
256,192,174154,128,0,174197:0:0:0:0:
402,192,174240,1,0,0:0:0:0:
329,192,174240,1,0,0:0:0:0:
182,192,174240,128,0,174282:0:0:0:0:
109,192,174325,128,0,174368:0:0:0:0:
36,192,174410,1,0,0:0:0:0:
329,192,174410,1,0,0:0:0:0:
475,192,174410,1,0,0:0:0:0:
182,192,174410,1,0,0:0:0:0:
402,192,174410,128,0,174581:0:0:0:0:
256,192,174410,128,0,174581:0:0:0:0:
475,192,174581,1,0,0:0:0:0:
329,192,174581,1,0,0:0:0:0:
182,192,174581,1,0,0:0:0:0:
36,192,174581,1,0,0:0:0:0:
109,192,174666,1,0,0:0:0:0:
256,192,174666,1,0,0:0:0:0:
402,192,174666,1,0,0:0:0:0:
182,192,174751,1,0,0:0:0:0:
329,192,174751,1,0,0:0:0:0:
475,192,174751,1,0,0:0:0:0:
36,192,174751,128,0,175433:0:0:0:0:
475,192,175092,128,0,175177:0:0:0:0:
256,192,175092,1,0,0:0:0:0:
402,192,175092,1,0,0:0:0:0:
475,192,175262,128,0,175348:0:0:0:0:
402,192,175262,1,0,0:0:0:0:
256,192,175262,1,0,0:0:0:0:
475,192,175433,128,0,175944:0:0:0:0:
329,192,175433,1,0,0:0:0:0:
182,192,175433,1,0,0:0:0:0:
109,192,175433,1,0,0:0:0:0:
402,192,175433,1,0,0:0:0:0:
109,192,175774,128,0,175859:0:0:0:0:
182,192,175774,1,0,0:0:0:0:
329,192,175774,1,0,0:0:0:0:
109,192,175944,128,0,176029:0:0:0:0:
182,192,175944,1,0,0:0:0:0:
329,192,175944,1,0,0:0:0:0:
36,192,175944,1,0,0:0:0:0:
109,192,176115,128,0,176797:0:0:0:0:
256,192,176115,1,0,0:0:0:0:
402,192,176115,1,0,0:0:0:0:
182,192,176285,1,0,0:0:0:0:
329,192,176285,1,0,0:0:0:0:
475,192,176285,1,0,0:0:0:0:
402,192,176456,128,0,176541:0:0:0:0:
182,192,176456,1,0,0:0:0:0:
329,192,176456,1,0,0:0:0:0:
402,192,176626,128,0,176711:0:0:0:0:
256,192,176626,1,0,0:0:0:0:
475,192,176626,1,0,0:0:0:0:
36,192,176626,1,0,0:0:0:0:
402,192,176797,128,0,177308:0:0:0:0:
36,192,176797,1,0,0:0:0:0:
182,192,176797,1,0,0:0:0:0:
329,192,176797,1,0,0:0:0:0:
475,192,176797,1,0,0:0:0:0:
256,192,176967,1,0,0:0:0:0:
109,192,176967,1,0,0:0:0:0:
182,192,177137,1,0,0:0:0:0:
329,192,177137,1,0,0:0:0:0:
36,192,177137,1,0,0:0:0:0:
182,192,177308,128,0,177649:0:0:0:0:
36,192,177308,1,0,0:0:0:0:
109,192,177308,1,0,0:0:0:0:
329,192,177308,1,0,0:0:0:0:
475,192,177308,1,0,0:0:0:0:
329,192,177649,128,0,177819:0:0:0:0:
109,192,177649,1,0,0:0:0:0:
36,192,177649,1,0,0:0:0:0:
402,192,177649,1,0,0:0:0:0:
475,192,177649,1,0,0:0:0:0:
256,192,177819,128,0,178160:0:0:0:0:
182,192,177819,1,0,0:0:0:0:
109,192,177819,1,0,0:0:0:0:
402,192,177819,1,0,0:0:0:0:
475,192,177819,1,0,0:0:0:0:
182,192,178160,128,0,178501:0:0:0:0:
329,192,178160,1,0,0:0:0:0:
475,192,178160,1,0,0:0:0:0:
329,192,178330,1,0,0:0:0:0:
475,192,178330,1,0,0:0:0:0:
109,192,178330,1,0,0:0:0:0:
109,192,178501,128,0,178842:0:0:0:0:
402,192,178501,1,0,0:0:0:0:
256,192,178501,1,0,0:0:0:0:
36,192,178501,1,0,0:0:0:0:
329,192,178586,1,0,0:0:0:0:
256,192,178671,1,0,0:0:0:0:
402,192,178671,1,0,0:0:0:0:
475,192,178756,1,0,0:0:0:0:
402,192,178842,128,0,179353:0:0:0:0:
182,192,178842,1,0,0:0:0:0:
329,192,178842,1,0,0:0:0:0:
36,192,178842,1,0,0:0:0:0:
475,192,178927,1,0,0:0:0:0:
109,192,179012,5,0,0:0:0:0:
256,192,179012,1,0,0:0:0:0:
475,192,179097,1,0,0:0:0:0:
329,192,179182,1,0,0:0:0:0:
182,192,179182,1,0,0:0:0:0:
36,192,179182,1,0,0:0:0:0:
475,192,179268,1,0,0:0:0:0:
256,192,179353,1,0,0:0:0:0:
109,192,179353,1,0,0:0:0:0:
402,192,179438,1,0,0:0:0:0:
36,192,179523,128,0,180035:0:0:0:0:
256,192,179523,1,0,0:0:0:0:
109,192,179523,1,0,0:0:0:0:
475,192,179609,1,0,0:0:0:0:
329,192,179694,1,0,0:0:0:0:
182,192,179694,1,0,0:0:0:0:
109,192,179779,1,0,0:0:0:0:
402,192,179864,1,0,0:0:0:0:
256,192,179864,1,0,0:0:0:0:
182,192,179949,1,0,0:0:0:0:
475,192,180035,128,0,180376:0:0:0:0:
402,192,180035,1,0,0:0:0:0:
256,192,180035,1,0,0:0:0:0:
109,192,180035,1,0,0:0:0:0:
109,192,180376,128,0,180546:0:0:0:0:
182,192,180376,1,0,0:0:0:0:
36,192,180376,1,0,0:0:0:0:
329,192,180376,1,0,0:0:0:0:
402,192,180376,1,0,0:0:0:0:
402,192,180546,128,0,180887:0:0:0:0:
475,192,180546,1,0,0:0:0:0:
329,192,180546,1,0,0:0:0:0:
36,192,180546,1,0,0:0:0:0:
182,192,180546,128,0,180887:0:0:0:0:
256,192,180546,1,0,0:0:0:0:
109,192,180887,1,0,0:0:0:0:
36,192,180887,128,0,181569:0:0:0:0:
475,192,180887,1,0,0:0:0:0:
256,192,180887,1,0,0:0:0:0:
329,192,180972,1,0,0:0:0:0:
402,192,181057,1,0,0:0:0:0:
182,192,181057,1,0,0:0:0:0:
256,192,181143,1,0,0:0:0:0:
182,192,181228,128,0,181569:0:0:0:0:
329,192,181228,1,0,0:0:0:0:
475,192,181228,1,0,0:0:0:0:
109,192,181228,1,0,0:0:0:0:
402,192,181313,1,0,0:0:0:0:
256,192,181398,1,0,0:0:0:0:
475,192,181398,1,0,0:0:0:0:
402,192,181483,1,0,0:0:0:0:
109,192,181569,1,0,0:0:0:0:
329,192,181569,128,0,182080:0:0:0:0:
256,192,181569,1,0,0:0:0:0:
402,192,181654,1,0,0:0:0:0:
256,192,181739,1,0,0:0:0:0:
109,192,181739,1,0,0:0:0:0:
475,192,181824,1,0,0:0:0:0:
182,192,181909,1,0,0:0:0:0:
36,192,181909,1,0,0:0:0:0:
402,192,181909,1,0,0:0:0:0:
475,192,181995,1,0,0:0:0:0:
109,192,182080,1,0,0:0:0:0:
256,192,182080,1,0,0:0:0:0:
402,192,182165,1,0,0:0:0:0:
256,192,182250,128,0,182762:0:0:0:0:
329,192,182250,1,0,0:0:0:0:
475,192,182250,1,0,0:0:0:0:
182,192,182250,1,0,0:0:0:0:
109,192,182336,1,0,0:0:0:0:
182,192,182421,1,0,0:0:0:0:
36,192,182421,1,0,0:0:0:0:
329,192,182421,1,0,0:0:0:0:
402,192,182506,1,0,0:0:0:0:
329,192,182591,1,0,0:0:0:0:
475,192,182591,1,0,0:0:0:0:
36,192,182591,1,0,0:0:0:0:
109,192,182591,1,0,0:0:0:0:
182,192,182762,1,0,0:0:0:0:
36,192,182762,1,0,0:0:0:0:
329,192,182762,1,0,0:0:0:0:
475,192,182762,1,0,0:0:0:0:
402,192,182762,1,0,0:0:0:0:
36,192,183103,1,0,0:0:0:0:
182,192,183103,1,0,0:0:0:0:
109,192,183103,1,0,0:0:0:0:
329,192,183103,1,0,0:0:0:0:
109,192,183273,1,0,0:0:0:0:
182,192,183273,1,0,0:0:0:0:
256,192,183273,1,0,0:0:0:0:
402,192,183273,1,0,0:0:0:0:
182,192,183443,1,0,0:0:0:0:
256,192,183443,1,0,0:0:0:0:
329,192,183443,1,0,0:0:0:0:
475,192,183443,1,0,0:0:0:0:
182,192,183614,1,0,0:0:0:0:
256,192,183614,1,0,0:0:0:0:
329,192,183614,1,0,0:0:0:0:
475,192,183614,1,0,0:0:0:0:
36,192,183614,128,0,183784:0:0:0:0:
182,192,183784,1,0,0:0:0:0:
109,192,183784,1,0,0:0:0:0:
256,192,183784,1,0,0:0:0:0:
402,192,183784,1,0,0:0:0:0:
475,192,183784,128,0,183955:0:0:0:0:
109,192,183955,1,0,0:0:0:0:
36,192,183955,1,0,0:0:0:0:
182,192,183955,1,0,0:0:0:0:
329,192,183955,1,0,0:0:0:0:
256,192,183955,128,0,184125:0:0:0:0:
36,192,184125,1,0,0:0:0:0:
109,192,184125,1,0,0:0:0:0:
182,192,184125,1,0,0:0:0:0:
329,192,184125,1,0,0:0:0:0:
109,192,184296,1,0,0:0:0:0:
182,192,184296,1,0,0:0:0:0:
402,192,184296,1,0,0:0:0:0:
256,192,184296,1,0,0:0:0:0:
475,192,184296,128,0,184466:0:0:0:0:
109,192,184466,1,0,0:0:0:0:
182,192,184466,1,0,0:0:0:0:
256,192,184466,1,0,0:0:0:0:
402,192,184466,1,0,0:0:0:0:
36,192,184466,128,0,184637:0:0:0:0:
182,192,184637,1,0,0:0:0:0:
256,192,184637,1,0,0:0:0:0:
329,192,184637,1,0,0:0:0:0:
475,192,184637,1,0,0:0:0:0:
182,192,184807,1,0,0:0:0:0:
256,192,184807,1,0,0:0:0:0:
329,192,184807,1,0,0:0:0:0:
475,192,184807,1,0,0:0:0:0:
402,192,184807,128,0,184978:0:0:0:0:
109,192,184807,128,0,184978:0:0:0:0:
36,192,184978,1,0,0:0:0:0:
182,192,184978,1,0,0:0:0:0:
329,192,184978,1,0,0:0:0:0:
475,192,184978,1,0,0:0:0:0:
402,192,185063,1,0,0:0:0:0:
109,192,185063,1,0,0:0:0:0:
256,192,185063,1,0,0:0:0:0:
182,192,185148,1,0,0:0:0:0:
329,192,185148,1,0,0:0:0:0:
36,192,185148,1,0,0:0:0:0:
475,192,185148,1,0,0:0:0:0:
256,192,185233,1,0,0:0:0:0:
402,192,185233,1,0,0:0:0:0:
109,192,185233,1,0,0:0:0:0:
182,192,185318,1,0,0:0:0:0:
36,192,185318,1,0,0:0:0:0:
329,192,185318,1,0,0:0:0:0:
475,192,185318,1,0,0:0:0:0:
109,192,185489,1,0,0:0:0:0:
402,192,185489,1,0,0:0:0:0:
182,192,185489,1,0,0:0:0:0:
329,192,185489,1,0,0:0:0:0:
256,192,185489,128,0,186682:0:0:0:0:
182,192,186682,1,0,0:0:0:0:
109,192,186682,1,0,0:0:0:0:
36,192,186682,1,0,0:0:0:0:
329,192,186682,1,0,0:0:0:0:
402,192,186682,1,0,0:0:0:0:
475,192,186682,1,0,0:0:0:0:
182,192,186852,1,0,0:0:0:0:
109,192,186852,1,0,0:0:0:0:
36,192,186852,1,0,0:0:0:0:
329,192,186852,1,0,0:0:0:0:
402,192,186852,1,0,0:0:0:0:
475,192,186852,1,0,0:0:0:0:
