osu file format v14

[General]
AudioFilename: audio.mp3
AudioLeadIn: 0
PreviewTime: 56695
Countdown: 0
SampleSet: Soft
StackLeniency: 0.4
Mode: 0
LetterboxInBreaks: 0
WidescreenStoryboard: 1

[Editor]
DistanceSpacing: 1
BeatDivisor: 4
GridSize: 4
TimelineZoom: 1.6

[Metadata]
Title:Yume Chizu
TitleUnicode:夢地図
Artist:yuikonnu
ArtistUnicode:ゆいこんぬ
Creator:browiec
Version:Normal
Source:
Tags:40mp 40Meter-P cover utaite japanese pop cut a_r_m_i_n armin 歌ってみた 歌い手 utattemita
BeatmapID:2237471
BeatmapSetID:1068768

[Difficulty]
HPDrainRate:3
CircleSize:3.4
OverallDifficulty:4
ApproachRate:5
SliderMultiplier:0.999999999999999
SliderTickRate:1

[Events]
//Background and Video events
0,0,"that bg fills me with some nostalgic thoughts.jpg",0,0
//Break Periods
//Storyboard Layer 0 (Background)
//Storyboard Layer 1 (Fail)
//Storyboard Layer 2 (Pass)
//Storyboard Layer 3 (Foreground)
//Storyboard Layer 4 (Overlay)
//Storyboard Sound Samples

[TimingPoints]
190,340.909090909091,4,2,1,40,1,0
11099,-100,4,2,1,45,0,0
11440,-100,4,2,1,50,0,0
11780,-100,4,2,1,55,0,0
12121,-100,4,2,1,60,0,0
13826,-100,4,2,1,65,0,0
24735,-100,4,2,1,50,0,0
35644,-100,4,2,1,55,0,0
46553,-100,4,2,1,50,0,0
52008,-100,4,2,1,60,0,0
54735,-100,4,2,1,45,0,0
55076,-100,4,2,1,50,0,0
55417,-100,4,2,1,55,0,0
55758,-100,4,2,1,60,0,0
56099,-100,4,2,1,65,0,0
56780,-100,4,2,1,40,0,0
57462,-100,4,2,1,70,0,1
87462,-100,4,2,1,60,0,0
90019,-100,4,2,1,65,0,1
97008,-100,4,2,1,70,0,1
98201,-100,4,2,1,65,0,0
99224,-100,4,2,1,40,0,0
99394,-100,4,2,1,60,0,0

[Colours]
Combo1 : 157,208,227
Combo2 : 255,202,91
Combo3 : 11,168,253
Combo4 : 245,128,56

[HitObjects]
48,136,2576,5,0,3:0:0:0:
104,220,2917,2,0,P|176:236|240:172,2,150,6|2|2,0:2|0:2|0:2,0:0:0:0:
73,180,4110,2,0,B|60:72|60:72,1,99.9999999999999,2|0,0:2|3:2,0:0:0:0:
85,37,4621,1,0,3:2:0:0:
184,25,4962,2,0,P|220:41|244:105,1,99.9999999999999,10|2,0:2|3:2,0:0:0:0:
232,192,5644,6,0,L|208:360,2,150,6|2|2,0:2|0:2|0:2,0:0:0:0:
256,148,6837,2,0,P|292:128|352:132,1,99.9999999999999,2|0,0:2|3:2,0:0:0:0:
388,164,7349,1,0,3:2:0:0:
420,260,7690,2,0,P|460:276|484:276,2,50,10|8|2,0:2|0:2|3:2,0:0:0:0:
332,308,8371,6,0,B|263:311|263:311|248:308|248:308|172:312,2,150,6|2|2,0:2|0:2|0:2,0:0:0:0:
420,260,9735,2,0,P|436:208|412:148,1,99.9999999999999,4|2,0:2|0:2,0:0:0:0:
344,108,10417,2,0,L|228:104,1,99.9999999999999,2|2,0:2|0:2,0:0:0:0:
156,156,11099,5,2,3:2:0:0:
60,124,11440,1,10,3:2:0:0:
0,204,11780,1,10,3:2:0:0:
48,292,12121,1,10,3:2:0:0:
48,292,12292,2,0,P|88:308|148:292,1,99.9999999999999,6|8,3:2|0:2,0:0:0:0:
172,256,12803,1,8,0:2:0:0:
220,168,13144,1,8,0:2:0:0:
168,80,13485,1,8,0:2:0:0:
240,12,13826,6,0,L|344:8,1,99.9999999999999,6|8,3:2|0:2,0:0:0:0:
380,36,14337,2,0,P|400:80|376:148,1,99.9999999999999,2|0,0:2|3:2,0:0:0:0:
348,160,14849,1,10,0:2:0:0:
348,160,15019,2,0,L|244:168,1,99.9999999999999,2|0,3:2|3:2,0:0:0:0:
208,200,15530,1,8,0:2:0:0:
168,292,15871,1,2,3:2:0:0:
236,364,16212,1,10,0:2:0:0:
332,336,16553,6,0,L|448:324,1,99.9999999999999,2|8,3:2|0:2,0:0:0:0:
476,300,17065,2,0,P|500:248|472:192,1,99.9999999999999,2|0,0:2|3:2,0:0:0:0:
456,172,17576,1,10,0:2:0:0:
456,172,17746,2,0,L|340:160,1,99.9999999999999,2|0,3:2|3:2,0:0:0:0:
316,192,18258,1,10,0:2:0:0:
236,132,18599,1,2,3:2:0:0:
164,200,18940,1,10,0:2:0:0:
164,200,19110,6,0,L|156:308,1,99.9999999999999,2|2,3:2|3:2,0:0:0:0:
136,344,19621,2,0,P|84:364|32:340,1,99.9999999999999,10|0,0:2|3:2,0:0:0:0:
4,260,20303,1,10,0:2:0:0:
68,184,20644,2,0,L|76:68,1,99.9999999999999,2|8,3:2|0:2,0:0:0:0:
168,44,21326,2,0,L|176:160,1,99.9999999999999,2|8,3:2|0:2,0:0:0:0:
196,188,21837,6,0,P|252:208|300:184,1,99.9999999999999,2|2,3:2|3:2,0:0:0:0:
316,152,22349,1,10,0:2:0:0:
388,84,22690,2,0,L|388:28,2,50,2|2|8,3:2|3:2|0:2,0:0:0:0:
424,120,23201,1,2,3:2:0:0:
480,200,23542,1,10,0:2:0:0:
480,200,23712,2,0,L|488:312,1,99.9999999999999,8|8,0:2|0:2,0:0:0:0:
460,340,24224,1,10,0:2:0:0:
460,340,24394,1,8,0:2:0:0:
364,368,24735,6,0,P|308:372|264:332,1,99.9999999999999,6|2,3:2|3:2,0:0:0:0:
252,304,25246,1,2,0:2:0:0:
252,304,25417,2,0,L|248:188,1,99.9999999999999,2|2,3:2|3:2,0:0:0:0:
228,156,25928,2,0,P|192:136|128:152,1,99.9999999999999,2|2,0:2|0:2,0:0:0:0:
76,224,26610,2,0,L|72:332,1,99.9999999999999,2|2,0:2|0:2,0:0:0:0:
164,364,27292,1,2,0:2:0:0:
164,364,27462,6,0,B|220:372|220:372|272:364,1,99.9999999999999,2|2,3:2|3:2,0:0:0:0:
340,304,28144,2,0,P|352:260|336:200,1,99.9999999999999,2|2,3:2|3:2,0:0:0:0:
308,172,28655,2,0,P|264:160|204:176,1,99.9999999999999,2|2,0:2|0:2,0:0:0:0:
156,256,29337,2,0,P|112:268|52:252,1,99.9999999999999,2|2,0:2|0:2,0:0:0:0:
4,172,30019,1,2,0:2:0:0:
4,172,30190,6,0,P|-8:128|8:68,1,99.9999999999999,2|2,3:2|3:2,0:0:0:0:
44,48,30701,2,0,L|152:40,1,99.9999999999999,2|2,0:2|0:2,0:0:0:0:
176,80,31212,1,2,3:2:0:0:
176,80,31383,2,0,L|284:88,1,99.9999999999999,2|2,0:2|0:2,0:0:0:0:
364,132,32065,2,0,P|376:192|352:248,1,99.9999999999999,2|2,0:2|0:2,0:0:0:0:
284,284,32746,1,2,0:2:0:0:
284,284,32917,6,0,L|184:288,1,99.9999999999999,0|0,3:2|3:2,0:0:0:0:
140,264,33428,1,2,0:2:0:0:
92,176,33769,1,2,0:2:0:0:
160,100,34110,2,0,L|260:104,1,99.9999999999999,2|2,0:2|0:2,0:0:0:0:
324,184,34792,2,0,L|424:180,1,99.9999999999999,2|2,0:2|0:2,0:0:0:0:
460,144,35303,1,0,3:2:0:0:
424,52,35644,6,0,P|372:32|316:48,1,99.9999999999999,6|2,3:2|3:2,0:0:0:0:
256,108,36326,2,0,P|204:128|148:112,1,99.9999999999999,2|2,3:2|3:2,0:0:0:0:
120,92,36837,2,0,P|71:84|25:103,1,99.9999999999999,2|2,0:2|0:2,0:0:0:0:
0,204,37519,2,0,L|16:316,1,99.9999999999999,2|2,0:2|0:2,0:0:0:0:
96,360,38201,1,2,0:2:0:0:
96,360,38371,6,0,P|160:372|208:348,1,99.9999999999999,2|2,3:2|3:2,0:0:0:0:
220,320,38883,1,2,0:2:0:0:
220,320,39053,2,0,L|224:200,1,99.9999999999999,2|2,3:2|3:2,0:0:0:0:
232,172,39565,2,0,P|268:156|332:172,1,99.9999999999999,2|2,0:2|0:2,0:0:0:0:
360,260,40246,2,0,P|396:276|460:260,1,99.9999999999999,2|2,0:2|0:2,0:0:0:0:
508,180,40928,1,2,0:2:0:0:
508,180,41099,6,0,L|512:80,1,99.9999999999999,2|2,3:2|3:2,0:0:0:0:
484,40,41610,1,2,0:2:0:0:
484,40,41780,2,0,P|420:24|376:44,1,99.9999999999999,2|2,3:2|3:2,0:0:0:0:
352,68,42292,2,0,B|324:116|324:116|348:216,1,150,2|2,0:2|3:2,0:0:0:0:
340,308,43144,2,0,P|308:344|244:344,1,99.9999999999999,2|2,3:2|3:2,0:0:0:0:
216,324,43655,1,2,0:2:0:0:
216,324,43826,6,0,L|204:212,1,99.9999999999999,0|0,3:2|3:2,0:0:0:0:
160,204,44337,2,0,L|172:92,1,99.9999999999999,2|2,0:2|0:2,0:0:0:0:
100,32,45019,2,0,P|48:56|28:100,1,99.9999999999999,2|2,3:2|3:2,0:0:0:0:
36,140,45530,1,8,0:2:0:0:
68,236,45871,2,0,L|64:296,2,50,2|8|10,3:2|0:2|0:2,0:0:0:0:
108,204,46383,1,8,0:2:0:0:
108,204,46553,6,0,B|176:196|160:228|228:220,1,99.9999999999999,14|0,3:2|0:2,0:0:0:0:
292,172,47235,2,0,P|344:164|400:180,1,99.9999999999999,8|2,0:2|3:2,0:0:0:0:
428,208,47746,1,10,0:2:0:0:
428,208,47917,2,0,L|500:200,2,50,2|10|2,3:2|0:2|3:2,0:0:0:0:
392,304,48599,2,0,P|356:320|292:308,1,99.9999999999999,10|2,0:2|3:2,0:0:0:0:
264,276,49110,1,8,0:2:0:0:
264,276,49280,6,0,L|256:168,1,99.9999999999999,2|0,3:2|0:2,0:0:0:0:
212,88,49962,2,0,P|164:72|108:96,1,99.9999999999999,8|2,0:2|3:2,0:0:0:0:
92,128,50474,1,10,0:2:0:0:
92,128,50644,2,0,L|40:132,2,50,2|10|2,3:2|0:2|3:2,0:0:0:0:
164,200,51326,2,0,L|284:208,1,99.9999999999999,8|10,0:2|0:2,0:0:0:0:
308,232,51837,1,8,0:2:0:0:
308,232,52008,6,0,P|328:280|304:340,1,99.9999999999999,6|8,3:2|0:2,0:0:0:0:
285,364,52519,2,0,L|169:368,1,99.9999999999999,2|0,0:2|3:2,0:0:0:0:
134,365,53030,1,10,0:2:0:0:
58,299,53371,2,0,B|34:251|34:251|38:183,1,99.9999999999999,2|10,3:2|0:2,0:0:0:0:
64,162,53883,2,0,P|104:142|172:162,1,99.9999999999999,2|0,0:2|3:2,0:0:0:0:
188,190,54394,1,10,0:2:0:0:
248,270,54735,5,2,3:2:0:0:
348,258,55076,1,8,3:2:0:0:
396,170,55417,1,8,3:2:0:0:
348,82,55758,1,10,3:2:0:0:
248,74,56099,2,0,L|184:74,1,50,8|8,3:2|3:2,0:0:0:0:
152,94,56440,1,8,3:2:0:0:
16,324,57462,6,0,P|88:336|128:316,1,99.9999999999999,6|8,3:2|0:2,0:0:0:0:
144,288,57974,1,0,3:2:0:0:
144,288,58144,2,0,L|152:184,1,99.9999999999999,0|10,3:2|0:2,0:0:0:0:
176,144,58655,2,0,P|232:124|284:144,1,99.9999999999999,2|0,3:2|3:2,0:0:0:0:
304,172,59167,1,8,0:2:0:0:
388,228,59508,1,2,3:2:0:0:
476,180,59849,1,10,0:2:0:0:
464,80,60190,6,0,L|356:68,1,99.9999999999999,2|8,3:2|0:2,0:0:0:0:
320,48,60701,1,0,3:2:0:0:
320,48,60871,2,0,P|264:52|224:96,1,99.9999999999999,0|10,3:2|0:2,0:0:0:0:
216,128,61383,2,0,L|220:236,1,99.9999999999999,2|0,3:2|3:2,0:0:0:0:
224,276,61894,1,8,0:2:0:0:
152,344,62235,1,2,3:2:0:0:
56,312,62576,1,10,0:2:0:0:
48,212,62917,6,0,L|56:100,1,99.9999999999999,2|8,3:2|0:2,0:0:0:0:
76,68,63428,1,0,3:2:0:0:
76,68,63599,2,0,P|136:56|180:72,1,99.9999999999999,0|10,3:2|0:2,0:0:0:0:
200,108,64110,2,0,L|207:207,1,99.9999999999999,2|0,3:2|3:2,0:0:0:0:
220,256,64621,1,10,0:2:0:0:
276,340,64962,1,2,3:2:0:0:
376,328,65303,1,10,0:2:0:0:
416,236,65644,6,0,L|420:128,1,99.9999999999999,2|10,3:2|0:2,0:0:0:0:
380,44,66326,2,0,P|328:36|272:68,1,99.9999999999999,2|10,3:2|0:2,0:0:0:0:
260,96,66837,1,2,3:2:0:0:
280,196,67178,1,8,0:2:0:0:
280,196,67349,2,0,L|288:308,1,99.9999999999999,8|10,0:2|0:2,0:0:0:0:
264,340,67860,1,8,0:2:0:0:
264,340,68030,1,10,3:2:0:0:
168,368,68371,6,0,L|56:372,1,99.9999999999999,6|8,3:2|0:2,0:0:0:0:
32,336,68883,1,0,3:2:0:0:
32,336,69053,2,0,P|8:284|24:224,1,99.9999999999999,0|10,3:2|0:2,0:0:0:0:
52,208,69565,2,0,L|151:204,1,99.9999999999999,2|0,3:2|3:2,0:0:0:0:
192,176,70076,1,8,0:2:0:0:
276,228,70417,1,2,3:2:0:0:
356,168,70758,1,10,0:2:0:0:
436,228,71099,6,0,L|440:328,1,99.9999999999999,2|8,3:2|0:2,0:0:0:0:
400,356,71610,1,0,3:2:0:0:
400,356,71780,2,0,P|352:372|292:352,1,99.9999999999999,0|10,3:2|0:2,0:0:0:0:
272,324,72292,2,0,L|276:220,1,99.9999999999999,2|0,3:2|3:2,0:0:0:0:
252,180,72803,1,10,0:2:0:0:
192,100,73144,1,2,3:2:0:0:
236,12,73485,1,10,0:2:0:0:
236,12,73655,6,0,L|344:8,1,99.9999999999999,2|2,3:2|3:2,0:0:0:0:
380,36,74167,2,0,P|400:84|380:140,1,99.9999999999999,10|0,0:2|3:2,0:0:0:0:
352,164,74678,1,0,3:2:0:0:
352,164,74849,1,10,0:2:0:0:
256,192,75190,2,0,L|148:196,1,99.9999999999999,2|8,3:2|0:2,0:0:0:0:
72,144,75871,2,0,P|60:104|92:40,1,99.9999999999999,2|8,3:2|0:2,0:0:0:0:
128,36,76383,6,0,L|236:44,1,99.9999999999999,2|2,3:2|3:2,0:0:0:0:
268,72,76894,1,10,0:2:0:0:
312,160,77235,1,0,3:2:0:0:
312,160,77405,2,0,L|316:264,1,99.9999999999999,0|0,3:2|3:2,0:0:0:0:
364,348,78087,1,8,0:2:0:0:
364,348,78258,2,0,P|420:356|464:328,1,99.9999999999999,8|10,0:2|0:2,0:0:0:0:
476,288,78769,1,8,0:2:0:0:
476,288,78940,1,10,0:2:0:0:
440,196,79280,6,0,L|336:188,1,99.9999999999999,14|8,0:2|0:2,0:0:0:0:
256,244,79962,1,8,0:2:0:0:
178,180,80303,2,0,L|174:121,1,50,10|2,0:2|3:2,0:0:0:0:
185,81,80644,2,0,P|209:41|273:25,1,99.9999999999999,8|8,0:2|0:2,0:0:0:0:
356,36,81326,1,10,0:2:0:0:
404,124,81667,1,10,0:2:0:0:
348,208,82008,6,0,L|344:308,1,99.9999999999999,10|8,0:2|0:2,0:0:0:0:
260,364,82690,1,8,0:2:0:0:
173,314,83030,2,0,L|164:255,1,50,10|2,0:2|3:2,0:0:0:0:
175,215,83371,2,0,L|182:115,1,99.9999999999999,8|8,0:2|0:2,0:0:0:0:
112,42,84053,1,10,0:2:0:0:
18,78,84394,1,10,0:2:0:0:
24,180,84735,6,0,L|28:288,1,99.9999999999999,10|8,0:2|0:2,0:0:0:0:
104,344,85417,1,8,0:2:0:0:
184,280,85758,1,10,0:2:0:0:
184,280,85928,2,0,P|236:272|292:296,1,99.9999999999999,2|0,3:2|3:2,0:0:0:0:
316,320,86440,1,10,0:2:0:0:
416,332,86780,2,0,L|428:388,2,50,10|8|10,0:2|3:2|0:2,0:0:0:0:
448,292,87292,1,8,0:2:0:0:
448,292,87462,6,0,B|464:240|464:240|448:184,1,99.9999999999999,6|0,3:2|3:2,0:0:0:0:
376,132,88144,2,0,L|264:128,1,99.9999999999999,14|0,3:2|3:2,0:0:0:0:
233,154,88655,1,8,3:2:0:0:
233,154,88826,2,0,P|207:204|219:259,1,99.9999999999999,6|0,3:2|3:2,0:0:0:0:
266,330,89508,2,0,L|330:334,2,50,14|0|8,3:2|3:2|3:2,0:0:0:0:
221,352,90019,6,0,L|105:360,1,99.9999999999999,6|10,3:2|0:2,0:0:0:0:
77,336,90530,2,0,P|45:296|53:232,1,99.9999999999999,6|0,3:2|3:2,0:0:0:0:
105,169,91212,1,10,0:2:0:0:
189,222,91553,2,0,L|293:226,1,99.9999999999999,2|8,3:2|0:2,0:0:0:0:
376,276,92235,2,0,L|384:336,2,50,2|0|8,3:2|3:2|0:2,0:0:0:0:
412,240,92746,6,0,P|432:192|416:136,1,99.9999999999999,6|10,3:2|0:2,0:0:0:0:
388,108,93258,2,0,L|284:100,1,99.9999999999999,6|0,3:2|3:2,0:0:0:0:
204,44,93940,1,10,0:2:0:0:
136,116,94280,2,0,L|132:224,1,99.9999999999999,2|8,3:2|0:2,0:0:0:0:
188,300,94962,2,0,L|192:364,2,50,2|0|10,3:2|3:2|0:2,0:0:0:0:
220,260,95474,6,0,P|264:240|328:252,1,99.9999999999999,2|8,3:2|3:2,0:0:0:0:
356,276,95985,1,10,3:2:0:0:
456,264,96326,1,8,3:2:0:0:
495,171,96667,1,10,3:2:0:0:
433,91,97008,2,0,P|394:82|368:89,1,50,10|10,3:2|3:2,0:0:0:0:
338,102,97349,2,0,P|310:131|303:157,1,50,8|10,3:2|3:2,0:0:0:0:
298,189,97690,2,0,L|298:244,2,50,8|10|8,3:2|3:2|3:2,0:0:0:0:
257,159,98201,6,0,B|205:103|117:143|117:143|69:219|129:295,1,300,6|2,3:2|0:2,0:0:0:0:
152,324,99394,1,8,3:2:0:0:
152,324,99565,1,8,3:2:0:0:
