osu file format v14

[General]
AudioFilename: audio.mp3
AudioLeadIn: 0
PreviewTime: 56695
Countdown: 0
SampleSet: Soft
StackLeniency: 0.4
Mode: 0
LetterboxInBreaks: 0
WidescreenStoryboard: 1

[Editor]
DistanceSpacing: 0.2
BeatDivisor: 4
GridSize: 4
TimelineZoom: 1.6

[Metadata]
Title:Yume Chizu
TitleUnicode:夢地図
Artist:yuikonnu
ArtistUnicode:ゆいこんぬ
Creator:browiec
Version:Insane
Source:
Tags:40mp 40Meter-P cover utaite japanese pop cut a_r_m_i_n armin 歌ってみた 歌い手 utattemita
BeatmapID:2237470
BeatmapSetID:1068768

[Difficulty]
HPDrainRate:4.5
CircleSize:3.8
OverallDifficulty:8.2
ApproachRate:9
SliderMultiplier:1.68
SliderTickRate:1

[Events]
//Background and Video events
0,0,"that bg fills me with some nostalgic thoughts.jpg",0,0
//Break Periods
//Storyboard Layer 0 (Background)
//Storyboard Layer 1 (Fail)
//Storyboard Layer 2 (Pass)
//Storyboard Layer 3 (Foreground)
//Storyboard Layer 4 (Overlay)
//Storyboard Sound Samples

[TimingPoints]
190,340.909090909091,4,2,1,40,1,0
2917,-181.818181818182,4,2,1,40,0,0
11099,-133.333333333333,4,2,1,45,0,0
11440,-133.333333333333,4,2,1,50,0,0
11780,-133.333333333333,4,2,1,55,0,0
12121,-133.333333333333,4,2,1,60,0,0
12292,-100,4,2,1,60,0,0
13826,-100,4,2,1,65,0,0
24735,-125,4,2,1,50,0,0
35644,-117.647058823529,4,2,1,55,0,0
46553,-125,4,2,1,50,0,0
52008,-100,4,2,1,60,0,0
54735,-100,4,2,1,45,0,0
55076,-100,4,2,1,50,0,0
55417,-100,4,2,1,55,0,0
55758,-100,4,2,1,60,0,0
56099,-100,4,2,1,65,0,0
56780,-100,4,2,1,40,0,0
57462,-90.9090909090909,4,2,1,70,0,1
87462,-100,4,2,1,60,0,0
90019,-90.9090909090909,4,2,1,65,0,1
97008,-90.9090909090909,4,2,1,70,0,1
98201,-166.666666666667,4,2,1,65,0,0
99224,-166.666666666667,4,2,1,40,0,0
99394,-166.666666666667,4,2,1,60,0,0

[Colours]
Combo1 : 157,208,227
Combo2 : 255,202,91
Combo3 : 11,168,253
Combo4 : 245,128,56

[HitObjects]
92,160,2576,5,0,3:0:0:0:
108,176,2917,6,0,L|96:24,2,138.600004229736,6|2|2,0:2|0:2|0:2,0:0:0:0:
160,256,4110,2,0,P|204:264|252:232,1,92.4000028198243,2|0,0:2|3:2,0:0:0:0:
280,156,4621,1,0,3:2:0:0:
420,276,4962,2,0,L|320:284,1,92.4000028198243,10|2,0:2|3:2,0:0:0:0:
160,364,5644,6,0,L|8:376,2,138.600004229736,6|2|2,0:2|0:2|0:2,0:0:0:0:
240,316,6837,2,0,P|252:272|236:224,1,92.4000028198243,2|0,0:2|3:2,0:0:0:0:
172,164,7349,1,0,3:2:0:0:
348,108,7690,5,10,0:2:0:0:
330,197,7860,1,8,0:2:0:0:
261,135,8030,1,2,3:2:0:0:
424,220,8371,6,0,B|440:284|440:284|416:372,2,138.600004229736,6|2|2,0:2|0:2|0:2,0:0:0:0:
372,144,9564,1,2,0:2:0:0:
372,144,9735,6,0,P|328:132|279:151,1,92.4000028198243,4|2,0:2|0:2,0:0:0:0:
232,252,10417,2,0,P|188:266|145:254,1,92.4000028198243,2|2,0:2|0:2,0:0:0:0:
184,112,11099,6,0,L|188:196,1,63.0000024032594,2|0,3:2|3:2,0:0:0:0:
244,272,11440,1,10,3:2:0:0:
296,172,11610,1,8,3:2:0:0:
328,312,11780,1,10,3:2:0:0:
388,188,11951,1,8,3:2:0:0:
416,352,12121,1,10,3:2:0:0:
480,204,12292,6,0,L|492:104,1,84,6|0,3:2|0:0,0:0:0:0:
364,68,12633,1,8,0:2:0:0:
364,68,12803,2,0,L|374:151,1,84,8|0,0:2|3:2,0:0:0:0:
244,280,13144,1,8,0:2:0:0:
272,136,13315,1,8,0:2:0:0:
360,272,13485,1,8,0:2:0:0:
360,272,13570,1,8,0:2:0:0:
360,272,13655,1,8,0:2:0:0:
184,192,13826,6,0,B|88:188|140:256|12:240,1,168,6|8,3:2|0:2,0:0:0:0:
8,112,14337,1,2,0:2:0:0:
8,112,14508,2,0,P|64:104|112:120,1,84,0|0,3:2|3:2,0:0:0:0:
200,212,14849,1,10,0:2:0:0:
228,48,15019,6,0,P|272:24|372:100,1,168,2|0,3:2|3:2,0:0:0:0:
428,164,15530,2,0,P|380:164|340:196,1,84,8|0,0:2|0:2,0:0:0:0:
268,280,15871,2,0,L|256:176,1,84,2|0,3:2|3:2,0:0:0:0:
172,120,16212,2,0,L|160:224,1,84,10|0,0:2|0:2,0:0:0:0:
224,360,16553,6,0,P|288:372|360:292,1,168,2|8,3:2|0:2,0:0:0:0:
400,176,17065,1,2,0:2:0:0:
400,176,17235,2,0,P|456:168|496:180,1,84,0|0,3:2|3:2,0:0:0:0:
440,328,17576,1,10,0:2:0:0:
316,224,17746,6,0,L|140:212,1,168,2|0,3:2|3:2,0:0:0:0:
68,128,18258,2,0,L|160:120,1,84,10|0,0:2|0:2,0:0:0:0:
240,36,18599,2,0,L|148:28,1,84,2|0,3:2|3:2,0:0:0:0:
48,108,18940,1,10,0:2:0:0:
192,208,19110,6,0,B|236:224|272:212|272:212|292:224|292:224|328:212|368:232,1,168,2|2,3:2|3:2,0:0:0:0:
380,368,19621,2,0,P|340:340|320:296,1,84,10|0,0:2|0:2,0:0:0:0:
336,136,19962,1,0,3:2:0:0:
336,136,20133,1,0,3:2:0:0:
472,224,20303,2,0,P|444:264|400:284,1,84,10|0,0:2|0:2,0:0:0:0:
239,300,20644,6,0,L|347:312,1,84,2|0,3:2|0:2,0:0:0:0:
236,196,20985,2,0,L|128:208,1,84,8|0,0:2|0:2,0:0:0:0:
88,96,21326,2,0,L|196:108,1,84,2|0,3:2|3:2,0:0:0:0:
252,16,21667,1,8,0:2:0:0:
328,150,21837,6,0,B|352:202|352:202|320:314,1,168,2|2,3:2|3:2,0:0:0:0:
172,212,22349,2,0,P|235:207|280:231,1,84,10|0,0:2|0:2,0:0:0:0:
120,292,22690,1,2,3:2:0:0:
120,292,22860,2,0,P|84:239|82:188,1,84,2|8,3:2|0:2,0:0:0:0:
120,56,23201,6,0,L|116:168,1,84,2|0,3:2|0:2,0:0:0:0:
284,168,23542,1,10,0:2:0:0:
284,168,23712,2,0,P|240:144|192:148,1,84,8|2,0:2|3:2,0:0:0:0:
216,312,24053,1,8,0:2:0:0:
300,192,24224,1,10,0:2:0:0:
332,352,24394,1,8,0:2:0:0:
332,352,24479,1,8,0:2:0:0:
332,352,24565,1,8,0:2:0:0:
424,232,24735,6,0,B|436:172|436:172|432:140|432:140|444:80,1,134.4,6|2,3:2|3:2,0:0:0:0:
344,32,25246,1,2,0:2:0:0:
344,32,25417,2,0,L|344:128,1,67.2,2|2,3:2|0:2,0:0:0:0:
296,216,25758,1,2,3:2:0:0:
236,92,25928,6,0,P|192:88|152:108,1,67.2,2|0,0:2|3:2,0:0:0:0:
180,236,26269,2,0,P|205:199|208:155,1,67.2,2|0,0:2|3:2,0:0:0:0:
56,160,26610,2,0,L|136:172,1,67.2,2|0,0:2|3:2,0:0:0:0:
72,256,26951,2,0,L|-8:268,1,67.2,2|0,0:2|3:2,0:0:0:0:
96,356,27292,1,2,0:2:0:0:
180,236,27462,6,0,P|216:232|252:244,1,67.2,2|2,3:2|0:2,0:0:0:0:
324,316,27803,2,0,P|324:268|392:196,1,134.4,2|2,3:2|3:2,0:0:0:0:
488,233,28315,1,2,0:2:0:0:
414,289,28485,1,2,3:2:0:0:
476,144,28655,6,0,L|464:224,1,67.2,2|0,0:2|3:2,0:0:0:0:
392,112,28996,2,0,L|382:45,1,67.2,2|0,0:2|3:2,0:0:0:0:
308,168,29337,2,0,L|296:248,1,67.2,2|0,0:2|3:2,0:0:0:0:
224,136,29678,2,0,L|214:69,1,67.2,2|0,0:2|3:2,0:0:0:0:
148,188,30019,1,2,0:2:0:0:
68,80,30190,6,0,B|80:116|60:152|60:152|44:188|64:236,1,134.4,2|2,3:2|3:2,0:0:0:0:
124,280,30701,2,0,P|176:280|208:264,2,67.2,2|2|2,0:2|3:2|0:2,0:0:0:0:
148,188,31212,1,2,3:2:0:0:
148,188,31383,6,0,L|160:108,1,67.2,2|0,0:2|3:2,0:0:0:0:
240,60,31724,2,0,L|252:140,1,67.2,2|0,0:2|3:2,0:0:0:0:
312,224,32065,2,0,P|364:232|392:224,1,67.2,2|0,0:2|3:2,0:0:0:0:
464,324,32405,2,0,P|412:316|384:324,1,67.2,2|0,0:2|3:2,0:0:0:0:
276,364,32746,1,2,0:2:0:0:
276,364,32917,6,0,B|216:368|216:368|192:360|192:360|120:364,1,134.4,0|0,3:2|3:2,0:0:0:0:
64,284,33428,2,0,P|112:280|140:268,1,67.2,2|0,0:2|3:2,0:0:0:0:
108,136,33769,2,0,P|87:179|83:209,1,67.2,2|0,0:2|3:2,0:0:0:0:
240,204,34110,6,0,L|160:196,1,67.2,2|0,0:2|3:2,0:0:0:0:
236,112,34451,2,0,L|316:104,1,67.2,2|0,0:2|3:2,0:0:0:0:
400,136,34792,2,0,P|388:92|396:64,1,67.2,2|0,0:2|3:2,0:0:0:0:
472,188,35133,1,2,0:2:0:0:
472,188,35303,2,0,P|439:220|411:227,1,67.2,0|0,3:2|0:2,0:0:0:0:
302,105,35644,6,0,L|310:185,1,71.4000013618469,6|0,3:2|0:2,0:0:0:0:
208,236,35985,2,0,L|216:156,1,71.4000013618469,2|0,3:2|0:2,0:0:0:0:
100,111,36326,2,0,L|115:255,1,142.800002723694,2|2,3:2|3:2,0:0:0:0:
204,352,36837,6,0,L|284:364,1,71.4000013618469,2|0,0:2|3:2,0:0:0:0:
316,252,37178,2,0,L|236:264,1,71.4000013618469,2|0,0:2|3:2,0:0:0:0:
308,156,37519,2,0,L|388:168,1,71.4000013618469,2|0,0:2|3:2,0:0:0:0:
420,56,37860,2,0,L|340:68,1,71.4000013618469,2|0,0:2|3:2,0:0:0:0:
284,168,38201,1,2,0:2:0:0:
200,64,38371,6,0,P|204:120|192:152,1,71.4000013618469,2|2,3:2|0:2,0:0:0:0:
56,132,38712,2,0,P|102:100|136:94,1,71.4000013618469,2|2,3:2|0:2,0:0:0:0:
187,223,39053,2,0,P|136:198|114:172,2,71.4000013618469,2|2|2,3:2|0:2|3:2,0:0:0:0:
312,136,39565,6,0,L|320:56,1,71.4000013618469,2|0,0:2|3:2,0:0:0:0:
412,20,39905,2,0,L|420:100,1,71.4000013618469,2|0,0:2|3:2,0:0:0:0:
400,188,40246,2,0,L|392:268,1,71.4000013618469,2|0,0:2|3:2,0:0:0:0:
500,304,40587,2,0,L|492:224,1,71.4000013618469,2|0,0:2|3:2,0:0:0:0:
419,91,40928,1,2,0:2:0:0:
419,91,41099,6,0,B|328:80|368:136|264:124,1,142.800002723694,2|2,3:2|3:2,0:0:0:0:
204,68,41610,1,2,0:2:0:0:
224,196,41780,2,0,P|260:216|296:220,2,71.4000013618469,2|2|2,3:2|0:2|3:2,0:0:0:0:
124,116,42292,6,0,P|80:108|8:172,1,142.800002723694,2|0,0:2|0:2,0:0:0:0:
84,272,42803,2,0,L|96:184,1,71.4000013618469,2|2,3:2|0:2,0:0:0:0:
180,260,43144,2,0,L|192:348,2,71.4000013618469,2|0|2,3:2|0:2|3:2,0:0:0:0:
264,160,43655,1,2,0:2:0:0:
264,160,43826,6,0,B|328:140|328:140|428:168,1,142.800002723694,0|0,3:2|3:2,0:0:0:0:
492,240,44337,2,0,L|420:252,1,71.4000013618469,2|0,0:2|3:2,0:0:0:0:
440,356,44678,2,0,L|368:344,1,71.4000013618469,2|0,0:2|3:2,0:0:0:0:
256,256,45019,6,0,B|200:248|200:248|164:256|164:256|88:248,1,142.800002723694,2|2,3:2|3:2,0:0:0:0:
36,160,45530,2,0,L|116:152,1,71.4000013618469,8|2,0:2|3:2,0:0:0:0:
252,84,45871,1,2,3:2:0:0:
192,216,46042,1,8,0:2:0:0:
156,76,46212,1,10,0:2:0:0:
280,180,46383,1,8,0:2:0:0:
280,180,46468,1,8,0:2:0:0:
280,180,46553,6,0,L|428:196,1,134.4,14|0,3:2|0:2,0:0:0:0:
464,92,47065,1,0,3:2:0:0:
464,92,47235,2,0,L|380:100,1,67.2,8|0,0:2|0:2,0:0:0:0:
271,28,47576,2,0,L|279:112,1,67.2,2|10,3:2|0:2,0:0:0:0:
339,236,47917,6,0,P|344:196|334:156,1,67.2,2|10,3:2|0:2,0:0:0:0:
221,171,48258,2,0,P|216:211|226:251,1,67.2,2|0,3:2|0:2,0:0:0:0:
300,340,48599,2,0,L|152:348,1,134.4,10|2,0:2|3:2,0:0:0:0:
44,344,49110,1,8,0:2:0:0:
44,344,49280,6,0,P|12:292|44:212,1,134.4,2|0,3:2|0:2,0:0:0:0:
128,244,49792,1,0,3:2:0:0:
128,244,49962,2,0,P|180:256|216:244,1,67.2,8|0,0:2|0:2,0:0:0:0:
176,100,50303,2,0,L|164:188,1,67.2,2|10,3:2|0:2,0:0:0:0:
280,228,50644,6,0,L|268:140,1,67.2,2|10,3:2|0:2,0:0:0:0:
384,92,50985,2,0,L|372:228,1,134.4,2|8,3:2|0:2,0:0:0:0:
448,360,51496,1,0,3:2:0:0:
480,220,51667,1,10,0:2:0:0:
360,328,51837,1,8,0:2:0:0:
360,328,51922,1,8,0:2:0:0:
360,328,52008,6,0,B|256:324|320:372|200:372,1,168,6|8,3:2|0:2,0:0:0:0:
108,288,52519,1,2,0:2:0:0:
247,256,52690,2,0,P|263:217|262:175,1,84,0|0,3:2|3:2,0:0:0:0:
108,148,53030,2,0,P|134:181|178:202,1,84,10|0,0:2|0:2,0:0:0:0:
340,118,53371,6,0,P|270:78|194:107,1,168,2|10,3:2|0:2,0:0:0:0:
258,259,53883,1,2,0:2:0:0:
258,259,54053,2,0,L|262:163,1,84,0|0,3:2|3:2,0:0:0:0:
156,228,54394,2,0,L|160:324,1,84,10|0,0:2|0:2,0:0:0:0:
20,168,54735,6,0,P|68:172|108:156,1,84,2|0,3:2|3:2,0:0:0:0:
183,35,55076,5,8,3:2:0:0:
240,184,55246,1,8,3:2:0:0:
304,24,55417,5,8,3:2:0:0:
240,212,55587,1,8,3:2:0:0:
416,148,55758,6,0,P|364:136|324:148,1,84,10|10,3:2|3:2,0:0:0:0:
176,304,56099,5,8,3:2:0:0:
244,104,56269,1,8,3:2:0:0:
308,296,56440,1,8,3:2:0:0:
324,312,57462,6,0,P|376:328|424:312,1,92.4000028198243,6|0,3:2|0:2,0:0:0:0:
356,168,57803,1,8,0:2:0:0:
304,332,57974,1,0,3:2:0:0:
236,168,58144,2,0,L|140:164,1,92.4000028198243,0|0,3:2|3:2,0:0:0:0:
208,324,58485,1,10,0:2:0:0:
328,200,58655,6,0,P|328:136|220:72,1,184.800005639649,2|0,3:2|3:2,0:0:0:0:
132,44,59167,2,0,P|152:92|144:144,1,92.4000028198243,8|0,0:2|0:2,0:0:0:0:
0,160,59508,2,0,P|31:118|80:99,1,92.4000028198243,2|0,3:2|3:2,0:0:0:0:
167,216,59849,2,0,P|115:209|74:176,1,92.4000028198243,10|0,0:2|0:2,0:0:0:0:
156,28,60190,6,0,L|252:24,1,92.4000028198243,2|0,3:2|0:2,0:0:0:0:
316,176,60530,1,8,0:2:0:0:
376,20,60701,1,0,3:2:0:0:
440,168,60871,2,0,P|448:220|436:276,1,92.4000028198243,0|0,3:2|3:2,0:0:0:0:
340,368,61212,1,10,0:2:0:0:
296,200,61383,6,0,B|188:188|236:256|112:244,1,184.800005639649,2|0,3:2|3:2,0:0:0:0:
16,180,61894,2,0,P|68:168|104:136,1,92.4000028198243,8|0,0:2|0:2,0:0:0:0:
196,44,62235,2,0,P|180:95|190:142,1,92.4000028198243,2|0,3:2|3:2,0:0:0:0:
344,152,62576,2,0,P|307:112|261:97,1,92.4000028198243,10|0,0:2|0:2,0:0:0:0:
328,260,62917,6,0,L|444:256,1,92.4000028198243,2|0,3:2|0:2,0:0:0:0:
500,108,63258,1,8,0:2:0:0:
512,280,63428,1,0,3:2:0:0:
408,128,63599,2,0,L|292:124,1,92.4000028198243,0|0,3:2|3:2,0:0:0:0:
232,240,63940,1,10,0:2:0:0:
148,88,64110,6,0,B|100:140|100:140|136:272,1,184.800005639649,2|0,3:2|3:2,0:0:0:0:
248,332,64621,2,0,P|292:312|320:264,1,92.4000028198243,10|0,0:2|0:2,0:0:0:0:
218,153,64962,2,0,P|213:201|240:249,1,92.4000028198243,2|0,3:2|3:2,0:0:0:0:
388,216,65303,2,0,P|348:187|293:187,1,92.4000028198243,10|0,0:2|0:2,0:0:0:0:
160,296,65644,6,0,L|56:304,1,92.4000028198243,2|0,3:2|0:2,0:0:0:0:
0,192,65985,2,0,L|104:200,1,92.4000028198243,10|0,0:2|3:2,0:0:0:0:
188,88,66326,2,0,L|84:96,1,92.4000028198243,2|0,3:2|3:2,0:0:0:0:
208,208,66667,1,10,0:2:0:0:
280,48,66837,6,0,P|332:36|416:136,1,184.800005639649,2|8,3:2|0:2,0:0:0:0:
306,215,67349,2,0,P|305:170|324:128,1,92.4000028198243,8|0,0:2|3:2,0:0:0:0:
472,216,67690,1,10,0:2:0:0:
296,248,67860,1,8,0:2:0:0:
432,128,68030,1,10,3:2:0:0:
432,128,68116,1,8,3:2:0:0:
432,128,68201,1,8,3:2:0:0:
444,316,68371,6,0,B|332:300|384:364|252:348,1,184.800005639649,6|8,3:2|0:2,0:0:0:0:
208,212,68883,1,0,3:2:0:0:
132,360,69053,2,0,P|120:304|124:256,1,92.4000028198243,0|0,3:2|3:2,0:0:0:0:
192,112,69394,1,10,0:2:0:0:
296,248,69565,6,0,P|360:260|436:168,1,184.800005639649,2|0,3:2|3:2,0:0:0:0:
308,88,70076,2,0,P|314:133|342:169,1,92.4000028198243,8|0,0:2|0:2,0:0:0:0:
491,104,70417,2,0,P|448:86|403:93,1,92.4000028198243,2|0,3:2|3:2,0:0:0:0:
388,252,70758,2,0,P|430:269|475:262,1,92.4000028198243,10|0,0:2|0:2,0:0:0:0:
380,68,71099,6,0,L|196:56,1,184.800005639649,2|8,3:2|0:2,0:0:0:0:
48,152,71610,1,0,3:2:0:0:
224,164,71780,2,0,P|264:200|272:260,1,92.4000028198243,0|0,3:2|3:2,0:0:0:0:
116,304,72121,1,10,0:2:0:0:
140,128,72292,6,0,P|196:76|308:124,1,184.800005639649,2|0,3:2|3:2,0:0:0:0:
380,208,72803,2,0,P|380:136|400:104,1,92.4000028198243,10|0,0:2|0:2,0:0:0:0:
456,264,73144,2,0,P|393:300|355:298,1,92.4000028198243,2|0,3:2|3:2,0:0:0:0:
280,180,73485,1,10,0:2:0:0:
260,352,73655,6,0,B|192:360|192:360|152:352|152:352|64:360,1,184.800005639649,2|2,3:2|3:2,0:0:0:0:
0,248,74167,2,0,L|100:252,1,92.4000028198243,10|0,0:2|0:2,0:0:0:0:
256,168,74508,1,0,3:2:0:0:
200,308,74678,1,0,3:2:0:0:
164,112,74849,2,0,P|160:164|168:212,1,92.4000028198243,10|0,0:2|0:2,0:0:0:0:
328,284,75190,6,0,L|341:193,1,92.4000028198243,2|0,3:2|0:2,0:0:0:0:
428,108,75530,2,0,L|436:203,1,92.4000028198243,8|0,0:2|0:2,0:0:0:0:
508,304,75871,2,0,P|452:292|400:312,1,92.4000028198243,2|0,3:2|3:2,0:0:0:0:
304,376,76212,1,8,0:2:0:0:
268,204,76383,6,0,B|152:196|216:256|64:248,1,184.800005639649,2|2,3:2|3:2,0:0:0:0:
20,140,76894,2,0,P|68:152|116:144,1,92.4000028198243,10|0,0:2|0:2,0:0:0:0:
192,36,77235,1,0,3:2:0:0:
192,36,77405,2,0,P|237:30|281:42,1,92.4000028198243,0|8,3:2|0:2,0:0:0:0:
236,220,77746,6,0,L|228:128,1,92.4000028198243,0|0,3:2|0:2,0:0:0:0:
372,36,78087,1,8,0:2:0:0:
372,36,78258,2,0,L|364:128,1,92.4000028198243,8|0,0:2|3:2,0:0:0:0:
392,280,78599,1,10,0:2:0:0:
460,140,78769,1,8,0:2:0:0:
504,296,78940,1,10,0:2:0:0:
504,296,79025,1,8,0:2:0:0:
504,296,79110,1,8,0:2:0:0:
360,168,79280,6,0,L|260:160,1,92.4000028198243,14|0,0:2|3:2,0:0:0:0:
116,276,79621,5,8,0:2:0:0:
304,268,79792,1,0,3:2:0:0:
144,152,79962,5,8,0:2:0:0:
208,340,80133,1,0,3:2:0:0:
280,152,80303,5,10,0:2:0:0:
100,292,80474,1,2,3:2:0:0:
168,112,80644,6,0,P|176:176|164:212,1,92.4000028198243,8|0,0:2|3:2,0:0:0:0:
16,240,80985,2,0,P|8:176|20:140,1,92.4000028198243,8|0,0:2|3:2,0:0:0:0:
184,96,81326,6,0,P|192:160|180:196,1,92.4000028198243,10|0,0:2|3:2,0:0:0:0:
0,256,81667,2,0,P|-8:192|4:156,1,92.4000028198243,10|0,0:2|3:2,0:0:0:0:
136,304,82008,6,0,L|236:316,1,92.4000028198243,10|0,0:2|3:2,0:0:0:0:
280,136,82349,5,8,0:2:0:0:
344,312,82520,1,0,3:2:0:0:
176,204,82690,5,8,0:2:0:0:
368,204,82861,1,0,3:2:0:0:
216,336,83031,5,10,0:2:0:0:
288,116,83202,1,2,3:2:0:0:
360,336,83371,6,0,L|460:344,1,92.4000028198243,8|0,0:2|3:2,0:0:0:0:
488,184,83712,2,0,L|388:192,1,92.4000028198243,8|0,0:2|3:2,0:0:0:0:
344,352,84053,6,0,L|444:360,1,92.4000028198243,10|0,0:2|3:2,0:0:0:0:
504,168,84394,2,0,P|512:136|508:108,2,46.2000014099122,10|8|0,0:2|0:2|3:2,0:0:0:0:
316,252,84735,6,0,P|268:252|228:224,1,92.4000028198243,10|2,0:2|3:2,0:0:0:0:
164,52,85076,5,8,0:2:0:0:
112,236,85246,1,0,3:2:0:0:
164,24,85417,5,8,0:2:0:0:
231,228,85587,1,0,3:2:0:0:
280,16,85758,5,10,0:2:0:0:
68,104,85928,1,2,3:2:0:0:
308,168,86099,6,0,L|408:172,1,92.4000028198243,8|0,0:2|3:2,0:0:0:0:
472,304,86440,2,0,L|372:308,1,92.4000028198243,10|0,0:2|3:2,0:0:0:0:
168,176,86780,5,10,0:2:0:0:
400,171,86951,1,8,3:2:0:0:
260,332,87121,5,10,0:2:0:0:
264,84,87292,1,8,0:2:0:0:
264,84,87377,1,8,0:2:0:0:
264,84,87462,6,0,B|296:136|296:136|248:272,1,168,6|0,3:2|3:2,0:0:0:0:
220,332,87974,1,0,3:2:0:0:
176,188,88144,2,0,P|124:164|28:224,1,168,14|0,3:2|3:2,0:0:0:0:
116,260,88655,1,8,3:2:0:0:
204,96,88826,6,0,L|296:88,2,84,6|8|0,3:2|3:2|3:2,0:0:0:0:
132,244,89337,1,0,3:2:0:0:
32,108,89508,1,14,3:2:0:0:
20,276,89678,1,0,3:2:0:0:
120,148,89849,1,8,3:2:0:0:
172,336,90019,6,0,L|364:348,1,184.800005639649,6|10,3:2|0:2,0:0:0:0:
448,228,90530,2,0,L|256:240,1,184.800005639649,6|0,3:2|3:2,0:0:0:0:
160,176,91042,1,0,3:2:0:0:
268,36,91212,2,0,P|284:96|264:144,1,92.4000028198243,10|0,0:2|0:2,0:0:0:0:
104,80,91553,6,0,L|208:88,1,92.4000028198243,2|0,3:2|0:2,0:0:0:0:
340,208,91894,2,0,L|236:216,1,92.4000028198243,8|0,0:2|0:2,0:0:0:0:
120,332,92235,1,2,3:2:0:0:
120,332,92405,1,0,3:2:0:0:
160,176,92576,1,8,0:2:0:0:
248,336,92746,6,0,P|300:360|408:304,1,184.800005639649,6|10,3:2|0:2,0:0:0:0:
368,108,93258,2,0,P|321:141|315:262,1,184.800005639649,6|0,3:2|3:2,0:0:0:0:
464,208,93769,1,0,3:2:0:0:
352,88,93940,2,0,L|236:84,1,92.4000028198243,10|0,0:2|0:2,0:0:0:0:
132,112,94280,6,0,P|188:140|208:184,1,92.4000028198243,2|0,3:2|0:2,0:0:0:0:
108,288,94621,2,0,P|104:225|132:186,1,92.4000028198243,8|0,0:2|0:2,0:0:0:0:
240,296,94962,1,2,3:2:0:0:
240,296,95133,1,0,3:2:0:0:
296,120,95303,1,10,0:2:0:0:
396,316,95474,6,0,B|284:284|360:236|243:196,1,184.800005639649,2|8,3:2|3:2,0:0:0:0:
108,120,95985,2,0,L|228:116,1,92.4000028198243,10|8,3:2|3:2,0:0:0:0:
112,236,96326,2,0,L|-8:232,1,92.4000028198243,8|8,3:2|3:2,0:0:0:0:
136,348,96667,2,0,L|256:344,1,92.4000028198243,10|8,3:2|3:2,0:0:0:0:
336,180,97008,5,10,3:2:0:0:
380,348,97178,1,10,3:2:0:0:
432,156,97349,1,8,3:2:0:0:
308,276,97519,1,10,3:2:0:0:
368,84,97690,2,0,L|368:36,2,46.2000014099122,8|8|10,3:2|0:2|3:2,0:0:0:0:
456,280,98030,1,8,3:2:0:0:
284,156,98201,6,0,B|216:108|140:168|140:168|108:260|8:244,1,302.399990771485,6|2,3:2|0:2,0:0:0:0:
144,48,99394,5,8,3:2:0:0:
220,240,99565,1,8,3:2:0:0:
