osu file format v14

[General]
AudioFilename: audio.mp3
AudioLeadIn: 0
PreviewTime: 56695
Countdown: 0
SampleSet: Soft
StackLeniency: 0.4
Mode: 0
LetterboxInBreaks: 0
WidescreenStoryboard: 1

[Editor]
DistanceSpacing: 1.3
BeatDivisor: 4
GridSize: 4
TimelineZoom: 1.6

[Metadata]
Title:Yume Chizu
TitleUnicode:夢地図
Artist:yuikonnu
ArtistUnicode:ゆいこんぬ
Creator:browiec
Version:Hard
Source:
Tags:40mp 40Meter-P cover utaite japanese pop cut a_r_m_i_n armin 歌ってみた 歌い手 utattemita
BeatmapID:2237468
BeatmapSetID:1068768

[Difficulty]
HPDrainRate:4
CircleSize:3.6
OverallDifficulty:6.4
ApproachRate:7.2
SliderMultiplier:1.42
SliderTickRate:1

[Events]
//Background and Video events
0,0,"that bg fills me with some nostalgic thoughts.jpg",0,0
//Break Periods
//Storyboard Layer 0 (Background)
//Storyboard Layer 1 (Fail)
//Storyboard Layer 2 (Pass)
//Storyboard Layer 3 (Foreground)
//Storyboard Layer 4 (Overlay)
//Storyboard Sound Samples

[TimingPoints]
190,340.909090909091,4,2,1,40,1,0
2917,-181.818181818182,4,2,1,40,0,0
11099,-111.111111111111,4,2,1,45,0,0
11440,-111.111111111111,4,2,1,50,0,0
11780,-111.111111111111,4,2,1,55,0,0
12121,-111.111111111111,4,2,1,60,0,0
12292,-100,4,2,1,60,0,0
13826,-100,4,2,1,65,0,0
24735,-111.111111111111,4,2,1,50,0,0
35644,-111.111111111111,4,2,1,55,0,0
46553,-111.111111111111,4,2,1,50,0,0
52008,-100,4,2,1,60,0,0
54735,-100,4,2,1,45,0,0
55076,-100,4,2,1,50,0,0
55417,-100,4,2,1,55,0,0
55758,-100,4,2,1,60,0,0
56099,-100,4,2,1,65,0,0
56780,-100,4,2,1,40,0,0
57462,-90.9090909090909,4,2,1,70,0,1
87462,-100,4,2,1,60,0,0
90019,-90.9090909090909,4,2,1,65,0,1
97008,-90.9090909090909,4,2,1,70,0,1
98201,-133.333333333333,4,2,1,65,0,0
99224,-133.333333333333,4,2,1,40,0,0
99394,-133.333333333333,4,2,1,60,0,0

[Colours]
Combo1 : 157,208,227
Combo2 : 255,202,91
Combo3 : 11,168,253
Combo4 : 245,128,56

[HitObjects]
256,248,2576,5,0,3:0:0:0:
236,268,2917,2,0,B|176:280|176:280|112:268,2,117.150003575134,6|2|2,0:2|0:2|0:2,0:0:0:0:
304,316,4110,2,0,L|392:308,1,78.1000023834229,2|0,0:2|3:2,0:0:0:0:
464,300,4621,1,0,3:2:0:0:
504,140,4962,2,0,P|496:96|464:68,1,78.1000023834229,10|2,0:2|3:2,0:0:0:0:
332,156,5644,6,0,L|328:276,2,117.150003575134,6|2|2,0:2|0:2|0:2,0:0:0:0:
296,80,6837,2,0,L|208:68,1,78.1000023834229,2|0,0:2|3:2,0:0:0:0:
136,60,7349,1,0,3:2:0:0:
72,212,7690,2,0,L|20:216,2,39.0500011917115,10|8|2,0:2|0:2|3:2,0:0:0:0:
212,296,8371,6,0,P|264:316|328:292,2,117.150003575134,6|2|2,0:2|0:2|0:2,0:0:0:0:
172,224,9565,1,2,0:2:0:0:
172,224,9735,6,0,L|168:144,1,78.1000023834229,4|2,0:2|0:2,0:0:0:0:
304,52,10417,2,0,L|300:132,1,78.1000023834229,2|2,0:2|0:2,0:0:0:0:
336,332,11099,6,0,P|372:344|408:340,1,63.8999980499268,2|0,3:2|3:2,0:0:0:0:
468,296,11440,2,0,P|480:260|476:224,1,63.8999980499268,10|8,3:2|3:2,0:0:0:0:
432,164,11780,2,0,P|396:152|360:156,1,63.8999980499268,10|8,3:2|3:2,0:0:0:0:
308,208,12121,1,10,3:2:0:0:
308,208,12292,6,0,B|240:224|240:224|140:200,1,142,6|8,3:2|0:2,0:0:0:0:
100,144,12803,2,0,P|52:144|16:168,1,71,8|0,0:2|3:2,0:0:0:0:
0,236,13144,2,0,P|0:284|24:320,1,71,8|8,0:2|0:2,0:0:0:0:
84,360,13485,1,8,0:2:0:0:
84,360,13570,1,8,0:2:0:0:
84,360,13655,1,8,0:2:0:0:
152,296,13826,6,0,L|304:288,1,142,6|8,3:2|0:2,0:0:0:0:
376,332,14337,1,2,0:2:0:0:
376,332,14508,2,0,P|432:336|464:320,1,71,0|0,3:2|3:2,0:0:0:0:
500,260,14849,1,10,0:2:0:0:
440,192,15019,6,0,B|364:172|384:224|296:200,1,142,2|0,3:2|3:2,0:0:0:0:
220,156,15530,2,0,L|212:76,1,71,8|0,0:2|0:2,0:0:0:0:
276,16,15871,2,0,P|316:8|360:24,1,71,2|0,3:2|3:2,0:0:0:0:
404,88,16212,2,0,P|412:128|396:172,1,71,10|0,0:2|0:2,0:0:0:0:
348,240,16553,6,0,L|196:252,1,142,2|8,3:2|0:2,0:0:0:0:
140,316,17065,1,2,0:2:0:0:
140,316,17235,2,0,P|88:328|44:312,1,71,0|0,3:2|3:2,0:0:0:0:
4,260,17576,1,10,0:2:0:0:
28,172,17746,6,0,P|64:132|164:148,1,142,2|0,3:2|3:2,0:0:0:0:
216,196,18258,2,0,L|224:280,1,71,10|0,0:2|0:2,0:0:0:0:
272,344,18599,2,0,P|312:356|360:344,1,71,2|0,3:2|3:2,0:0:0:0:
424,308,18940,1,10,0:2:0:0:
368,224,19110,6,0,L|360:72,1,142,2|2,3:2|3:2,0:0:0:0:
300,12,19621,2,0,P|244:8|216:100,1,142,10|0,0:2|3:2,0:0:0:0:
244,160,20133,1,0,3:2:0:0:
244,160,20303,2,0,P|248:204|240:240,1,71,10|0,0:2|0:2,0:0:0:0:
156,276,20644,6,0,L|76:280,1,71,2|0,3:2|0:2,0:0:0:0:
56,368,20985,2,0,L|136:372,1,71,8|0,0:2|0:2,0:0:0:0:
216,352,21326,2,0,L|364:344,1,142,2|8,3:2|0:2,0:0:0:0:
452,312,21837,6,0,P|476:264|424:188,1,142,2|2,3:2|3:2,0:0:0:0:
348,220,22349,2,0,P|300:224|264:208,1,71,10|0,0:2|0:2,0:0:0:0:
228,140,22690,1,2,3:2:0:0:
228,140,22860,2,0,P|193:131|158:137,1,71,2|8,3:2|0:2,0:0:0:0:
88,208,23201,6,0,L|84:288,1,71,2|0,3:2|0:2,0:0:0:0:
128,360,23542,1,10,0:2:0:0:
128,360,23712,2,0,P|180:364|216:348,1,71,8|2,0:2|3:2,0:0:0:0:
272,304,24053,1,8,0:2:0:0:
188,264,24224,1,10,0:2:0:0:
264,212,24394,1,8,0:2:0:0:
264,212,24479,1,8,0:2:0:0:
264,212,24565,1,8,0:2:0:0:
352,248,24735,6,0,P|404:264|472:228,1,127.799996099854,6|2,3:2|3:2,0:0:0:0:
492,152,25246,1,2,0:2:0:0:
492,152,25417,2,0,L|496:80,1,63.8999980499268,2|2,3:2|0:2,0:0:0:0:
476,8,25758,1,2,3:2:0:0:
416,68,25928,6,0,L|348:72,1,63.8999980499268,2|0,0:2|3:2,0:0:0:0:
336,152,26269,2,0,L|268:148,1,63.8999980499268,2|0,0:2|3:2,0:0:0:0:
236,72,26610,2,0,L|168:76,1,63.8999980499268,2|0,0:2|3:2,0:0:0:0:
156,156,26951,2,0,L|88:152,1,63.8999980499268,2|0,0:2|3:2,0:0:0:0:
32,208,27292,1,2,0:2:0:0:
32,208,27462,6,0,P|20:252|28:284,1,63.8999980499268,2|2,3:2|0:2,0:0:0:0:
80,328,27803,2,0,B|144:340|144:340|224:324,1,127.799996099854,2|2,3:2|3:2,0:0:0:0:
260,264,28315,1,2,0:2:0:0:
260,264,28485,1,2,3:2:0:0:
219,191,28655,6,0,P|211:155|215:115,1,63.8999980499268,2|0,0:2|3:2,0:0:0:0:
237,48,28996,2,0,P|273:40|313:44,1,63.8999980499268,2|0,0:2|3:2,0:0:0:0:
376,72,29337,2,0,L|385:151,1,63.8999980499268,2|0,0:2|3:2,0:0:0:0:
460,166,29678,2,0,L|451:245,1,63.8999980499268,2|0,0:2|3:2,0:0:0:0:
430,309,30019,1,2,0:2:0:0:
430,309,30190,6,0,P|382:353|310:345,1,127.799996099854,2|2,3:2|3:2,0:0:0:0:
266,289,30701,2,0,L|186:285,2,63.8999980499268,2|2|2,0:2|3:2|0:2,0:0:0:0:
352,271,31212,1,2,3:2:0:0:
352,271,31383,6,0,L|358:189,1,63.8999980499268,2|0,0:2|3:2,0:0:0:0:
285,163,31724,2,0,L|280:99,1,63.8999980499268,2|0,0:2|3:2,0:0:0:0:
201,71,32065,2,0,L|196:134,1,63.8999980499268,2|0,0:2|3:2,0:0:0:0:
117,163,32405,2,0,L|121:226,1,63.8999980499268,2|0,0:2|3:2,0:0:0:0:
164,298,32746,1,2,0:2:0:0:
164,298,32917,6,0,B|248:318|216:274|304:290,1,127.799996099854,0|0,3:2|3:2,0:0:0:0:
351,341,33428,2,0,P|395:349|427:337,1,63.8999980499268,2|0,0:2|3:2,0:0:0:0:
472,288,33769,2,0,P|480:244|468:212,1,63.8999980499268,2|0,0:2|3:2,0:0:0:0:
412,172,34110,6,0,L|340:176,1,63.8999980499268,2|0,0:2|3:2,0:0:0:0:
288,232,34451,2,0,L|216:228,1,63.8999980499268,2|0,0:2|3:2,0:0:0:0:
164,168,34792,2,0,P|156:124|168:92,1,63.8999980499268,2|0,0:2|3:2,0:0:0:0:
216,44,35133,2,0,P|260:36|332:100,1,127.799996099854,2|0,0:2|0:2,0:0:0:0:
376,156,35644,6,0,L|380:224,1,63.8999980499268,6|0,3:2|0:2,0:0:0:0:
296,232,35985,2,0,L|292:300,1,63.8999980499268,2|0,3:2|0:2,0:0:0:0:
232,356,36326,2,0,B|172:368|172:368|96:348,1,127.799996099854,2|2,3:2|3:2,0:0:0:0:
48,292,36837,6,0,L|44:224,1,63.8999980499268,2|0,0:2|3:2,0:0:0:0:
120,192,37178,2,0,L|124:124,1,63.8999980499268,2|0,0:2|3:2,0:0:0:0:
176,64,37519,2,0,P|208:56|248:64,1,63.8999980499268,2|0,0:2|3:2,0:0:0:0:
292,124,37860,2,0,P|300:156|292:196,1,63.8999980499268,2|0,0:2|3:2,0:0:0:0:
240,248,38201,1,2,0:2:0:0:
284,324,38371,6,0,P|328:352|404:328,1,127.799996099854,2|2,3:2|3:2,0:0:0:0:
444,264,38883,1,2,0:2:0:0:
444,264,39053,2,0,L|516:252,2,63.8999980499268,2|2|2,3:2|0:2|3:2,0:0:0:0:
384,196,39565,6,0,P|348:192|320:200,1,63.8999980499268,2|0,0:2|3:2,0:0:0:0:
248,240,39905,2,0,P|217:247|185:243,1,63.8999980499268,2|0,0:2|3:2,0:0:0:0:
116,196,40246,2,0,L|112:124,1,63.8999980499268,2|0,0:2|3:2,0:0:0:0:
32,108,40587,2,0,L|28:180,1,63.8999980499268,2|0,0:2|3:2,0:0:0:0:
52,252,40928,1,2,0:2:0:0:
16,336,41099,6,0,P|64:344|136:288,1,127.799996099854,2|2,3:2|3:2,0:0:0:0:
185,243,41610,1,2,0:2:0:0:
185,243,41780,2,0,L|192:168,2,63.8999980499268,2|2|2,3:2|0:2|3:2,0:0:0:0:
236,308,42292,6,0,B|328:324|284:276|380:292,1,127.799996099854,2|0,0:2|0:2,0:0:0:0:
436,316,42803,2,0,P|480:304|504:272,1,63.8999980499268,2|2,3:2|0:2,0:0:0:0:
508,208,43144,2,0,P|480:172|380:180,1,127.799996099854,2|2,3:2|3:2,0:0:0:0:
328,204,43655,1,2,0:2:0:0:
328,204,43826,6,0,B|276:208|276:208|248:200|248:200|192:204,1,127.799996099854,0|0,3:2|3:2,0:0:0:0:
128,168,44337,2,0,P|116:132|120:100,1,63.8999980499268,2|0,0:2|3:2,0:0:0:0:
168,40,44678,2,0,P|204:28|236:32,1,63.8999980499268,2|0,0:2|3:2,0:0:0:0:
288,88,45019,6,0,L|296:224,1,127.799996099854,2|2,3:2|3:2,0:0:0:0:
264,292,45530,2,0,L|184:304,1,63.8999980499268,8|2,0:2|3:2,0:0:0:0:
144,360,45871,2,0,L|64:348,1,63.8999980499268,2|8,3:2|0:2,0:0:0:0:
20,292,46212,1,10,0:2:0:0:
68,216,46383,1,8,0:2:0:0:
68,216,46468,1,8,0:2:0:0:
68,216,46553,6,0,P|120:188|200:216,1,127.799996099854,14|0,3:2|0:2,0:0:0:0:
240,268,47065,1,0,3:2:0:0:
240,268,47235,2,0,P|288:276|312:268,1,63.8999980499268,8|0,0:2|0:2,0:0:0:0:
364,216,47576,2,0,L|368:152,1,63.8999980499268,2|10,3:2|0:2,0:0:0:0:
448,124,47917,6,0,L|452:188,1,63.8999980499268,2|10,3:2|0:2,0:0:0:0:
496,260,48258,1,2,3:2:0:0:
364,360,48599,2,0,L|228:364,1,127.799996099854,10|2,0:2|3:2,0:0:0:0:
164,324,49110,1,8,0:2:0:0:
164,324,49280,6,0,P|144:284|192:196,1,127.799996099854,2|0,3:2|0:2,0:0:0:0:
252,192,49792,1,0,3:2:0:0:
252,192,49962,2,0,L|332:200,1,63.8999980499268,8|0,0:2|0:2,0:0:0:0:
396,184,50303,2,0,P|416:156|420:112,1,63.8999980499268,2|10,3:2|0:2,0:0:0:0:
392,48,50644,6,0,P|364:28|320:24,1,63.8999980499268,2|10,3:2|0:2,0:0:0:0:
264,68,50985,2,0,B|204:80|204:80|128:64,1,127.799996099854,2|8,3:2|0:2,0:0:0:0:
64,32,51496,2,0,P|56:72|68:112,1,63.8999980499268,0|10,3:2|0:2,0:0:0:0:
128,156,51837,1,8,0:2:0:0:
128,156,51922,1,8,0:2:0:0:
128,156,52008,6,0,L|132:312,1,142,6|8,3:2|0:2,0:0:0:0:
192,368,52519,1,2,0:2:0:0:
192,368,52690,2,0,P|240:376|272:360,1,71,0|0,3:2|3:2,0:0:0:0:
308,292,53030,2,0,L|304:216,1,71,10|0,0:2|0:2,0:0:0:0:
324,124,53371,6,0,P|360:88|456:128,1,142,2|10,3:2|0:2,0:0:0:0:
484,188,53883,1,2,0:2:0:0:
484,188,54053,2,0,L|480:264,1,71,0|0,3:2|3:2,0:0:0:0:
452,348,54394,2,0,P|408:360|368:348,1,71,10|0,0:2|0:2,0:0:0:0:
308,292,54735,6,0,L|228:288,1,71,2|0,3:2|3:2,0:0:0:0:
164,348,55076,1,8,3:2:0:0:
164,348,55246,1,8,3:2:0:0:
88,292,55417,1,8,3:2:0:0:
88,292,55587,1,8,3:2:0:0:
120,204,55758,2,0,L|124:124,1,71,10|10,3:2|3:2,0:0:0:0:
176,48,56099,5,8,3:2:0:0:
232,124,56269,1,8,3:2:0:0:
268,40,56440,1,8,3:2:0:0:
288,60,57462,6,0,L|464:80,1,156.200004766846,6|8,3:2|0:2,0:0:0:0:
500,156,57974,1,0,3:2:0:0:
408,168,58144,2,0,P|384:196|376:248,1,78.1000023834229,0|0,3:2|3:2,0:0:0:0:
416,320,58485,1,10,0:2:0:0:
316,308,58655,6,0,B|220:300|276:360|160:352,1,156.200004766846,2|0,3:2|3:2,0:0:0:0:
92,304,59167,2,0,L|88:224,1,78.1000023834229,8|0,0:2|0:2,0:0:0:0:
176,188,59508,2,0,L|180:108,1,78.1000023834229,2|0,3:2|3:2,0:0:0:0:
264,68,59849,2,0,L|268:148,1,78.1000023834229,10|0,0:2|0:2,0:0:0:0:
324,240,60190,6,0,P|372:260|452:204,1,156.200004766846,2|8,3:2|0:2,0:0:0:0:
492,120,60701,1,0,3:2:0:0:
432,48,60871,2,0,P|388:36|344:52,1,78.1000023834229,0|0,3:2|3:2,0:0:0:0:
288,104,61212,1,10,0:2:0:0:
200,56,61383,6,0,B|124:44|124:44|28:72,1,156.200004766846,2|0,3:2|3:2,0:0:0:0:
0,148,61894,2,0,P|-4:188|24:232,1,78.1000023834229,8|0,0:2|0:2,0:0:0:0:
92,272,62235,2,0,P|132:276|176:248,1,78.1000023834229,2|0,3:2|3:2,0:0:0:0:
228,188,62576,2,0,P|262:171|301:175,1,78.1000023834229,10|0,0:2|0:2,0:0:0:0:
384,248,62917,6,0,P|384:320|288:336,1,156.200004766846,2|8,3:2|0:2,0:0:0:0:
232,304,63428,1,0,3:2:0:0:
160,364,63599,2,0,P|104:372|60:356,1,78.1000023834229,0|0,3:2|3:2,0:0:0:0:
16,300,63940,1,10,0:2:0:0:
68,216,64110,6,0,B|132:212|132:212|160:224|160:224|236:216,1,156.200004766846,2|0,3:2|3:2,0:0:0:0:
312,244,64621,2,0,P|364:252|392:244,1,78.1000023834229,10|0,0:2|0:2,0:0:0:0:
456,180,64962,2,0,P|464:128|456:100,1,78.1000023834229,2|0,3:2|3:2,0:0:0:0:
392,36,65303,2,0,P|340:28|312:36,1,78.1000023834229,10|0,0:2|0:2,0:0:0:0:
240,116,65644,6,0,L|232:216,1,78.1000023834229,2|0,3:2|0:2,0:0:0:0:
152,240,65985,2,0,L|144:140,1,78.1000023834229,10|0,0:2|3:2,0:0:0:0:
64,116,66326,2,0,L|56:216,1,78.1000023834229,2|0,3:2|3:2,0:0:0:0:
16,276,66667,1,10,0:2:0:0:
112,328,66837,6,0,P|180:332|248:260,1,156.200004766846,2|8,3:2|0:2,0:0:0:0:
252,180,67349,2,0,L|244:84,1,78.1000023834229,8|0,0:2|3:2,0:0:0:0:
284,16,67690,1,10,0:2:0:0:
336,96,67860,1,8,0:2:0:0:
388,16,68030,1,10,3:2:0:0:
388,16,68116,1,8,3:2:0:0:
388,16,68201,1,8,3:2:0:0:
448,108,68371,6,0,B|488:208|416:168|456:292,1,156.200004766846,6|8,3:2|0:2,0:0:0:0:
468,352,68883,1,0,3:2:0:0:
380,320,69053,2,0,P|340:316|292:336,1,78.1000023834229,0|0,3:2|3:2,0:0:0:0:
228,380,69394,1,10,0:2:0:0:
232,280,69565,6,0,B|224:164|224:164|200:108,1,156.200004766846,2|0,3:2|3:2,0:0:0:0:
144,60,70076,2,0,P|92:48|48:68,1,78.1000023834229,8|0,0:2|0:2,0:0:0:0:
8,124,70417,2,0,L|4:208,1,78.1000023834229,2|0,3:2|3:2,0:0:0:0:
88,244,70758,2,0,L|92:328,1,78.1000023834229,10|0,0:2|0:2,0:0:0:0:
192,372,71099,6,0,P|236:380|308:300,1,156.200004766846,2|8,3:2|0:2,0:0:0:0:
288,216,71610,1,0,3:2:0:0:
376,244,71780,2,0,P|428:252|472:232,1,78.1000023834229,0|0,3:2|3:2,0:0:0:0:
504,168,72121,1,10,0:2:0:0:
440,80,72292,6,0,B|344:72|408:136|272:124,1,156.200004766846,2|0,3:2|3:2,0:0:0:0:
224,68,72803,2,0,P|184:56|144:64,1,78.1000023834229,10|0,0:2|0:2,0:0:0:0:
88,132,73144,2,0,P|76:172|84:212,1,78.1000023834229,2|0,3:2|3:2,0:0:0:0:
132,288,73485,1,10,0:2:0:0:
228,240,73655,6,0,B|308:224|308:224|384:244,1,156.200004766846,2|2,3:2|3:2,0:0:0:0:
456,300,74167,2,0,P|472:256|468:216,1,78.1000023834229,10|0,0:2|0:2,0:0:0:0:
408,152,74508,2,0,L|312:128,1,78.1000023834229,0|0,3:2|3:2,0:0:0:0:
312,40,74849,2,0,L|216:64,1,78.1000023834229,10|0,0:2|0:2,0:0:0:0:
160,140,75190,6,0,P|152:184|164:224,1,78.1000023834229,2|0,3:2|0:2,0:0:0:0:
236,268,75530,2,0,P|244:312|232:352,1,78.1000023834229,8|0,0:2|0:2,0:0:0:0:
144,372,75871,2,0,L|64:376,1,78.1000023834229,2|0,3:2|3:2,0:0:0:0:
4,308,76212,1,8,0:2:0:0:
56,212,76383,6,0,B|64:148|64:148|52:116|52:116|64:40,1,156.200004766846,2|2,3:2|3:2,0:0:0:0:
152,40,76894,2,0,L|160:132,1,78.1000023834229,10|0,0:2|0:2,0:0:0:0:
208,196,77235,1,0,3:2:0:0:
208,196,77405,2,0,P|260:208|300:192,1,78.1000023834229,0|8,3:2|0:2,0:0:0:0:
352,116,77746,6,0,L|440:120,1,78.1000023834229,0|0,3:2|0:2,0:0:0:0:
504,176,78087,1,8,0:2:0:0:
504,176,78258,2,0,P|508:224|492:256,1,78.1000023834229,8|0,0:2|3:2,0:0:0:0:
440,324,78599,1,10,0:2:0:0:
408,236,78769,1,8,0:2:0:0:
352,312,78940,1,10,0:2:0:0:
352,312,79025,1,8,0:2:0:0:
352,312,79110,1,8,0:2:0:0:
304,212,79280,6,0,L|224:208,1,78.1000023834229,14|0,0:2|3:2,0:0:0:0:
216,300,79621,2,0,L|136:304,1,78.1000023834229,8|0,0:2|3:2,0:0:0:0:
128,212,79962,2,0,L|48:208,1,78.1000023834229,8|0,0:2|3:2,0:0:0:0:
0,128,80303,1,10,0:2:0:0:
56,52,80474,1,2,3:2:0:0:
152,108,80644,6,0,B|256:136|220:72|324:104,1,156.200004766846,8|8,0:2|0:2,0:0:0:0:
392,132,81155,1,0,3:2:0:0:
320,196,81326,2,0,P|316:248|328:280,1,78.1000023834229,10|0,0:2|3:2,0:0:0:0:
404,324,81667,2,0,P|376:350|340:365,1,78.1000023834229,10|0,0:2|3:2,0:0:0:0:
244,316,82008,6,0,L|164:312,1,78.1000023834229,10|0,0:2|3:2,0:0:0:0:
80,272,82349,2,0,P|72:220|88:184,1,78.1000023834229,8|0,0:2|3:2,0:0:0:0:
160,152,82690,2,0,L|240:148,1,78.1000023834229,8|0,0:2|3:2,0:0:0:0:
292,224,83030,1,10,0:2:0:0:
328,136,83201,1,2,3:2:0:0:
260,52,83371,6,0,L|84:40,1,156.200004766846,8|8,0:2|0:2,0:0:0:0:
16,72,83883,1,0,3:2:0:0:
84,136,84053,2,0,L|88:232,1,78.1000023834229,10|0,0:2|3:2,0:0:0:0:
52,300,84394,2,0,L|0:308,2,39.0500011917115,10|8|0,0:2|0:2|3:2,0:0:0:0:
156,272,84735,6,0,P|200:264|240:276,1,78.1000023834229,10|2,0:2|3:2,0:0:0:0:
292,344,85076,2,0,P|329:352|367:343,1,78.1000023834229,8|0,0:2|3:2,0:0:0:0:
424,268,85417,2,0,P|432:230|423:192,1,78.1000023834229,8|0,0:2|3:2,0:0:0:0:
344,140,85758,1,10,0:2:0:0:
340,232,85928,1,2,3:2:0:0:
248,176,86099,6,0,L|156:168,1,78.1000023834229,8|0,0:2|3:2,0:0:0:0:
140,80,86440,2,0,L|232:72,1,78.1000023834229,10|0,0:2|3:2,0:0:0:0:
308,56,86780,1,10,0:2:0:0:
344,140,86951,1,8,3:2:0:0:
400,64,87121,1,10,0:2:0:0:
448,164,87292,1,8,0:2:0:0:
448,164,87377,1,8,0:2:0:0:
448,164,87462,6,0,L|452:324,1,142,6|0,3:2|3:2,0:0:0:0:
388,364,87974,1,0,3:2:0:0:
388,364,88144,2,0,P|328:380|268:308,1,142,14|0,3:2|3:2,0:0:0:0:
284,248,88655,1,8,3:2:0:0:
284,248,88826,6,0,L|360:240,2,71,6|8|0,3:2|3:2|3:2,0:0:0:0:
216,192,89337,1,0,3:2:0:0:
168,264,89508,2,0,P|120:276|80:264,1,71,14|0,3:2|3:2,0:0:0:0:
36,212,89849,1,8,3:2:0:0:
76,112,90019,6,0,B|140:100|140:100|172:108|172:108|240:96,1,156.200004766846,6|10,3:2|0:2,0:0:0:0:
304,44,90530,2,0,P|352:28|400:120,1,156.200004766846,6|0,3:2|3:2,0:0:0:0:
344,172,91042,1,0,3:2:0:0:
436,192,91212,2,0,L|444:272,1,78.1000023834229,10|0,0:2|0:2,0:0:0:0:
392,348,91553,6,0,P|348:360|304:344,1,78.1000023834229,2|0,3:2|0:2,0:0:0:0:
256,280,91894,2,0,P|244:236|260:192,1,78.1000023834229,8|0,0:2|0:2,0:0:0:0:
344,172,92235,2,0,P|356:128|340:84,1,78.1000023834229,2|0,3:2|3:2,0:0:0:0:
288,24,92576,1,8,0:2:0:0:
204,96,92746,6,0,L|40:100,1,156.200004766846,6|10,3:2|0:2,0:0:0:0:
4,192,93258,2,0,L|168:196,1,156.200004766846,6|0,3:2|3:2,0:0:0:0:
228,260,93769,1,0,3:2:0:0:
280,180,93940,2,0,P|328:172|364:184,1,78.1000023834229,10|0,0:2|0:2,0:0:0:0:
416,252,94280,6,0,P|424:300|412:336,1,78.1000023834229,2|0,3:2|0:2,0:0:0:0:
336,372,94621,2,0,L|256:376,1,78.1000023834229,8|0,0:2|0:2,0:0:0:0:
220,288,94962,2,0,L|140:284,1,78.1000023834229,2|0,3:2|3:2,0:0:0:0:
72,344,95303,1,10,0:2:0:0:
16,248,95474,6,0,P|4:196|84:120,1,156.200004766846,2|8,3:2|3:2,0:0:0:0:
144,176,95985,2,0,L|240:184,1,78.1000023834229,10|8,3:2|3:2,0:0:0:0:
232,88,96326,2,0,L|328:80,1,78.1000023834229,8|8,3:2|3:2,0:0:0:0:
320,176,96667,2,0,L|416:184,1,78.1000023834229,10|8,3:2|3:2,0:0:0:0:
468,244,97008,5,10,3:2:0:0:
468,244,97178,1,10,3:2:0:0:
384,284,97349,1,8,3:2:0:0:
384,284,97519,1,10,3:2:0:0:
300,324,97690,2,0,L|300:380,2,39.0500011917115,8|8|10,3:2|0:2|3:2,0:0:0:0:
224,272,98030,1,8,3:2:0:0:
140,340,98201,6,0,P|96:356|144:228,1,319.500012187958,6|2,3:2|0:2,0:0:0:0:
224,272,99394,5,8,3:2:0:0:
224,272,99565,1,8,3:2:0:0:
