osu file format v14

[General]
AudioFilename: audio.mp3
AudioLeadIn: 0
PreviewTime: 56695
Countdown: 0
SampleSet: Soft
StackLeniency: 0.4
Mode: 0
LetterboxInBreaks: 0
WidescreenStoryboard: 1

[Editor]
DistanceSpacing: 0.2
BeatDivisor: 4
GridSize: 4
TimelineZoom: 1.6

[Metadata]
Title:Yume Chizu
TitleUnicode:夢地図
Artist:yuikonnu
ArtistUnicode:ゆいこんぬ
Creator:browiec
Version:Expert
Source:
Tags:40mp 40Meter-P cover utaite japanese pop cut a_r_m_i_n armin 歌ってみた 歌い手 utattemita
BeatmapID:2237467
BeatmapSetID:1068768

[Difficulty]
HPDrainRate:5
CircleSize:3.8
OverallDifficulty:9
ApproachRate:9.2
SliderMultiplier:1.75
SliderTickRate:1

[Events]
//Background and Video events
0,0,"that bg fills me with some nostalgic thoughts.jpg",0,0
//Break Periods
//Storyboard Layer 0 (Background)
//Storyboard Layer 1 (Fail)
//Storyboard Layer 2 (Pass)
//Storyboard Layer 3 (Foreground)
//Storyboard Layer 4 (Overlay)
//Storyboard Sound Samples

[TimingPoints]
190,340.909090909091,4,2,1,40,1,0
2917,-181.818181818182,4,2,1,40,0,0
11099,-181.818181818182,4,2,1,45,0,0
11440,-181.818181818182,4,2,1,50,0,0
11780,-181.818181818182,4,2,1,55,0,0
12121,-181.818181818182,4,2,1,60,0,0
12292,-100,4,2,1,60,0,0
13826,-100,4,2,1,65,0,0
24735,-125,4,2,1,50,0,0
35644,-117.647058823529,4,2,1,55,0,0
46553,-125,4,2,1,50,0,0
52008,-100,4,2,1,60,0,0
54735,-100,4,2,1,45,0,0
55076,-100,4,2,1,50,0,0
55417,-100,4,2,1,55,0,0
55758,-100,4,2,1,60,0,0
56099,-100,4,2,1,65,0,0
56780,-100,4,2,1,40,0,0
57462,-90.9090909090909,4,2,1,70,0,1
87462,-100,4,2,1,60,0,0
90019,-90.9090909090909,4,2,1,65,0,1
97008,-90.9090909090909,4,2,1,70,0,1
98201,-166.666666666667,4,2,1,65,0,0
99224,-166.666666666667,4,2,1,40,0,0
99394,-166.666666666667,4,2,1,60,0,0

[Colours]
Combo1 : 157,208,227
Combo2 : 255,202,91
Combo3 : 11,168,253
Combo4 : 245,128,56

[HitObjects]
380,180,2576,5,0,3:0:0:0:
364,196,2917,6,0,B|268:184|322:243|212:224,2,144.375004405975,6|2|2,0:2|0:2|0:2,0:0:0:0:
431,104,4110,2,0,P|386:107|340:88,1,96.250002937317,2|0,0:2|3:2,0:0:0:0:
272,14,4621,1,0,3:2:0:0:
151,101,4962,2,0,L|267:109,1,96.250002937317,10|2,0:2|3:2,0:0:0:0:
368,292,5644,6,0,B|428:300|428:300|464:292|464:292|520:300,2,144.375004405975,6|2|2,0:2|0:2|0:2,0:0:0:0:
272,340,6837,2,0,P|280:300|264:240,1,96.250002937317,2|0,0:2|3:2,0:0:0:0:
200,176,7349,1,0,3:2:0:0:
328,32,7690,5,10,0:2:0:0:
346,121,7860,1,8,0:2:0:0:
415,59,8030,1,2,3:2:0:0:
152,52,8371,6,0,L|-12:44,2,144.375004405975,6|2|2,0:2|0:2|0:2,0:0:0:0:
228,132,9565,1,2,0:2:0:0:
228,132,9735,6,0,L|332:124,1,96.250002937317,4|2,0:2|0:2,0:0:0:0:
424,256,10417,2,0,L|328:248,1,96.250002937317,2|2,0:2|0:2,0:0:0:0:
98,174,11099,5,2,3:2:0:0:
294,111,11269,1,0,3:2:0:0:
181,296,11440,5,10,3:2:0:0:
159,93,11610,1,8,3:2:0:0:
338,226,11780,5,10,3:2:0:0:
94,266,11951,1,8,3:2:0:0:
248,65,12121,5,10,3:2:0:0:
288,344,12292,2,0,P|344:372|440:304,1,175,6|8,3:2|0:2,0:0:0:0:
424,84,12803,5,8,0:2:0:0:
352,284,12974,1,0,3:2:0:0:
352,24,13144,5,8,0:2:0:0:
424,228,13315,1,8,0:2:0:0:
276,72,13485,5,8,0:2:0:0:
276,72,13570,1,8,0:2:0:0:
276,72,13655,1,8,0:2:0:0:
208,304,13826,6,0,B|124:320|124:320|4:300,1,175,6|8,3:2|0:2,0:0:0:0:
0,136,14337,1,2,0:2:0:0:
160,212,14508,2,0,P|212:208|248:184,1,87.5,0|0,3:2|3:2,0:0:0:0:
124,40,14849,1,10,0:2:0:0:
68,196,15019,6,0,P|71:248|184:308,1,175,2|0,3:2|3:2,0:0:0:0:
324,272,15530,2,0,P|267:264|227:232,1,87.5,8|0,0:2|0:2,0:0:0:0:
324,92,15871,2,0,L|312:196,1,87.5,2|0,3:2|3:2,0:0:0:0:
424,288,16212,2,0,L|412:184,1,87.5,10|0,0:2|0:2,0:0:0:0:
280,12,16553,6,0,B|240:36|240:36|224:180,1,175,2|8,3:2|0:2,0:0:0:0:
240,328,17065,1,2,0:2:0:0:
140,208,17235,2,0,P|84:208|40:248,1,87.5,0|0,3:2|3:2,0:0:0:0:
104,356,17576,1,10,0:2:0:0:
240,224,17746,6,0,B|348:216|288:288|416:276,1,175,2|0,3:2|3:2,0:0:0:0:
496,184,18258,2,0,P|448:188|408:168,1,87.5,10|0,0:2|0:2,0:0:0:0:
436,16,18599,2,0,P|463:55|466:100,1,87.5,2|0,3:2|3:2,0:0:0:0:
398,277,18940,1,10,0:2:0:0:
332,104,19110,6,0,L|144:88,1,175,2|2,3:2|3:2,0:0:0:0:
56,196,19621,2,0,L|168:188,1,87.5,10|0,0:2|0:2,0:0:0:0:
288,300,19962,1,0,3:2:0:0:
244,128,20133,1,0,3:2:0:0:
152,288,20303,2,0,L|64:294,1,87.5,10|0,0:2|0:2,0:0:0:0:
220,104,20644,6,0,P|226:163|235:194,1,87.5,2|0,3:2|0:2,0:0:0:0:
316,312,20985,2,0,P|322:252|331:221,1,87.5,8|0,0:2|0:2,0:0:0:0:
496,120,21326,1,2,3:2:0:0:
436,280,21496,1,0,3:2:0:0:
360,120,21667,1,8,0:2:0:0:
300,328,21837,6,0,B|184:336|248:280|128:288,1,175,2|2,3:2|3:2,0:0:0:0:
52,204,22349,2,0,P|111:197|156:173,1,87.5,10|0,0:2|0:2,0:0:0:0:
200,24,22690,1,2,3:2:0:0:
248,200,22860,2,0,P|248:252|252:308,1,87.5,2|8,3:2|0:2,0:0:0:0:
400,120,23201,6,0,P|360:116|312:144,1,87.5,2|0,3:2|0:2,0:0:0:0:
396,292,23542,1,10,0:2:0:0:
428,108,23712,1,8,0:2:0:0:
488,304,23883,1,2,3:2:0:0:
324,152,24053,1,8,0:2:0:0:
324,344,24224,1,10,0:2:0:0:
468,208,24394,1,8,0:2:0:0:
468,208,24479,1,8,0:2:0:0:
468,208,24565,1,8,0:2:0:0:
244,232,24735,6,0,L|96:236,1,140,6|2,3:2|3:2,0:0:0:0:
40,312,25246,1,2,0:2:0:0:
8,216,25417,2,0,P|0:172|0:136,1,70,2|2,3:2|0:2,0:0:0:0:
32,64,25758,1,2,3:2:0:0:
136,152,25928,6,0,L|224:160,1,70,2|0,0:2|3:2,0:0:0:0:
260,244,26269,2,0,L|172:252,1,70,2|0,0:2|3:2,0:0:0:0:
296,324,26610,2,0,P|332:296|348:252,1,70,2|0,0:2|3:2,0:0:0:0:
420,212,26951,2,0,P|426:257|456:293,1,70,2|0,0:2|3:2,0:0:0:0:
508,220,27292,1,2,0:2:0:0:
368,128,27462,6,0,L|284:117,1,70,2|2,3:2|0:2,0:0:0:0:
177,173,27803,2,0,B|232:179|232:179|257:203|257:203|325:211,1,140,2|2,3:2|3:2,0:0:0:0:
332,350,28315,1,2,0:2:0:0:
243,287,28485,1,2,3:2:0:0:
132,369,28655,6,0,P|83:369|49:344,1,70,2|0,0:2|3:2,0:0:0:0:
116,282,28996,2,0,P|139:239|178:222,1,70,2|0,0:2|3:2,0:0:0:0:
244,226,29337,2,0,P|238:191|218:162,1,70,2|0,0:2|3:2,0:0:0:0:
189,62,29678,2,0,P|220:74|255:71,1,70,2|0,0:2|3:2,0:0:0:0:
325,14,30019,1,2,0:2:0:0:
428,112,30190,6,0,B|448:160|448:160|416:256,1,140,2|2,3:2|3:2,0:0:0:0:
352,308,30701,2,0,L|356:388,2,70,2|2|2,0:2|3:2|0:2,0:0:0:0:
300,232,31212,1,2,3:2:0:0:
208,308,31383,6,0,P|168:312|128:296,1,70,2|0,0:2|3:2,0:0:0:0:
152,164,31724,2,0,P|175:196|181:239,1,70,2|0,0:2|3:2,0:0:0:0:
56,285,32065,2,0,P|72:248|106:221,1,70,2|0,0:2|3:2,0:0:0:0:
208,308,32405,2,0,P|191:344|157:371,1,70,2|0,0:2|3:2,0:0:0:0:
76,376,32746,1,2,0:2:0:0:
181,225,32917,6,0,L|328:216,1,140,0|0,3:2|3:2,0:0:0:0:
404,136,33428,2,0,L|328:128,1,70,2|0,0:2|3:2,0:0:0:0:
344,36,33769,2,0,L|268:44,1,70,2|0,0:2|3:2,0:0:0:0:
216,132,34110,6,0,P|200:92|164:68,1,70,2|0,0:2|3:2,0:0:0:0:
188,216,34451,2,0,P|230:222|269:202,1,70,2|0,0:2|3:2,0:0:0:0:
129,149,34792,2,0,P|102:182|99:226,1,70,2|0,0:2|3:2,0:0:0:0:
28,280,35133,1,2,0:2:0:0:
28,280,35303,2,0,P|62:288|88:312,1,70,0|0,3:2|0:2,0:0:0:0:
248,380,35644,6,0,L|252:296,1,74.3750014185906,6|0,3:2|0:2,0:0:0:0:
344,248,35985,2,0,L|348:332,1,74.3750014185906,2|0,3:2|0:2,0:0:0:0:
268,200,36326,2,0,P|300:168|348:160,1,74.3750014185906,2|0,3:2|0:2,0:0:0:0:
432,212,36667,1,2,3:2:0:0:
364,76,36837,6,0,L|280:68,1,74.3750014185906,2|0,0:2|3:2,0:0:0:0:
214,120,37178,2,0,L|140:128,1,74.3750014185906,2|0,0:2|3:2,0:0:0:0:
40,72,37519,2,0,P|52:120|44:164,1,74.3750014185906,2|0,0:2|3:2,0:0:0:0:
52,264,37860,2,0,P|87:229|129:214,1,74.3750014185906,2|0,0:2|3:2,0:0:0:0:
240,248,38201,1,2,0:2:0:0:
136,316,38371,5,2,3:2:0:0:
196,164,38542,2,0,P|200:116|200:76,1,74.3750014185906,2|2,0:2|3:2,0:0:0:0:
252,8,38883,1,2,0:2:0:0:
296,128,39053,2,0,P|344:136|376:128,1,74.3750014185906,2|2,3:2|0:2,0:0:0:0:
432,56,39394,1,2,3:2:0:0:
466,203,39565,6,0,L|470:291,1,74.3750014185906,2|0,0:2|3:2,0:0:0:0:
374,327,39905,2,0,L|378:239,1,74.3750014185906,2|0,0:2|3:2,0:0:0:0:
296,128,40246,2,0,P|248:120|212:132,1,74.3750014185906,2|0,0:2|3:2,0:0:0:0:
220,272,40587,2,0,P|250:234|258:197,1,74.3750014185906,2|0,0:2|3:2,0:0:0:0:
167,197,40928,1,2,0:2:0:0:
300,324,41099,6,0,L|376:328,1,74.3750014185906,2|0,3:2|0:2,0:0:0:0:
480,220,41440,1,2,3:2:0:0:
496,360,41610,1,2,0:2:0:0:
388,240,41780,2,0,P|385:203|399:168,2,74.3750014185906,2|2|2,3:2|0:2|3:2,0:0:0:0:
272,360,42292,6,0,B|176:368|232:316|120:324,1,148.750002837181,2|0,0:2|0:2,0:0:0:0:
61,205,42803,1,2,3:2:0:0:
116,343,42974,1,2,0:2:0:0:
211,176,43144,2,0,P|198:229|211:263,1,74.3750014185906,2|0,3:2|0:2,0:0:0:0:
272,360,43485,1,2,3:2:0:0:
295,220,43655,1,2,0:2:0:0:
380,352,43826,6,0,B|376:296|376:296|388:256|388:256|384:196,1,148.750002837181,0|0,3:2|3:2,0:0:0:0:
404,96,44337,2,0,P|368:116|324:120,1,74.3750014185906,2|0,0:2|3:2,0:0:0:0:
240,168,44678,2,0,P|275:189|300:225,1,74.3750014185906,2|0,0:2|3:2,0:0:0:0:
200,344,45019,6,0,B|104:360|104:360|36:340,1,148.750002837181,2|2,3:2|3:2,0:0:0:0:
0,212,45530,2,0,L|80:204,1,74.3750014185906,8|2,0:2|3:2,0:0:0:0:
232,116,45871,1,2,3:2:0:0:
148,268,46042,1,8,0:2:0:0:
116,92,46212,1,10,0:2:0:0:
244,244,46383,1,8,0:2:0:0:
244,244,46468,1,8,0:2:0:0:
244,244,46553,6,0,P|304:264|376:224,1,140,14|0,3:2|0:2,0:0:0:0:
411,131,47065,1,0,3:2:0:0:
411,131,47235,2,0,P|355:139|315:127,1,70,8|0,0:2|0:2,0:0:0:0:
269,9,47576,1,2,3:2:0:0:
241,160,47746,1,10,0:2:0:0:
168,25,47917,5,2,3:2:0:0:
315,103,48087,1,10,0:2:0:0:
172,209,48258,2,0,P|172:245|180:281,1,70,2|0,3:2|0:2,0:0:0:0:
334,235,48599,2,0,L|254:243,1,70,10|0,0:2|0:2,0:0:0:0:
161,118,48940,2,0,L|241:126,1,70,2|8,3:2|0:2,0:0:0:0:
380,23,49280,6,0,B|336:23|296:63|296:63|316:87|316:119,1,140,2|0,3:2|0:2,0:0:0:0:
297,215,49792,1,0,3:2:0:0:
297,215,49962,2,0,P|349:203|385:215,1,70,8|0,0:2|0:2,0:0:0:0:
458,354,50303,1,2,3:2:0:0:
467,193,50474,1,10,0:2:0:0:
342,300,50644,5,2,3:2:0:0:
493,227,50815,1,10,0:2:0:0:
353,136,50985,2,0,L|269:124,1,70,2|0,3:2|0:2,0:0:0:0:
80,214,51326,1,8,0:2:0:0:
264,234,51496,1,0,3:2:0:0:
148,102,51667,1,10,0:2:0:0:
156,306,51837,1,8,0:2:0:0:
156,306,51923,1,8,0:2:0:0:
156,306,52008,6,0,B|256:326|228:254|328:274,1,175,6|8,3:2|0:2,0:0:0:0:
416,372,52519,1,2,0:2:0:0:
384,200,52690,2,0,P|376:152|388:112,1,87.5,0|0,3:2|3:2,0:0:0:0:
488,272,53030,2,0,L|400:284,1,87.5,10|0,0:2|0:2,0:0:0:0:
288,140,53371,6,0,B|224:132|224:132|188:148|188:148|112:140,1,175,2|10,3:2|0:2,0:0:0:0:
8,36,53883,1,2,0:2:0:0:
20,200,54053,2,0,L|24:296,1,87.5,0|0,3:2|3:2,0:0:0:0:
124,368,54394,2,0,L|128:272,1,87.5,10|0,0:2|0:2,0:0:0:0:
200,104,54735,5,2,3:2:0:0:
252,276,54905,1,0,3:2:0:0:
288,88,55076,5,8,3:2:0:0:
160,276,55246,1,8,3:2:0:0:
232,20,55417,5,8,3:2:0:0:
340,284,55587,1,8,3:2:0:0:
104,132,55758,5,10,3:2:0:0:
380,68,55928,1,10,3:2:0:0:
72,232,56099,5,8,3:2:0:0:
372,308,56269,1,8,3:2:0:0:
232,20,56440,1,8,3:2:0:0:
240,36,57462,6,0,P|292:28|340:52,1,96.250002937317,6|0,3:2|0:2,0:0:0:0:
404,280,57803,1,8,0:2:0:0:
276,116,57974,1,0,3:2:0:0:
240,300,58144,1,0,3:2:0:0:
384,177,58315,1,0,3:2:0:0:
326,354,58485,1,10,0:2:0:0:
214,203,58655,6,0,B|94:183|150:259|22:243,1,192.500005874634,2|0,3:2|3:2,0:0:0:0:
158,373,59167,2,0,P|187:306|175:262,1,96.250002937317,8|0,0:2|0:2,0:0:0:0:
57,156,59508,2,0,P|58:108|83:68,1,96.250002937317,2|0,3:2|3:2,0:0:0:0:
238,118,59849,2,0,P|196:140|148:139,1,96.250002937317,10|0,0:2|0:2,0:0:0:0:
0,307,60190,6,0,L|132:299,1,96.250002937317,2|0,3:2|0:2,0:0:0:0:
302,179,60530,1,8,0:2:0:0:
271,348,60701,1,0,3:2:0:0:
191,145,60871,1,0,3:2:0:0:
175,327,61042,1,0,3:2:0:0:
291,140,61212,1,10,0:2:0:0:
381,338,61383,6,0,B|437:356|476:331|476:331|510:286|475:207,1,192.500005874634,2|0,3:2|3:2,0:0:0:0:
476,100,61894,2,0,P|440:158|391:173,1,96.250002937317,8|0,0:2|0:2,0:0:0:0:
299,64,62235,2,0,P|367:65|404:100,1,96.250002937317,2|0,3:2|3:2,0:0:0:0:
358,235,62576,2,0,P|325:175|336:125,1,96.250002937317,10|0,0:2|0:2,0:0:0:0:
496,328,62917,6,0,L|380:324,1,96.250002937317,2|0,3:2|0:2,0:0:0:0:
212,224,63258,1,8,0:2:0:0:
417,169,63428,1,0,3:2:0:0:
280,340,63599,1,0,3:2:0:0:
300,132,63769,1,0,3:2:0:0:
399,324,63940,1,10,0:2:0:0:
192,200,64110,6,0,B|72:184|128:248|0:232,1,192.500005874634,2|0,3:2|3:2,0:0:0:0:
208,292,64621,2,0,P|252:272|280:224,1,96.250002937317,10|0,0:2|0:2,0:0:0:0:
356,132,64962,2,0,P|351:180|378:228,1,96.250002937317,2|0,3:2|3:2,0:0:0:0:
428,68,65303,2,0,P|388:39|333:39,1,96.250002937317,10|0,0:2|0:2,0:0:0:0:
164,144,65644,6,0,L|268:152,1,96.250002937317,2|0,3:2|0:2,0:0:0:0:
128,236,65985,2,0,L|24:244,1,96.250002937317,10|0,0:2|3:2,0:0:0:0:
96,40,66326,2,0,L|200:48,1,96.250002937317,2|0,3:2|3:2,0:0:0:0:
264,208,66667,1,10,0:2:0:0:
344,36,66837,6,0,P|336:92|348:140,1,96.250002937317,2|0,3:2|0:2,0:0:0:0:
436,288,67178,1,8,0:2:0:0:
440,80,67349,1,8,0:2:0:0:
340,252,67519,1,0,3:2:0:0:
252,60,67690,1,10,0:2:0:0:
432,184,67860,1,8,0:2:0:0:
240,280,68030,1,10,3:2:0:0:
240,280,68116,1,8,3:2:0:0:
240,280,68201,1,8,3:2:0:0:
456,160,68371,6,0,B|328:140|328:140|260:160,1,192.500005874634,6|8,3:2|0:2,0:0:0:0:
172,320,68883,1,0,3:2:0:0:
136,128,69053,1,0,3:2:0:0:
192,336,69224,1,0,3:2:0:0:
36,208,69394,1,10,0:2:0:0:
268,148,69565,6,0,B|392:140|316:208|468:200,1,192.500005874634,2|0,3:2|3:2,0:0:0:0:
512,68,70076,2,0,P|468:96|416:104,1,96.250002937317,8|0,0:2|0:2,0:0:0:0:
260,20,70417,2,0,P|276:65|287:128,1,96.250002937317,2|0,3:2|3:2,0:0:0:0:
160,192,70758,2,0,P|168:144|190:84,1,96.250002937317,10|0,0:2|0:2,0:0:0:0:
312,288,71099,6,0,B|264:272|228:288|228:288|200:276|200:276|156:292|108:272,1,192.500005874634,2|8,3:2|0:2,0:0:0:0:
0,112,71610,1,0,3:2:0:0:
108,296,71780,1,0,3:2:0:0:
112,104,71951,1,0,3:2:0:0:
8,296,72121,1,10,0:2:0:0:
200,172,72292,6,0,B|264:144|264:144|412:176,1,192.500005874634,2|0,3:2|3:2,0:0:0:0:
484,272,72803,2,0,L|384:288,1,96.250002937317,10|0,0:2|0:2,0:0:0:0:
272,340,73144,2,0,P|284:288|264:236,1,96.250002937317,2|0,3:2|3:2,0:0:0:0:
196,112,73485,1,10,0:2:0:0:
80,284,73655,6,0,B|50:321|50:321|219:291,1,192.500005874634,2|2,3:2|3:2,0:0:0:0:
344,236,74167,2,0,L|224:216,1,96.250002937317,10|0,0:2|0:2,0:0:0:0:
104,120,74508,1,0,3:2:0:0:
192,296,74678,1,0,3:2:0:0:
256,104,74849,2,0,P|312:92|360:112,1,96.250002937317,10|0,0:2|0:2,0:0:0:0:
307,283,75190,6,0,L|300:188,1,96.250002937317,2|0,3:2|0:2,0:0:0:0:
492,283,75530,2,0,P|436:295|388:275,1,96.250002937317,8|0,0:2|0:2,0:0:0:0:
452,104,75871,2,0,L|444:199,1,96.250002937317,2|0,3:2|3:2,0:0:0:0:
376,372,76212,1,8,0:2:0:0:
252,216,76383,6,0,B|176:204|176:204|144:212|144:212|56:200,1,192.500005874634,2|2,3:2|3:2,0:0:0:0:
160,84,76894,2,0,L|264:72,1,96.250002937317,10|0,0:2|0:2,0:0:0:0:
396,228,77235,1,0,3:2:0:0:
372,36,77405,1,0,3:2:0:0:
276,200,77576,1,8,0:2:0:0:
476,64,77746,6,0,P|480:124|472:176,1,96.250002937317,0|0,3:2|0:2,0:0:0:0:
392,316,78087,1,8,0:2:0:0:
328,120,78258,2,0,P|276:104|224:120,1,96.250002937317,8|0,0:2|3:2,0:0:0:0:
173,274,78599,1,10,0:2:0:0:
116,95,78769,1,8,0:2:0:0:
276,200,78940,1,10,0:2:0:0:
276,200,79025,1,8,0:2:0:0:
276,200,79110,1,8,0:2:0:0:
57,214,79280,5,14,0:2:0:0:
246,335,79451,1,0,3:2:0:0:
232,104,79621,5,8,0:2:0:0:
105,296,79792,1,0,3:2:0:0:
140,64,79962,5,8,0:2:0:0:
192,256,80133,1,0,3:2:0:0:
220,12,80303,5,10,0:2:0:0:
64,200,80474,1,2,3:2:0:0:
316,160,80644,6,0,L|412:152,1,96.250002937317,8|0,0:2|3:2,0:0:0:0:
296,312,80985,5,8,0:2:0:0:
224,112,81155,1,0,3:2:0:0:
408,264,81326,5,10,0:2:0:0:
188,208,81496,1,0,3:2:0:0:
376,88,81667,2,0,P|376:156|360:196,1,96.250002937317,10|0,0:2|3:2,0:0:0:0:
200,344,82008,5,10,0:2:0:0:
144,132,82178,1,0,3:2:0:0:
108,364,82349,5,8,0:2:0:0:
232,172,82519,1,0,3:2:0:0:
296,384,82690,5,8,0:2:0:0:
156,224,82860,1,0,3:2:0:0:
408,216,83030,5,10,0:2:0:0:
192,316,83201,1,2,3:2:0:0:
416,376,83371,6,0,L|516:380,1,96.250002937317,8|0,0:2|3:2,0:0:0:0:
376,128,83712,5,8,0:2:0:0:
312,332,83883,1,0,3:2:0:0:
288,80,84053,5,10,0:2:0:0:
380,264,84224,1,0,3:2:0:0:
440,48,84394,2,0,P|480:36|508:32,2,48.1250014686585,10|8|0,0:2|0:2|3:2,0:0:0:0:
280,284,84735,5,10,0:2:0:0:
312,56,84905,1,2,3:2:0:0:
348,348,85076,5,8,0:2:0:0:
268,144,85246,1,0,3:2:0:0:
188,380,85417,5,8,0:2:0:0:
348,192,85587,1,0,3:2:0:0:
88,164,85758,5,10,0:2:0:0:
264,336,85928,1,2,3:2:0:0:
280,64,86099,5,8,0:2:0:0:
136,288,86269,1,0,3:2:0:0:
140,4,86440,5,10,0:2:0:0:
288,232,86610,1,0,3:2:0:0:
8,216,86780,5,10,0:2:0:0:
280,112,86951,1,8,3:2:0:0:
0,72,87121,5,10,0:2:0:0:
228,304,87292,5,8,0:2:0:0:
228,304,87377,1,8,0:2:0:0:
228,304,87462,2,0,P|288:332|396:284,1,175,6|0,3:2|3:2,0:0:0:0:
416,188,87974,1,0,3:2:0:0:
276,75,88144,2,0,B|316:127|316:127|302:250,1,175,14|0,3:2|3:2,0:0:0:0:
228,304,88655,1,8,3:2:0:0:
136,148,88826,6,0,P|124:96|148:48,2,87.5,6|8|0,3:2|3:2|3:2,0:0:0:0:
212,288,89337,1,0,3:2:0:0:
272,124,89508,1,14,3:2:0:0:
124,252,89678,1,0,3:2:0:0:
256,88,89849,1,8,3:2:0:0:
308,324,90019,6,0,B|372:352|372:352|504:320,1,192.500005874634,6|10,3:2|0:2,0:0:0:0:
376,164,90530,2,0,L|384:264,1,96.250002937317,6|0,3:2|0:2,0:0:0:0:
296,112,90871,1,0,3:2:0:0:
468,164,91042,1,0,3:2:0:0:
288,212,91212,2,0,L|180:216,1,96.250002937317,10|0,0:2|0:2,0:0:0:0:
72,304,91553,2,0,L|180:308,1,96.250002937317,2|0,3:2|0:2,0:0:0:0:
304,196,91894,2,0,L|196:200,1,96.250002937317,8|0,0:2|0:2,0:0:0:0:
8,120,92235,5,2,3:2:0:0:
72,304,92405,1,0,3:2:0:0:
140,120,92576,1,8,0:2:0:0:
236,324,92746,6,0,B|268:364|328:356|328:356|368:296|336:248,1,192.500005874634,6|10,3:2|0:2,0:0:0:0:
380,160,93258,2,0,P|308:180|264:172,1,96.250002937317,6|0,3:2|0:2,0:0:0:0:
420,60,93599,1,0,3:2:0:0:
436,240,93769,1,0,3:2:0:0:
320,76,93940,2,0,L|204:72,1,96.250002937317,10|0,0:2|0:2,0:0:0:0:
128,208,94280,6,0,P|192:193|225:149,1,96.250002937317,2|0,3:2|0:2,0:0:0:0:
149,20,94621,2,0,P|129:83|150:133,1,96.250002937317,8|0,0:2|0:2,0:0:0:0:
248,272,94962,1,2,3:2:0:0:
223,72,95133,1,0,3:2:0:0:
100,228,95303,1,10,0:2:0:0:
304,132,95474,6,0,B|400:104|400:104|508:132,1,192.500005874634,2|8,3:2|3:2,0:0:0:0:
388,300,95985,1,10,3:2:0:0:
280,116,96155,1,8,3:2:0:0:
260,332,96326,1,8,3:2:0:0:
400,192,96496,1,8,3:2:0:0:
180,220,96667,1,10,3:2:0:0:
336,380,96837,1,8,3:2:0:0:
280,116,97008,5,10,3:2:0:0:
152,336,97178,1,10,3:2:0:0:
108,100,97349,1,8,3:2:0:0:
276,304,97519,1,10,3:2:0:0:
32,220,97690,2,0,P|72:220|108:217,1,48.1250014686585,8|8,3:2|0:2,0:0:0:0:
328,208,97860,2,0,P|288:208|252:205,1,48.1250014686585,10|8,3:2|0:2,0:0:0:0:
88,76,98030,1,8,3:2:0:0:
152,340,98201,6,0,B|212:368|268:332|268:332|336:364|336:364|388:328|452:356,1,314.999990386963,6|2,3:2|0:2,0:0:0:0:
336,64,99394,5,8,3:2:0:0:
204,260,99565,1,8,3:2:0:0:
