osu file format v14

[General]
AudioFilename: audio.mp3
AudioLeadIn: 0
PreviewTime: 56695
Countdown: 0
SampleSet: Soft
StackLeniency: 0.4
Mode: 0
LetterboxInBreaks: 0
WidescreenStoryboard: 1

[Editor]
DistanceSpacing: 0.2
BeatDivisor: 4
GridSize: 4
TimelineZoom: 2.5

[Metadata]
Title:Yume Chizu
TitleUnicode:夢地図
Artist:yuikonnu
ArtistUnicode:ゆいこんぬ
Creator:browiec
Version:A r M i N's Extra
Source:
Tags:40mp 40Meter-P cover utaite japanese pop cut a_r_m_i_n armin 歌ってみた 歌い手 utattemita
BeatmapID:2237465
BeatmapSetID:1068768

[Difficulty]
HPDrainRate:5.4
CircleSize:3.8
OverallDifficulty:9
ApproachRate:9.3
SliderMultiplier:1.8
SliderTickRate:1

[Events]
//Background and Video events
0,0,"that bg fills me with some nostalgic thoughts.jpg",0,0
//Break Periods
//Storyboard Layer 0 (Background)
//Storyboard Layer 1 (Fail)
//Storyboard Layer 2 (Pass)
//Storyboard Layer 3 (Foreground)
//Storyboard Layer 4 (Overlay)
//Storyboard Sound Samples

[TimingPoints]
190,340.909090909091,4,2,1,40,1,0
2917,-166.666666666667,4,2,1,40,0,0
11099,-166.666666666667,4,2,1,45,0,0
11440,-166.666666666667,4,2,1,50,0,0
11780,-166.666666666667,4,2,1,55,0,0
12121,-166.666666666667,4,2,1,60,0,0
12292,-76.9230769230769,4,2,1,60,0,0
12547,-76.9230769230769,4,2,1,5,0,0
12633,-76.9230769230769,4,2,1,60,0,0
13826,-100,4,2,1,65,0,0
24735,-125,4,2,1,50,0,0
35559,-125,4,2,1,5,0,0
35644,-111.111111111111,4,2,1,55,0,0
37434,-111.111111111111,4,2,1,5,0,0
37519,-111.111111111111,4,2,1,55,0,0
40161,-111.111111111111,4,2,1,5,0,0
40246,-111.111111111111,4,2,1,55,0,0
46553,-125,4,2,1,50,0,0
52008,-100,4,2,1,60,0,0
53627,-100,4,2,1,5,0,0
53712,-100,4,2,1,60,0,0
54735,-100,4,2,1,45,0,0
55076,-100,4,2,1,50,0,0
55417,-100,4,2,1,55,0,0
55758,-100,4,2,1,60,0,0
56099,-100,4,2,1,65,0,0
56780,-100,4,2,1,40,0,0
57462,-83.3333333333333,4,2,1,70,0,1
57718,-83.3333333333333,4,2,1,5,0,1
57803,-83.3333333333333,4,2,1,70,0,1
60445,-83.3333333333333,4,2,1,5,0,1
60530,-83.3333333333333,4,2,1,70,0,1
63172,-83.3333333333333,4,2,1,5,0,1
63258,-83.3333333333333,4,2,1,70,0,1
67093,-83.3333333333333,4,2,1,5,0,1
67178,-83.3333333333333,4,2,1,70,0,1
68627,-83.3333333333333,4,2,1,5,0,1
68712,-83.3333333333333,4,2,1,70,0,1
71354,-83.3333333333333,4,2,1,5,0,1
71440,-83.3333333333333,4,2,1,70,0,1
73911,-83.3333333333333,4,2,1,5,0,1
73996,-83.3333333333333,4,2,1,70,0,1
75445,-83.3333333333333,4,2,1,5,0,1
75530,-83.3333333333333,4,2,1,70,0,1
78002,-83.3333333333333,4,2,1,5,0,1
78087,-83.3333333333333,4,2,1,70,0,1
87462,-100,4,2,1,60,0,0
90019,-83.3333333333333,4,2,1,65,0,1
90275,-83.3333333333333,4,2,1,5,0,1
90360,-83.3333333333333,4,2,1,65,0,1
93002,-83.3333333333333,4,2,1,5,0,1
93087,-83.3333333333333,4,2,1,65,0,1
97008,-83.3333333333333,4,2,1,70,0,1
98201,-166.666666666667,4,2,1,65,0,0
99224,-166.666666666667,4,2,1,40,0,0
99309,-166.666666666667,4,2,1,5,0,0
99394,-166.666666666667,4,2,1,60,0,0

[Colours]
Combo1 : 157,208,227
Combo2 : 255,202,91
Combo3 : 11,168,253
Combo4 : 245,128,56

[HitObjects]
227,33,2576,5,0,3:0:0:0:
156,98,2746,1,0,0:0:0:0:
156,98,2832,1,0,0:0:0:0:
156,98,2917,6,0,B|73:71|87:151|4:125,2,161.999995056152,6|2|2,0:2|0:2|0:2,0:0:0:0:
247,128,4110,2,0,L|228:234,1,107.999996704102,2|0,0:2|3:2,0:0:0:0:
293,306,4621,1,0,3:2:0:0:
155,98,4962,6,0,P|185:53|234:31,1,107.999996704102,10|2,0:2|3:2,0:0:0:0:
432,156,5644,6,0,B|444:200|444:200|422:254|422:254|434:310,2,161.999995056153,6|2|2,0:2|0:2|0:2,0:0:0:0:
442,70,6837,2,0,P|418:108|358:111,1,107.999996704102,2|0,0:2|3:2,0:0:0:0:
297,38,7349,1,0,3:2:0:0:
264,321,7690,5,10,0:2:0:0:
359,111,7860,1,8,0:2:0:0:
420,254,8030,1,2,3:2:0:0:
171,121,8371,6,0,P|94:136|9:154,2,161.999995056153,6|2|2,0:2|0:2|0:2,0:0:0:0:
254,170,9565,1,2,0:2:0:0:
195,246,9735,6,0,P|192:299|217:346,1,107.999996704102,4|2,0:2|0:2,0:0:0:0:
345,201,10417,2,0,P|347:147|322:100,1,107.999996704102,2|2,0:2|0:2,0:0:0:0:
114,199,11099,5,2,3:2:0:0:
171,121,11269,1,0,3:2:0:0:
152,288,11440,1,10,3:2:0:0:
76,110,11610,1,8,3:2:0:0:
266,133,11780,1,10,3:2:0:0:
56,276,11951,1,8,3:2:0:0:
228,44,12121,1,10,3:2:0:0:
393,316,12292,6,0,B|303:287|319:373|230:344,1,175.499991966248,6|0,3:2|0:0,0:0:0:0:
152,288,12633,1,8,0:2:0:0:
228,44,12803,1,8,0:2:0:0:
240,248,12974,1,0,3:2:0:0:
138,9,13144,1,8,0:2:0:0:
64,248,13315,1,8,0:2:0:0:
236,51,13485,1,8,0:2:0:0:
236,51,13570,1,8,0:2:0:0:
236,51,13655,1,8,0:2:0:0:
303,321,13826,6,0,P|219:342|152:288,1,180,6|8,3:2|0:2,0:0:0:0:
266,133,14337,1,2,0:2:0:0:
407,295,14508,2,0,L|391:383,1,90,0|0,3:2|3:2,0:0:0:0:
240,248,14849,1,10,0:2:0:0:
418,112,15019,6,0,B|456:219|456:219|420:276,1,180,2|0,3:2|3:2,0:0:0:0:
353,42,15530,2,0,P|396:18|444:19,1,90,8|0,0:2|0:2,0:0:0:0:
350,207,15871,1,2,3:2:0:0:
228,44,16042,1,0,3:2:0:0:
101,244,16212,2,0,L|85:155,1,90,10|0,0:2|0:2,0:0:0:0:
39,354,16553,6,0,P|95:288|182:294,1,180,2|8,3:2|0:2,0:0:0:0:
366,367,17065,1,2,0:2:0:0:
289,174,17235,2,0,L|274:263,1,90,0|0,3:2|3:2,0:0:0:0:
449,125,17576,1,10,0:2:0:0:
157,20,17746,6,0,L|189:198,1,180,2|0,3:2|3:2,0:0:0:0:
356,104,18258,2,0,P|313:80|265:81,1,90,10|0,0:2|0:2,0:0:0:0:
369,244,18599,1,2,3:2:0:0:
449,125,18769,1,0,3:2:0:0:
366,367,18940,1,10,0:2:0:0:
289,174,19110,6,0,B|197:146|211:231|120:203,1,180,2|2,3:2|3:2,0:0:0:0:
42,38,19621,2,0,P|125:31|147:112,1,180,10|0,0:2|3:2,0:0:0:0:
25,214,20133,1,0,3:2:0:0:
136,292,20303,2,0,L|121:204,1,90,10|0,0:2|0:2,0:0:0:0:
220,340,20644,6,0,L|42:308,2,180,2|8|2,3:2|0:2|3:2,0:0:0:0:
322,195,21496,1,0,3:2:0:0:
422,380,21667,1,8,0:2:0:0:
240,245,21837,6,0,P|233:158|299:101,1,180,2|2,3:2|3:2,0:0:0:0:
303,317,22349,2,0,P|264:339|220:340,1,90,10|0,0:2|0:2,0:0:0:0:
322,195,22690,1,2,3:2:0:0:
474,283,22860,2,0,L|386:268,1,90,2|8,3:2|0:2,0:0:0:0:
400,87,23201,6,0,L|416:176,1,90,2|0,3:2|0:2,0:0:0:0:
220,340,23542,1,10,0:2:0:0:
393,275,23712,1,8,0:2:0:0:
393,275,23797,1,0,3:0:0:0:
393,275,23883,1,2,3:2:0:0:
140,87,24053,5,8,0:2:0:0:
416,176,24224,1,10,0:2:0:0:
133,299,24394,1,8,0:2:0:0:
133,299,24479,1,8,0:2:0:0:
133,299,24565,1,8,0:2:0:0:
296,53,24735,6,0,L|321:195,1,144,6|2,3:2|3:2,0:0:0:0:
386,267,25246,1,2,0:2:0:0:
292,287,25417,2,0,L|221:274,2,72,2|2|2,3:2|0:2|3:2,0:0:0:0:
138,225,25928,6,0,P|125:259|127:295,1,72,2|0,0:2|3:2,0:0:0:0:
221,177,26269,2,0,P|222:141|209:107,1,72,2|0,0:2|3:2,0:0:0:0:
65,33,26610,2,0,L|136:46,1,72,2|0,0:2|3:2,0:0:0:0:
295,0,26950,2,0,L|225:12,1,72,2|0,0:2|3:2,0:0:0:0:
210,108,27292,1,2,0:2:0:0:
374,55,27462,6,0,L|361:125,1,72,2|2,3:2|0:2,0:0:0:0:
404,211,27803,2,0,P|348:168|279:175,1,144,2|2,3:2|3:2,0:0:0:0:
226,256,28315,1,2,0:2:0:0:
322,261,28485,1,2,3:2:0:0:
184,169,28655,6,0,P|153:192|135:225,1,72,2|0,0:2|3:2,0:0:0:0:
246,322,28996,2,0,P|243:287|226:256,1,72,2|0,0:2|3:2,0:0:0:0:
80,304,29337,2,0,L|151:317,1,72,2|0,0:2|3:2,0:0:0:0:
136,220,29678,2,0,L|65:207,1,72,2|0,0:2|3:2,0:0:0:0:
226,256,30019,1,2,0:2:0:0:
136,88,30190,6,0,B|108:137|108:137|136:220,1,144,2|2,3:2|3:2,0:0:0:0:
226,256,30701,1,2,0:2:0:0:
291,184,30871,2,0,L|278:113,2,72,2|2|2,3:2|0:2|3:2,0:0:0:0:
421,309,31383,6,0,L|446:166,1,144,2|2,0:2|0:2,0:0:0:0:
418,75,31894,1,0,3:2:0:0:
500,26,32065,2,0,P|512:59|511:95,1,72,2|0,0:2|3:2,0:0:0:0:
336,124,32405,2,0,P|323:90|324:54,1,72,2|0,0:2|3:2,0:0:0:0:
418,75,32746,1,2,0:2:0:0:
447,167,32917,6,0,L|434:237,2,72,0|0|0,3:2|0:0|3:2,0:0:0:0:
455,332,33428,2,0,P|419:333|385:320,1,72,2|0,0:2|3:2,0:0:0:0:
314,170,33769,2,0,P|333:200|339:236,1,72,2|0,0:2|3:2,0:0:0:0:
219,332,34110,6,0,L|290:320,1,72,2|0,0:2|3:2,0:0:0:0:
137,284,34451,2,0,P|124:317|125:353,1,72,2|0,0:2|3:2,0:0:0:0:
220,236,34792,2,0,L|207:165,1,72,2|0,0:2|3:2,0:0:0:0:
132,16,35133,1,2,0:2:0:0:
128,112,35303,2,0,P|170:66|229:81,1,108,0|0,3:2|0:0,0:0:0:0:
250,79,35644,6,0,P|295:78|328:59,1,80.9999975280763,6|0,3:2|0:2,0:0:0:0:
489,21,35985,2,0,L|474:100,1,80.9999975280763,2|0,3:2|0:2,0:0:0:0:
368,265,36326,1,2,3:2:0:0:
508,219,36496,1,0,0:2:0:0:
347,171,36667,1,2,3:2:0:0:
273,358,36837,6,0,L|193:343,1,80.9999975280763,2|0,0:2|3:2,0:0:0:0:
82,192,37178,2,0,P|139:197|165:249,1,121.499996292114,2|0,0:2|0:0,0:0:0:0:
101,320,37519,2,0,L|21:334,1,80.9999975280763,2|0,0:2|3:2,0:0:0:0:
166,249,37860,2,0,L|245:263,1,80.9999975280763,2|0,0:2|3:2,0:0:0:0:
419,151,38201,1,2,0:2:0:0:
307,135,38371,6,0,P|326:170|326:211,1,80.9999975280763,2|2,3:2|0:2,0:0:0:0:
220,97,38712,1,2,3:2:0:0:
297,39,38883,1,2,0:2:0:0:
232,193,39053,1,2,3:2:0:0:
132,59,39224,1,2,0:2:0:0:
308,135,39394,1,2,3:2:0:0:
145,233,39565,6,0,P|136:194|144:155,1,80.9999975280763,2|0,0:2|3:2,0:0:0:0:
320,231,39905,2,0,L|298:350,1,121.499996292114,2|0,0:2|0:0,0:0:0:0:
393,334,40246,2,0,L|472:319,1,80.9999975280763,2|0,0:2|3:2,0:0:0:0:
320,231,40587,2,0,L|240:216,1,80.9999975280763,2|0,0:2|3:2,0:0:0:0:
347,72,40928,1,2,0:2:0:0:
416,239,41099,6,0,P|428:163|442:80,1,161.999995056153,2|2,3:2|3:2,0:0:0:0:
265,122,41610,1,2,0:2:0:0:
437,39,41780,1,2,3:2:0:0:
336,187,41951,1,2,0:2:0:0:
238,29,42121,1,2,3:2:0:0:
152,211,42292,6,0,B|184:267|184:267|149:363,1,161.999995056153,2|0,0:2|0:2,0:0:0:0:
62,179,42803,1,2,3:2:0:0:
225,149,42974,1,2,0:2:0:0:
79,275,43144,2,0,L|0:260,1,80.9999975280763,2|0,3:2|0:2,0:0:0:0:
135,116,43485,1,2,3:2:0:0:
213,284,43655,1,2,0:2:0:0:
45,83,43826,6,0,P|65:49|99:26,2,80.9999975280763,0|0|0,3:2|0:0|3:2,0:0:0:0:
225,149,44337,2,0,B|308:127|295:197|379:176,1,161.999995056153,2|2,0:2|0:2,0:0:0:0:
280,50,44849,1,0,3:2:0:0:
249,242,45019,6,0,B|267:362|267:362|298:320,1,161.999995056153,2|2,3:2|3:2,0:0:0:0:
446,109,45530,1,8,0:2:0:0:
280,50,45701,2,0,L|294:129,1,80.9999975280763,2|2,3:2|3:2,0:0:0:0:
452,12,46042,1,8,0:2:0:0:
193,107,46212,1,10,0:2:0:0:
494,204,46383,1,8,0:2:0:0:
494,204,46468,1,8,0:2:0:0:
494,204,46553,6,0,L|468:345,1,144,14|0,3:2|0:2,0:0:0:0:
391,232,47065,1,0,3:2:0:0:
233,352,47235,2,0,L|375:327,1,144,8|2,0:2|3:2,0:0:0:0:
313,174,47746,6,0,P|297:207|296:243,1,72,10|2,0:2|3:2,0:0:0:0:
401,135,48087,1,10,0:2:0:0:
323,79,48258,2,0,L|252:91,1,72,2|0,3:2|0:2,0:0:0:0:
384,5,48599,2,0,P|418:66|401:135,1,144,10|2,0:2|3:2,0:0:0:0:
252,91,49110,1,8,0:2:0:0:
95,182,49280,6,0,B|67:265|67:265|95:314,1,144,2|0,3:2|0:2,0:0:0:0:
172,253,49792,1,0,3:2:0:0:
315,349,49962,2,0,B|232:377|232:377|183:349,1,144,8|2,0:2|3:2,0:0:0:0:
249,195,50474,6,0,P|265:227|268:263,1,72,10|2,0:2|3:2,0:0:0:0:
162,156,50815,1,10,0:2:0:0:
239,99,50985,1,2,3:2:0:0:
327,138,51155,1,0,0:2:0:0:
172,253,51326,2,0,L|101:240,1,72,8|0,0:2|3:2,0:0:0:0:
228,3,51667,1,10,0:2:0:0:
344,242,51837,1,8,0:2:0:0:
344,242,51922,1,8,0:2:0:0:
344,242,52008,6,0,B|436:214|422:299|513:271,1,180,6|8,3:2|0:2,0:0:0:0:
327,138,52519,1,2,0:2:0:0:
231,323,52690,2,0,P|223:278|209:230,1,90,0|0,3:2|3:2,0:0:0:0:
442,58,53030,2,0,P|429:101|422:146,1,90,10|0,0:2|0:2,0:0:0:0:
185,26,53371,6,0,P|249:11|307:42,1,135,2|0,3:2|0:0,0:0:0:0:
327,138,53712,1,10,0:2:0:0:
110,86,53883,2,0,P|90:45|92:1,1,90,2|0,0:2|3:2,0:0:0:0:
236,108,54224,1,0,3:2:0:0:
38,150,54394,2,0,P|18:190|20:234,1,90,10|0,0:2|0:2,0:0:0:0:
289,225,54735,5,2,3:2:0:0:
185,26,54905,1,0,3:2:0:0:
220,293,55076,1,8,3:2:0:0:
281,23,55246,1,8,3:2:0:0:
313,319,55417,5,8,3:2:0:0:
185,26,55587,1,8,3:2:0:0:
127,319,55758,1,10,3:2:0:0:
281,23,55928,1,10,3:2:0:0:
406,293,56099,5,8,3:2:0:0:
72,146,56269,1,8,3:2:0:0:
451,9,56440,1,8,3:2:0:0:
451,9,57462,6,0,B|418:62|418:62|453:158,1,161.999995056153,6|0,3:2|0:0,0:0:0:0:
489,245,57803,2,0,P|436:251|388:227,1,107.999996704102,8|0,0:2|3:2,0:0:0:0:
250,369,58144,2,0,P|295:339|317:290,1,107.999996704102,0|0,3:2|3:2,0:0:0:0:
204,97,58485,1,10,0:2:0:0:
9,239,58655,6,0,L|222:277,1,215.999993408203,2|0,3:2|3:2,0:0:0:0:
145,21,59167,2,0,P|113:64|111:120,1,107.999996704102,8|0,0:2|0:2,0:0:0:0:
317,291,59508,1,2,3:2:0:0:
204,97,59678,1,0,3:2:0:0:
115,295,59849,2,0,L|222:277,1,107.999996704102,10|0,0:2|0:2,0:0:0:0:
389,130,60190,6,0,P|312:131|281:201,1,161.999995056153,2|0,3:2|0:0,0:0:0:0:
317,291,60530,2,0,L|423:309,1,107.999996704102,8|0,0:2|3:2,0:0:0:0:
186,187,60871,2,0,L|79:205,1,107.999996704102,0|0,3:2|3:2,0:0:0:0:
248,25,61212,1,10,0:2:0:0:
317,291,61383,6,0,B|462:316|462:316|398:343,1,215.999993408203,2|0,3:2|3:2,0:0:0:0:
281,200,61894,2,0,L|387:218,1,107.999996704102,8|0,0:2|0:2,0:0:0:0:
182,324,62235,1,2,3:2:0:0:
245,111,62405,1,0,3:2:0:0:
60,99,62576,2,0,L|78:205,1,107.999996704102,10|0,0:2|0:2,0:0:0:0:
292,27,62917,6,0,P|214:18|157:72,1,161.999995056153,2|0,3:2|0:0,0:0:0:0:
168,169,63258,2,0,L|186:275,1,107.999996704102,8|0,0:2|3:2,0:0:0:0:
407,136,63599,2,0,L|389:30,1,107.999996704102,0|0,3:2|3:2,0:0:0:0:
270,206,63940,1,10,0:2:0:0:
479,266,64110,6,0,B|369:230|388:338|279:302,1,215.999993408203,2|0,3:2|3:2,0:0:0:0:
149,74,64621,2,0,P|202:78|245:111,1,107.999996704102,10|0,0:2|0:2,0:0:0:0:
207,365,64962,2,0,P|183:317|190:264,1,107.999996704102,2|0,3:2|3:2,0:0:0:0:
429,170,65303,2,0,P|399:214|349:234,1,107.999996704102,10|0,0:2|0:2,0:0:0:0:
62,188,65644,6,0,L|169:170,1,107.999996704102,2|0,3:2|0:2,0:0:0:0:
385,320,65985,2,0,L|278:301,1,107.999996704102,10|0,0:2|3:2,0:0:0:0:
387,84,66326,1,2,3:2:0:0:
480,333,66496,1,0,3:2:0:0:
302,128,66667,1,10,0:2:0:0:
196,350,66837,6,0,B|88:370|88:370|55:323,1,161.999995056153,2|0,3:2|0:0,0:0:0:0:
7,245,67178,1,8,0:2:0:0:
302,128,67349,1,8,0:2:0:0:
75,48,67519,1,0,3:2:0:0:
373,208,67690,5,10,0:2:0:0:
58,327,67860,1,8,0:2:0:0:
310,135,68030,1,10,3:2:0:0:
310,135,68116,1,8,3:2:0:0:
310,135,68201,1,8,3:2:0:0:
75,48,68371,6,0,B|63:101|63:101|86:147|86:147|75:201,1,161.999995056153,6|0,3:2|0:0,0:0:0:0:
139,274,68712,2,0,P|192:270|234:237,1,107.999996704102,8|0,0:2|3:2,0:0:0:0:
387,354,69053,2,0,P|334:350|292:318,1,107.999996704102,0|0,3:2|3:2,0:0:0:0:
213,143,69394,1,10,0:2:0:0:
366,80,69565,6,0,B|330:106|309:145|309:145|369:259,1,215.999993408203,2|0,3:2|3:2,0:0:0:0:
461,98,70076,2,0,P|457:45|424:3,1,107.999996704102,8|0,0:2|0:2,0:0:0:0:
213,143,70417,1,2,3:2:0:0:
461,230,70587,1,0,3:2:0:0:
366,80,70758,2,0,L|347:187,1,107.999996704102,10|0,0:2|0:2,0:0:0:0:
87,209,71099,6,0,P|134:146|213:143,1,161.999995056153,2|0,3:2|0:0,0:0:0:0:
260,227,71440,2,0,L|279:334,1,107.999996704102,8|0,0:2|3:2,0:0:0:0:
87,209,71780,2,0,L|106:102,1,107.999996704102,0|0,3:2|3:2,0:0:0:0:
6,261,72121,1,10,0:2:0:0:
212,142,72292,6,0,B|322:106|303:214|412:178,1,215.999993408203,2|0,3:2|3:2,0:0:0:0:
506,5,72803,2,0,P|474:46|470:100,1,107.999996704102,10|0,0:2|0:2,0:0:0:0:
470,284,73144,2,0,P|502:242|507:189,1,107.999996704102,2|0,3:2|3:2,0:0:0:0:
386,12,73485,1,10,0:2:0:0:
212,142,73655,6,0,L|52:113,1,161.999995056153,2|0,3:2|0:0,0:0:0:0:
0,32,73996,1,2,3:2:0:0:
270,65,74167,2,0,P|302:106|306:160,1,107.999996704102,10|0,0:2|0:2,0:0:0:0:
78,227,74508,1,0,3:2:0:0:
178,37,74678,1,0,3:2:0:0:
270,266,74849,2,0,L|377:247,1,107.999996704102,10|0,0:2|0:2,0:0:0:0:
212,142,75190,6,0,P|164:204|176:284,1,161.999995056153,2|0,3:2|0:0,0:0:0:0:
232,360,75530,2,0,P|265:319|270:266,1,107.999996704102,8|0,0:2|0:2,0:0:0:0:
95,105,75871,1,2,3:2:0:0:
175,282,76042,1,0,3:2:0:0:
278,41,76212,1,8,0:2:0:0:
69,230,76383,6,0,B|179:194|160:302|269:266,1,215.999993408203,2|2,3:2|3:2,0:0:0:0:
458,122,76894,2,0,L|351:103,1,107.999996704102,10|0,0:2|0:2,0:0:0:0:
495,211,77235,1,0,3:2:0:0:
421,18,77405,1,0,3:2:0:0:
313,241,77576,1,8,0:2:0:0:
185,40,77746,6,0,B|227:83|227:83|184:175,1,161.999995056153,0|0,3:2|0:0,0:0:0:0:
138,260,78087,1,8,0:2:0:0:
360,111,78258,1,8,0:2:0:0:
360,111,78343,1,0,3:0:0:0:
360,111,78428,1,0,3:2:0:0:
89,38,78599,5,10,0:2:0:0:
400,200,78769,1,8,0:2:0:0:
46,284,78940,1,10,0:2:0:0:
46,284,79025,1,8,0:2:0:0:
46,284,79110,1,8,0:2:0:0:
360,111,79280,6,0,P|409:103|463:127,1,107.999996704102,14|0,0:2|3:2,0:0:0:0:
271,318,79621,5,8,0:2:0:0:
344,15,79792,1,0,3:2:0:0:
368,353,79962,5,8,0:2:0:0:
270,76,80133,1,0,3:2:0:0:
189,369,80303,5,10,0:2:0:0:
360,111,80474,1,2,3:2:0:0:
463,365,80644,5,8,0:2:0:0:
225,179,80815,1,0,3:2:0:0:
508,78,80985,5,8,0:2:0:0:
368,353,81155,1,0,3:2:0:0:
248,68,81326,5,10,0:2:0:0:
504,221,81496,1,0,3:2:0:0:
271,318,81667,5,10,0:2:0:0:
414,60,81837,1,0,3:2:0:0:
368,353,82008,6,0,L|349:246,1,107.999996704102,10|0,0:2|3:2,0:0:0:0:
168,66,82349,5,8,0:2:0:0:
427,193,82519,1,0,3:2:0:0:
133,230,82690,5,8,0:2:0:0:
395,102,82860,1,0,3:2:0:0:
83,110,83030,5,10,0:2:0:0:
349,246,83201,1,2,3:2:0:0:
79,311,83371,5,8,0:2:0:0:
314,156,83542,1,0,3:2:0:0:
64,85,83712,5,8,0:2:0:0:
218,323,83883,1,0,3:2:0:0:
264,38,84053,5,10,0:2:0:0:
20,198,84224,1,0,3:2:0:0:
333,274,84394,6,0,L|303:229,1,53.9999983520508,10|8,0:2|0:2,0:0:0:0:
168,34,84565,1,0,3:2:0:0:
116,336,84735,6,0,P|169:344|218:322,1,107.999996704102,10|2,0:2|3:2,0:0:0:0:
388,54,85076,5,8,0:2:0:0:
436,338,85246,1,0,3:2:0:0:
483,33,85417,5,8,0:2:0:0:
358,285,85587,1,0,3:2:0:0:
299,18,85758,5,10,0:2:0:0:
443,242,85928,1,2,3:2:0:0:
483,33,86099,5,8,0:2:0:0:
230,127,86269,1,0,3:2:0:0:
480,343,86440,5,10,0:2:0:0:
345,102,86610,1,0,3:2:0:0:
116,358,86780,5,10,0:2:0:0:
243,38,86951,1,8,3:2:0:0:
348,346,87121,1,10,0:2:0:0:
157,65,87292,1,8,0:2:0:0:
157,65,87377,1,8,0:2:0:0:
157,65,87462,6,0,L|125:243,1,180,6|0,3:2|3:2,0:0:0:0:
47,132,87974,1,0,3:2:0:0:
230,200,88144,2,0,L|262:378,1,180,14|0,3:2|3:2,0:0:0:0:
125,242,88655,1,8,3:2:0:0:
329,206,88826,5,6,3:2:0:0:
157,334,88996,1,8,3:2:0:0:
348,192,89167,2,0,L|332:103,1,90,0|0,3:2|3:2,0:0:0:0:
230,200,89508,1,14,3:2:0:0:
434,130,89678,1,0,3:2:0:0:
211,39,89849,1,8,3:2:0:0:
506,68,90019,6,0,P|484:134|457:232,1,161.999995056153,6|0,3:2|0:0,0:0:0:0:
503,309,90360,1,10,0:2:0:0:
332,103,90530,2,0,B|222:67|241:175|132:139,1,215.999993408203,6|0,3:2|3:2,0:0:0:0:
45,15,91042,1,0,3:2:0:0:
167,243,91212,2,0,P|152:295|136:346,1,107.999996704102,10|0,0:2|0:2,0:0:0:0:
131,138,91553,6,0,P|154:213|277:225,2,215.999993408203,2|8|2,3:2|0:2|3:2,0:0:0:0:
218,32,92405,1,0,3:2:0:0:
36,148,92576,1,8,0:2:0:0:
261,121,92746,6,0,B|353:78|353:78|396:120,1,161.999995056153,6|0,3:2|0:0,0:0:0:0:
461,192,93087,1,10,0:2:0:0:
347,330,93258,2,0,P|372:220|397:112,1,215.999993408203,6|0,3:2|3:2,0:0:0:0:
455,289,93769,1,0,3:2:0:0:
286,163,93940,2,0,L|179:182,1,107.999996704102,10|0,0:2|0:2,0:0:0:0:
304,17,94280,6,0,P|384:8|380:128,2,215.999993408203,2|8|2,3:2|0:2|3:2,0:0:0:0:
179,182,95133,1,0,3:2:0:0:
299,113,95303,1,10,0:2:0:0:
94,35,95474,6,0,B|110:105|110:105|79:167|79:167|94:239,1,215.999993408203,2|8,3:2|3:2,0:0:0:0:
184,376,95985,1,10,3:2:0:0:
179,182,96155,1,8,3:2:0:0:
55,366,96326,1,8,3:2:0:0:
264,229,96496,1,8,3:2:0:0:
37,68,96667,1,10,3:2:0:0:
182,279,96837,1,8,3:2:0:0:
347,17,97008,5,10,3:2:0:0:
266,326,97178,1,10,3:2:0:0:
116,14,97349,1,8,3:2:0:0:
184,376,97519,1,10,3:2:0:0:
276,82,97690,1,8,3:2:0:0:
276,82,97775,1,8,0:2:0:0:
276,82,97860,2,0,L|285:135,1,53.9999983520508,10|8,3:2|0:2,0:0:0:0:
182,279,98030,1,8,3:2:0:0:
426,238,98201,6,0,B|291:193|313:324|182:278|182:278|215:246|264:245,1,350.99998928833,6|0,3:2|0:0,0:0:0:0:
375,324,99394,5,8,3:2:0:0:
132,193,99565,1,8,3:2:0:0:
