osu file format v14

[General]
AudioFilename: audio.mp3
AudioLeadIn: 0
PreviewTime: -1
Countdown: 0
SampleSet: Soft
StackLeniency: 0.7
Mode: 0
LetterboxInBreaks: 0
WidescreenStoryboard: 0

[Editor]
Bookmarks: 68030
DistanceSpacing: 0.2
BeatDivisor: 4
GridSize: 4
TimelineZoom: 1.7

[Metadata]
Title:Yume Chizu
TitleUnicode:夢地図
Artist:yuikonnu
ArtistUnicode:ゆいこんぬ
Creator:Undead131
Version:Sleeper
Source:
Tags:jump dt farm yume_chizu aim practice
BeatmapID:4548297
BeatmapSetID:2157535

[Difficulty]
HPDrainRate:4.6
CircleSize:4
OverallDifficulty:8.5
ApproachRate:9
SliderMultiplier:1.7
SliderTickRate:1

[Events]
//Background and Video events
0,0,"that_bg_fills_me_with_some_nostalgic_thoughts.jpg",0,0
//Break Periods
//Storyboard Layer 0 (Background)
//Storyboard Layer 1 (Fail)
//Storyboard Layer 2 (Pass)
//Storyboard Layer 3 (Foreground)
//Storyboard Layer 4 (Overlay)
//Storyboard Sound Samples

[TimingPoints]
190,340.909090909091,4,2,0,100,1,0
2576,-90.9090909090909,4,2,0,100,0,0
57462,-76.9230769230769,4,2,0,100,0,0
79110,-76.9230769230769,4,2,0,100,0,1
87462,-76.9230769230769,4,2,0,100,0,0
90019,-76.9230769230769,4,2,0,100,0,1
98201,-125,4,2,0,100,0,0
98201,-111.111111111111,4,2,0,100,0,0
98201,-105.263157894737,4,2,0,100,0,0
98201,-105.263157894737,4,2,0,100,0,0

[HitObjects]
196,81,2576,5,0,0:0:0:0:
191,267,2746,1,0,0:0:0:0:
278,72,2917,1,0,0:0:0:0:
286,278,3087,1,0,0:0:0:0:
444,99,3258,6,0,P|399:136|342:144,1,93.5000028533936
143,136,3599,5,0,0:0:0:0:
311,226,3769,1,0,0:0:0:0:
235,78,3940,5,0,0:0:0:0:
224,304,4110,1,0,0:0:0:0:
98,196,4280,2,0,P|90:297|93:327,1,93.5000028533936
233,361,4621,5,0,0:0:0:0:
233,361,4707,1,0,0:0:0:0:
233,361,4792,2,0,P|283:291|286:247,1,93.5000028533936
331,35,5133,6,0,P|317:110|295:149,1,93.5000028533936
137,299,5474,5,0,0:0:0:0:
427,120,5644,2,0,P|371:211|354:218,1,93.5000028533936
139,274,5985,6,0,P|167:188|191:154,1,93.5000028533936
261,24,6326,5,0,0:0:0:0:
301,280,6496,1,0,0:0:0:0:
177,49,6667,5,0,0:0:0:0:
182,298,6837,2,0,P|130:181|130:180,1,93.5000028533936
91,11,7178,5,0,0:0:0:0:
91,11,7263,1,0,0:0:0:0:
91,11,7349,2,0,P|164:36|211:62,1,93.5000028533936
310,99,7690,5,0,0:0:0:0:
125,248,7860,1,0,0:0:0:0:
172,92,8030,2,0,P|235:168|240:192,1,93.5000028533936
308,361,8371,6,0,L|364:144,1,187.000005706787
402,8,8883,2,0,P|282:29|266:32,1,93.5000028533936
392,212,9395,1,0,0:0:0:0:
364,87,9565,2,0,L|316:277,1,187.000005706787
274,347,10076,5,0,0:0:0:0:
231,109,10246,1,0,0:0:0:0:
201,333,10417,1,0,0:0:0:0:
283,108,10587,1,0,0:0:0:0:
331,343,10758,2,0,P|336:296|329:250,1,93.5000028533936
159,315,11099,5,0,0:0:0:0:
393,184,11269,1,0,0:0:0:0:
159,215,11440,5,0,0:0:0:0:
379,265,11610,1,0,0:0:0:0:
182,243,11780,5,0,0:0:0:0:
387,199,11951,1,0,0:0:0:0:
164,309,12121,5,0,0:0:0:0:
356,368,12292,2,0,P|396:279|402:248,1,93.5000028533936
385,105,12633,5,0,0:0:0:0:
385,105,12718,1,0,0:0:0:0:
385,105,12803,2,0,P|346:151|343:155,2,46.7500014266968
210,239,13144,5,0,0:0:0:0:
298,92,13315,1,0,0:0:0:0:
312,287,13485,1,0,0:0:0:0:
382,130,13655,1,0,0:0:0:0:
245,160,13826,2,0,L|111:183,1,93.5000028533936,0|0,0:3|0:3,0:3:0:0:
2,137,14167,6,0,L|81:83,1,93.5000028533936
311,39,14508,5,0,0:0:0:0:
307,237,14678,1,0,0:0:0:0:
227,72,14849,1,0,0:0:0:0:
420,154,15019,1,0,0:0:0:0:
422,158,15190,2,0,P|428:260|418:287,1,93.5000028533936
382,332,15530,5,0,0:0:0:0:
257,231,15701,1,0,0:0:0:0:
430,249,15871,1,0,0:0:0:0:
495,65,16042,2,0,B|463:152,1,93.5000028533936
212,381,16383,6,0,L|174:259,1,93.5000028533936
150,143,16724,5,0,0:0:0:0:
254,57,16894,2,0,P|222:168|218:173,1,93.5000028533936
379,176,17235,5,0,0:0:0:0:
300,289,17405,2,0,P|293:229|289:164,1,93.5000028533936
158,120,17746,5,0,0:0:0:0:
26,216,17917,2,0,P|78:259|131:273,1,93.5000028533936
353,259,18258,6,0,P|351:201|337:123,1,93.5000028533936
341,39,18599,5,0,0:0:0:0:
228,219,18769,1,0,0:0:0:0:
371,104,18940,1,0,0:0:0:0:
301,233,19110,2,0,L|355:343,1,93.5000028533936
426,364,19451,5,0,0:0:0:0:
492,205,19621,2,0,L|401:104,1,93.5000028533936
187,32,19962,5,0,0:0:0:0:
91,180,20133,1,0,0:0:0:0:
195,324,20303,2,0,L|281:230,1,93.5000028533936
393,117,20644,6,0,L|391:243,1,93.5000028533936
338,324,20985,5,0,0:0:0:0:
331,98,21155,1,0,0:0:0:0:
251,319,21326,5,0,0:0:0:0:
260,109,21496,1,0,0:0:0:0:
173,316,21667,5,0,0:0:0:0:
178,115,21837,1,0,0:0:0:0:
96,29,22008,5,0,0:0:0:0:
96,29,22178,2,0,L|108:158,1,93.5000028533936
135,258,22519,5,0,0:0:0:0:
135,258,22690,2,0,P|172:204|189:151,1,93.5000028533936
372,24,23030,6,0,P|364:100|385:130,1,93.5000028533936
392,352,23371,6,0,P|395:279|376:232,1,93.5000028533936
268,47,23712,5,0,0:0:0:0:
251,301,23883,1,0,0:0:0:0:
202,43,24053,1,0,0:0:0:0:
179,298,24224,1,0,0:0:0:0:
265,96,24394,1,0,0:0:0:0:
265,96,24479,1,0,0:0:0:0:
265,96,24565,2,0,L|245:199,1,93.5000028533936
290,372,24905,5,0,0:0:0:0:
290,372,25076,2,0,L|371:302,1,93.5000028533936
454,229,25417,6,0,L|411:122,1,93.5000028533936
343,36,25758,5,0,0:0:0:0:
313,237,25928,1,0,0:0:0:0:
271,52,26099,2,0,L|209:172,1,93.5000028533936
119,275,26440,2,0,L|101:147,1,93.5000028533936
88,66,26780,1,0,0:0:0:0:
208,240,26951,1,0,0:0:0:0:
208,240,27121,2,0,L|277:128,1,93.5000028533936
360,48,27462,5,0,0:0:0:0:
364,270,27633,1,0,0:0:0:0:
425,47,27803,5,0,0:0:0:0:
297,228,27974,1,0,0:0:0:0:
326,71,28144,5,0,0:0:0:0:
336,245,28315,1,0,0:0:0:0:
417,142,28485,5,0,0:0:0:0:
286,251,28655,2,0,L|211:156,1,93.5000028533936
98,40,28996,2,0,L|78:153,1,93.5000028533936
67,230,29337,1,0,0:0:0:0:
170,111,29508,1,0,0:0:0:0:
172,283,29678,1,0,0:0:0:0:
267,136,29849,2,0,L|334:233,1,93.5000028533936
427,293,30190,5,0,0:0:0:0:
250,298,30360,1,0,0:0:0:0:
401,207,30530,5,0,0:0:0:0:
359,375,30701,1,0,0:0:0:0:
307,202,30871,5,0,0:0:0:0:
284,363,31042,1,0,0:0:0:0:
228,218,31212,2,0,L|174:102,1,93.5000028533936
57,32,31553,2,0,L|90:152,1,93.5000028533936
133,280,31894,2,0,P|182:208|291:204,1,187.000005706787
410,270,32405,5,0,0:0:0:0:
369,102,32576,1,0,0:0:0:0:
315,260,32746,2,0,L|223:157,1,93.5000028533936
146,50,33087,5,0,0:0:0:0:
137,256,33258,1,0,0:0:0:0:
233,91,33428,1,0,0:0:0:0:
226,247,33599,1,0,0:0:0:0:
321,83,33769,5,0,0:0:0:0:
319,260,33940,1,0,0:0:0:0:
411,91,34110,2,0,P|422:168|412:213,1,93.5000028533936
347,344,34451,2,0,P|286:267|272:231,1,93.5000028533936
205,98,34792,5,0,0:0:0:0:
192,316,34962,1,0,0:0:0:0:
110,142,35133,2,0,P|183:132|305:133,1,187.000005706787
406,266,35644,5,0,0:0:0:0:
329,56,35815,1,0,0:0:0:0:
253,258,35985,2,0,L|202:147,1,93.5000028533936
149,58,36326,5,0,0:0:0:0:
168,283,36496,1,0,0:0:0:0:
169,73,36667,1,0,0:0:0:0:
211,274,36837,2,0,L|261:177,1,93.5000028533936
340,59,37178,2,0,L|373:181,1,93.5000028533936
404,333,37519,2,0,L|322:274,1,93.5000028533936
213,92,37860,5,0,0:0:0:0:
218,284,38030,2,0,P|280:224|289:192,1,93.5000028533936
371,103,38371,5,0,0:0:0:0:
181,202,38542,1,0,0:0:0:0:
373,195,38712,5,0,0:0:0:0:
171,114,38882,1,0,0:0:0:0:
307,47,39053,5,0,0:0:0:0:
278,301,39224,2,0,P|225:255|212:209,1,93.5000028533936
156,55,39565,2,0,L|163:181,1,93.5000028533936
161,338,39905,2,0,L|233:238,1,93.5000028533936
376,93,40246,2,0,L|369:215,1,93.5000028533936
366,338,40587,2,0,L|288:235,1,93.5000028533936
161,84,40928,5,0,0:0:0:0:
348,167,41099,1,0,0:0:0:0:
134,198,41269,1,0,0:0:0:0:
358,94,41440,1,0,0:0:0:0:
148,261,41610,5,0,0:0:0:0:
380,244,41780,1,0,0:0:0:0:
146,346,41951,5,0,0:0:0:0:
373,342,42121,2,0,L|433:249,1,93.5000028533936
349,177,42462,2,0,L|332:64,1,93.5000028533936
227,37,42803,5,0,0:0:0:0:
231,282,42974,1,0,0:0:0:0:
171,63,43144,1,0,0:0:0:0:
165,280,43315,1,0,0:0:0:0:
306,74,43485,5,0,0:0:0:0:
114,242,43655,2,0,L|58:120,1,93.5000028533936
36,48,43996,1,0,0:0:0:0:
36,48,44167,2,0,L|123:107,1,93.5000028533936
267,216,44508,2,0,L|338:127,1,93.5000028533936
433,10,44849,6,0,P|442:83|434:131,1,93.5000028533936
401,324,45190,1,0,0:0:0:0:
337,45,45360,1,0,0:0:0:0:
314,339,45530,1,0,0:0:0:0:
310,57,45701,1,0,0:0:0:0:
270,335,45871,1,0,0:0:0:0:
280,73,46042,1,0,0:0:0:0:
255,307,46212,1,0,0:0:0:0:
205,103,46383,1,0,0:0:0:0:
205,103,46468,1,0,0:0:0:0:
205,103,46553,2,0,P|134:68|80:61,1,93.5000028533936
28,177,46894,6,0,P|81:135|127:124,1,93.5000028533936
149,279,47235,2,0,L|206:157,1,93.5000028533936
287,84,47576,5,0,0:0:0:0:
287,316,47746,1,0,0:0:0:0:
282,97,47917,1,0,0:0:0:0:
281,318,48087,1,0,0:0:0:0:
268,108,48258,2,0,L|216:217,1,93.5000028533936
145,335,48599,2,0,P|120:258|96:223,2,93.5000028533936
241,351,49110,5,0,0:0:0:0:
282,202,49280,1,0,0:0:0:0:
402,139,49451,2,0,B|436:185|436:185|436:255,1,93.5000028533936
439,333,49792,2,0,P|363:256|335:176,1,187.000005706787
351,68,50303,5,0,0:0:0:0:
120,145,50474,1,0,0:0:0:0:
352,122,50644,1,0,0:0:0:0:
133,95,50815,1,0,0:0:0:0:
351,178,50985,2,0,L|293:279,1,93.5000028533936
228,334,51326,5,0,0:0:0:0:
226,99,51496,1,0,0:0:0:0:
196,324,51667,1,0,0:0:0:0:
271,122,51837,1,0,0:0:0:0:
271,122,51922,1,0,0:0:0:0:
271,122,52008,2,0,P|303:80|367:69,1,93.5000028533936
481,49,52349,5,0,0:0:0:0:
481,49,52519,2,0,P|476:141|461:175,1,93.5000028533936
406,293,52860,1,0,0:0:0:0:
406,293,53030,2,0,P|313:244|296:233,1,93.5000028533936
170,95,53371,5,0,0:0:0:0:
197,320,53542,1,0,0:0:0:0:
243,108,53712,1,0,0:0:0:0:
279,323,53883,2,0,L|331:223,1,93.5000028533936
360,78,54224,1,0,0:0:0:0:
216,230,54394,2,0,L|150:154,1,93.5000028533936
95,76,54735,5,0,0:0:0:0:
394,112,54905,1,0,0:0:0:0:
81,173,55076,5,0,0:0:0:0:
393,191,55246,1,0,0:0:0:0:
83,271,55417,5,0,0:0:0:0:
390,277,55587,1,0,0:0:0:0:
87,348,55758,5,0,0:0:0:0:
386,356,55928,1,0,0:0:0:0:
121,226,56099,5,0,0:0:0:0:
275,29,56269,1,0,0:0:0:0:
476,189,56440,1,0,0:0:0:0:
153,52,57462,6,0,L|217:197,1,110.499994941712
282,284,57803,2,0,L|354:174,1,110.499994941712
363,43,58144,2,0,L|252:115,1,110.499994941712
87,164,58485,5,0,0:0:0:0:
355,182,58655,1,0,0:0:0:0:
85,289,58826,2,0,L|165:188,1,110.499994941712
256,54,59167,2,0,L|333:165,1,110.499994941712
388,283,59508,5,0,0:0:0:0:
118,235,59678,1,0,0:0:0:0:
371,165,59849,1,0,0:0:0:0:
110,118,60019,1,0,0:0:0:0:
342,50,60190,2,0,L|283:183,1,110.499994941712
180,307,60530,2,0,L|126:170,1,110.499994941712
101,37,60871,2,0,L|218:103,1,110.499994941712
405,256,61212,5,0,0:0:0:0:
329,50,61383,1,0,0:0:0:0:
295,281,61553,1,0,0:0:0:0:
277,79,61724,1,0,0:0:0:0:
219,274,61894,2,0,L|329:163,1,110.499994941712
392,89,62235,5,0,0:0:0:0:
165,167,62405,1,0,0:0:0:0:
437,179,62576,1,0,0:0:0:0:
171,74,62746,1,0,0:0:0:0:
373,13,62917,2,0,L|329:162,1,110.499994941712
267,290,63258,2,0,L|229:150,1,110.499994941712
124,53,63599,2,0,L|153:186,1,110.499994941712
171,298,63940,5,0,0:0:0:0:
263,70,64110,1,0,0:0:0:0:
342,310,64280,2,0,L|400:169,1,110.499994941712
414,48,64621,2,0,P|326:85|273:106,1,110.499994941712
115,251,64962,2,0,P|166:152|186:138,1,110.499994941712
308,45,65303,2,0,L|352:169,1,110.499994941712
355,291,65644,5,0,0:0:0:0:
261,76,65815,1,0,0:0:0:0:
168,305,65985,1,0,0:0:0:0:
333,106,66155,1,0,0:0:0:0:
76,202,66326,1,0,0:0:0:0:
379,208,66496,1,0,0:0:0:0:
120,91,66667,1,0,0:0:0:0:
263,298,66837,2,0,P|318:177|398:117,1,220.999989883423
421,280,67349,5,0,0:0:0:0:
314,59,67519,1,0,0:0:0:0:
241,297,67690,1,0,0:0:0:0:
141,70,67860,1,0,0:0:0:0:
127,260,68030,1,0,0:0:0:0:
127,260,68116,1,0,0:0:0:0:
127,260,68201,2,0,P|184:248|247:259,1,110.499994941712
295,348,68542,2,0,P|364:271|383:218,1,110.499994941712
401,109,68883,2,0,P|300:92|172:115,1,220.999989883423
57,234,69394,5,0,0:0:0:0:
187,48,69565,1,0,0:0:0:0:
280,224,69735,2,0,L|361:345,1,110.499994941712
398,360,70076,5,0,0:0:0:0:
402,143,70246,1,0,0:0:0:0:
339,358,70417,2,0,L|263:227,1,110.499994941712
174,122,70758,2,0,L|157:235,1,110.499994941712
135,361,71099,6,0,P|209:297|241:281,1,110.499994941712
375,238,71440,2,0,P|352:158|330:121,1,110.499994941712
261,42,71780,1,0,0:0:0:0:
240,246,71951,1,0,0:0:0:0:
306,57,72121,1,0,0:0:0:0:
337,243,72292,2,0,L|367:118,1,110.499994941712
364,31,72633,6,0,P|256:44|146:91,1,220.999989883423
31,159,73144,5,0,0:0:0:0:
243,189,73315,1,0,0:0:0:0:
100,298,73485,1,0,0:0:0:0:
196,101,73655,2,0,L|332:55,1,110.499994941712
343,236,73996,2,0,L|397:98,1,110.499994941712
393,20,74337,5,0,0:0:0:0:
323,190,74508,1,0,0:0:0:0:
301,30,74678,1,0,0:0:0:0:
272,208,74849,1,0,0:0:0:0:
254,38,75019,1,0,0:0:0:0:
193,237,75190,2,0,L|293:144,1,110.499994941712
378,66,75530,2,0,P|396:171|391:198,1,110.499994941712
392,325,75871,6,0,L|325:188,1,110.499994941712
287,128,76212,1,0,0:0:0:0:
146,265,76383,1,0,0:0:0:0:
330,235,76553,1,0,0:0:0:0:
155,117,76724,1,0,0:0:0:0:
235,328,76894,2,0,L|286:194,1,110.499994941712
299,86,77235,5,0,0:0:0:0:
484,182,77405,1,0,0:0:0:0:
249,207,77576,1,0,0:0:0:0:
416,83,77746,2,0,L|367:199,1,110.499994941712
283,324,78087,2,0,L|225:185,1,110.499994941712
174,80,78428,5,0,0:0:0:0:
113,284,78599,1,0,0:0:0:0:
302,132,78769,1,0,0:0:0:0:
248,284,78940,1,0,0:0:0:0:
248,284,79025,1,0,0:0:0:0:
248,284,79110,1,0,0:0:0:0:
257,64,79280,5,0,0:0:0:0:
269,320,79451,1,0,0:0:0:0:
207,136,79621,5,0,0:0:0:0:
367,275,79792,1,0,0:0:0:0:
173,245,79962,5,0,0:0:0:0:
368,152,80133,1,0,0:0:0:0:
240,330,80303,5,0,0:0:0:0:
288,60,80474,1,0,0:0:0:0:
308,339,80644,2,0,L|339:203,1,110.499994941712
355,68,80985,1,0,0:0:0:0:
215,260,81155,1,0,0:0:0:0:
166,65,81326,2,0,L|125:194,1,110.499994941712
112,316,81667,2,0,L|216:204,1,110.499994941712
345,52,82008,5,0,0:0:0:0:
335,339,82178,1,0,0:0:0:0:
261,61,82349,5,0,0:0:0:0:
234,320,82519,1,0,0:0:0:0:
184,73,82690,5,0,0:0:0:0:
104,304,82860,1,0,0:0:0:0:
297,124,83030,5,0,0:0:0:0:
32,193,83201,1,0,0:0:0:0:
276,305,83371,2,0,L|315:185,1,110.499994941712
360,35,83712,5,0,0:0:0:0:
355,303,83883,1,0,0:0:0:0:
282,37,84053,5,0,0:0:0:0:
283,323,84224,1,0,0:0:0:0:
213,60,84394,5,0,0:0:0:0:
213,60,84479,1,0,0:0:0:0:
213,60,84565,2,0,L|155:183,1,110.499994941712
106,249,84905,5,0,0:0:0:0:
377,211,85076,1,0,0:0:0:0:
101,160,85246,5,0,0:0:0:0:
389,280,85417,1,0,0:0:0:0:
177,88,85587,5,0,0:0:0:0:
334,353,85758,1,0,0:0:0:0:
247,79,85928,5,0,0:0:0:0:
243,357,86099,2,0,L|300:224,1,110.499994941712
350,86,86440,2,0,L|225:161,1,110.499994941712
91,230,86780,5,0,0:0:0:0:
230,55,86951,1,0,0:0:0:0:
332,218,87121,1,0,0:0:0:0:
121,101,87292,1,0,0:0:0:0:
121,101,87377,1,0,0:0:0:0:
121,101,87462,2,0,L|200:314,1,220.999989883423
275,382,87974,5,0,0:0:0:0:
275,382,88144,2,0,L|315:235,1,110.499994941712
330,113,88485,5,0,0:0:0:0:
235,213,88655,1,0,0:0:0:0:
412,241,88826,2,0,L|470:115,1,110.499994941712
484,37,89167,5,0,0:0:0:0:
276,48,89337,1,0,0:0:0:0:
484,125,89508,2,0,L|291:258,1,220.999989883423
170,328,90019,5,0,0:0:0:0:
209,78,90190,1,0,0:0:0:0:
270,329,90360,2,0,L|318:200,1,110.499994941712
355,58,90701,2,0,L|398:191,1,110.499994941712
416,285,91042,5,0,0:0:0:0:
217,193,91212,1,0,0:0:0:0:
256,368,91383,2,0,L|319:227,1,110.499994941712
350,81,91724,2,0,L|200:127,1,110.499994941712
99,216,92065,5,0,0:0:0:0:
99,216,92235,2,0,L|210:243,1,110.499994941712
348,95,92576,1,0,0:0:0:0:
347,347,92746,6,0,L|385:243,1,110.499994941712
435,101,93087,1,0,0:0:0:0:
268,273,93258,2,0,L|218:165,1,110.499994941712
160,39,93599,5,0,0:0:0:0:
88,257,93769,1,0,0:0:0:0:
329,178,93940,1,0,0:0:0:0:
84,127,94110,1,0,0:0:0:0:
274,70,94280,1,0,0:0:0:0:
226,284,94451,2,0,L|308:176,1,110.499994941712
405,88,94792,5,0,0:0:0:0:
156,121,94962,1,0,0:0:0:0:
421,182,95133,1,0,0:0:0:0:
155,212,95303,1,0,0:0:0:0:
418,238,95474,2,0,L|295:248,1,110.499994941712
131,249,95815,5,0,0:0:0:0:
235,93,95985,1,0,0:0:0:0:
334,239,96155,1,0,0:0:0:0:
126,143,96326,1,0,0:0:0:0:
334,143,96496,1,0,0:0:0:0:
126,275,96667,5,0,0:0:0:0:
258,53,96837,1,0,0:0:0:0:
387,259,97008,1,0,0:0:0:0:
99,167,97178,1,0,0:0:0:0:
391,123,97349,1,0,0:0:0:0:
131,285,97519,5,0,0:0:0:0:
325,54,97690,1,0,0:0:0:0:
325,54,97775,1,0,0:0:0:0:
325,54,97860,2,0,P|346:89|356:109,1,55.2499974708558
480,280,98030,1,0,0:0:0:0:
245,162,98201,6,0,B|237:83|168:35|137:17|29:41|11:115|8:293|222:239|171:147|122:119,1,458.999985992432
188,302,99394,5,0,0:0:0:0:
332,65,99565,1,0,0:0:0:0:
