osu file format v14

[General]
AudioFilename: audio.mp3
AudioLeadIn: 0
PreviewTime: 78799
Countdown: 0
SampleSet: Normal
StackLeniency: 0.7
Mode: 0
LetterboxInBreaks: 0
WidescreenStoryboard: 0

[Editor]
DistanceSpacing: 2.2
BeatDivisor: 4
GridSize: 32
TimelineZoom: 2.599999

[Metadata]
Title:Yume Chizu (TV Size)
TitleUnicode:夢地図
Artist:yuikonnu
ArtistUnicode:ゆいこんぬ
Creator:Mnyui
Version:Hallucination
Source:
Tags:40mp 40Meter-P dream map cover utaite edit short version
BeatmapID:2036820
BeatmapSetID:972892

[Difficulty]
HPDrainRate:6
CircleSize:4.5
OverallDifficulty:8.4
ApproachRate:9.6
SliderMultiplier:1.4
SliderTickRate:1

[Events]
//Background and Video events
0,0,"esket.jpg",0,0
//Break Periods
//Storyboard Layer 0 (Background)
//Storyboard Layer 1 (Fail)
//Storyboard Layer 2 (Pass)
//Storyboard Layer 3 (Foreground)
//Storyboard Sound Samples

[TimingPoints]
220,340.909090909091,4,1,0,100,1,0
2606,-100,4,1,0,30,0,0
2862,-100,4,1,0,5,0,0
2947,-100,4,1,0,50,0,0
8316,-100,4,1,0,5,0,0
8401,-90.9090909090909,4,1,0,50,0,0
9765,-83.3333333333333,4,1,0,50,0,0
10021,-83.3333333333333,4,1,0,5,0,0
10106,-83.3333333333333,4,1,0,55,0,0
10362,-83.3333333333333,4,1,0,5,0,0
10447,-83.3333333333333,4,1,0,60,0,0
10702,-83.3333333333333,4,1,0,5,0,0
10788,-83.3333333333333,4,1,0,65,0,0
11043,-83.3333333333333,4,1,0,5,0,0
11129,-83.3333333333333,4,1,0,70,0,0
12577,-83.3333333333333,4,1,0,5,0,0
12663,-83.3333333333333,4,1,0,75,0,0
13856,-76.9230769230769,4,1,0,75,0,0
24765,-100,4,1,0,75,0,0
35163,-133.333333333333,4,1,0,75,0,0
35589,-133.333333333333,4,1,0,5,0,0
35674,-90.9090909090909,4,1,0,75,0,0
43685,-83.3333333333333,4,1,0,75,0,0
46583,-100,4,1,0,75,0,0
52038,-83.3333333333333,4,1,0,75,0,0
57066,-83.3333333333333,4,1,0,5,0,0
57151,-83.3333333333333,4,1,0,50,0,0
57407,-83.3333333333333,4,1,0,5,0,0
57492,-100,4,1,0,75,0,0
68401,-66.6666666666667,4,1,0,75,0,0
73089,-66.6666666666667,4,1,0,5,0,0
73174,-66.6666666666667,4,1,0,80,0,0
75134,-66.6666666666667,4,1,0,5,0,0
75220,-66.6666666666667,4,1,0,80,0,0
75475,-66.6666666666667,4,1,0,5,0,0
75560,-66.6666666666667,4,1,0,80,0,0
75816,-66.6666666666667,4,1,0,5,0,0
75901,-66.6666666666667,4,1,0,80,0,0
79310,-66.6666666666667,4,1,0,90,0,1
87492,-76.9230769230769,4,1,0,80,0,0
87748,-76.9230769230769,4,1,0,5,0,0
87833,-76.9230769230769,4,1,0,70,0,0
88089,-76.9230769230769,4,1,0,5,0,0
88174,-76.9230769230769,4,1,0,60,0,0
88430,-76.9230769230769,4,1,0,5,0,0
88515,-76.9230769230769,4,1,0,50,0,0
88771,-76.9230769230769,4,1,0,5,0,0
88856,-76.9230769230769,4,1,0,60,0,0
90305,-76.9230769230769,4,1,0,5,0,0
90390,-76.9230769230769,4,1,0,60,0,0
90816,-76.9230769230769,4,1,0,5,0,0
90901,-76.9230769230769,4,1,0,50,0,0
91157,-76.9230769230769,4,1,0,5,0,0
91242,-76.9230769230769,4,1,0,50,0,0
91583,-76.9230769230769,4,1,0,50,0,0
91839,-76.9230769230769,4,1,0,5,0,0
91924,-76.9230769230769,4,1,0,50,0,0
92180,-76.9230769230769,4,1,0,5,0,0
92265,-76.9230769230769,4,1,0,50,0,0
93032,-76.9230769230769,4,1,0,5,0,0
93117,-76.9230769230769,4,1,0,50,0,0
93543,-76.9230769230769,4,1,0,5,0,0
93629,-76.9230769230769,4,1,0,50,0,0
93884,-76.9230769230769,4,1,0,5,0,0
93970,-76.9230769230769,4,1,0,50,0,0
94225,-76.9230769230769,4,1,0,5,0,0
94310,-76.9230769230769,4,1,0,50,0,0
94566,-76.9230769230769,4,1,0,5,0,0
94651,-76.9230769230769,4,1,0,50,0,0
94907,-76.9230769230769,4,1,0,5,0,0
94992,-76.9230769230769,4,1,0,50,0,0
98231,-83.3333333333333,4,1,0,50,0,0
99595,-333.333333333333,4,1,0,50,0,0
100106,-333.333333333333,4,1,0,5,0,0

[Colours]
Combo1 : 0,128,192
Combo2 : 255,255,128
Combo3 : 255,255,0
Combo4 : 255,128,64
Combo5 : 255,128,0
Combo6 : 255,128,128
Combo7 : 255,0,0

[HitObjects]
247,51,2606,6,0,P|307:49|375:38,1,105
188,118,2947,2,0,B|131:110|71:134|71:134|99:103,1,140
153,176,3458,2,0,B|222:158|270:192|270:192|270:161,1,140
210,81,3969,1,0,0:0:0:0:
203,242,4140,2,0,L|200:317,1,70
88,167,4481,1,0,0:0:0:0:
150,126,4651,1,0,0:0:0:0:
385,56,4992,6,0,P|348:56|287:77,1,70,0|0,0:3|0:3,0:3:0:0:
430,114,5333,2,0,P|465:124|530:120,1,70
347,264,5674,2,0,P|358:194|362:125,1,140
211,268,6185,2,0,P|211:326|262:297,1,140
324,197,6697,1,0,0:0:0:0:
362,282,6868,2,0,P|392:285|437:285,1,70
269,277,7209,1,0,0:0:0:0:
270,131,7379,1,0,0:0:0:0:
143,323,7720,5,0,0:0:0:0:
12,314,7890,1,0,0:0:0:0:
183,348,8060,2,0,B|214:337|261:357|299:337,1,105
152,299,8401,2,0,B|205:304|273:291|273:291|236:319,1,154.000004699707
395,226,8913,2,0,B|359:232|340:216|340:216|307:230|307:230|268:205|219:236,1,154.000004699707
140,213,9424,1,0,0:0:0:0:
268,290,9595,1,0,0:0:0:0:
162,67,9765,2,0,P|105:54|48:116,1,125.999996154785
123,138,10106,2,0,B|135:178|164:190|164:190|207:176|221:135,1,125.999996154785
217,244,10447,2,0,P|135:263|85:223,1,125.999996154785
150,69,10788,2,0,L|161:222,1,125.999996154785
226,320,11130,5,0,0:0:0:0:
392,126,11300,1,0,0:0:0:0:
479,373,11470,1,0,0:0:0:0:
139,170,11641,1,0,0:0:0:0:
475,77,11811,1,0,0:0:0:0:
226,320,11981,1,0,0:0:0:0:
475,174,12152,1,0,0:0:0:0:
143,77,12323,1,0,0:0:0:0:
89,358,12664,5,0,0:0:0:0:
147,73,12834,1,0,0:0:0:0:
226,223,13005,1,0,0:0:0:0:
60,125,13175,5,0,0:0:0:0:
226,314,13346,1,0,0:0:0:0:
396,130,13516,1,0,0:0:0:0:
396,130,13601,1,0,0:0:0:0:
396,130,13686,1,0,3:0:0:0:
89,358,13856,6,0,L|98:266,1,90.9999958343508
60,125,14198,1,0,0:0:0:0:
226,314,14367,6,0,P|279:326|352:311,1,90.9999958343508
479,161,14709,1,0,0:0:0:0:
479,373,14880,1,0,0:0:0:0:
309,174,15049,2,0,L|313:83,1,90.9999958343508
60,222,15391,1,0,0:0:0:0:
151,126,15560,2,0,L|256:132,1,90.9999958343508
396,227,15901,2,0,P|344:212|293:216,1,90.9999958343508
143,271,16242,2,0,P|188:280|248:277,1,90.9999958343508
266,74,16583,6,0,B|233:135|290:182|256:252,1,181.999991668702
139,170,17096,1,0,0:0:0:0:
305,73,17266,1,0,0:0:0:0:
226,320,17436,1,0,0:0:0:0:
60,125,17607,1,0,0:0:0:0:
309,174,17776,6,0,B|377:261|335:357,1,181.999991668702
60,125,18288,2,0,L|51:258,1,90.9999958343508
479,178,18629,2,0,L|488:45,1,90.9999958343508
309,271,18971,1,0,0:0:0:0:
60,125,19140,6,0,B|172:159|138:106|255:137,1,181.999991668702
313,275,19651,2,0,L|215:256,1,90.9999958343508
143,174,19993,1,0,0:0:0:0:
60,319,20164,1,0,0:0:0:0:
60,125,20333,2,0,P|48:82|79:31,1,90.9999958343508
396,325,20674,6,0,P|438:228|398:138,1,181.999991668702
305,73,21186,1,0,0:0:0:0:
143,271,21356,2,0,B|149:192|149:192|137:162|137:162|140:89,1,181.999991668702
60,319,21867,2,0,P|111:348|164:353,1,90.9999958343508
309,271,22209,1,0,0:0:0:0:
309,271,22379,2,0,P|258:300|205:305,1,90.9999958343508
392,126,22721,5,0,0:0:0:0:
396,324,22891,1,0,0:0:0:0:
305,73,23061,1,0,0:0:0:0:
317,370,23231,2,0,P|263:350|195:351,1,90.9999958343508
14,304,23573,5,2,3:0:0:0:
265,165,23743,1,12,0:3:0:0:
8,172,23913,5,2,3:0:0:0:
261,303,24083,1,12,0:3:0:0:
36,39,24253,5,2,3:0:0:0:
255,233,24424,1,0,0:0:0:0:
300,234,24509,1,0,0:0:0:0:
345,235,24594,1,0,0:0:0:0:
391,237,24679,1,0,0:0:0:0:
443,238,24765,6,0,P|455:170|399:113,1,140
251,282,25276,1,0,0:0:0:0:
302,126,25447,1,0,0:0:0:0:
352,282,25617,1,0,0:0:0:0:
220,186,25787,1,0,0:0:0:0:
384,186,25958,1,0,0:0:0:0:
186,243,26129,6,0,P|173:279|186:321,2,70,2|0|0,3:0|0:0|3:0,0:0:0:0:
319,284,26640,2,0,L|222:282,1,70,2|0,0:0|3:0,0:0:0:0:
386,321,26981,2,0,P|395:282|385:243,1,70,2|0,0:0|3:0,0:0:0:0:
337,169,27322,1,4,0:3:0:0:
242,215,27492,5,2,3:0:0:0:
319,284,27663,1,0,0:0:0:0:
282,144,27833,2,0,P|239:138|205:149,1,70,0|0,3:0|0:0,0:0:0:0:
119,276,28174,1,2,3:0:0:0:
83,209,28345,1,0,0:0:0:0:
160,212,28515,1,2,3:0:0:0:
78,340,28685,1,0,0:0:0:0:
155,343,28856,6,0,P|191:352|241:346,1,70,2|0,3:0|0:0,0:0:0:0:
343,312,29197,1,0,3:0:0:0:
216,190,29367,2,0,L|202:259,1,70,2|0,0:0|3:0,0:0:0:0:
114,122,29708,2,0,L|129:202,1,70,2|0,0:0|3:0,0:0:0:0:
152,291,30049,1,4,0:3:0:0:
302,170,30220,6,0,P|257:112|172:114,1,140,2|0,3:0|3:0,0:0:0:0:
109,207,30731,1,0,0:0:0:0:
216,190,30902,1,2,3:0:0:0:
134,321,31072,1,0,0:0:0:0:
241,304,31243,1,2,3:0:0:0:
369,349,31413,6,0,P|327:309|293:304,1,70
419,167,31754,2,0,P|412:109|389:83,1,70
382,262,32095,2,0,P|356:210|325:193,1,70
490,103,32435,2,0,P|503:46|490:14,1,70
318,145,32777,1,4,0:3:0:0:
255,69,32947,2,0,B|202:69|202:69|164:84|164:84|98:82,1,140
222,151,33458,6,0,L|292:151,1,70
383,232,33799,2,0,L|284:232,1,70
159,151,34140,6,0,L|89:151,1,70
437,232,34481,2,0,L|507:232,1,70
232,225,34822,2,0,L|232:155,1,70
172,292,35163,2,0,P|241:313|293:287,1,131.25000500679,6|0,0:3|0:0,0:0:0:0:
344,323,35674,6,0,L|235:331,1,77.0000023498536,6|0,3:2|0:0,0:0:0:0:
141,250,36015,1,0,3:0:0:0:
189,364,36186,1,2,0:0:0:0:
243,240,36356,2,0,B|250:197|238:147,1,77.0000023498536,0|0,3:0|0:0,0:0:0:0:
110,55,36697,1,2,3:0:0:0:
169,191,36867,1,0,0:0:0:0:
212,91,37038,6,0,B|251:84|274:91|274:91|319:85,1,77.0000023498536,2|0,3:0|0:0,0:0:0:0:
393,157,37379,1,0,3:0:0:0:
243,240,37549,2,0,P|248:196|241:133,1,77.0000023498536,2|0,0:0|3:0,0:0:0:0:
336,315,37890,2,0,P|331:271|338:208,1,77.0000023498536,2|0,0:0|3:0,0:0:0:0:
442,110,38231,1,0,0:0:0:0:
416,274,38402,5,2,3:0:0:0:
510,288,38572,1,0,3:0:0:0:
476,199,38742,1,0,0:0:0:0:
365,352,38913,2,0,P|402:366|468:358,2,77.0000023498536,2|0|0,0:0|3:0|0:0,0:0:0:0:
322,260,39424,5,2,3:0:0:0:
261,333,39595,1,0,0:0:0:0:
416,274,39765,1,0,3:0:0:0:
288,171,39935,1,0,0:0:0:0:
322,260,40105,1,0,3:0:0:0:
227,244,40276,2,0,L|128:253,1,77.0000023498536,2|0,0:0|3:0,0:0:0:0:
261,333,40617,2,0,L|168:320,1,77.0000023498536,2|0,0:0|3:0,0:0:0:0:
91,293,40958,1,4,0:3:0:0:
327,361,41129,6,0,P|364:292|332:222,1,154.000004699707,2|0,3:0|3:0,0:0:0:0:
207,89,41640,1,0,0:0:0:0:
205,281,41810,1,0,3:0:0:0:
132,184,41981,1,2,3:0:0:0:
284,184,42151,1,2,3:0:0:0:
108,125,42322,6,0,B|71:116|18:122,1,77.0000023498536,2|0,0:0|3:0,0:0:0:0:
335,183,42663,1,0,3:0:0:0:
81,183,42833,1,0,3:0:0:0:
308,125,43004,6,0,B|345:116|398:122,1,77.0000023498536,2|0,0:0|3:0,0:0:0:0:
216,225,43345,2,0,B|254:237|305:229,1,77.0000023498536,2|0,0:0|3:0,0:0:0:0:
90,348,43686,6,0,P|83:312|90:255,1,83.9999974365235,6|0,0:3|3:0,0:0:0:0:
216,225,44027,1,0,0:0:0:0:
250,116,44197,1,0,3:0:0:0:
138,141,44367,2,0,P|102:148|37:137,1,83.9999974365235,2|0,0:0|3:0,0:0:0:0:
294,225,44708,2,0,P|270:253|214:286,1,83.9999974365235,2|0,0:0|3:0,0:0:0:0:
206,187,45049,2,0,P|174:205|109:217,1,83.9999974365235,2|0,0:0|3:0,0:0:0:0:
393,218,45390,2,0,P|381:252|339:303,1,83.9999974365235,2|0,0:0|3:0,0:0:0:0:
194,348,45731,1,2,3:0:0:0:
317,154,45902,1,4,0:3:0:0:
311,381,46072,1,0,0:0:0:0:
166,135,46242,1,4,0:3:0:0:
430,264,46413,1,8,0:0:0:0:
430,264,46498,1,8,0:0:0:0:
430,264,46583,6,0,B|349:280|376:226|264:243,1,140,6|0,0:0|0:0,0:0:0:0:
184,294,47095,1,0,3:0:0:0:
311,381,47265,2,0,B|318:346|316:287,1,70,8|0,0:0|0:0,0:0:0:0:
408,191,47606,1,4,3:3:0:0:
347,88,47777,1,10,0:0:0:0:
288,192,47947,1,10,0:0:0:0:
227,89,48117,1,10,0:0:0:0:
168,193,48288,2,0,B|149:243|167:296,1,105,4|0,0:3|0:0,0:0:0:0:
260,218,48629,2,0,P|241:243|267:261,1,70,10|0,0:0|0:0,0:0:0:0:
349,295,48970,1,4,3:3:0:0:
469,297,49140,1,4,3:3:0:0:
467,87,49311,6,0,B|413:89|381:73|381:73|326:75,1,140,2|4,0:0|0:3,0:0:0:0:
288,192,49822,1,0,3:0:0:0:
227,89,49992,2,0,L|138:88,1,70,8|0,0:0|0:0,0:0:0:0:
110,244,50333,1,4,3:3:0:0:
30,59,50504,1,10,0:0:0:0:
13,228,50674,5,4,3:3:0:0:
135,55,50845,1,10,0:0:0:0:
204,262,51015,2,0,P|239:265|275:262,1,70,10|8,0:3|3:0,0:0:0:0:
373,331,51356,2,0,P|407:326|443:331,1,70,6|0,3:3|3:3,0:0:0:0:
484,137,51697,1,8,0:0:0:0:
335,258,51867,1,8,0:0:0:0:
288,254,51953,1,8,0:0:0:0:
247,259,52038,2,0,B|151:277|173:206|87:218,1,167.999994873047
217,109,52549,2,0,P|226:151|215:193,1,83.9999974365235,2|0,0:0|3:0,0:0:0:0:
104,292,52890,1,0,3:0:0:0:
274,54,53060,2,0,P|235:29|189:29,1,83.9999974365235,8|0,0:0|0:0,0:0:0:0:
155,236,53401,6,0,P|194:261|240:261,1,83.9999974365235,8|0,0:0|0:0,0:0:0:0:
336,372,53742,1,8,0:0:0:0:
336,362,53913,2,0,L|339:279,1,83.9999974365235,10|0,3:0|3:0,0:0:0:0:
461,38,54254,1,0,3:0:0:0:
461,47,54424,2,0,L|458:130,1,83.9999974365235,10|0,3:0|3:0,0:0:0:0:
344,354,54765,5,8,0:0:0:0:
276,62,54936,1,8,3:0:0:0:
470,271,55106,5,8,0:0:0:0:
121,166,55277,1,8,3:3:0:0:
419,72,55447,5,8,0:0:0:0:
171,363,55617,1,8,3:3:0:0:
251,31,55788,5,8,0:0:0:0:
352,384,55958,1,8,3:3:0:0:
229,0,56129,5,10,3:0:0:0:
87,279,56299,1,10,3:0:0:0:
491,116,56470,1,10,3:0:0:0:
52,82,56810,6,0,L|187:95,1,125.999996154785
263,117,57151,2,0,L|137:103,1,125.999996154785
81,149,57492,6,0,B|158:162|158:162|197:152|197:152|246:214|312:171|312:171|343:191|343:191|413:202,1,350,6|12,3:2|0:3,0:0:0:0:
476,218,58515,1,0,0:0:0:0:
263,119,58685,2,0,B|184:152|158:213|158:213|176:282|258:320,1,280
97,177,59538,2,0,P|89:234|106:259,1,70
194,143,59879,2,0,P|182:86|157:69,1,70,0|0,3:0|0:0,0:0:0:0:
192,254,60220,6,0,B|312:295|431:291|484:93|384:334,1,350
292,184,61242,1,0,0:0:0:0:
415,104,61413,2,0,P|280:80|163:150,1,280
224,246,62265,2,0,L|169:170,1,70
378,221,62606,2,0,L|406:157,1,70
399,336,62947,5,0,0:0:0:0:
391,347,63117,1,0,0:0:0:0:
252,56,63288,5,0,0:0:0:0:
244,67,63458,1,0,0:0:0:0:
118,335,63629,5,0,0:0:0:0:
110,346,63799,1,0,0:0:0:0:
447,153,63970,5,0,0:0:0:0:
439,164,64140,1,0,0:0:0:0:
65,153,64310,5,0,0:0:0:0:
73,164,64480,1,0,0:0:0:0:
249,358,64651,5,0,0:0:0:0:
257,369,64821,1,0,0:0:0:0:
247,25,64992,5,0,0:0:0:0:
255,36,65162,1,0,0:0:0:0:
249,358,65333,5,0,0:0:0:0:
257,369,65503,1,0,0:0:0:0:
427,170,65674,5,0,0:0:0:0:
435,181,65844,1,0,0:0:0:0:
40,186,66015,5,0,0:0:0:0:
48,197,66185,1,0,0:0:0:0:
233,92,66356,2,0,P|273:85|325:99,1,70
412,125,66697,1,0,0:0:0:0:
267,297,66867,2,0,B|258:241|258:241|270:199|270:199|270:138,1,140
186,62,67265,6,0,L|166:77,6,23.3333333333333
359,80,67719,5,8,0:0:0:0:
193,186,67890,1,8,0:0:0:0:
453,183,68060,1,8,0:0:0:0:
448,231,68145,1,8,0:0:0:0:
444,279,68231,1,8,0:0:0:0:
440,319,68316,1,0,3:0:0:0:
397,333,68401,6,0,B|349:310|304:308|240:324|240:324|290:292,1,210.000008010865,6|12,3:2|0:3,0:0:0:0:
392,193,68913,2,0,P|332:184|273:194,1,105.000004005432,0|4,0:0|3:3,0:0:0:0:
133,229,69253,1,12,0:3:0:0:
341,347,69424,1,0,3:0:0:0:
344,80,69594,1,0,3:0:0:0:
172,324,69765,5,4,3:3:0:0:
449,206,69935,1,0,3:0:0:0:
180,66,70106,2,0,B|177:91|188:107|188:107|169:143|175:180,1,105.000004005432,12|0,0:3|0:0,0:0:0:0:
276,296,70447,2,0,B|291:266|291:266|294:153,1,105.000004005432,4|0,3:3|3:0,0:0:0:0:
304,88,70787,1,12,0:3:0:0:
174,272,70958,1,0,0:0:0:0:
316,19,71128,6,0,P|373:66|349:130,1,105.000004005432,4|0,3:3|0:0,0:0:0:0:
370,268,71469,1,12,0:3:0:0:
304,88,71640,1,0,0:0:0:0:
191,234,71810,2,0,B|152:242|111:217|111:217|99:246,1,105.000004005432,4|0,3:3|3:0,0:0:0:0:
16,357,72151,1,12,0:3:0:0:
13,127,72322,1,0,3:0:0:0:
179,340,72492,6,0,B|218:332|259:357|259:357|271:328,1,105.000004005432,4|0,3:0|3:0,0:0:0:0:
101,179,72833,2,0,B|70:108|102:53|102:53|126:70|149:64,1,157.500006008148,12|0,0:3|0:0,0:0:0:0:
179,167,73174,2,0,B|179:210|168:224|151:242|151:242|177:243,1,105.000004005432,4|0,0:3|0:0,0:0:0:0:
343,275,73515,1,12,0:3:0:0:
489,105,73685,6,0,B|462:98|462:98|448:110|448:110|416:85|354:71,1,105.000004005432,0|4,3:1|0:3,0:0:0:0:
232,226,74026,1,0,3:0:0:0:
470,282,74197,2,0,B|478:321|452:353|452:353|482:327|512:329,1,105.000004005432,12|0,0:3|0:0,0:0:0:0:
376,108,74537,1,4,3:3:0:0:
142,341,74708,1,0,0:1:0:0:
358,254,74878,2,0,P|395:299|333:279,1,157.500006008148,12|0,0:3|0:0,0:0:0:0:
306,203,75219,6,0,B|329:170|376:177|376:177|380:143|400:119|389:50,1,157.500006008148,4|0,3:3|0:0,0:0:0:0:
228,89,75560,2,0,B|289:76|321:113|321:113|336:48,1,157.500006008148,12|0,0:3|0:0,0:0:0:0:
181,291,75901,1,4,3:3:0:0:
260,159,76072,1,0,3:0:0:0:
363,366,76242,1,12,0:3:0:0:
120,149,76412,1,0,3:1:0:0:
349,303,76583,5,4,0:3:0:0:
261,26,76753,1,0,3:0:0:0:
181,291,76924,2,0,B|139:303|101:285|60:307,1,105.000004005432,12|0,0:3|0:0,0:0:0:0:
393,124,77265,1,4,3:3:0:0:
94,108,77435,1,2,3:1:0:0:
258,343,77606,1,12,0:3:0:0:
366,56,77776,6,0,B|409:49|409:49|437:61|437:61|500:63,1,105.000004005432,2|4,3:1|0:3,0:0:0:0:
308,245,78117,1,10,0:1:0:0:
227,74,78287,1,12,0:3:0:0:
119,229,78458,1,12,0:3:0:0:
496,261,78629,1,12,0:3:0:0:
388,106,78799,5,12,0:3:0:0:
328,342,78970,1,0,0:0:0:0:
275,342,79055,1,0,0:0:0:0:
225,335,79140,1,0,0:0:0:0:
177,322,79225,1,0,0:0:0:0:
125,323,79310,5,0,0:0:0:0:
204,190,79481,1,0,3:0:0:0:
49,188,79651,5,0,3:0:0:0:
279,325,79822,1,0,3:0:0:0:
282,57,79992,5,0,3:0:0:0:
434,327,80163,1,0,0:0:0:0:
125,323,80333,5,0,3:0:0:0:
282,57,80504,1,0,0:0:0:0:
279,325,80674,5,0,0:0:0:0:
355,190,80845,1,0,3:0:0:0:
125,56,81015,5,0,3:0:0:0:
510,192,81185,1,0,0:0:0:0:
125,328,81356,5,0,3:0:0:0:
434,56,81526,1,0,3:0:0:0:
434,327,81697,5,0,0:0:0:0:
282,57,81867,1,0,0:0:0:0:
279,325,82037,5,0,0:0:0:0:
81,128,82208,1,0,0:0:0:0:
294,251,82379,5,0,0:0:0:0:
81,374,82549,1,0,0:0:0:0:
81,128,82720,5,0,0:0:0:0:
434,327,82890,1,0,0:0:0:0:
434,81,83060,5,0,0:0:0:0:
467,264,83231,1,0,0:0:0:0:
383,44,83401,5,0,0:0:0:0:
486,199,83572,1,0,0:0:0:0:
327,22,83742,5,0,0:0:0:0:
479,133,83913,1,0,0:0:0:0:
264,18,84083,5,0,0:0:0:0:
444,86,84254,1,0,0:0:0:0:
199,43,84424,1,0,0:0:0:0:
172,53,84509,1,8,0:0:0:0:
151,64,84594,1,8,3:3:0:0:
52,311,84765,5,12,0:0:0:0:
137,124,84935,1,0,3:0:0:0:
161,342,85106,5,8,0:0:0:0:
248,90,85276,1,0,3:0:0:0:
282,369,85447,5,8,0:0:0:0:
356,39,85617,1,0,3:0:0:0:
398,374,85787,5,8,0:0:0:0:
246,42,85958,1,0,3:0:0:0:
417,98,86128,5,8,0:0:0:0:
144,252,86299,1,0,3:0:0:0:
341,80,86469,5,8,0:0:0:0:
247,347,86640,1,0,3:0:0:0:
406,234,86810,5,8,0:0:0:0:
88,118,86981,1,8,0:0:0:0:
283,359,87151,1,8,0:0:0:0:
171,16,87322,1,8,0:0:0:0:
168,19,87407,1,8,0:0:0:0:
171,16,87492,6,0,B|213:29|213:29|243:66|243:66|312:84,1,136.499993751526
408,132,87833,2,0,B|399:169|404:201|404:201|439:195|465:175,1,136.499993751526,0|0,3:0|3:0,0:0:0:0:
361,70,88174,2,0,B|432:37|489:103,1,136.499993751526,4|0,0:1|0:0,0:0:0:0:
447,269,88515,2,0,B|376:302|327:228,1,136.499993751526,4|0,0:1|0:0,0:0:0:0:
308,151,88856,5,4,0:0:0:0:
256,85,89026,2,0,B|210:31|148:60,2,90.9999958343508,4|0|0,0:1|0:0|0:0,0:0:0:0:
385,130,89538,2,0,B|394:169|375:199|375:199|389:237|389:237|364:269|380:321,1,181.999991668702,4|0,0:1|0:0,0:0:0:0:
88,338,90049,6,0,B|86:276|86:276|99:249|99:249|99:175,1,136.499993751526
94,135,90390,1,8,0:0:0:0:
420,338,90560,6,0,B|422:276|422:276|409:249|409:249|409:175,1,136.499993751526
355,151,90901,2,0,B|378:125|433:122|464:146|464:146|433:108|432:108,1,136.499993751526
352,297,91242,2,0,B|305:283|248:309|248:309|212:292,1,136.499993751526,8|0,0:0|0:0,0:0:0:0:
321,364,91583,6,0,B|349:375|396:367|396:367|421:336|429:288,1,136.499993751526,4|0,3:3|3:0,0:0:0:0:
434,242,91924,2,0,B|398:241|371:253|353:295|353:295|336:265,1,136.499993751526,12|0,0:3|0:0,0:0:0:0:
180,136,92265,2,0,B|133:136|110:186,1,90.9999958343508,4|0,3:3|3:0,0:0:0:0:
35,350,92606,1,12,0:3:0:0:
40,228,92776,6,0,P|90:282|155:282,1,136.499993751526,4|0,0:0|0:0,0:0:0:0:
119,211,93117,1,8,0:0:0:0:
117,86,93288,6,0,P|183:91|226:142,1,136.499993751526,4|0,0:0|0:0,0:0:0:0:
44,122,93628,2,0,B|20:62|68:26|68:26|18:28,1,136.499993751526,0|0,3:0|3:0,0:0:0:0:
98,200,93970,2,0,P|136:154|109:79,1,136.499993751526,8|0,3:0|3:0,0:0:0:0:
216,357,94310,2,0,P|177:311|205:236,1,136.499993751526,8|0,3:0|3:0,0:0:0:0:
350,221,94651,2,0,B|359:270|292:290|292:290|225:288,1,136.499993751526,12|0,0:3|0:0,0:0:0:0:
426,224,94992,2,0,B|443:165|410:169|429:106,1,90.9999958343508,4|0,3:3|3:0,0:0:0:0:
429,318,95333,1,12,0:3:0:0:
74,361,95504,2,0,B|59:314|59:314|68:284|68:284|48:245|77:211|74:166,1,181.999991668702
189,60,96015,5,8,0:0:0:0:
118,220,96185,1,8,0:0:0:0:
263,45,96356,5,8,0:0:0:0:
185,295,96526,1,8,0:0:0:0:
339,26,96697,5,10,0:1:0:0:
244,355,96867,1,8,0:0:0:0:
410,92,97037,5,8,0:0:0:0:
114,274,97208,1,10,0:1:0:0:
442,253,97378,5,8,0:0:0:0:
156,50,97549,1,10,0:1:0:0:
337,333,97720,5,0,0:0:0:0:
292,325,97805,1,0,0:0:0:0:
247,333,97890,1,0,0:0:0:0:
203,345,97975,1,0,0:0:0:0:
158,341,98060,1,0,0:0:0:0:
51,111,98231,6,0,B|84:74|86:23|86:23|102:75|86:106|86:106|100:148|68:173|68:173|36:203|25:244|52:282|91:298|142:288|158:225|138:180,1,503.999984619141
407,48,99424,5,14,0:0:0:0:
407,48,99595,2,0,L|409:113,1,62.9999980773926,14|0,0:1|0:0,0:0:0:0:
