osu file format v14

[General]
AudioFilename: audio.mp3
AudioLeadIn: 0
PreviewTime: 56691
Countdown: 0
SampleSet: Normal
StackLeniency: 0.4
Mode: 1
LetterboxInBreaks: 0
WidescreenStoryboard: 1

[Editor]
Bookmarks: 2572,11095,13822,24731,35640,46549,52004,56436,57458,68367,79276,87458,90015,98197,99561
DistanceSpacing: 2.2
BeatDivisor: 4
GridSize: 32
TimelineZoom: 1.3

[Metadata]
Title:Yume Chizu
TitleUnicode:夢地図
Artist:yuikonnu
ArtistUnicode:ゆいこんぬ
Creator:Hivie
Version:Dream Oni
Source:
Tags:40mp 40Meter-P cover utaite japanese pop cut version Novelty vocaloid Gumi
BeatmapID:2273052
BeatmapSetID:1087013

[Difficulty]
HPDrainRate:6
CircleSize:3
OverallDifficulty:6
ApproachRate:9
SliderMultiplier:1.4
SliderTickRate:1

[Events]
//Background and Video events
0,0,"bg.png",0,-134
//Break Periods
//Storyboard Layer 0 (Background)
//Storyboard Layer 1 (Fail)
//Storyboard Layer 2 (Pass)
//Storyboard Layer 3 (Foreground)
//Storyboard Layer 4 (Overlay)
//Storyboard Sound Samples

[TimingPoints]
186,340.909090909091,4,1,0,75,1,0
186,-133.333333333333,4,1,0,75,0,0
11095,-125,4,1,0,80,0,0
13822,-111.111111111111,4,1,0,90,0,0
25072,-125,4,1,0,75,0,0
35640,-111.111111111111,4,1,0,80,0,0
46549,-111.111111111111,4,1,0,85,0,0
51663,-108.695652173913,4,1,0,85,0,0
51833,-104.166666666667,4,1,0,85,0,0
51918,-102.040816326531,4,1,0,85,0,0
52004,-100,4,1,0,85,0,0
56776,-117.647058823529,4,1,0,70,0,0
57117,-105.263157894737,4,1,0,70,0,0
57458,-90.9090909090909,4,1,0,100,0,1
78595,-100,4,1,0,100,0,0
78936,-98.0392156862745,4,1,0,100,0,0
79021,-96.1538461538461,4,1,0,100,0,0
79106,-94.3396226415094,4,1,0,100,0,0
79191,-92.5925925925926,4,1,0,100,0,0
79276,-90.9090909090909,4,1,0,100,0,1
87117,-92.5925925925926,4,1,0,100,0,1
87203,-94.3396226415094,4,1,0,100,0,1
87288,-96.1538461538461,4,1,0,100,0,1
87373,-98.0392156862745,4,1,0,100,0,1
87458,-100,4,1,0,80,0,0
90015,-100,4,1,0,85,0,0
97004,-100,4,1,0,90,0,0
98197,-100,4,1,0,85,0,0
99390,-100,4,1,0,80,0,0

[Colours]
Combo1 : 157,208,227
Combo2 : 255,202,91
Combo3 : 11,168,253
Combo4 : 245,128,56

[HitObjects]
256,192,2572,5,0,0:0:0:0:
256,192,2913,1,12,0:0:0:0:
256,192,3424,1,8,0:0:0:0:
256,192,3936,1,0,0:0:0:0:
256,192,4106,5,0,0:0:0:0:
256,192,4447,5,8,0:0:0:0:
256,192,4617,5,0,0:0:0:0:
256,192,4958,5,8,0:0:0:0:
256,192,5299,5,0,0:0:0:0:
256,192,5640,5,12,0:0:0:0:
256,192,6151,5,0,0:0:0:0:
256,192,6663,5,8,0:0:0:0:
256,192,6833,5,8,0:0:0:0:
256,192,7174,5,0,0:0:0:0:
256,192,7345,5,8,0:0:0:0:
256,192,7686,5,8,0:0:0:0:
256,192,7856,5,8,0:0:0:0:
256,192,8026,5,0,0:0:0:0:
256,192,8367,5,12,0:0:0:0:
256,192,8879,5,0,0:0:0:0:
256,192,9390,5,0,0:0:0:0:
256,192,9561,5,8,0:0:0:0:
256,192,9731,5,12,0:0:0:0:
256,192,10072,5,8,0:0:0:0:
256,192,10413,5,0,0:0:0:0:
256,192,10754,5,8,0:0:0:0:
256,192,11095,5,8,0:0:0:0:
256,192,11265,5,0,0:0:0:0:
256,192,11436,5,0,0:0:0:0:
256,192,11606,5,8,0:0:0:0:
256,192,11776,5,0,0:0:0:0:
256,192,11947,5,0,0:0:0:0:
256,192,12117,5,8,0:0:0:0:
256,192,12288,5,12,0:0:0:0:
256,192,12629,5,8,0:0:0:0:
256,192,12714,5,8,0:0:0:0:
256,192,12799,5,0,0:0:0:0:
256,192,12970,5,0,0:0:0:0:
256,192,13140,5,8,0:0:0:0:
256,192,13311,5,0,0:0:0:0:
256,192,13481,5,8,0:0:0:0:
256,192,13566,5,8,0:0:0:0:
256,192,13651,5,0,0:0:0:0:
256,192,13822,5,12,0:0:0:0:
256,192,14163,1,0,0:0:0:0:
256,192,14333,1,8,0:0:0:0:
256,192,14504,1,0,0:0:0:0:
256,192,14674,1,0,0:0:0:0:
256,192,14845,1,8,0:0:0:0:
256,192,15015,1,8,0:0:0:0:
256,192,15186,1,0,0:0:0:0:
256,192,15356,1,8,0:0:0:0:
256,192,15526,1,0,0:0:0:0:
256,192,15867,1,8,0:0:0:0:
256,192,16038,1,0,0:0:0:0:
256,192,16208,1,8,0:0:0:0:
256,192,16379,1,0,0:0:0:0:
256,192,16464,1,0,0:0:0:0:
256,192,16549,1,8,0:0:0:0:
256,192,16720,1,0,0:0:0:0:
256,192,16890,1,0,0:0:0:0:
256,192,17061,1,8,0:0:0:0:
256,192,17231,1,0,0:0:0:0:
256,192,17401,1,0,0:0:0:0:
256,192,17572,1,8,0:0:0:0:
256,192,17742,1,8,0:0:0:0:
256,192,17913,1,0,0:0:0:0:
256,192,18254,1,8,0:0:0:0:
256,192,18424,1,0,0:0:0:0:
256,192,18595,1,8,0:0:0:0:
256,192,18765,1,0,0:0:0:0:
256,192,18936,1,8,0:0:0:0:
256,192,19106,1,8,0:0:0:0:
256,192,19191,1,8,0:0:0:0:
256,192,19276,1,0,0:0:0:0:
256,192,19447,1,8,0:0:0:0:
256,192,19617,1,0,0:0:0:0:
256,192,19958,1,0,0:0:0:0:
256,192,20129,1,0,0:0:0:0:
256,192,20299,1,8,0:0:0:0:
256,192,20470,1,0,0:0:0:0:
256,192,20640,1,8,0:0:0:0:
256,192,20981,1,0,0:0:0:0:
256,192,21151,1,0,0:0:0:0:
256,192,21322,1,8,0:0:0:0:
256,192,21492,1,0,0:0:0:0:
256,192,21663,1,0,0:0:0:0:
256,192,21748,1,0,0:0:0:0:
256,192,21833,1,8,0:0:0:0:
256,192,22174,1,0,0:0:0:0:
256,192,22345,1,8,0:0:0:0:
256,192,22515,1,0,0:0:0:0:
256,192,22686,1,0,0:0:0:0:
256,192,22856,1,8,0:0:0:0:
256,192,23026,1,0,0:0:0:0:
256,192,23197,1,8,0:0:0:0:
256,192,23282,1,0,0:0:0:0:
256,192,23367,1,8,0:0:0:0:
256,192,23538,1,0,0:0:0:0:
256,192,23708,1,8,0:0:0:0:
256,192,23879,1,0,0:0:0:0:
256,192,24049,1,8,0:0:0:0:
256,192,24220,1,0,0:0:0:0:
256,192,24390,1,8,0:0:0:0:
256,192,24475,1,8,0:0:0:0:
256,192,24561,1,0,0:0:0:0:
256,192,24731,1,12,0:0:0:0:
256,192,25072,1,0,0:0:0:0:
256,192,25242,1,0,0:0:0:0:
256,192,25413,1,8,0:0:0:0:
256,192,25583,1,0,0:0:0:0:
256,192,25754,1,8,0:0:0:0:
256,192,25924,1,8,0:0:0:0:
256,192,26265,1,8,0:0:0:0:
256,192,26436,1,0,0:0:0:0:
256,192,26606,1,8,0:0:0:0:
256,192,26947,1,8,0:0:0:0:
256,192,27288,1,0,0:0:0:0:
256,192,27458,1,8,0:0:0:0:
256,192,27629,1,0,0:0:0:0:
256,192,27799,1,8,0:0:0:0:
256,192,27970,1,8,0:0:0:0:
256,192,28140,1,8,0:0:0:0:
256,192,28311,1,0,0:0:0:0:
256,192,28481,1,8,0:0:0:0:
256,192,28651,1,0,0:0:0:0:
256,192,28992,1,0,0:0:0:0:
256,192,29163,1,0,0:0:0:0:
256,192,29333,1,8,0:0:0:0:
256,192,29674,1,8,0:0:0:0:
256,192,30015,1,8,0:0:0:0:
256,192,30186,1,8,0:0:0:0:
256,192,30526,1,8,0:0:0:0:
256,192,30697,1,0,0:0:0:0:
256,192,30867,1,0,0:0:0:0:
256,192,31038,1,8,0:0:0:0:
256,192,31208,1,8,0:0:0:0:
256,192,31379,1,0,0:0:0:0:
256,192,31720,1,8,0:0:0:0:
256,192,31890,1,0,0:0:0:0:
256,192,32061,1,8,0:0:0:0:
256,192,32231,1,0,0:0:0:0:
256,192,32401,1,8,0:0:0:0:
256,192,32572,1,0,0:0:0:0:
256,192,32742,1,8,0:0:0:0:
256,192,32913,1,8,0:0:0:0:
256,192,33424,1,0,0:0:0:0:
256,192,33595,1,0,0:0:0:0:
256,192,33765,1,8,0:0:0:0:
256,192,33936,1,0,0:0:0:0:
256,192,34106,1,8,0:0:0:0:
256,192,34276,1,0,0:0:0:0:
256,192,34447,1,0,0:0:0:0:
256,192,34617,1,0,0:0:0:0:
256,192,34788,1,8,0:0:0:0:
256,192,34958,1,0,0:0:0:0:
256,192,35129,1,8,0:0:0:0:
256,192,35299,1,8,0:0:0:0:
256,192,35384,1,8,0:0:0:0:
256,192,35470,1,0,0:0:0:0:
256,192,35640,1,12,0:0:0:0:
256,192,35981,1,8,0:0:0:0:
256,192,36151,1,0,0:0:0:0:
256,192,36322,1,8,0:0:0:0:
256,192,36492,1,0,0:0:0:0:
256,192,36663,1,8,0:0:0:0:
256,192,36833,1,0,0:0:0:0:
256,192,36918,1,0,0:0:0:0:
256,192,37004,1,8,0:0:0:0:
256,192,37174,1,0,0:0:0:0:
256,192,37345,1,0,0:0:0:0:
256,192,37515,1,8,0:0:0:0:
256,192,37686,1,0,0:0:0:0:
256,192,37856,1,8,0:0:0:0:
256,192,38197,1,0,0:0:0:0:
256,192,38282,1,0,0:0:0:0:
256,192,38367,1,8,0:0:0:0:
256,192,38538,1,0,0:0:0:0:
256,192,38708,1,8,0:0:0:0:
256,192,38879,1,0,0:0:0:0:
256,192,39049,1,8,0:0:0:0:
256,192,39220,1,8,0:0:0:0:
256,192,39390,1,8,0:0:0:0:
256,192,39561,1,0,0:0:0:0:
256,192,39646,1,0,0:0:0:0:
256,192,39731,1,8,0:0:0:0:
256,192,39901,1,0,0:0:0:0:
256,192,40072,1,0,0:0:0:0:
256,192,40242,1,8,0:0:0:0:
256,192,40413,1,0,0:0:0:0:
256,192,40583,1,8,0:0:0:0:
256,192,40924,1,0,0:0:0:0:
256,192,41009,1,0,0:0:0:0:
256,192,41095,1,8,0:0:0:0:
256,192,41265,1,0,0:0:0:0:
256,192,41436,1,8,0:0:0:0:
256,192,41606,1,0,0:0:0:0:
256,192,41776,1,8,0:0:0:0:
256,192,41947,1,0,0:0:0:0:
256,192,42117,1,8,0:0:0:0:
256,192,42288,1,8,0:0:0:0:
256,192,42373,1,0,0:0:0:0:
256,192,42458,1,8,0:0:0:0:
256,192,42799,1,8,0:0:0:0:
256,192,42970,1,8,0:0:0:0:
256,192,43140,1,8,0:0:0:0:
256,192,43311,1,0,0:0:0:0:
256,192,43481,1,0,0:0:0:0:
256,192,43651,1,8,0:0:0:0:
256,192,43822,1,0,0:0:0:0:
256,192,44163,1,0,0:0:0:0:
256,192,44333,1,8,0:0:0:0:
256,192,44504,1,0,0:0:0:0:
256,192,44674,1,8,0:0:0:0:
256,192,44845,1,0,0:0:0:0:
256,192,45015,1,8,0:0:0:0:
256,192,45356,1,0,0:0:0:0:
256,192,45441,1,0,0:0:0:0:
256,192,45526,1,8,0:0:0:0:
256,192,45697,1,0,0:0:0:0:
256,192,45867,1,0,0:0:0:0:
256,192,46038,1,8,0:0:0:0:
256,192,46208,1,8,0:0:0:0:
256,192,46378,1,0,0:0:0:0:
256,192,46464,1,0,0:0:0:0:
256,192,46549,1,12,0:0:0:0:
256,192,46890,1,0,0:0:0:0:
256,192,47061,1,0,0:0:0:0:
256,192,47231,1,8,0:0:0:0:
256,192,47401,1,0,0:0:0:0:
256,192,47572,1,8,0:0:0:0:
256,192,47742,1,0,0:0:0:0:
256,192,47913,1,8,0:0:0:0:
256,192,48083,1,0,0:0:0:0:
256,192,48254,1,0,0:0:0:0:
256,192,48595,1,0,0:0:0:0:
256,192,48765,1,0,0:0:0:0:
256,192,48936,1,8,0:0:0:0:
256,192,49106,1,0,0:0:0:0:
256,192,49276,1,8,0:0:0:0:
256,192,49617,1,0,0:0:0:0:
256,192,49788,1,0,0:0:0:0:
256,192,49958,1,8,0:0:0:0:
256,192,50129,1,0,0:0:0:0:
256,192,50299,1,0,0:0:0:0:
256,192,50470,1,8,0:0:0:0:
256,192,50640,1,8,0:0:0:0:
256,192,50811,1,8,0:0:0:0:
256,192,50981,1,0,0:0:0:0:
256,192,51322,1,8,0:0:0:0:
256,192,51492,1,0,0:0:0:0:
256,192,51663,1,8,0:0:0:0:
256,192,51833,1,8,0:0:0:0:
256,192,51918,1,8,0:0:0:0:
256,192,52004,1,4,0:0:0:0:
256,192,52345,1,0,0:0:0:0:
256,192,52515,1,8,0:0:0:0:
256,192,52686,1,0,0:0:0:0:
256,192,52856,1,0,0:0:0:0:
256,192,53026,1,8,0:0:0:0:
256,192,53197,1,0,0:0:0:0:
256,192,53282,1,0,0:0:0:0:
256,192,53367,1,8,0:0:0:0:
256,192,53538,1,0,0:0:0:0:
256,192,53708,1,8,0:0:0:0:
256,192,53793,1,0,0:0:0:0:
256,192,53879,1,8,0:0:0:0:
256,192,54049,1,0,0:0:0:0:
256,192,54220,1,0,0:0:0:0:
256,192,54390,1,8,0:0:0:0:
256,192,54561,1,0,0:0:0:0:
256,192,54731,1,8,0:0:0:0:
256,192,54901,1,0,0:0:0:0:
256,192,54987,1,0,0:0:0:0:
256,192,55072,1,8,0:0:0:0:
256,192,55242,1,0,0:0:0:0:
256,192,55328,1,0,0:0:0:0:
256,192,55413,1,8,0:0:0:0:
256,192,55583,1,0,0:0:0:0:
256,192,55668,1,0,0:0:0:0:
256,192,55754,1,8,0:0:0:0:
256,192,55924,1,0,0:0:0:0:
256,192,56095,1,12,0:0:0:0:
256,192,56265,1,12,0:0:0:0:
256,192,56436,1,12,0:0:0:0:
256,192,56776,1,0,0:0:0:0:
256,192,57117,1,0,0:0:0:0:
256,192,57458,5,6,0:0:0:0:
256,192,57799,1,8,0:0:0:0:
256,192,57970,1,0,0:0:0:0:
256,192,58055,1,0,0:0:0:0:
256,192,58140,1,0,0:0:0:0:
256,192,58311,1,0,0:0:0:0:
256,192,58481,1,8,0:0:0:0:
256,192,58651,1,8,0:0:0:0:
256,192,58992,1,0,0:0:0:0:
256,192,59163,1,8,0:0:0:0:
256,192,59333,1,0,0:0:0:0:
256,192,59504,1,8,0:0:0:0:
256,192,59674,1,8,0:0:0:0:
256,192,59845,1,0,0:0:0:0:
256,192,60015,1,0,0:0:0:0:
256,192,60100,1,0,0:0:0:0:
256,192,60186,1,8,0:0:0:0:
256,192,60526,1,8,0:0:0:0:
256,192,60697,1,0,0:0:0:0:
256,192,60782,1,0,0:0:0:0:
256,192,60867,1,8,0:0:0:0:
256,192,61038,1,0,0:0:0:0:
256,192,61208,1,8,0:0:0:0:
256,192,61379,1,8,0:0:0:0:
256,192,61720,1,8,0:0:0:0:
256,192,61890,1,8,0:0:0:0:
256,192,62061,1,0,0:0:0:0:
256,192,62231,1,8,0:0:0:0:
256,192,62401,1,0,0:0:0:0:
256,192,62572,1,8,0:0:0:0:
256,192,62742,1,0,0:0:0:0:
256,192,62828,1,0,0:0:0:0:
256,192,62913,1,8,0:0:0:0:
256,192,63254,1,8,0:0:0:0:
256,192,63424,1,0,0:0:0:0:
256,192,63595,1,0,0:0:0:0:
256,192,63765,1,0,0:0:0:0:
256,192,63936,1,8,0:0:0:0:
256,192,64106,1,8,0:0:0:0:
256,192,64447,1,0,0:0:0:0:
256,192,64617,1,8,0:0:0:0:
256,192,64788,1,0,0:0:0:0:
256,192,64873,1,0,0:0:0:0:
256,192,64958,1,8,0:0:0:0:
256,192,65129,1,0,0:0:0:0:
256,192,65299,1,8,0:0:0:0:
256,192,65470,1,0,0:0:0:0:
256,192,65555,1,0,0:0:0:0:
256,192,65640,1,8,0:0:0:0:
256,192,65811,1,0,0:0:0:0:
256,192,65981,1,8,0:0:0:0:
256,192,66151,1,0,0:0:0:0:
256,192,66322,1,8,0:0:0:0:
256,192,66492,1,0,0:0:0:0:
256,192,66663,1,0,0:0:0:0:
256,192,66748,1,0,0:0:0:0:
256,192,66833,1,8,0:0:0:0:
256,192,67174,1,8,0:0:0:0:
256,192,67345,1,0,0:0:0:0:
256,192,67515,1,0,0:0:0:0:
256,192,67686,1,8,0:0:0:0:
256,192,67856,1,0,0:0:0:0:
256,192,68026,1,8,0:0:0:0:
256,192,68112,1,0,0:0:0:0:
256,192,68197,1,0,0:0:0:0:
256,192,68367,5,12,0:0:0:0:
256,192,68708,1,8,0:0:0:0:
256,192,68879,1,0,0:0:0:0:
256,192,68964,1,0,0:0:0:0:
256,192,69049,1,8,0:0:0:0:
256,192,69220,1,0,0:0:0:0:
256,192,69390,1,8,0:0:0:0:
256,192,69561,1,8,0:0:0:0:
256,192,69901,1,8,0:0:0:0:
256,192,70072,1,0,0:0:0:0:
256,192,70242,1,0,0:0:0:0:
256,192,70413,1,8,0:0:0:0:
256,192,70583,1,0,0:0:0:0:
256,192,70754,1,0,0:0:0:0:
256,192,70924,1,8,0:0:0:0:
256,192,71009,1,0,0:0:0:0:
256,192,71095,1,8,0:0:0:0:
256,192,71436,1,0,0:0:0:0:
256,192,71606,1,0,0:0:0:0:
256,192,71776,1,8,0:0:0:0:
256,192,71947,1,0,0:0:0:0:
256,192,72117,1,8,0:0:0:0:
256,192,72288,1,8,0:0:0:0:
256,192,72629,1,0,0:0:0:0:
256,192,72799,1,8,0:0:0:0:
256,192,72970,1,0,0:0:0:0:
256,192,73055,1,0,0:0:0:0:
256,192,73140,1,8,0:0:0:0:
256,192,73311,1,0,0:0:0:0:
256,192,73481,1,8,0:0:0:0:
256,192,73651,1,0,0:0:0:0:
256,192,73992,1,8,0:0:0:0:
256,192,74163,1,8,0:0:0:0:
256,192,74333,1,0,0:0:0:0:
256,192,74504,1,8,0:0:0:0:
256,192,74674,1,0,0:0:0:0:
256,192,74845,1,8,0:0:0:0:
256,192,75015,1,8,0:0:0:0:
256,192,75100,1,0,0:0:0:0:
256,192,75186,1,8,0:0:0:0:
256,192,75356,1,0,0:0:0:0:
256,192,75526,1,8,0:0:0:0:
256,192,75867,1,8,0:0:0:0:
256,192,76038,1,0,0:0:0:0:
256,192,76208,1,0,0:0:0:0:
256,192,76379,1,8,0:0:0:0:
256,192,76464,1,0,0:0:0:0:
256,192,76549,1,8,0:0:0:0:
256,192,76720,1,0,0:0:0:0:
256,192,76890,1,0,0:0:0:0:
256,192,77061,1,8,0:0:0:0:
256,192,77231,1,0,0:0:0:0:
256,192,77401,1,8,0:0:0:0:
256,192,77742,1,8,0:0:0:0:
256,192,77828,1,8,0:0:0:0:
256,192,77913,1,8,0:0:0:0:
256,192,78083,1,0,0:0:0:0:
256,192,78254,1,0,0:0:0:0:
256,192,78595,1,8,0:0:0:0:
256,192,78765,1,0,0:0:0:0:
256,192,78936,1,8,0:0:0:0:
256,192,79021,1,8,0:0:0:0:
256,192,79106,1,0,0:0:0:0:
256,192,79191,1,0,0:0:0:0:
136,56,79276,5,8,0:0:0:0:
221,338,79447,1,0,0:0:0:0:
300,66,79617,5,8,0:0:0:0:
37,198,79788,1,0,0:0:0:0:
383,91,79958,5,8,0:0:0:0:
120,223,80129,1,0,0:0:0:0:
401,254,80299,5,8,0:0:0:0:
225,19,80470,1,0,0:0:0:0:
225,19,80555,1,8,0:0:0:0:
225,19,80640,1,8,0:0:0:0:
179,317,80811,5,0,0:0:0:0:
383,91,80981,1,8,0:0:0:0:
81,97,81322,1,8,0:0:0:0:
81,97,81492,1,0,0:0:0:0:
81,97,81578,1,0,0:0:0:0:
81,97,81663,1,8,0:0:0:0:
81,97,81833,1,0,0:0:0:0:
81,97,82004,5,8,0:0:0:0:
386,9,82174,1,0,0:0:0:0:
325,301,82345,5,8,0:0:0:0:
186,16,82515,1,0,0:0:0:0:
444,151,82686,5,8,0:0:0:0:
139,238,82856,1,0,0:0:0:0:
386,9,83026,1,8,0:0:0:0:
386,10,83197,5,8,0:0:0:0:
386,9,83282,1,0,0:0:0:0:
386,9,83367,1,8,0:0:0:0:
139,239,83538,5,0,0:0:0:0:
425,298,83708,1,8,0:0:0:0:
238,101,84049,1,8,0:0:0:0:
453,322,84220,1,0,0:0:0:0:
139,238,84390,1,8,0:0:0:0:
139,239,84475,1,8,0:0:0:0:
139,239,84561,1,0,0:0:0:0:
139,238,84646,1,0,0:0:0:0:
139,238,84731,1,8,0:0:0:0:
298,4,84901,5,0,0:0:0:0:
66,42,85072,1,8,0:0:0:0:
357,211,85242,5,0,0:0:0:0:
200,8,85413,1,8,0:0:0:0:
84,323,85583,5,0,0:0:0:0:
401,295,85754,1,8,0:0:0:0:
52,232,85924,1,0,0:0:0:0:
52,232,86009,1,0,0:0:0:0:
52,232,86095,1,8,0:0:0:0:
386,113,86265,1,0,0:0:0:0:
84,323,86436,1,8,0:0:0:0:
84,323,86521,1,0,0:0:0:0:
84,323,86606,1,0,0:0:0:0:
200,8,86776,1,8,0:0:0:0:
200,8,86947,1,0,0:0:0:0:
420,259,87117,1,8,0:0:0:0:
420,259,87288,1,0,0:0:0:0:
420,259,87373,1,0,0:0:0:0:
256,192,87458,1,12,0:0:0:0:
256,192,87799,1,0,0:0:0:0:
256,192,87970,1,0,0:0:0:0:
256,192,88140,1,12,0:0:0:0:
256,192,88481,1,0,0:0:0:0:
256,192,88651,1,8,0:0:0:0:
256,192,88822,1,4,0:0:0:0:
256,192,88992,1,8,0:0:0:0:
256,192,89163,1,0,0:0:0:0:
256,192,89333,1,0,0:0:0:0:
256,192,89504,1,12,0:0:0:0:
256,192,89845,1,0,0:0:0:0:
256,192,89930,1,0,0:0:0:0:
256,192,90015,1,12,0:0:0:0:
256,192,90356,1,0,0:0:0:0:
256,192,90526,1,8,0:0:0:0:
256,192,90867,1,0,0:0:0:0:
256,192,91038,1,0,0:0:0:0:
256,192,91208,1,8,0:0:0:0:
256,192,91379,1,0,0:0:0:0:
256,192,91464,1,0,0:0:0:0:
256,192,91549,1,0,0:0:0:0:
256,192,91720,1,0,0:0:0:0:
256,192,91890,1,8,0:0:0:0:
256,192,92061,1,0,0:0:0:0:
256,192,92231,1,8,0:0:0:0:
256,192,92401,1,0,0:0:0:0:
256,192,92572,1,0,0:0:0:0:
256,192,92657,1,0,0:0:0:0:
256,192,92742,1,12,0:0:0:0:
256,192,93083,1,0,0:0:0:0:
256,192,93254,1,8,0:0:0:0:
256,192,93595,1,0,0:0:0:0:
256,192,93765,1,0,0:0:0:0:
256,192,93936,1,0,0:0:0:0:
256,192,94106,1,0,0:0:0:0:
256,192,94191,1,0,0:0:0:0:
256,192,94276,1,8,0:0:0:0:
256,192,94447,1,0,0:0:0:0:
256,192,94617,1,8,0:0:0:0:
256,192,94788,1,0,0:0:0:0:
256,192,94958,1,8,0:0:0:0:
256,192,95129,1,0,0:0:0:0:
256,192,95299,1,0,0:0:0:0:
256,192,95384,1,0,0:0:0:0:
256,192,95470,1,8,0:0:0:0:
256,192,95640,1,0,0:0:0:0:
256,192,95811,1,0,0:0:0:0:
256,192,95981,1,8,0:0:0:0:
256,192,96151,1,0,0:0:0:0:
256,192,96322,1,8,0:0:0:0:
256,192,96492,1,0,0:0:0:0:
256,192,96663,1,8,0:0:0:0:
256,192,96833,1,0,0:0:0:0:
256,192,97004,1,8,0:0:0:0:
256,192,97174,1,0,0:0:0:0:
256,192,97259,1,0,0:0:0:0:
256,192,97345,1,8,0:0:0:0:
256,192,97515,1,0,0:0:0:0:
256,192,97686,1,8,0:0:0:0:
256,192,97771,1,0,0:0:0:0:
256,192,97856,1,0,0:0:0:0:
256,192,97941,1,8,0:0:0:0:
256,192,98026,1,0,0:0:0:0:
256,192,98197,1,12,0:0:0:0:
256,192,99390,5,14,0:0:0:0:
256,192,99561,1,14,0:0:0:0:
